  0
SECTION
  2
HEADER
  9
$ACADVER
  1
AC1014
  9
$ACADMAINTVER
 70
     9
  9
$DWGCODEPAGE
  3
ANSI_1252
  9
$INSBASE
 10
0.0
 20
0.0
 30
0.0
  9
$EXTMIN
 10
0.0
 20
0.0
 30
0.0
  9
$EXTMAX
 10
22.0
 20
17.0
 30
0.0
  9
$LIMMIN
 10
0.0
 20
0.0
  9
$LIMMAX
 10
22.00000000000087
 20
17.00000000000067
  9
$ORTHOMODE
 70
     0
  9
$REGENMODE
 70
     1
  9
$FILLMODE
 70
     1
  9
$QTEXTMODE
 70
     0
  9
$MIRRTEXT
 70
     1
  9
$DRAGMODE
 70
     2
  9
$LTSCALE
 40
0.2
  9
$OSMODE
 70
    32
  9
$ATTMODE
 70
     1
  9
$TEXTSIZE
 40
0.2
  9
$TRACEWID
 40
0.05
  9
$TEXTSTYLE
  7
STANDARD
  9
$CLAYER
  8
0
  9
$CELTYPE
  6
BYLAYER
  9
$CECOLOR
 62
   256
  9
$CELTSCALE
 40
1.0
  9
$DELOBJ
 70
     1
  9
$DISPSILH
 70
     0
  9
$DIMSCALE
 40
1.0
  9
$DIMASZ
 40
0.12
  9
$DIMEXO
 40
0.1
  9
$DIMDLI
 40
0.38
  9
$DIMRND
 40
0.0
  9
$DIMDLE
 40
0.0
  9
$DIMEXE
 40
0.1
  9
$DIMTP
 40
0.0
  9
$DIMTM
 40
0.0
  9
$DIMTXT
 40
0.12
  9
$DIMCEN
 40
0.09
  9
$DIMTSZ
 40
0.0
  9
$DIMTOL
 70
     0
  9
$DIMLIM
 70
     0
  9
$DIMTIH
 70
     1
  9
$DIMTOH
 70
     1
  9
$DIMSE1
 70
     0
  9
$DIMSE2
 70
     0
  9
$DIMTAD
 70
     0
  9
$DIMZIN
 70
     4
  9
$DIMBLK
  1

  9
$DIMASO
 70
     1
  9
$DIMSHO
 70
     0
  9
$DIMPOST
  1

  9
$DIMAPOST
  1
mm
  9
$DIMALT
 70
     1
  9
$DIMALTD
 70
     1
  9
$DIMALTF
 40
25.4
  9
$DIMLFAC
 40
1.0
  9
$DIMTOFL
 70
     0
  9
$DIMTVP
 40
0.0
  9
$DIMTIX
 70
     0
  9
$DIMSOXD
 70
     0
  9
$DIMSAH
 70
     0
  9
$DIMBLK1
  1

  9
$DIMBLK2
  1

  9
$DIMSTYLE
  2
STANDARD
  9
$DIMCLRD
 70
     0
  9
$DIMCLRE
 70
     0
  9
$DIMCLRT
 70
     0
  9
$DIMTFAC
 40
1.0
  9
$DIMGAP
 40
0.09
  9
$DIMJUST
 70
     0
  9
$DIMSD1
 70
     0
  9
$DIMSD2
 70
     0
  9
$DIMTOLJ
 70
     1
  9
$DIMTZIN
 70
     0
  9
$DIMALTZ
 70
     4
  9
$DIMALTTZ
 70
     0
  9
$DIMFIT
 70
     1
  9
$DIMUPT
 70
     0
  9
$DIMUNIT
 70
     2
  9
$DIMDEC
 70
     2
  9
$DIMTDEC
 70
     2
  9
$DIMALTU
 70
     2
  9
$DIMALTTD
 70
     1
  9
$DIMTXSTY
  7
ROMANS
  9
$DIMAUNIT
 70
     0
  9
$LUNITS
 70
     2
  9
$LUPREC
 70
     3
  9
$SKETCHINC
 40
0.1
  9
$FILLETRAD
 40
0.062
  9
$AUNITS
 70
     0
  9
$AUPREC
 70
     1
  9
$MENU
  1
ACAD
  9
$ELEVATION
 40
0.0
  9
$PELEVATION
 40
0.0
  9
$THICKNESS
 40
0.0
  9
$LIMCHECK
 70
     0
  9
$BLIPMODE
 70
     0
  9
$CHAMFERA
 40
0.0
  9
$CHAMFERB
 40
0.0
  9
$CHAMFERC
 40
0.0
  9
$CHAMFERD
 40
0.0
  9
$SKPOLY
 70
     0
  9
$TDCREATE
 40
2449581.400519328
  9
$TDUPDATE
 40
2452794.456934398
  9
$TDINDWG
 40
0.1360659722
  9
$TDUSRTIMER
 40
0.1360654282
  9
$USRTIMER
 70
     1
  9
$ANGBASE
 50
0.0
  9
$ANGDIR
 70
     0
  9
$PDMODE
 70
     2
  9
$PDSIZE
 40
0.062
  9
$PLINEWID
 40
0.02
  9
$COORDS
 70
     1
  9
$SPLFRAME
 70
     0
  9
$SPLINETYPE
 70
     6
  9
$SPLINESEGS
 70
     8
  9
$ATTDIA
 70
     0
  9
$ATTREQ
 70
     1
  9
$HANDLING
 70
-16383
  9
$HANDSEED
  5
238D
  9
$SURFTAB1
 70
     6
  9
$SURFTAB2
 70
     6
  9
$SURFTYPE
 70
     6
  9
$SURFU
 70
     6
  9
$SURFV
 70
     6
  9
$UCSNAME
  2

  9
$UCSORG
 10
0.0
 20
0.0
 30
0.0
  9
$UCSXDIR
 10
1.0
 20
0.0
 30
0.0
  9
$UCSYDIR
 10
0.0
 20
1.0
 30
0.0
  9
$PUCSNAME
  2

  9
$PUCSORG
 10
0.0
 20
0.0
 30
0.0
  9
$PUCSXDIR
 10
1.0
 20
0.0
 30
0.0
  9
$PUCSYDIR
 10
0.0
 20
1.0
 30
0.0
  9
$USERI1
 70
     0
  9
$USERI2
 70
     0
  9
$USERI3
 70
     0
  9
$USERI4
 70
     0
  9
$USERI5
 70
     0
  9
$USERR1
 40
0.0
  9
$USERR2
 40
0.0
  9
$USERR3
 40
0.0
  9
$USERR4
 40
0.0
  9
$USERR5
 40
0.0
  9
$WORLDVIEW
 70
     1
  9
$SHADEDGE
 70
     3
  9
$SHADEDIF
 70
    70
  9
$TILEMODE
 70
     1
  9
$MAXACTVP
 70
    16
  9
$PINSBASE
 10
0.0
 20
0.0
 30
0.0
  9
$PLIMCHECK
 70
     0
  9
$PEXTMIN
 10
1.000000000000000E+20
 20
1.000000000000000E+20
 30
1.000000000000000E+20
  9
$PEXTMAX
 10
-1.000000000000000E+20
 20
-1.000000000000000E+20
 30
-1.000000000000000E+20
  9
$PLIMMIN
 10
0.0
 20
0.0
  9
$PLIMMAX
 10
12.0
 20
9.0
  9
$UNITMODE
 70
     0
  9
$VISRETAIN
 70
     0
  9
$PLINEGEN
 70
     0
  9
$PSLTSCALE
 70
     0
  9
$TREEDEPTH
 70
  3020
  9
$PICKSTYLE
 70
     1
  9
$CMLSTYLE
  2
STANDARD
  9
$CMLJUST
 70
     0
  9
$CMLSCALE
 40
1.0
  9
$PROXYGRAPHICS
 70
     1
  9
$MEASUREMENT
 70
     0
  0
ENDSEC
  0
SECTION
  2
CLASSES
  0
CLASS
  1
DICTIONARYVAR
  2
AcDbDictionaryVar
  3
AutoCAD 2000
 90
        0
280
     0
281
     0
  0
CLASS
  1
LWPOLYLINE
  2
AcDbPolyline
  3
AutoCAD 2000
 90
        0
280
     0
281
     1
  0
CLASS
  1
ACDBDICTIONARYWDFLT
  2
AcDbDictionaryWithDefault
  3
AutoCAD 2000
 90
        0
280
     0
281
     0
  0
CLASS
  1
ACDBPLACEHOLDER
  2
AcDbPlaceHolder
  3
AutoCAD 2000
 90
        0
280
     0
281
     0
  0
CLASS
  1
LAYOUT
  2
AcDbLayout
  3
AutoCAD 2000
 90
        0
280
     0
281
     0
  0
CLASS
  1
LONG_TRANSACTION
  2
AcDbLongTransaction
  3
AutoCAD 2000
 90
        0
280
     0
281
     0
  0
CLASS
  1
LWPOLYLINE
  2
AcDbPolyline
  3
AutoCAD 2000
 90
        0
280
     0
281
     1
  0
CLASS
  1
HATCH
  2
AcDbHatch
  3
AutoCAD 2000
 90
        0
280
     0
281
     1
  0
CLASS
  1
XRECORD
  2
AcDbXrecord
  3
AutoCAD 2000
 90
        0
280
     0
281
     0
  0
CLASS
  1
LONG_TRANSACTION
  2
AcDbLongTransaction
  3
AutoCAD 2000
 90
        0
280
     0
281
     0
  0
CLASS
  1
LWPOLYLINE
  2
AcDbPolyline
  3
AutoCAD 2000
 90
        0
280
     0
281
     1
  0
CLASS
  1
HATCH
  2
AcDbHatch
  3
AutoCAD 2000
 90
        0
280
     0
281
     1
  0
CLASS
  1
XRECORD
  2
AcDbXrecord
  3
AutoCAD 2000
 90
        0
280
     0
281
     0
  0
CLASS
  1
LONG_TRANSACTION
  2
AcDbLongTransaction
  3
AutoCAD 2000
 90
        0
280
     0
281
     0
  0
CLASS
  1
LWPOLYLINE
  2
AcDbPolyline
  3
AutoCAD 2000
 90
        0
280
     0
281
     1
  0
CLASS
  1
HATCH
  2
AcDbHatch
  3
AutoCAD 2000
 90
        0
280
     0
281
     1
  0
CLASS
  1
XRECORD
  2
AcDbXrecord
  3
AutoCAD 2000
 90
        0
280
     0
281
     0
  0
CLASS
  1
LONG_TRANSACTION
  2
AcDbLongTransaction
  3
AutoCAD 2000
 90
        0
280
     0
281
     0
  0
CLASS
  1
LWPOLYLINE
  2
AcDbPolyline
  3
AutoCAD 2000
 90
        0
280
     0
281
     1
  0
CLASS
  1
HATCH
  2
AcDbHatch
  3
AutoCAD 2000
 90
        0
280
     0
281
     1
  0
CLASS
  1
XRECORD
  2
AcDbXrecord
  3
AutoCAD 2000
 90
        0
280
     0
281
     0
  0
CLASS
  1
LONG_TRANSACTION
  2
AcDbLongTransaction
  3
AutoCAD 2000
 90
        0
280
     0
281
     0
  0
CLASS
  1
LWPOLYLINE
  2
AcDbPolyline
  3
AutoCAD 2000
 90
        0
280
     0
281
     1
  0
CLASS
  1
HATCH
  2
AcDbHatch
  3
AutoCAD 2000
 90
        0
280
     0
281
     1
  0
CLASS
  1
XRECORD
  2
AcDbXrecord
  3
AutoCAD 2000
 90
        0
280
     0
281
     0
  0
CLASS
  1
LONG_TRANSACTION
  2
AcDbLongTransaction
  3
AutoCAD 2000
 90
        0
280
     0
281
     0
  0
CLASS
  1
LWPOLYLINE
  2
AcDbPolyline
  3
AutoCAD 2000
 90
        0
280
     0
281
     1
  0
CLASS
  1
HATCH
  2
AcDbHatch
  3
AutoCAD 2000
 90
        0
280
     0
281
     1
  0
CLASS
  1
XRECORD
  2
AcDbXrecord
  3
AutoCAD 2000
 90
        0
280
     0
281
     0
  0
CLASS
  1
LONG_TRANSACTION
  2
AcDbLongTransaction
  3
AutoCAD 2000
 90
        0
280
     0
281
     0
  0
CLASS
  1
LWPOLYLINE
  2
AcDbPolyline
  3
AutoCAD 2000
 90
        0
280
     0
281
     1
  0
CLASS
  1
HATCH
  2
AcDbHatch
  3
AutoCAD 2000
 90
        0
280
     0
281
     1
  0
CLASS
  1
XRECORD
  2
AcDbXrecord
  3
AutoCAD 2000
 90
        0
280
     0
281
     0
  0
CLASS
  1
LONG_TRANSACTION
  2
AcDbLongTransaction
  3
AutoCAD 2000
 90
        0
280
     0
281
     0
  0
CLASS
  1
LWPOLYLINE
  2
AcDbPolyline
  3
AutoCAD 2000
 90
        0
280
     0
281
     1
  0
CLASS
  1
HATCH
  2
AcDbHatch
  3
AutoCAD 2000
 90
        0
280
     0
281
     1
  0
CLASS
  1
XRECORD
  2
AcDbXrecord
  3
AutoCAD 2000
 90
        0
280
     0
281
     0
  0
CLASS
  1
LONG_TRANSACTION
  2
AcDbLongTransaction
  3
AutoCAD 2000
 90
        0
280
     0
281
     0
  0
CLASS
  1
LWPOLYLINE
  2
AcDbPolyline
  3
AutoCAD 2000
 90
        0
280
     0
281
     1
  0
CLASS
  1
HATCH
  2
AcDbHatch
  3
AutoCAD 2000
 90
        0
280
     0
281
     1
  0
CLASS
  1
XRECORD
  2
AcDbXrecord
  3
AutoCAD 2000
 90
        0
280
     0
281
     0
  0
CLASS
  1
LONG_TRANSACTION
  2
AcDbLongTransaction
  3
AutoCAD 2000
 90
        0
280
     0
281
     0
  0
CLASS
  1
LWPOLYLINE
  2
AcDbPolyline
  3
AutoCAD 2000
 90
        0
280
     0
281
     1
  0
CLASS
  1
HATCH
  2
AcDbHatch
  3
AutoCAD 2000
 90
        0
280
     0
281
     1
  0
CLASS
  1
XRECORD
  2
AcDbXrecord
  3
AutoCAD 2000
 90
        0
280
     0
281
     0
  0
CLASS
  1
LONG_TRANSACTION
  2
AcDbLongTransaction
  3
AutoCAD 2000
 90
        0
280
     0
281
     0
  0
CLASS
  1
LWPOLYLINE
  2
AcDbPolyline
  3
AutoCAD 2000
 90
        0
280
     0
281
     1
  0
CLASS
  1
HATCH
  2
AcDbHatch
  3
AutoCAD 2000
 90
        0
280
     0
281
     1
  0
CLASS
  1
XRECORD
  2
AcDbXrecord
  3
AutoCAD 2000
 90
        0
280
     0
281
     0
  0
CLASS
  1
LONG_TRANSACTION
  2
AcDbLongTransaction
  3
AutoCAD 2000
 90
        0
280
     0
281
     0
  0
CLASS
  1
LWPOLYLINE
  2
AcDbPolyline
  3
AutoCAD 2000
 90
        0
280
     0
281
     1
  0
CLASS
  1
HATCH
  2
AcDbHatch
  3
AutoCAD 2000
 90
        0
280
     0
281
     1
  0
CLASS
  1
XRECORD
  2
AcDbXrecord
  3
AutoCAD 2000
 90
        0
280
     0
281
     0
  0
CLASS
  1
LONG_TRANSACTION
  2
AcDbLongTransaction
  3
AutoCAD 2000
 90
        0
280
     0
281
     0
  0
CLASS
  1
LWPOLYLINE
  2
AcDbPolyline
  3
AutoCAD 2000
 90
        0
280
     0
281
     1
  0
CLASS
  1
HATCH
  2
AcDbHatch
  3
AutoCAD 2000
 90
        0
280
     0
281
     1
  0
CLASS
  1
XRECORD
  2
AcDbXrecord
  3
AutoCAD 2000
 90
        0
280
     0
281
     0
  0
CLASS
  1
LONG_TRANSACTION
  2
AcDbLongTransaction
  3
AutoCAD 2000
 90
        0
280
     0
281
     0
  0
CLASS
  1
LWPOLYLINE
  2
AcDbPolyline
  3
AutoCAD 2000
 90
        0
280
     0
281
     1
  0
CLASS
  1
HATCH
  2
AcDbHatch
  3
AutoCAD 2000
 90
        0
280
     0
281
     1
  0
CLASS
  1
XRECORD
  2
AcDbXrecord
  3
AutoCAD 2000
 90
        0
280
     0
281
     0
  0
CLASS
  1
LONG_TRANSACTION
  2
AcDbLongTransaction
  3
AutoCAD 2000
 90
        0
280
     0
281
     0
  0
CLASS
  1
LWPOLYLINE
  2
AcDbPolyline
  3
AutoCAD 2000
 90
        0
280
     0
281
     1
  0
CLASS
  1
HATCH
  2
AcDbHatch
  3
AutoCAD 2000
 90
        0
280
     0
281
     1
  0
CLASS
  1
XRECORD
  2
AcDbXrecord
  3
AutoCAD 2000
 90
        0
280
     0
281
     0
  0
CLASS
  1
LONG_TRANSACTION
  2
AcDbLongTransaction
  3
AutoCAD 2000
 90
        0
280
     0
281
     0
  0
CLASS
  1
LWPOLYLINE
  2
AcDbPolyline
  3
AutoCAD 2000
 90
        0
280
     0
281
     1
  0
CLASS
  1
HATCH
  2
AcDbHatch
  3
AutoCAD 2000
 90
        0
280
     0
281
     1
  0
CLASS
  1
XRECORD
  2
AcDbXrecord
  3
AutoCAD 2000
 90
        0
280
     0
281
     0
  0
ENDSEC
  0
SECTION
  2
TABLES
  0
TABLE
  2
VPORT
  5
8
330
0
100
AcDbSymbolTable
 70
     2
  0
VPORT
  5
235F
330
8
100
AcDbSymbolTableRecord
100
AcDbViewportTableRecord
  2
*ACTIVE
 70
     0
 10
0.0
 20
0.0
 11
1.0
 21
1.0
 12
12.75326400625479
 22
8.499999056598497
 13
0.0
 23
0.0
 14
0.05
 24
0.05
 15
0.2
 25
0.2
 16
0.0
 26
0.0
 36
1.0
 17
0.0
 27
0.0
 37
0.0
 40
17.13074070281522
 41
1.730015082956259
 42
50.0
 43
0.0
 44
0.0
 50
0.0
 51
0.0
 71
     0
 72
 20000
 73
     1
 74
     0
 75
     0
 76
     0
 77
     0
 78
     0
  0
ENDTAB
  0
TABLE
  2
LTYPE
  5
5
330
0
100
AcDbSymbolTable
 70
     2
  0
LTYPE
  5
11
330
5
100
AcDbSymbolTableRecord
100
AcDbLinetypeTableRecord
  2
BYBLOCK
 70
     0
  3

 72
    65
 73
     0
 40
0.0
  0
LTYPE
  5
12
330
5
100
AcDbSymbolTableRecord
100
AcDbLinetypeTableRecord
  2
BYLAYER
 70
     0
  3

 72
    65
 73
     0
 40
0.0
  0
LTYPE
  5
13
330
5
100
AcDbSymbolTableRecord
100
AcDbLinetypeTableRecord
  2
CONTINUOUS
 70
     0
  3
Solid line
 72
    65
 73
     0
 40
0.0
  0
LTYPE
  5
23
330
5
100
AcDbSymbolTableRecord
100
AcDbLinetypeTableRecord
  2
CENTER
 70
     0
  3
____ _ ____ _ ____ _ ____ _ ____ _ ____ _ ____
 72
    65
 73
     4
 40
2.0
 49
1.25
 74
     0
 49
-0.25
 74
     0
 49
0.25
 74
     0
 49
-0.25
 74
     0
  0
ENDTAB
  0
TABLE
  2
LAYER
  5
2
330
0
100
AcDbSymbolTable
 70
     6
  0
LAYER
  5
E
330
2
100
AcDbSymbolTableRecord
100
AcDbLayerTableRecord
  2
0
 70
     0
 62
     7
  6
CONTINUOUS
  0
LAYER
  5
28
330
2
100
AcDbSymbolTableRecord
100
AcDbLayerTableRecord
  2
PART
 70
     0
 62
     7
  6
CONTINUOUS
  0
LAYER
  5
29
330
2
100
AcDbSymbolTableRecord
100
AcDbLayerTableRecord
  2
DIM
 70
     0
 62
     7
  6
CONTINUOUS
  0
LAYER
  5
2B
330
2
100
AcDbSymbolTableRecord
100
AcDbLayerTableRecord
  2
TB-TXT
 70
     0
 62
     7
  6
CONTINUOUS
  0
LAYER
  5
1996
330
2
100
AcDbSymbolTableRecord
100
AcDbLayerTableRecord
  2
FORMAT
 70
     0
 62
     7
  6
CONTINUOUS
  0
LAYER
  5
20FD
330
2
100
AcDbSymbolTableRecord
100
AcDbLayerTableRecord
  2
DEFPOINTS
 70
     0
 62
     7
  6
CONTINUOUS
  0
ENDTAB
  0
TABLE
  2
STYLE
  5
3
330
0
100
AcDbSymbolTable
 70
     3
  0
STYLE
  5
F
330
3
100
AcDbSymbolTableRecord
100
AcDbTextStyleTableRecord
  2
STANDARD
 70
     0
 40
0.0
 41
1.0
 50
0.0
 71
     0
 42
0.2
  3
ARIAL.TTF
  4

1001
ACAD
1000
Arial
1071
       34
  0
STYLE
  5
21
330
3
100
AcDbSymbolTableRecord
100
AcDbTextStyleTableRecord
  2
ROMANS
 70
     0
 40
0.12
 41
1.0
 50
0.0
 71
     0
 42
0.12
  3
ROMANS
  4

  0
STYLE
  5
1998
330
3
100
AcDbSymbolTableRecord
100
AcDbTextStyleTableRecord
  2
ARIAL
 70
     0
 40
0.0
 41
1.0
 50
0.0
 71
     0
 42
0.12
  3
ARIAL.TTF
  4

1001
ACAD
1000
Arial
1071
       34
  0
ENDTAB
  0
TABLE
  2
VIEW
  5
6
330
0
100
AcDbSymbolTable
 70
     0
  0
ENDTAB
  0
TABLE
  2
UCS
  5
7
330
0
100
AcDbSymbolTable
 70
     0
  0
ENDTAB
  0
TABLE
  2
APPID
  5
9
330
0
100
AcDbSymbolTable
 70
     1
  0
APPID
  5
10
330
9
100
AcDbSymbolTableRecord
100
AcDbRegAppTableRecord
  2
ACAD
 70
     0
  0
ENDTAB
  0
TABLE
  2
DIMSTYLE
  5
A
330
0
100
AcDbSymbolTable
 70
     1
  0
DIMSTYLE
105
2E6
102
{ACAD_REACTORS
330
20FC
330
2125
330
210B
102
}
330
A
100
AcDbSymbolTableRecord
100
AcDbDimStyleTableRecord
  2
STANDARD
 70
     0
  3

  4

  5

  6

  7

 40
1.0
 41
0.18
 42
0.0625
 43
0.38
 44
0.18
 45
0.0
 46
0.0
 47
0.0
 48
0.0
140
0.18
141
0.09
142
0.0
143
25.4
144
1.0
145
0.0
146
1.0
147
0.09
 71
     0
 72
     0
 73
     1
 74
     1
 75
     0
 76
     0
 77
     0
 78
     0
170
     0
171
     2
172
     0
173
     0
174
     0
175
     0
176
     0
177
     0
178
     0
270
     2
271
     4
272
     4
273
     2
274
     2
340
F
275
     0
280
     0
281
     0
282
     0
283
     1
284
     0
285
     0
286
     0
287
     3
288
     0
  0
ENDTAB
  0
TABLE
  2
BLOCK_RECORD
  5
1
330
0
100
AcDbSymbolTable
 70
     6
  0
BLOCK_RECORD
  5
17
102
{ACAD_XDICTIONARY
360
1CF5
102
}
330
1
100
AcDbSymbolTableRecord
100
AcDbBlockTableRecord
  2
*MODEL_SPACE
  0
BLOCK_RECORD
  5
14
102
{ACAD_XDICTIONARY
360
1CF3
102
}
330
1
100
AcDbSymbolTableRecord
100
AcDbBlockTableRecord
  2
*PAPER_SPACE
  0
BLOCK_RECORD
  5
196F
330
1
100
AcDbSymbolTableRecord
100
AcDbBlockTableRecord
  2
REV-BLOCK
  0
BLOCK_RECORD
  5
197B
330
1
100
AcDbSymbolTableRecord
100
AcDbBlockTableRecord
  2
TITLE-BLOCK
  0
BLOCK_RECORD
  5
1987
330
1
100
AcDbSymbolTableRecord
100
AcDbBlockTableRecord
  2
APPR-BLOCK
  0
BLOCK_RECORD
  5
20FE
330
1
100
AcDbSymbolTableRecord
100
AcDbBlockTableRecord
  2
*D3
  0
BLOCK_RECORD
  5
210C
330
1
100
AcDbSymbolTableRecord
100
AcDbBlockTableRecord
  2
*D4
  0
BLOCK_RECORD
  5
2126
330
1
100
AcDbSymbolTableRecord
100
AcDbBlockTableRecord
  2
*D5
  0
ENDTAB
  0
ENDSEC
  0
SECTION
  2
BLOCKS
  0
BLOCK
  5
2E
330
17
100
AcDbEntity
  8
0
100
AcDbBlockBegin
  2
*MODEL_SPACE
 70
     0
 10
0.0
 20
0.0
 30
0.0
  3
*MODEL_SPACE
  1

  0
ENDBLK
  5
2F
330
17
100
AcDbEntity
  8
0
100
AcDbBlockEnd
  0
BLOCK
  5
2C
330
14
100
AcDbEntity
 67
     1
  8
0
100
AcDbBlockBegin
  2
*PAPER_SPACE
 70
     0
 10
0.0
 20
0.0
 30
0.0
  3
*PAPER_SPACE
  1

  0
ENDBLK
  5
2D
330
14
100
AcDbEntity
 67
     1
  8
0
100
AcDbBlockEnd
  0
BLOCK
  5
1979
330
196F
100
AcDbEntity
  8
0
100
AcDbBlockBegin
  2
REV-BLOCK
 70
     2
 10
0.0
 20
0.0
 30
0.0
  3
REV-BLOCK
  1

  0
ATTDEF
  5
1970
330
196F
100
AcDbEntity
  8
TB-TXT
100
AcDbText
 10
-7.419585413768535
 20
-0.2641364156046725
 30
0.0
 40
0.12
  1
--
  7
ARIAL
 72
     1
 11
-7.363760038598003
 21
-0.2041364156046725
 31
0.0
100
AcDbAttributeDefinition
  3
REV
  2
REV
 70
     0
 74
     2
  0
ATTDEF
  5
1971
330
196F
100
AcDbEntity
  8
TB-TXT
100
AcDbText
 10
-7.021598876369777
 20
-0.2621627084294076
 30
0.0
 40
0.12
  1

  7
ARIAL
100
AcDbAttributeDefinition
  3
ECN N0,
  2
ECN
 70
     0
  0
ATTDEF
  5
1972
330
196F
100
AcDbEntity
  8
TB-TXT
100
AcDbText
 10
-6.384132553865099
 20
-0.2621627084294076
 30
0.0
 40
0.12
  1

  7
ARIAL
100
AcDbAttributeDefinition
  3
DESCRIPTION
  2
DESCRIPTION
 70
     0
  0
ATTDEF
  5
1973
330
196F
100
AcDbEntity
  8
TB-TXT
100
AcDbText
 10
-1.912314371261913
 20
-0.2641364156046725
 30
0.0
 40
0.12
  1

  7
ARIAL
 72
     1
 11
-1.912314371261913
 21
-0.2041364156046725
 31
0.0
100
AcDbAttributeDefinition
  3
REV DATE
  2
REV-DATE
 70
     0
 74
     2
  0
ATTDEF
  5
1974
330
196F
100
AcDbEntity
  8
TB-TXT
100
AcDbText
 10
-0.7008820905977871
 20
-0.2641364156046725
 30
0.0
 40
0.12
  1

  7
ARIAL
 72
     1
 11
-0.7008820905977871
 21
-0.2041364156046725
 31
0.0
100
AcDbAttributeDefinition
  3
APPR
  2
APPR
 70
     0
 74
     2
  0
LWPOLYLINE
  5
1975
330
196F
100
AcDbEntity
  8
FORMAT
100
AcDbPolyline
 90
        2
 70
     0
 43
0.0198
 10
-7.662633477940089
 20
-0.4059699235454916
 10
0.0
 20
-0.4059699235454916
  0
ENDBLK
  5
197A
330
196F
100
AcDbEntity
  8
0
100
AcDbBlockEnd
  0
BLOCK
  5
1985
330
197B
100
AcDbEntity
  8
0
100
AcDbBlockBegin
  2
TITLE-BLOCK
 70
     2
 10
0.0
 20
0.0
 30
0.0
  3
TITLE-BLOCK
  1

  0
ATTDEF
  5
197C
330
197B
100
AcDbEntity
  8
TB-TXT
100
AcDbText
 10
-5.452069740892156
 20
1.724637434505383
 30
0.0
 40
0.15996
  1

  7
ARIAL
100
AcDbAttributeDefinition
  3
TITLE (LINE 1)
  2
LINE1
 70
     0
  0
ATTDEF
  5
197D
330
197B
100
AcDbEntity
  8
TB-TXT
100
AcDbText
 10
-5.452069740892156
 20
1.465654577362526
 30
0.0
 40
0.15996
  1

  7
ARIAL
100
AcDbAttributeDefinition
  3
TITLE (LINE 2)
  2
LINE2
 70
     0
  0
ATTDEF
  5
197E
330
197B
100
AcDbEntity
  8
TB-TXT
100
AcDbText
 10
-5.452069740892156
 20
1.206671720219669
 30
0.0
 40
0.15996
  1

  7
ARIAL
100
AcDbAttributeDefinition
  3
TITLE (LINE 3)
  2
LINE3
 70
     0
  0
ATTDEF
  5
197F
330
197B
100
AcDbEntity
  8
TB-TXT
100
AcDbText
 10
-5.452069740892156
 20
0.9476888630768135
 30
0.0
 40
0.15996
  1

  7
ARIAL
100
AcDbAttributeDefinition
  3
TITLE (LINE 4)
  2
LINE4
 70
     0
  0
ATTDEF
  5
1980
330
197B
100
AcDbEntity
  8
TB-TXT
100
AcDbText
 10
-2.607663526262057
 20
0.4958239300695661
 30
0.0
 40
0.12
  1

  7
ARIAL
100
AcDbAttributeDefinition
  3
DWG NO.
  2
DWG#
 70
     0
  0
ATTDEF
  5
1981
330
197B
100
AcDbEntity
  8
TB-TXT
100
AcDbText
 10
-5.506905230490374
 20
0.1136078675417114
 30
0.0
 40
0.12
  1

  7
ARIAL
100
AcDbAttributeDefinition
  3
FILE NO.
  2
FILE#
 70
     0
  0
ATTDEF
  5
1982
330
197B
100
AcDbEntity
  8
TB-TXT
100
AcDbText
 10
-0.2425360425092862
 20
0.4881363695403175
 30
0.0
 40
0.12
  1

  7
ARIAL
 72
     4
 11
-0.2425360425092862
 21
0.4881363695403175
 31
0.0
100
AcDbAttributeDefinition
  3
REV
  2
REV
 70
     0
  0
ATTDEF
  5
1983
330
197B
100
AcDbEntity
  8
TB-TXT
100
AcDbText
 10
-4.485055143223688
 20
0.4958239300695661
 30
0.0
 40
0.12
  1
FULL
  7
ARIAL
100
AcDbAttributeDefinition
  3
SCALE
  2
SCALE
 70
     0
  0
ATTDEF
  5
1984
330
197B
100
AcDbEntity
  8
TB-TXT
100
AcDbText
 10
-1.004564496465349
 20
0.0916846763858388
 30
0.0
 40
0.12
  1
1 OF 1
  7
ARIAL
100
AcDbAttributeDefinition
  3
SHEET N0.
  2
SHT#
 70
     0
  0
ENDBLK
  5
1986
330
197B
100
AcDbEntity
  8
0
100
AcDbBlockEnd
  0
BLOCK
  5
1994
330
1987
100
AcDbEntity
  8
0
100
AcDbBlockBegin
  2
APPR-BLOCK
 70
     2
 10
0.0
 20
0.0
 30
0.0
  3
APPR-BLOCK
  1

  0
ATTDEF
  5
1988
330
1987
100
AcDbEntity
  8
TB-TXT
100
AcDbText
 10
-2.351051999999973
 20
1.670941776908524
 30
0.0
 40
0.1
  1
XXX
  7
ARIAL
100
AcDbAttributeDefinition
  3
DRAWN (DATE)
  2
DATE-DR
 70
     0
  0
ATTDEF
  5
1989
330
1987
100
AcDbEntity
  8
TB-TXT
100
AcDbText
 10
-1.505196000000012
 20
1.670941776908524
 30
0.0
 40
0.1
  1

  7
ARIAL
100
AcDbAttributeDefinition
  3
DRAWN (APPR)
  2
REL-DR
 70
     0
  0
ATTDEF
  5
198A
330
1987
100
AcDbEntity
  8
TB-TXT
100
AcDbText
 10
-2.351051999999973
 20
1.353253421526811
 30
0.0
 40
0.1
  1

  7
ARIAL
100
AcDbAttributeDefinition
  3
ENGR SERV (DATE)
  2
DATE-ES
 70
     0
  0
ATTDEF
  5
198B
330
1987
100
AcDbEntity
  8
TB-TXT
100
AcDbText
 10
-1.505196000000012
 20
1.353253421526811
 30
0.0
 40
0.1
  1

  7
ARIAL
100
AcDbAttributeDefinition
  3
ENGR SERV (APPR)
  2
REL-ES
 70
     0
  0
ATTDEF
  5
198C
330
1987
100
AcDbEntity
  8
TB-TXT
100
AcDbText
 10
-2.351051999999973
 20
1.035565066145095
 30
0.0
 40
0.1
  1

  7
ARIAL
100
AcDbAttributeDefinition
  3
ENGR (DATE)
  2
DATE-ENGR
 70
     0
  0
ATTDEF
  5
198D
330
1987
100
AcDbEntity
  8
TB-TXT
100
AcDbText
 10
-1.505196000000012
 20
1.035565066145095
 30
0.0
 40
0.1
  1

  7
ARIAL
100
AcDbAttributeDefinition
  3
ENGR (APPR)
  2
REL-ENGR
 70
     0
  0
ATTDEF
  5
198E
330
1987
100
AcDbEntity
  8
TB-TXT
100
AcDbText
 10
-2.351051999999973
 20
0.7178767107633988
 30
0.0
 40
0.1
  1

  7
ARIAL
100
AcDbAttributeDefinition
  3
PROD ENGR (DATE)
  2
DATE-PROD
 70
     0
  0
ATTDEF
  5
198F
330
1987
100
AcDbEntity
  8
TB-TXT
100
AcDbText
 10
-1.505196000000012
 20
0.7178767107633988
 30
0.0
 40
0.1
  1

  7
ARIAL
100
AcDbAttributeDefinition
  3
PROD ENGR (APPR)
  2
REL-PROD
 70
     0
  0
ATTDEF
  5
1990
330
1987
100
AcDbEntity
  8
TB-TXT
100
AcDbText
 10
-2.351051999999973
 20
0.4001883553817011
 30
0.0
 40
0.1
  1

  7
ARIAL
100
AcDbAttributeDefinition
  3
MATL SUP (DATE)
  2
DATE-MATL
 70
     0
  0
ATTDEF
  5
1991
330
1987
100
AcDbEntity
  8
TB-TXT
100
AcDbText
 10
-1.505196000000012
 20
0.4001883553817011
 30
0.0
 40
0.1
  1

  7
ARIAL
100
AcDbAttributeDefinition
  3
MATL SUP (APPR)
  2
REL-MATL
 70
     0
  0
ATTDEF
  5
1992
330
1987
100
AcDbEntity
  8
TB-TXT
100
AcDbText
 10
-2.351051999999973
 20
0.0824999999999889
 30
0.0
 40
0.1
  1

  7
ARIAL
100
AcDbAttributeDefinition
  3
QUALITY (DATE)
  2
DATE-QUAL
 70
     0
  0
ATTDEF
  5
1993
330
1987
100
AcDbEntity
  8
TB-TXT
100
AcDbText
 10
-1.505196000000012
 20
0.0824999999999889
 30
0.0
 40
0.1
  1

  7
ARIAL
100
AcDbAttributeDefinition
  3
QUALITY (APPR)
  2
REL-QUAL
 70
     0
  0
ENDBLK
  5
1995
330
1987
100
AcDbEntity
  8
0
100
AcDbBlockEnd
  0
BLOCK
  5
2109
330
20FE
100
AcDbEntity
  8
0
100
AcDbBlockBegin
  2
*D3
 70
     1
 10
0.0
 20
0.0
 30
0.0
  3
*D3
  1

  0
LINE
  5
217C
330
20FE
100
AcDbEntity
  8
DIM
 62
     0
100
AcDbLine
 10
2.144228094728052
 20
8.927844452818339
 30
0.0
 11
2.144228094728052
 21
9.898754598283977
 31
0.0
  0
LINE
  5
217D
330
20FE
100
AcDbEntity
  8
DIM
 62
     0
100
AcDbLine
 10
21.14422809472798
 20
8.927844452818339
 30
0.0
 11
21.14422809472798
 21
9.898754598283977
 31
0.0
  0
LINE
  5
217E
330
20FE
100
AcDbEntity
  8
DIM
 62
     0
100
AcDbLine
 10
2.264228094728052
 20
9.798754598283977
 30
0.0
 11
10.75481064009109
 21
9.798754598283977
 31
0.0
  0
LINE
  5
217F
330
20FE
100
AcDbEntity
  8
DIM
 62
     0
100
AcDbLine
 10
21.02422809472798
 20
9.798754598283977
 30
0.0
 11
12.52338206866251
 21
9.798754598283977
 31
0.0
  0
SOLID
  5
2180
330
20FE
100
AcDbEntity
  8
DIM
 62
     0
100
AcDbTrace
 10
2.264228094728052
 20
9.818754598283977
 30
0.0
 11
2.264228094728052
 21
9.778754598283978
 31
0.0
 12
2.144228094728052
 22
9.798754598283977
 32
0.0
 13
2.144228094728052
 23
9.798754598283977
 33
0.0
  0
SOLID
  5
2181
330
20FE
100
AcDbEntity
  8
DIM
 62
     0
100
AcDbTrace
 10
21.02422809472798
 20
9.818754598283977
 30
0.0
 11
21.02422809472798
 21
9.778754598283978
 31
0.0
 12
21.14422809472798
 22
9.798754598283977
 32
0.0
 13
21.14422809472798
 23
9.798754598283977
 33
0.0
  0
MTEXT
  5
2182
330
20FE
100
AcDbEntity
  8
DIM
 62
     0
100
AcDbMText
 10
11.6390963543768
 20
9.798754598283977
 30
0.0
 40
0.12
 41
0.0
 71
     5
 72
     1
  1
\A1;19.00 [482.6mm]
  7
ROMANS
1001
ACAD
1000
MTEXTBEGIN
1070
    73
1070
     1
1070
    44
1040
1.0
1070
    74
1070
     0
1000
MTEXTEND
1000
MTEXTBEGIN
1070
    73
1070
     1
1070
    44
1040
1.0
1070
    74
1070
     0
1000
MTEXTEND
1000
MTEXTBEGIN
1070
    73
1070
     1
1070
    44
1040
1.0
1070
    74
1070
     0
1000
MTEXTEND
1000
MTEXTBEGIN
1070
    73
1070
     1
1070
    44
1040
1.0
1070
    74
1070
     0
1000
MTEXTEND
1000
MTEXTBEGIN
1070
    73
1070
     1
1070
    44
1040
1.0
1070
    74
1070
     0
1000
MTEXTEND
1000
MTEXTBEGIN
1070
    73
1070
     1
1070
    44
1040
1.0
1070
    74
1070
     0
1000
MTEXTEND
1000
MTEXTBEGIN
1070
    73
1070
     1
1070
    44
1040
1.0
1070
    74
1070
     0
1000
MTEXTEND
  0
POINT
  5
2183
330
20FE
100
AcDbEntity
  8
DEFPOINTS
 62
     0
100
AcDbPoint
 10
2.144228094728052
 20
8.827844452818339
 30
0.0
  0
POINT
  5
2184
330
20FE
100
AcDbEntity
  8
DEFPOINTS
 62
     0
100
AcDbPoint
 10
21.14422809472798
 20
8.827844452818339
 30
0.0
  0
POINT
  5
2185
330
20FE
100
AcDbEntity
  8
DEFPOINTS
 62
     0
100
AcDbPoint
 10
21.14422809472798
 20
9.798754598283977
 30
0.0
  0
ENDBLK
  5
210A
330
20FE
100
AcDbEntity
  8
0
100
AcDbBlockEnd
  0
BLOCK
  5
2118
330
210C
100
AcDbEntity
  8
0
100
AcDbBlockBegin
  2
*D4
 70
     1
 10
0.0
 20
0.0
 30
0.0
  3
*D4
  1

  0
LINE
  5
2383
330
210C
100
AcDbEntity
  8
DIM
 62
     0
100
AcDbLine
 10
2.130887688908853
 20
12.14259908122677
 30
0.0
 11
1.20868034456161
 21
12.14259908122677
 31
0.0
  0
LINE
  5
2384
330
210C
100
AcDbEntity
  8
DIM
 62
     0
100
AcDbLine
 10
3.130887688908853
 20
12.64259908122677
 30
0.0
 11
1.20868034456161
 21
12.64259908122677
 31
0.0
  0
LINE
  5
2385
330
210C
100
AcDbEntity
  8
DIM
 62
     0
100
AcDbLine
 10
1.30868034456161
 20
12.02259908122677
 30
0.0
 11
1.30868034456161
 21
11.90259908122677
 31
0.0
  0
LINE
  5
2386
330
210C
100
AcDbEntity
  8
DIM
 62
     0
100
AcDbLine
 10
1.30868034456161
 20
12.76259908122677
 30
0.0
 11
1.30868034456161
 21
12.88259908122677
 31
0.0
  0
SOLID
  5
2387
330
210C
100
AcDbEntity
  8
DIM
 62
     0
100
AcDbTrace
 10
1.28868034456161
 20
12.02259908122677
 30
0.0
 11
1.32868034456161
 21
12.02259908122677
 31
0.0
 12
1.30868034456161
 22
12.14259908122677
 32
0.0
 13
1.30868034456161
 23
12.14259908122677
 33
0.0
  0
SOLID
  5
2388
330
210C
100
AcDbEntity
  8
DIM
 62
     0
100
AcDbTrace
 10
1.28868034456161
 20
12.76259908122677
 30
0.0
 11
1.32868034456161
 21
12.76259908122677
 31
0.0
 12
1.30868034456161
 22
12.64259908122677
 32
0.0
 13
1.30868034456161
 23
12.64259908122677
 33
0.0
  0
MTEXT
  5
2389
330
210C
100
AcDbEntity
  8
DIM
 62
     0
100
AcDbMText
 10
1.308680344561608
 20
12.34758746257347
 30
0.0
 40
0.12
 41
0.0
 71
     5
 72
     1
  1
\A1;.50 [12.7mm]
  7
ROMANS
  0
POINT
  5
238A
330
210C
100
AcDbEntity
  8
DEFPOINTS
 62
     0
100
AcDbPoint
 10
2.230887688908853
 20
12.14259908122677
 30
0.0
  0
POINT
  5
238B
330
210C
100
AcDbEntity
  8
DEFPOINTS
 62
     0
100
AcDbPoint
 10
3.230887688908853
 20
12.64259908122677
 30
0.0
  0
POINT
  5
238C
330
210C
100
AcDbEntity
  8
DEFPOINTS
 62
     0
100
AcDbPoint
 10
1.30868034456161
 20
12.64259908122677
 30
0.0
  0
ENDBLK
  5
2119
330
210C
100
AcDbEntity
  8
0
100
AcDbBlockEnd
  0
BLOCK
  5
2131
330
2126
100
AcDbEntity
  8
0
100
AcDbBlockBegin
  2
*D5
 70
     1
 10
0.0
 20
0.0
 30
0.0
  3
*D5
  1

  0
LINE
  5
2127
330
2126
100
AcDbEntity
  8
DIM
 62
     0
100
AcDbLine
 10
2.044228094728052
 20
7.107844452818341
 30
0.0
 11
1.117668059590834
 21
7.107844452818341
 31
0.0
  0
LINE
  5
2128
330
2126
100
AcDbEntity
  8
DIM
 62
     0
100
AcDbLine
 10
2.044228094728052
 20
8.827844452818339
 30
0.0
 11
1.117668059590835
 21
8.827844452818339
 31
0.0
  0
LINE
  5
2129
330
2126
100
AcDbEntity
  8
DIM
 62
     0
100
AcDbLine
 10
1.217668059590834
 20
7.227844452818342
 30
0.0
 11
1.217668059590835
 21
7.786415881389769
 31
0.0
  0
LINE
  5
212A
330
2126
100
AcDbEntity
  8
DIM
 62
     0
100
AcDbLine
 10
1.217668059590835
 20
8.70784445281834
 30
0.0
 11
1.217668059590835
 21
8.149273024246911
 31
0.0
  0
SOLID
  5
212B
330
2126
100
AcDbEntity
  8
DIM
 62
     0
100
AcDbTrace
 10
1.197668059590834
 20
7.227844452818342
 30
0.0
 11
1.237668059590834
 21
7.227844452818342
 31
0.0
 12
1.217668059590834
 22
7.107844452818341
 32
0.0
 13
1.217668059590834
 23
7.107844452818341
 33
0.0
  0
SOLID
  5
212C
330
2126
100
AcDbEntity
  8
DIM
 62
     0
100
AcDbTrace
 10
1.197668059590835
 20
8.70784445281834
 30
0.0
 11
1.237668059590835
 21
8.70784445281834
 31
0.0
 12
1.217668059590835
 22
8.827844452818339
 32
0.0
 13
1.217668059590835
 23
8.827844452818339
 33
0.0
  0
MTEXT
  5
212D
330
2126
100
AcDbEntity
  8
DIM
 62
     0
100
AcDbMText
 10
1.217668059590833
 20
7.967844452818341
 30
0.0
 40
0.12
 41
0.0
 71
     5
 72
     1
  1
\A1;1.72 [43.7mm]
  7
ROMANS
1001
ACAD
1000
MTEXTBEGIN
1070
    73
1070
     1
1070
    44
1040
1.0
1070
    74
1070
     0
1000
MTEXTEND
1000
MTEXTBEGIN
1070
    73
1070
     1
1070
    44
1040
1.0
1070
    74
1070
     0
1000
MTEXTEND
1000
MTEXTBEGIN
1070
    73
1070
     1
1070
    44
1040
1.0
1070
    74
1070
     0
1000
MTEXTEND
1000
MTEXTBEGIN
1070
    73
1070
     1
1070
    44
1040
1.0
1070
    74
1070
     0
1000
MTEXTEND
1000
MTEXTBEGIN
1070
    73
1070
     1
1070
    44
1040
1.0
1070
    74
1070
     0
1000
MTEXTEND
1000
MTEXTBEGIN
1070
    73
1070
     1
1070
    44
1040
1.0
1070
    74
1070
     0
1000
MTEXTEND
1000
MTEXTBEGIN
1070
    73
1070
     1
1070
    44
1040
1.0
1070
    74
1070
     0
1000
MTEXTEND
  0
POINT
  5
212E
330
2126
100
AcDbEntity
  8
DEFPOINTS
 62
     0
100
AcDbPoint
 10
2.144228094728052
 20
7.107844452818341
 30
0.0
  0
POINT
  5
212F
330
2126
100
AcDbEntity
  8
DEFPOINTS
 62
     0
100
AcDbPoint
 10
2.144228094728052
 20
8.827844452818339
 30
0.0
  0
POINT
  5
2130
330
2126
100
AcDbEntity
  8
DEFPOINTS
 62
     0
100
AcDbPoint
 10
1.217668059590835
 20
8.827844452818339
 30
0.0
  0
ENDBLK
  5
2132
330
2126
100
AcDbEntity
  8
0
100
AcDbBlockEnd
  0
ENDSEC
  0
SECTION
  2
ENTITIES
  0
LINE
  5
95D
330
17
100
AcDbEntity
  8
PART
100
AcDbLine
 10
14.84372809472799
 20
7.346844452818345
 30
0.0
 11
19.64472809472796
 21
7.346844452818341
 31
0.0
  0
LINE
  5
95E
330
17
100
AcDbEntity
  8
PART
100
AcDbLine
 10
19.64472809472796
 20
8.588844452818358
 30
0.0
 11
14.843728094728
 21
8.588844452818358
 31
0.0
  0
LINE
  5
95F
330
17
100
AcDbEntity
  8
PART
100
AcDbLine
 10
2.144228094728052
 20
7.107844452818341
 30
0.0
 11
21.14422809472798
 21
7.107844452818341
 31
0.0
  0
LINE
  5
960
330
17
100
AcDbEntity
  8
PART
100
AcDbLine
 10
2.144228094728052
 20
8.827844452818339
 30
0.0
 11
21.14422809472798
 21
8.827844452818339
 31
0.0
  0
LINE
  5
963
330
17
100
AcDbEntity
  8
PART
100
AcDbLine
 10
2.230887688908853
 20
12.14259908122677
 30
0.0
 11
21.23088768890878
 21
12.14259908122677
 31
0.0
  0
LINE
  5
964
330
17
100
AcDbEntity
  8
PART
100
AcDbLine
 10
3.230887688908853
 20
12.64259908122677
 30
0.0
 11
20.23088768890878
 21
12.64259908122677
 31
0.0
  0
LINE
  5
96F
330
17
100
AcDbEntity
  8
PART
100
AcDbLine
 10
3.643728094728015
 20
7.346844452818345
 30
0.0
 11
8.444728094727988
 21
7.346844452818345
 31
0.0
  0
LINE
  5
970
330
17
100
AcDbEntity
  8
PART
100
AcDbLine
 10
8.444728094727988
 20
8.588844452818358
 30
0.0
 11
3.643728094728015
 21
8.588844452818358
 31
0.0
  0
TEXT
  5
97F
330
17
100
AcDbEntity
  8
DIM
  6
BYBLOCK
100
AcDbText
 10
3.261783424129564
 20
5.938723362078803
 30
0.0
 40
0.12
  1
4 PLACES
  7
ROMANS
100
AcDbText
  0
LINE
  5
984
330
17
100
AcDbEntity
  8
DIM
100
AcDbLine
 10
2.637159849907877
 20
7.064392408296839
 30
0.0
 11
3.012303839204921
 21
6.39574032612424
 31
0.0
  0
LINE
  5
985
330
17
100
AcDbEntity
  8
PART
100
AcDbLine
 10
2.144228094728052
 20
8.827844452818339
 30
0.0
 11
2.144228094728052
 21
7.107844452818341
 31
0.0
  0
LWPOLYLINE
  5
986
330
17
100
AcDbEntity
  8
PART
  6
BYBLOCK
100
AcDbPolyline
 90
        4
 70
     1
 43
0.0
 10
2.550728094727989
 20
7.483344452818327
 10
2.425728094727989
 20
7.483344452818327
 42
1.0
 10
2.425728094727989
 20
7.202344452818321
 10
2.550728094727989
 20
7.202344452818321
 42
1.000000000000025
  0
SOLID
  5
988
330
17
100
AcDbEntity
  8
DIM
100
AcDbTrace
 10
2.619717506464414
 20
7.054606466584372
 30
0.0
 11
2.65460219335134
 21
7.074178350009331
 31
0.0
 12
2.578444199632914
 22
7.169046468957645
 32
0.0
 13
2.578444199632914
 23
7.169046468957645
 33
0.0
  0
LWPOLYLINE
  5
98E
330
17
100
AcDbEntity
  8
PART
  6
BYBLOCK
100
AcDbPolyline
 90
        4
 70
     1
 43
0.0
 10
2.550728094727989
 20
8.733344452818327
 10
2.425728094727989
 20
8.733344452818327
 42
1.0
 10
2.425728094727989
 20
8.452344452818318
 10
2.550728094727989
 20
8.452344452818318
 42
1.000000000000025
  0
CIRCLE
  5
998
330
17
100
AcDbEntity
  8
PART
100
AcDbCircle
 10
3.466728094728042
 20
7.967844452818356
 30
0.0
 40
0.064
  0
CIRCLE
  5
999
330
17
100
AcDbEntity
  8
PART
100
AcDbCircle
 10
3.466728094728042
 20
7.671844452818332
 30
0.0
 40
0.115
  0
CIRCLE
  5
99B
330
17
100
AcDbEntity
  8
PART
100
AcDbCircle
 10
3.466728094728042
 20
7.671844452818332
 30
0.0
 40
0.064
  0
LINE
  5
99F
330
17
100
AcDbEntity
  8
DIM
100
AcDbLine
 10
3.012303839204921
 20
6.39574032612424
 30
0.0
 11
3.211893428698008
 21
6.39574032612424
 31
0.0
  0
TEXT
  5
9A0
330
17
100
AcDbEntity
  8
DIM
  6
BYBLOCK
100
AcDbText
 10
3.261783424129564
 20
6.327294790650226
 30
0.0
 40
0.12
  1
.281 X .406
  7
ROMANS
100
AcDbText
  0
TEXT
  5
9A1
330
17
100
AcDbEntity
  8
DIM
  6
BYBLOCK
100
AcDbText
 10
3.261783424129564
 20
6.133009076364515
 30
0.0
 40
0.12
  1
R.E. SLOT
  7
ROMANS
100
AcDbText
  0
CIRCLE
  5
9A3
330
17
100
AcDbEntity
  8
PART
100
AcDbCircle
 10
3.466728094728042
 20
8.263844452818339
 30
0.0
 40
0.064
  0
LINE
  5
9BC
330
17
100
AcDbEntity
  8
PART
100
AcDbLine
 10
9.243728094727984
 20
7.346844452818345
 30
0.0
 11
14.044728094728
 21
7.346844452818345
 31
0.0
  0
LINE
  5
9BD
330
17
100
AcDbEntity
  8
PART
100
AcDbLine
 10
14.044728094728
 20
8.588844452818358
 30
0.0
 11
9.243728094727984
 21
8.588844452818358
 31
0.0
  0
CIRCLE
  5
9BE
330
17
100
AcDbEntity
  8
PART
100
AcDbCircle
 10
9.066728094728009
 20
7.967844452818356
 30
0.0
 40
0.064
  0
CIRCLE
  5
9C2
330
17
100
AcDbEntity
  8
PART
100
AcDbCircle
 10
8.621728094727901
 20
7.967844452818356
 30
0.0
 40
0.064
  0
CIRCLE
  5
9C4
330
17
100
AcDbEntity
  8
PART
100
AcDbCircle
 10
9.066728094728009
 20
7.671844452818332
 30
0.0
 40
0.115
  0
CIRCLE
  5
9C6
330
17
100
AcDbEntity
  8
PART
100
AcDbCircle
 10
9.066728094728009
 20
7.671844452818332
 30
0.0
 40
0.064
  0
CIRCLE
  5
9C9
330
17
100
AcDbEntity
  8
PART
100
AcDbCircle
 10
8.621728094728014
 20
7.671844452818332
 30
0.0
 40
0.115
  0
CIRCLE
  5
9CC
330
17
100
AcDbEntity
  8
PART
100
AcDbCircle
 10
8.621728094728014
 20
7.671844452818332
 30
0.0
 40
0.064
  0
CIRCLE
  5
9CF
330
17
100
AcDbEntity
  8
PART
100
AcDbCircle
 10
9.066728094728009
 20
8.263844452818339
 30
0.0
 40
0.064
  0
CIRCLE
  5
9D4
330
17
100
AcDbEntity
  8
PART
100
AcDbCircle
 10
8.621728094728014
 20
8.263844452818339
 30
0.0
 40
0.064
  0
CIRCLE
  5
9D9
330
17
100
AcDbEntity
  8
PART
100
AcDbCircle
 10
14.66672809472796
 20
7.967844452818356
 30
0.0
 40
0.064
  0
CIRCLE
  5
9DC
330
17
100
AcDbEntity
  8
PART
100
AcDbCircle
 10
14.22172809472791
 20
7.967844452818356
 30
0.0
 40
0.064
  0
CIRCLE
  5
9DD
330
17
100
AcDbEntity
  8
PART
100
AcDbCircle
 10
14.66672809472796
 20
7.671844452818332
 30
0.0
 40
0.115
  0
CIRCLE
  5
9DE
330
17
100
AcDbEntity
  8
PART
100
AcDbCircle
 10
14.22172809472803
 20
7.671844452818332
 30
0.0
 40
0.115
  0
CIRCLE
  5
9E2
330
17
100
AcDbEntity
  8
PART
100
AcDbCircle
 10
14.22172809472803
 20
7.671844452818332
 30
0.0
 40
0.064
  0
CIRCLE
  5
9E4
330
17
100
AcDbEntity
  8
PART
100
AcDbCircle
 10
14.66672809472796
 20
7.671844452818332
 30
0.0
 40
0.064
  0
CIRCLE
  5
9E8
330
17
100
AcDbEntity
  8
PART
100
AcDbCircle
 10
14.22172809472803
 20
8.263844452818339
 30
0.0
 40
0.064
  0
CIRCLE
  5
9EA
330
17
100
AcDbEntity
  8
PART
100
AcDbCircle
 10
14.66672809472796
 20
8.263844452818339
 30
0.0
 40
0.064
  0
ARC
  5
9ED
330
17
100
AcDbEntity
  8
PART
100
AcDbCircle
 10
14.799728094728
 20
8.52684445281835
 30
0.0
 40
0.01
100
AcDbArc
 50
0.0
 51
0.0
  0
LINE
  5
9EF
330
17
100
AcDbEntity
  8
PART
100
AcDbLine
 10
2.230887688908853
 20
12.23259908122677
 30
0.0
 11
3.230887688908853
 21
12.23259908122677
 31
0.0
  0
LINE
  5
9F2
330
17
100
AcDbEntity
  8
PART
100
AcDbLine
 10
2.230887688908853
 20
12.23259908122677
 30
0.0
 11
2.230887688908853
 21
12.14259908122677
 31
0.0
  0
LINE
  5
9FB
330
17
100
AcDbEntity
  8
PART
100
AcDbLine
 10
3.230887688908853
 20
12.64259908122677
 30
0.0
 11
3.230887688908853
 21
12.14259908122677
 31
0.0
  0
CIRCLE
  5
A05
330
17
100
AcDbEntity
  8
PART
100
AcDbCircle
 10
19.82172809472794
 20
7.967844452818356
 30
0.0
 40
0.064
  0
LINE
  5
A06
330
17
100
AcDbEntity
  8
PART
100
AcDbLine
 10
21.14422809472798
 20
8.827844452818339
 30
0.0
 11
21.14422809472798
 21
7.107844452818341
 31
0.0
  0
LWPOLYLINE
  5
A07
330
17
100
AcDbEntity
  8
PART
  6
BYBLOCK
100
AcDbPolyline
 90
        4
 70
     1
 43
0.0
 10
20.862728094728
 20
7.483344452818327
 10
20.73772809472799
 20
7.483344452818327
 42
1.0
 10
20.73772809472799
 20
7.202344452818321
 10
20.862728094728
 20
7.202344452818321
 42
1.000000000000025
  0
CIRCLE
  5
A08
330
17
100
AcDbEntity
  8
PART
100
AcDbCircle
 10
19.82172809472799
 20
7.671844452818332
 30
0.0
 40
0.115
  0
CIRCLE
  5
A0C
330
17
100
AcDbEntity
  8
PART
100
AcDbCircle
 10
19.82172809472799
 20
7.671844452818332
 30
0.0
 40
0.064
  0
LWPOLYLINE
  5
A10
330
17
100
AcDbEntity
  8
PART
  6
BYBLOCK
100
AcDbPolyline
 90
        4
 70
     1
 43
0.0
 10
20.862728094728
 20
8.733344452818327
 10
20.73772809472799
 20
8.733344452818327
 42
1.0
 10
20.73772809472799
 20
8.452344452818318
 10
20.862728094728
 20
8.452344452818318
 42
1.000000000000025
  0
CIRCLE
  5
A14
330
17
100
AcDbEntity
  8
PART
100
AcDbCircle
 10
19.82172809472799
 20
8.263844452818339
 30
0.0
 40
0.064
  0
LINE
  5
A1A
330
17
100
AcDbEntity
  8
PART
100
AcDbLine
 10
20.23088768890878
 20
12.23259908122677
 30
0.0
 11
21.23088768890878
 21
12.23259908122677
 31
0.0
  0
LINE
  5
A1B
330
17
100
AcDbEntity
  8
PART
100
AcDbLine
 10
20.23088768890878
 20
12.64259908122677
 30
0.0
 11
20.23088768890878
 21
12.14259908122677
 31
0.0
  0
LINE
  5
A1D
330
17
100
AcDbEntity
  8
PART
100
AcDbLine
 10
21.23088768890885
 20
12.23259908122677
 30
0.0
 11
21.23088768890878
 21
12.14259908122677
 31
0.0
  0
LINE
  5
1920
330
17
100
AcDbEntity
  8
PART
100
AcDbLine
 10
3.581728094728016
 20
7.408844452818344
 30
0.0
 11
3.581728094728016
 21
8.526844452818359
 31
0.0
  0
LINE
  5
1921
330
17
100
AcDbEntity
  8
PART
100
AcDbLine
 10
8.506728094727989
 20
7.408844452818344
 30
0.0
 11
8.506728094727989
 21
8.526844452818359
 31
0.0
  0
LINE
  5
1922
330
17
100
AcDbEntity
  8
PART
100
AcDbLine
 10
9.181728094727978
 20
7.408844452818344
 30
0.0
 11
9.181728094727981
 21
8.526844452818359
 31
0.0
  0
LINE
  5
1923
330
17
100
AcDbEntity
  8
PART
100
AcDbLine
 10
14.106728094728
 20
7.408844452818344
 30
0.0
 11
14.106728094728
 21
8.526844452818359
 31
0.0
  0
LINE
  5
1924
330
17
100
AcDbEntity
  8
PART
100
AcDbLine
 10
14.78172809472799
 20
7.408844452818344
 30
0.0
 11
14.78172809472799
 21
8.526844452818359
 31
0.0
  0
LINE
  5
1925
330
17
100
AcDbEntity
  8
PART
100
AcDbLine
 10
19.70672809472797
 20
7.408844452818341
 30
0.0
 11
19.70672809472796
 21
8.526844452818359
 31
0.0
  0
ARC
  5
1926
330
17
100
AcDbEntity
  8
PART
100
AcDbCircle
 10
14.843728094728
 20
8.526844452818359
 30
0.0
 40
0.062
100
AcDbArc
 50
90.0
 51
180.0
  0
ARC
  5
1927
330
17
100
AcDbEntity
  8
PART
100
AcDbCircle
 10
14.84372809472799
 20
7.408844452818344
 30
0.0
 40
0.062
100
AcDbArc
 50
180.0
 51
270.0
  0
ARC
  5
1928
330
17
100
AcDbEntity
  8
PART
100
AcDbCircle
 10
19.64472809472796
 20
7.408844452818341
 30
0.0
 40
0.062
100
AcDbArc
 50
270.0
 51
0.0
  0
ARC
  5
1929
330
17
100
AcDbEntity
  8
PART
100
AcDbCircle
 10
19.64472809472796
 20
8.526844452818359
 30
0.0
 40
0.062
100
AcDbArc
 50
0.0
 51
90.0
  0
ARC
  5
192A
330
17
100
AcDbEntity
  8
PART
100
AcDbCircle
 10
9.243728094727984
 20
8.526844452818359
 30
0.0
 40
0.062
100
AcDbArc
 50
90.0
 51
180.0
  0
ARC
  5
192B
330
17
100
AcDbEntity
  8
PART
100
AcDbCircle
 10
9.243728094727984
 20
7.408844452818344
 30
0.0
 40
0.062
100
AcDbArc
 50
179.9999999999998
 51
270.0
  0
ARC
  5
192C
330
17
100
AcDbEntity
  8
PART
100
AcDbCircle
 10
14.044728094728
 20
7.408844452818344
 30
0.0
 40
0.062
100
AcDbArc
 50
270.0
 51
0.0
  0
ARC
  5
192D
330
17
100
AcDbEntity
  8
PART
100
AcDbCircle
 10
14.044728094728
 20
8.526844452818359
 30
0.0
 40
0.062
100
AcDbArc
 50
0.0
 51
90.0
  0
ARC
  5
192E
330
17
100
AcDbEntity
  8
PART
100
AcDbCircle
 10
3.643728094728015
 20
8.526844452818359
 30
0.0
 40
0.062
100
AcDbArc
 50
90.0
 51
180.0
  0
ARC
  5
192F
330
17
100
AcDbEntity
  8
PART
100
AcDbCircle
 10
3.643728094728015
 20
7.408844452818344
 30
0.0
 40
0.062
100
AcDbArc
 50
180.0
 51
270.0
  0
ARC
  5
1930
330
17
100
AcDbEntity
  8
PART
100
AcDbCircle
 10
8.444728094727988
 20
7.408844452818344
 30
0.0
 40
0.062
100
AcDbArc
 50
270.0
 51
0.0
  0
ARC
  5
1931
330
17
100
AcDbEntity
  8
PART
100
AcDbCircle
 10
8.444728094727988
 20
8.526844452818359
 30
0.0
 40
0.062
100
AcDbArc
 50
0.0
 51
90.0
  0
LWPOLYLINE
  5
1ACE
330
17
100
AcDbEntity
  8
0
100
AcDbPolyline
 90
        4
 70
     1
 43
0.0
 10
0.0
 20
0.0
 10
22.0
 20
0.0
 10
22.0
 20
17.0
 10
0.0
 20
17.0
  0
TEXT
  5
1AD4
330
17
100
AcDbEntity
  8
FORMAT
100
AcDbText
 10
20.66971188128019
 20
0.3216940625803701
 30
0.0
 40
0.0763636363636364
  1
SHEET
  7
ARIAL
100
AcDbText
  0
LWPOLYLINE
  5
1AD5
330
17
100
AcDbEntity
  8
FORMAT
100
AcDbPolyline
 90
        4
 70
     1
 43
0.0190909090909091
 10
0.25
 20
0.25
 10
21.75
 20
0.25
 10
21.75
 20
16.75
 10
0.25
 20
16.75
  0
LINE
  5
1ADB
330
17
100
AcDbEntity
  8
0
100
AcDbLine
 10
21.75
 20
15.44301679749086
 30
0.0
 11
21.75
 21
1.93507257227516
 31
0.0
  0
LINE
  5
1ADC
330
17
100
AcDbEntity
  8
FORMAT
100
AcDbLine
 10
0.25
 20
0.25
 30
0.0
 11
21.09544996346178
 21
0.25
 31
0.0
  0
TEXT
  5
1ADD
330
17
100
AcDbEntity
  8
FORMAT
100
AcDbText
 10
18.29070432740683
 20
0.4956629753285995
 30
0.0
 40
0.1272727272727273
  1
C
  7
ARIAL
100
AcDbText
  0
LWPOLYLINE
  5
1ADE
330
17
100
AcDbEntity
  8
FORMAT
100
AcDbPolyline
 90
        2
 70
     0
 43
0.0126
 10
18.17999999999999
 20
1.527074682938916
 10
21.750084
 20
1.527074682938916
  0
LWPOLYLINE
  5
1AE2
330
17
100
AcDbEntity
  8
FORMAT
100
AcDbPolyline
 90
        2
 70
     0
 43
0.0084
 10
18.17991599999998
 20
0.7615600000000065
 10
21.75
 20
0.7615600000000065
  0
LWPOLYLINE
  5
1AE6
330
17
100
AcDbEntity
  8
FORMAT
100
AcDbPolyline
 90
        2
 70
     0
 43
0.0126
 10
18.17991599999998
 20
0.460000000000001
 10
21.75
 20
0.460000000000001
  0
LWPOLYLINE
  5
1AEA
330
17
100
AcDbEntity
  8
FORMAT
100
AcDbPolyline
 90
        2
 70
     0
 43
0.0126
 10
11.54665332313995
 20
1.965005317061083
 10
21.7499999999999
 20
1.965005317061083
  0
TEXT
  5
1AEE
330
17
100
AcDbEntity
  8
FORMAT
100
AcDbText
 10
11.66993645305659
 20
1.792847505237829
 30
0.0
 40
0.086184
  1
NOTICE:   This drawing is the 
  7
ARIAL
100
AcDbText
  0
TEXT
  5
1AEF
330
17
100
AcDbEntity
  8
FORMAT
100
AcDbText
 10
11.67117101240177
 20
1.647737791731685
 30
0.0
 40
0.086184
  1
property of AMX Corporation.
  7
ARIAL
100
AcDbText
  0
TEXT
  5
1AF0
330
17
100
AcDbEntity
  8
FORMAT
100
AcDbText
 10
11.67699107788607
 20
1.358988078225542
 30
0.0
 40
0.086184
  1
that is not generally known 
  7
ARIAL
100
AcDbText
  0
TEXT
  5
1AF1
330
17
100
AcDbEntity
  8
FORMAT
100
AcDbText
 10
11.67540378729944
 20
1.213878364719416
 30
0.0
 40
0.086184
  1
shall be confidential except
  7
ARIAL
100
AcDbText
  0
TEXT
  5
1AF2
330
17
100
AcDbEntity
  8
FORMAT
100
AcDbText
 10
11.67699107788607
 20
1.068768651213267
 30
0.0
 40
0.086184
  1
to the extent the information
  7
ARIAL
100
AcDbText
  0
TEXT
  5
1AF3
330
17
100
AcDbEntity
  8
FORMAT
100
AcDbText
 10
11.67117101240177
 20
0.9251286512132743
 30
0.0
 40
0.086184
  1
has been previously established.
  7
ARIAL
100
AcDbText
  0
TEXT
  5
1AF4
330
17
100
AcDbEntity
  8
FORMAT
100
AcDbText
 10
11.67628561540313
 20
0.7814886512132731
 30
0.0
 40
0.086184
  1
This drawing may not be copied,
  7
ARIAL
100
AcDbText
  0
TEXT
  5
1AF5
330
17
100
AcDbEntity
  8
FORMAT
100
AcDbText
 10
11.67799048307025
 20
0.4927389377071343
 30
0.0
 40
0.086184
  1
for manufacture or sale without
  7
ARIAL
100
AcDbText
  0
TEXT
  5
1AF6
330
17
100
AcDbEntity
  8
FORMAT
100
AcDbText
 10
11.67128858948226
 20
0.6378486512132682
 30
0.0
 40
0.086184
  1
reproduced, or used as the basis
  7
ARIAL
100
AcDbText
  0
TEXT
  5
1AF7
330
17
100
AcDbEntity
  8
FORMAT
100
AcDbText
 10
11.67111222386152
 20
1.502628078225547
 30
0.0
 40
0.086184
  1
All information contained herein
  7
ARIAL
100
AcDbText
  0
LWPOLYLINE
  5
1AF8
330
17
100
AcDbEntity
  8
FORMAT
100
AcDbPolyline
 90
        2
 70
     0
 43
0.0126
 10
11.54665332313995
 20
0.25
 10
11.54665332313995
 20
1.965005317061083
  0
TEXT
  5
1AFC
330
17
100
AcDbEntity
  8
FORMAT
100
AcDbText
 10
11.67875473409344
 20
0.3490989377071259
 30
0.0
 40
0.086184
  1
written permission.
  7
ARIAL
100
AcDbText
  0
TEXT
  5
1AFD
330
17
100
AcDbEntity
  8
FORMAT
100
AcDbText
 10
13.55936682369872
 20
0.3606311371072906
 30
0.0
 40
0.107856
  1
DO NOT SCALE THIS DRAWING.
  7
ARIAL
100
AcDbText
  0
TEXT
  5
1AFE
330
17
100
AcDbEntity
  8
FORMAT
100
AcDbText
 10
13.57146046053432
 20
1.775728621656496
 30
0.0
 40
0.1008
  1
UNLESS OTHERWISE SPECIFIED:
  7
ARIAL
100
AcDbText
  0
TEXT
  5
1AFF
330
17
100
AcDbEntity
  8
FORMAT
100
AcDbText
 10
13.56517553985665
 20
1.584984964597595
 30
0.0
 40
0.06174
  1
TOLERANCE ON DECIMAL DIMENSIONS:    XX = .010
  7
ARIAL
100
AcDbText
  0
TEXT
  5
1B00
330
17
100
AcDbEntity
  8
FORMAT
100
AcDbText
 10
13.56346353212245
 20
0.9206889559489892
 30
0.0
 40
0.06174
  1
FRACTIONAL DIMENSIONS INCLUDING HOLES:  +/-  1/64
  7
ARIAL
100
AcDbText
  0
LWPOLYLINE
  5
1B01
330
17
100
AcDbEntity
  8
FORMAT
100
AcDbPolyline
 90
        2
 70
     0
 43
0.0084
 10
13.57177018448543
 20
1.732216176545875
 10
15.83525688938564
 20
1.732216176545875
  0
TEXT
  5
1B05
330
17
100
AcDbEntity
  8
FORMAT
100
AcDbText
 10
15.28618119911809
 20
1.481517256640614
 30
0.0
 40
0.06174
  1
XXX = .005
  7
ARIAL
100
AcDbText
  0
TEXT
  5
1B06
330
17
100
AcDbEntity
  8
FORMAT
100
AcDbText
 10
15.15032142327076
 20
1.14838024702745
 30
0.0
 40
0.06174
  1
=  +.006  -.005
  7
ARIAL
100
AcDbText
  0
TEXT
  5
1B07
330
17
100
AcDbEntity
  8
FORMAT
100
AcDbText
 10
15.15032142327076
 20
1.036512539070457
 30
0.0
 40
0.06174
  1
=  +.008  -.005
  7
ARIAL
100
AcDbText
  0
TEXT
  5
1B08
330
17
100
AcDbEntity
  8
FORMAT
100
AcDbText
 10
13.56517553985665
 20
1.35531566294141
 30
0.0
 40
0.06174
  1
TOLERANCE ON HOLE DIAMETERS:
  7
ARIAL
100
AcDbText
  0
TEXT
  5
1B09
330
17
100
AcDbEntity
  8
FORMAT
100
AcDbText
 10
13.57162766693618
 20
0.6102858320780343
 30
0.0
 40
0.06174
  1
ALL DIMENSIONS IN INCHES. 
  7
ARIAL
100
AcDbText
  0
TEXT
  5
1B0A
330
17
100
AcDbEntity
  8
FORMAT
100
AcDbText
 10
13.56277294252671
 20
0.7148462723103819
 30
0.0
 40
0.06174
  1
SURFACE FLATNESS .003 TIR PER LINEAR INCH.
  7
ARIAL
100
AcDbText
  0
TEXT
  5
1B0B
330
17
100
AcDbEntity
  8
FORMAT
100
AcDbText
 10
13.57029104138882
 20
0.817221247992002
 30
0.0
 40
0.061739999801
  1
ANGLES:  +/- 1.0%%d
  7
ARIAL
100
AcDbText
  0
LWPOLYLINE
  5
1B0C
330
17
100
AcDbEntity
  8
FORMAT
100
AcDbPolyline
 90
        2
 70
     0
 43
0.0126
 10
13.49199346247333
 20
0.25
 10
13.49199346247333
 20
1.965005317061083
  0
TEXT
  5
1B10
330
17
100
AcDbEntity
  8
FORMAT
100
AcDbText
 10
14.56803521579677
 20
1.251847954984423
 30
0.0
 40
0.061739999801
  1
UNDER .250 ú
  7
ARIAL
100
AcDbText
  0
TEXT
  5
1B11
330
17
100
AcDbEntity
  8
FORMAT
100
AcDbText
 10
14.56803521579677
 20
1.14838024702745
 30
0.0
 40
0.06174
  1
.250 TO .500 
  7
ARIAL
100
AcDbText
  0
TEXT
  5
1B12
330
17
100
AcDbEntity
  8
FORMAT
100
AcDbText
 10
14.56803521579677
 20
1.036512539070457
 30
0.0
 40
0.06174
  1
OVER .500 
  7
ARIAL
100
AcDbText
  0
TEXT
  5
1B13
330
17
100
AcDbEntity
  8
FORMAT
100
AcDbText
 10
15.15032142327076
 20
1.251847954984423
 30
0.0
 40
0.06174
  1
=  +/- .005
  7
ARIAL
100
AcDbText
  0
LWPOLYLINE
  5
1B14
330
17
100
AcDbEntity
  8
FORMAT
100
AcDbPolyline
 90
        2
 70
     0
 43
0.0126
 10
15.97499999999999
 20
1.626110943910319
 10
18.17999999999999
 20
1.626110943910319
  0
LWPOLYLINE
  5
1B18
330
17
100
AcDbEntity
  8
FORMAT
100
AcDbPolyline
 90
        2
 70
     0
 43
0.0126
 10
15.97499999999999
 20
1.828276260971406
 10
18.17999999999998
 20
1.828276260971406
  0
LWPOLYLINE
  5
1B1C
330
17
100
AcDbEntity
  8
FORMAT
100
AcDbPolyline
 90
        2
 70
     0
 43
0.0126
 10
15.97499999999999
 20
1.423945626849228
 10
18.17999999999999
 20
1.423945626849228
  0
LWPOLYLINE
  5
1B20
330
17
100
AcDbEntity
  8
FORMAT
100
AcDbPolyline
 90
        2
 70
     0
 43
0.0126
 10
15.97499999999999
 20
1.221780309788144
 10
18.17999999999999
 20
1.221780309788144
  0
LWPOLYLINE
  5
1B24
330
17
100
AcDbEntity
  8
FORMAT
100
AcDbPolyline
 90
        2
 70
     0
 43
0.0126
 10
15.97499999999999
 20
0.8174496756659761
 10
18.17999999999999
 20
0.8174496756659761
  0
LWPOLYLINE
  5
1B28
330
17
100
AcDbEntity
  8
FORMAT
100
AcDbPolyline
 90
        2
 70
     0
 43
0.0126
 10
15.97499999999999
 20
1.019614992727067
 10
18.17999999999999
 20
1.019614992727067
  0
LWPOLYLINE
  5
1B2C
330
17
100
AcDbEntity
  8
FORMAT
100
AcDbPolyline
 90
        2
 70
     0
 43
0.0126
 10
15.97499999999999
 20
0.6152843586048995
 10
18.17999999999999
 20
0.6152843586048995
  0
TEXT
  5
1B30
330
17
100
AcDbEntity
  8
FORMAT
100
AcDbText
 10
16.04068800000001
 20
1.4803114666112
 30
0.0
 40
0.063
  1
ENGR SERV
  7
ARIAL
100
AcDbText
  0
TEXT
  5
1B31
330
17
100
AcDbEntity
  8
FORMAT
100
AcDbText
 10
16.04068800000001
 20
1.074597347122207
 30
0.0
 40
0.063
  1
PROD ENGR
  7
ARIAL
100
AcDbText
  0
TEXT
  5
1B32
330
17
100
AcDbEntity
  8
FORMAT
100
AcDbText
 10
16.04068800000001
 20
1.273857879069629
 30
0.0
 40
0.063
  1
ENGINEER
  7
ARIAL
100
AcDbText
  0
TEXT
  5
1B33
330
17
100
AcDbEntity
  8
FORMAT
100
AcDbText
 10
16.2924332435709
 20
0.4937134146945752
 30
0.0
 40
0.063
  1
THIRD ANGLE
  7
ARIAL
100
AcDbText
  0
TEXT
  5
1B34
330
17
100
AcDbEntity
  8
FORMAT
100
AcDbText
 10
16.2924332435709
 20
0.3497134146945697
 30
0.0
 40
0.063
  1
PROJECTION
  7
ARIAL
100
AcDbText
  0
LWPOLYLINE
  5
1B35
330
17
100
AcDbEntity
  8
FORMAT
100
AcDbPolyline
 90
        2
 70
     0
 43
0.0126
 10
15.97499999999999
 20
0.25
 10
15.97499999999999
 20
1.965005317061083
  0
TEXT
  5
1B39
330
17
100
AcDbEntity
  8
FORMAT
100
AcDbText
 10
16.04068800000001
 20
1.67861094391032
 30
0.0
 40
0.063
  1
DRAWN
  7
ARIAL
100
AcDbText
  0
TEXT
  5
1B3A
330
17
100
AcDbEntity
  8
FORMAT
100
AcDbText
 10
17.223804679793
 20
1.871051785576494
 30
0.0
 40
0.0567
  1
REL DATE
  7
ARIAL
100
AcDbText
  0
LWPOLYLINE
  5
1B3B
330
17
100
AcDbEntity
  8
FORMAT
100
AcDbPolyline
 90
        2
 70
     0
 43
0.0126
 10
16.61818800000001
 20
0.6152843586048995
 10
16.61818800000001
 20
1.965005317061076
  0
TEXT
  5
1B3F
330
17
100
AcDbEntity
  8
FORMAT
100
AcDbText
 10
17.73894890387587
 20
1.871051785576494
 30
0.0
 40
0.0567
  1
REV APPR
  7
ARIAL
100
AcDbText
  0
LWPOLYLINE
  5
1B40
330
17
100
AcDbEntity
  8
FORMAT
  6
CENTER
100
AcDbPolyline
 90
        2
 70
     0
 43
0.0084
 10
17.4791245952691
 20
0.4463835661714306
 10
17.8914313576998
 20
0.4463835661714306
  0
LWPOLYLINE
  5
1B44
330
17
100
AcDbEntity
  8
FORMAT
100
AcDbPolyline
 90
        4
 70
     1
 43
0.0084
 10
17.61115469704212
 20
0.4967835661714304
 10
17.83795469704213
 20
0.5566335661714277
 10
17.83795469704212
 20
0.3389469768568034
 10
17.61115469704212
 20
0.3959835661714273
  0
LWPOLYLINE
  5
1B4A
330
17
100
AcDbEntity
  8
FORMAT
100
AcDbPolyline
 90
        2
 70
     0
 43
0.0084
 10
17.36491122907926
 20
0.4463835661714306
 10
17.46110130415696
 20
0.4463835661714306
  0
LWPOLYLINE
  5
1B4E
330
17
100
AcDbEntity
  8
FORMAT
100
AcDbPolyline
 90
        2
 70
     1
 43
0.0084
 10
17.4377857252693
 20
0.4463835661714306
 42
0.9999999999999998
 10
17.2172857252693
 20
0.4463835661714306
 42
1.0
  0
TEXT
  5
1B52
330
17
100
AcDbEntity
  8
FORMAT
100
AcDbText
 10
16.69248661674677
 20
1.871051785576494
 30
0.0
 40
0.0567
  1
REL APPR
  7
ARIAL
100
AcDbText
  0
LWPOLYLINE
  5
1B53
330
17
100
AcDbEntity
  8
FORMAT
100
AcDbPolyline
 90
        2
 70
     0
 43
0.0084
 10
17.32753572526931
 20
0.5922511991841724
 10
17.32753572526931
 20
0.4837590699811721
  0
LWPOLYLINE
  5
1B57
330
17
100
AcDbEntity
  8
FORMAT
100
AcDbPolyline
 90
        2
 70
     0
 43
0.0084
 10
17.18692075114469
 20
0.4463835661714306
 10
17.29016022145933
 20
0.4463835661714306
  0
LWPOLYLINE
  5
1B5B
330
17
100
AcDbEntity
  8
FORMAT
100
AcDbPolyline
 90
        2
 70
     1
 43
0.0084
 10
17.37793572526931
 20
0.4463835661714306
 42
0.9999999999999998
 10
17.2771357252693
 20
0.4463835661714306
 42
1.0
  0
LWPOLYLINE
  5
1B5F
330
17
100
AcDbEntity
  8
FORMAT
100
AcDbPolyline
 90
        2
 70
     0
 43
0.0084
 10
17.31116022145937
 20
0.4463835661714306
 10
17.34391122907925
 20
0.4463835661714306
  0
LWPOLYLINE
  5
1B63
330
17
100
AcDbEntity
  8
FORMAT
100
AcDbPolyline
 90
        2
 70
     0
 43
0.0084
 10
17.32753572526931
 20
0.4090080623619487
 10
17.32753572526931
 20
0.3038029662554251
  0
LWPOLYLINE
  5
1B67
330
17
100
AcDbEntity
  8
FORMAT
100
AcDbPolyline
 90
        2
 70
     0
 43
0.0084
 10
17.32753572526931
 20
0.4627590699808907
 10
17.32753572526931
 20
0.4300080623625783
  0
LWPOLYLINE
  5
1B6B
330
17
100
AcDbEntity
  8
FORMAT
100
AcDbPolyline
 90
        2
 70
     0
 43
0.0126
 10
17.15646000000001
 20
0.6152843586048995
 10
17.15645999999998
 20
1.965005317061076
  0
LWPOLYLINE
  5
1B6F
330
17
100
AcDbEntity
  8
FORMAT
100
AcDbPolyline
 90
        2
 70
     0
 43
0.0126
 10
17.66818800000001
 20
0.6152843586048995
 10
17.66818799999998
 20
1.965005317061076
  0
LWPOLYLINE
  5
1B73
330
17
100
AcDbEntity
  8
FORMAT
100
AcDbPolyline
 90
        2
 70
     0
 43
0.0126
 10
18.17991599999998
 20
0.25
 10
18.17991599999998
 20
1.965005317061083
  0
TEXT
  5
1B77
330
17
100
AcDbEntity
  8
FORMAT
100
AcDbText
 10
18.2315583360631
 20
0.6699999999999982
 30
0.0
 40
0.0714
  1
SIZE
  7
ARIAL
100
AcDbText
  0
TEXT
  5
1B78
330
17
100
AcDbEntity
  8
FORMAT
100
AcDbText
 10
19.47607021504008
 20
0.6699999999999982
 30
0.0
 40
0.0714
  1
DWG. NO.
  7
ARIAL
100
AcDbText
  0
TEXT
  5
1B79
330
17
100
AcDbEntity
  8
FORMAT
100
AcDbText
 10
18.56297186785376
 20
0.6699999999999982
 30
0.0
 40
0.0714
  1
SCALE
  7
ARIAL
100
AcDbText
  0
LWPOLYLINE
  5
1B7A
330
17
100
AcDbEntity
  8
FORMAT
100
AcDbPolyline
 90
        2
 70
     0
 43
0.0084
 10
18.508104
 20
0.460000000000001
 10
18.508104
 20
0.7615600000000065
  0
LWPOLYLINE
  5
1B7E
330
17
100
AcDbEntity
  8
FORMAT
100
AcDbPolyline
 90
        2
 70
     0
 43
0.0084
 10
19.44593057956095
 20
0.460000000000001
 10
19.44593057956095
 20
0.7615600000000065
  0
LWPOLYLINE
  5
1B82
330
17
100
AcDbEntity
  8
FORMAT
100
AcDbPolyline
 90
        2
 70
     0
 43
0.0084
 10
20.61367925499387
 20
0.25
 10
20.61367925499387
 20
0.460000000000001
  0
TEXT
  5
1B86
330
17
100
AcDbEntity
  8
FORMAT
100
AcDbText
 10
21.48378803342038
 20
0.6699999999999982
 30
0.0
 40
0.0714
  1
REV.
  7
ARIAL
 72
     1
 11
21.60019048908205
 21
0.6699999999999982
 31
0.0
100
AcDbText
  0
LWPOLYLINE
  5
1B87
330
17
100
AcDbEntity
  8
FORMAT
100
AcDbPolyline
 90
        2
 70
     0
 43
0.0084
 10
21.43499999999999
 20
0.460000000000001
 10
21.43499999999999
 20
0.7615600000000065
  0
TEXT
  5
1B8B
330
17
100
AcDbEntity
  8
FORMAT
100
AcDbText
 10
16.040688
 20
0.667784358604891
 30
0.0
 40
0.063
  1
QUALITY
  7
ARIAL
100
AcDbText
  0
TEXT
  5
1B8C
330
17
100
AcDbEntity
  8
FORMAT
100
AcDbText
 10
16.040688
 20
0.8699496756659819
 30
0.0
 40
0.063
  1
MATL SUP
  7
ARIAL
100
AcDbText
  0
LWPOLYLINE
  5
1B8D
330
17
100
AcDbEntity
  8
FORMAT
100
AcDbPolyline
 90
        2
 70
     0
 43
0.0126
 10
16.8737786958563
 20
16.51429599999999
 10
21.75
 20
16.51429599999999
  0
LWPOLYLINE
  5
1B91
330
17
100
AcDbEntity
  8
FORMAT
100
AcDbPolyline
 90
        2
 70
     0
 43
0.0126
 10
16.8737786958563
 20
16.29068799999998
 10
21.75
 20
16.29068799999998
  0
TEXT
  5
1B95
330
17
100
AcDbEntity
  8
FORMAT
100
AcDbText
 10
16.95116504089451
 20
16.37440892215335
 30
0.0
 40
0.0756
  1
REV
  7
ARIAL
 72
     1
 11
17.05974334921648
 21
16.37440892215335
 31
0.0
100
AcDbText
  0
LWPOLYLINE
  5
1B96
330
17
100
AcDbEntity
  8
FORMAT
100
AcDbPolyline
 90
        2
 70
     0
 43
0.0168
 10
16.8737786958563
 20
16.75
 10
16.8737786958563
 20
15.84504973222252
  0
TEXT
  5
1B9A
330
17
100
AcDbEntity
  8
FORMAT
100
AcDbText
 10
17.31575139832972
 20
16.37440892215335
 30
0.0
 40
0.0756
  1
ECN
  7
ARIAL
 72
     1
 11
17.42724334921649
 21
16.37440892215335
 31
0.0
100
AcDbText
  0
LWPOLYLINE
  5
1B9B
330
17
100
AcDbEntity
  8
FORMAT
100
AcDbPolyline
 90
        2
 70
     0
 43
0.0126
 10
17.2412786958563
 20
15.84504973222251
 10
17.2412786958563
 20
16.51429599999999
  0
LWPOLYLINE
  5
1B9F
330
17
100
AcDbEntity
  8
FORMAT
100
AcDbPolyline
 90
        2
 70
     0
 43
0.0126
 10
17.6523354070183
 20
15.84504973222251
 10
17.6523354070183
 20
16.51429599999999
  0
TEXT
  5
1BA3
330
17
100
AcDbEntity
  8
FORMAT
100
AcDbText
 10
21.00708289296924
 20
16.37440892215335
 30
0.0
 40
0.0756
  1
APPROVED
  7
ARIAL
 72
     1
 11
21.3004583363526
 21
16.37440892215335
 31
0.0
100
AcDbText
  0
TEXT
  5
1BA4
330
17
100
AcDbEntity
  8
FORMAT
100
AcDbText
 10
18.53677833267799
 20
16.37440892215335
 30
0.0
 40
0.0756
  1
DESCRIPTION
  7
ARIAL
 72
     1
 11
18.89765745955385
 21
16.37440892215335
 31
0.0
100
AcDbText
  0
TEXT
  5
1BA5
330
17
100
AcDbEntity
  8
FORMAT
100
AcDbText
 10
18.93341373191778
 20
16.57770863516817
 30
0.0
 40
0.1008
  1
REVISIONS
  7
ARIAL
 72
     1
 11
19.31684565551942
 21
16.57770863516817
 31
0.0
100
AcDbText
  0
TEXT
  5
1BA6
330
17
100
AcDbEntity
  8
FORMAT
100
AcDbText
 10
20.372123684238
 20
16.37440892215335
 30
0.0
 40
0.0756
  1
DATE
  7
ARIAL
 72
     1
 11
20.5129583363526
 21
16.37440892215335
 31
0.0
100
AcDbText
  0
LWPOLYLINE
  5
1BA7
330
17
100
AcDbEntity
  8
FORMAT
100
AcDbPolyline
 90
        2
 70
     0
 43
0.0126
 10
20.1585623363526
 20
15.84504973222251
 10
20.1585623363526
 20
16.51429599999999
  0
LWPOLYLINE
  5
1BAB
330
17
100
AcDbEntity
  8
FORMAT
100
AcDbPolyline
 90
        2
 70
     0
 43
0.0126
 10
20.8935623363526
 20
15.84504973222251
 10
20.8935623363526
 20
16.51429599999999
  0
INSERT
  5
1BAF
330
17
100
AcDbEntity
  8
TB-TXT
100
AcDbBlockReference
 66
     1
  2
REV-BLOCK
 10
21.75
 20
16.29068799999998
 30
0.0
 41
0.6363636363636367
 42
0.6363636363636369
 43
0.6363636363636369
  0
ATTRIB
  5
1BB0
330
1BAF
100
AcDbEntity
  8
TB-TXT
100
AcDbText
 10
17.01738152572907
 20
16.11078300825155
 30
0.0
 40
0.1
  1
A
  7
ARIAL
 72
     1
 11
17.06397088452852
 21
16.16078300825155
 31
0.0
100
AcDbAttribute
  2
REV
 70
     0
 74
     2
  0
ATTRIB
  5
1BB1
330
1BAF
100
AcDbEntity
  8
TB-TXT
100
AcDbText
 10
17.2835089865577
 20
16.11670015066344
 30
0.0
 40
0.1
  1
4998
  7
ARIAL
100
AcDbAttribute
  2
ECN
 70
     0
  0
ATTRIB
  5
1BB2
330
1BAF
100
AcDbEntity
  8
TB-TXT
100
AcDbText
 10
17.72754248984696
 20
16.11614375302741
 30
0.0
 40
0.1
  1
PRODUCTION RELEASE
  7
ARIAL
100
AcDbAttribute
  2
DESCRIPTION
 70
     0
  0
ATTRIB
  5
1BB3
330
1BAF
100
AcDbEntity
  8
TB-TXT
100
AcDbText
 10
20.30002355960003
 20
16.11078300825155
 30
0.0
 40
0.1
  1
5/16/03
  7
ARIAL
 72
     1
 11
20.53307267283333
 21
16.16078300825155
 31
0.0
100
AcDbAttribute
  2
REV-DATE
 70
     0
 74
     2
  0
ATTRIB
  5
1BB4
330
1BAF
100
AcDbEntity
  8
TB-TXT
100
AcDbText
 10
21.30398412416504
 20
16.11078300825155
 30
0.0
 40
0.1
  1

  7
ARIAL
 72
     1
 11
21.30398412416504
 21
16.16078300825155
 31
0.0
100
AcDbAttribute
  2
APPR
 70
     0
 74
     2
  0
SEQEND
  5
1BB5
330
1BAF
100
AcDbEntity
  8
TB-TXT
  0
INSERT
  5
1BB6
330
17
100
AcDbEntity
  8
TB-TXT
100
AcDbBlockReference
 66
     1
  2
TITLE-BLOCK
 10
21.75000000000007
 20
0.25
 30
0.0
 41
0.6363636363636404
 42
0.6363636363636415
 43
0.6363636363636415
  0
ATTRIB
  5
1BB7
330
1BB6
100
AcDbEntity
  8
TB-TXT
100
AcDbText
 10
18.28050107397776
 20
1.347496549230704
 30
0.0
 40
0.12
  1
PICTORIAL,
  7
ARIAL
100
AcDbAttribute
  2
LINE1
 70
     0
  0
ATTRIB
  5
1BB8
330
1BB6
100
AcDbEntity
  8
TB-TXT
100
AcDbText
 10
18.28050107397776
 20
1.182689276503435
 30
0.0
 40
0.12
  1
AC-RK ACCESSORY RACKMOUNT KIT
  7
ARIAL
100
AcDbAttribute
  2
LINE2
 70
     0
  0
ATTRIB
  5
1BB9
330
1BB6
100
AcDbEntity
  8
TB-TXT
100
AcDbText
 10
18.28050107397776
 20
1.017882003776158
 30
0.0
 40
0.12
  1

  7
ARIAL
100
AcDbAttribute
  2
LINE3
 70
     0
  0
ATTRIB
  5
1BBA
330
1BB6
100
AcDbEntity
  8
TB-TXT
100
AcDbText
 10
18.28050107397776
 20
0.8530747310488846
 30
0.0
 40
0.12
  1

  7
ARIAL
100
AcDbAttribute
  2
LINE4
 70
     0
  0
ATTRIB
  5
1BBB
330
1BB6
100
AcDbEntity
  8
TB-TXT
100
AcDbText
 10
19.97044231975067
 20
0.5224724360980773
 30
0.0
 40
0.12
  1
95-0515-01
  7
ARIAL
100
AcDbAttribute
  2
DWG#
 70
     0
  0
ATTRIB
  5
1BBC
330
1BB6
100
AcDbEntity
  8
TB-TXT
100
AcDbText
 10
18.24560576241526
 20
0.3222959157083594
 30
0.0
 40
0.076363636363637
  1
95-0515-01-A
  7
ARIAL
100
AcDbAttribute
  2
FILE#
 70
     0
  0
ATTRIB
  5
1BBD
330
1BB6
100
AcDbEntity
  8
TB-TXT
100
AcDbText
 10
21.53975165148027
 20
0.5006322351620217
 30
0.0
 40
0.12
  1
A
  7
ARIAL
 72
     4
 11
21.59565888203962
 21
0.5606322351620216
 31
0.0
100
AcDbAttribute
  2
REV
 70
     0
  0
ATTRIB
  5
1BBE
330
1BB6
100
AcDbEntity
  8
TB-TXT
100
AcDbText
 10
18.81094121604834
 20
0.504911805008952
 30
0.0
 40
0.12
  1
FULL
  7
ARIAL
100
AcDbAttribute
  2
SCALE
 70
     0
  0
ATTRIB
  5
1BBF
330
1BB6
100
AcDbEntity
  8
TB-TXT
100
AcDbText
 10
21.11073168406757
 20
0.3083447940637143
 30
0.0
 40
0.1
  1
1 OF 1
  7
ARIAL
100
AcDbAttribute
  2
SHT#
 70
     0
  0
SEQEND
  5
1BC0
330
1BB6
100
AcDbEntity
  8
TB-TXT
  0
TEXT
  5
1BC1
330
17
100
AcDbEntity
  8
FORMAT
  6
BYBLOCK
100
AcDbText
 10
20.39470493981089
 20
1.702311112540194
 30
0.0
 40
0.0679797890292734
  1
3000 RESEARCH DRIVE
 41
1.011836867459718
  7
ARIAL
100
AcDbText
  0
TEXT
  5
1BC2
330
17
100
AcDbEntity
  8
FORMAT
  6
BYBLOCK
100
AcDbText
 10
20.39148752078694
 20
1.585774724433464
 30
0.0
 40
0.0679797890292734
  1
RICHARDSON, TX 75082
 41
1.018884921437547
  7
ARIAL
100
AcDbText
  0
HATCH
  5
1BC3
330
17
100
AcDbEntity
  8
FORMAT
100
AcDbHatch
 10
0.0
 20
0.0
 30
0.0
210
0.0
220
0.0
230
1.0
  2
SOLID
 70
     1
 71
     1
 91
        5
 92
        1
 93
        4
 72
     1
 10
18.69909563560171
 20
1.88358108566864
 11
18.76524659356423
 21
1.713109476365676
 72
     2
 10
19.04689449961777
 20
0.2277866107083009
 40
1.51179018326915
 50
100.7369884767685
 51
115.8445848643796
 73
     1
 72
     1
 10
18.38785745722185
 20
1.588367271668551
 11
18.58554865404905
 21
1.88358108566864
 72
     1
 10
18.58554865404905
 20
1.88358108566864
 11
18.69909563560171
 21
1.88358108566864
 97
        1
330
1BE2
 92
       16
 93
        4
 72
     1
 10
18.65382131823626
 20
1.710599444065429
 11
18.65396568392616
 21
1.710459540454759
 72
     1
 10
18.65396568392616
 20
1.710459540454759
 11
18.62826204839223
 21
1.783538504227723
 72
     1
 10
18.62826204839223
 20
1.783538504227723
 11
18.58172159919155
 21
1.710459540454759
 72
     1
 10
18.58172159919155
 20
1.710459540454759
 11
18.65382131823626
 21
1.710599444065429
 97
        1
330
1BDC
 92
        1
 93
        7
 72
     1
 10
18.67189792157605
 20
1.659980403443591
 11
18.69730926998557
 21
1.588367271668551
 72
     1
 10
18.69730926998557
 20
1.588367271668551
 11
18.91509698120111
 21
1.588367271668551
 72
     1
 10
18.91509698120111
 20
1.588367271668551
 11
18.93416259596781
 21
1.702760960268857
 72
     2
 10
19.32182135923792
 20
-1.543053027494026
 40
3.26888172926114
 50
96.81077116038402
 51
98.76581880976942
 73
     1
 72
     1
 10
18.82365601772188
 20
1.687646440486476
 11
18.80908167799909
 21
1.600146072392358
 72
     1
 10
18.80908167799909
 20
1.600146072392358
 11
18.77815110423899
 21
1.679854437138001
 72
     2
 10
19.06448847704896
 20
-0.1449696400823286
 40
1.847152404072479
 50
98.9176989492487
 51
102.2711423007082
 73
     1
 97
        1
330
1BD3
 92
        1
 93
       13
 72
     1
 10
19.67573258622185
 20
1.88358108566864
 11
19.55059547598482
 21
1.778429161227648
 72
     2
 10
19.91760880435005
 20
-21.51471800745193
 40
23.29603837146914
 50
90.90269359832785
 51
91.42767319127441
 73
     1
 72
     1
 10
19.33718755616119
 20
1.774088638222598
 11
19.24815858918799
 21
1.87644199011591
 72
     1
 10
19.24815858918799
 20
1.87644199011591
 11
19.23030082859403
 21
1.769295426552201
 72
     2
 10
19.42443745387214
 20
-1.89296876029793
 40
3.66740616833743
 50
93.0344091195122
 51
99.3274687791087
 73
     1
 72
     1
 10
18.83003555218294
 20
1.725947428677397
 11
18.85629151565803
 21
1.88358108566864
 72
     1
 10
18.85629151565803
 20
1.88358108566864
 11
18.94667033555541
 21
1.88358108566864
 72
     1
 10
18.94667033555541
 20
1.88358108566864
 11
19.03589012026023
 21
1.785931433260022
 72
     1
 10
19.03589012026023
 20
1.785931433260022
 11
19.15779106751611
 21
1.88358108566864
 72
     1
 10
19.15779106751611
 20
1.88358108566864
 11
19.38213077216207
 21
1.88358108566864
 72
     1
 10
19.38213077216207
 20
1.88358108566864
 11
19.44692136911437
 21
1.80909370257642
 72
     1
 10
19.44692136911437
 20
1.80909370257642
 11
19.53556583205532
 21
1.88358108566864
 72
     1
 10
19.53556583205532
 20
1.88358108566864
 11
19.67573258622185
 21
1.88358108566864
 97
        1
330
1BC4
 92
        1
 93
       10
 72
     1
 10
19.32441040374714
 20
1.588367271668551
 11
19.42512151196604
 21
1.672994180678528
 72
     1
 10
19.42512151196604
 20
1.672994180678528
 11
19.49873166881898
 21
1.588367271668551
 72
     1
 10
19.49873166881898
 20
1.588367271668551
 11
19.63891357810321
 21
1.588367271668551
 72
     1
 10
19.63891357810321
 20
1.588367271668551
 11
19.51594515370286
 21
1.729739578259558
 72
     2
 10
19.46023599435125
 20
-2.18501455197914
 40
3.91515049655267
 50
89.18470377236843
 51
91.59664224690859
 73
     1
 72
     1
 10
19.3511479302497
 20
1.728615885980886
 11
19.20273596552112
 21
1.603906248114725
 72
     1
 10
19.20273596552112
 20
1.603906248114725
 11
19.22280638543401
 21
1.724328767592048
 72
     2
 10
19.3218213592379
 20
-1.543053027494154
 40
3.268881729261265
 50
91.73576423011903
 51
93.6434845729474
 73
     1
 72
     1
 10
19.11409061761985
 20
1.719221592902623
 11
19.09228156408083
 21
1.588367271668551
 72
     1
 10
19.09228156408083
 20
1.588367271668551
 11
19.32441040374714
 21
1.588367271668551
 97
        1
330
1BE8
 75
     0
 76
     1
 98
        1
 10
18.37639161980231
 20
1.432129487050491
  0
LWPOLYLINE
  5
1BC4
102
{ACAD_REACTORS
330
1BC3
102
}
330
17
100
AcDbEntity
  8
FORMAT
100
AcDbPolyline
 90
       13
 70
     1
 43
0.0
 10
19.67573258622185
 20
1.88358108566864
 10
19.55059547598482
 20
1.778429161227648
 42
0.0022906596071181
 10
19.33718755616119
 20
1.774088638222598
 10
19.24815858918799
 20
1.87644199011591
 10
19.23030082859403
 20
1.769295426552201
 42
0.0274655559228494
 10
18.83003555218294
 20
1.725947428677397
 10
18.85629151565803
 20
1.88358108566864
 10
18.94667033555541
 20
1.88358108566864
 10
19.03589012026023
 20
1.785931433260022
 10
19.15779106751611
 20
1.88358108566864
 10
19.38213077216207
 20
1.88358108566864
 10
19.44692136911437
 20
1.80909370257642
 10
19.53556583205532
 20
1.88358108566864
  0
LWPOLYLINE
  5
1BD3
102
{ACAD_REACTORS
330
1BC3
102
}
330
17
100
AcDbEntity
  8
FORMAT
100
AcDbPolyline
 90
        7
 70
     1
 43
0.0
 10
18.67189792157605
 20
1.659980403443591
 10
18.69730926998557
 20
1.588367271668551
 10
18.91509698120111
 20
1.588367271668551
 10
18.93416259596781
 20
1.702760960268857
 42
0.0085307115550227
 10
18.82365601772188
 20
1.687646440486476
 10
18.80908167799909
 20
1.600146072392358
 10
18.77815110423899
 20
1.679854437138001
 42
0.014633201278307
  0
LWPOLYLINE
  5
1BDC
102
{ACAD_REACTORS
330
1BC3
102
}
330
17
100
AcDbEntity
  8
FORMAT
100
AcDbPolyline
 90
        4
 70
     1
 43
0.0
 10
18.65382131823626
 20
1.710599444065429
 10
18.65396568392616
 20
1.710459540454759
 10
18.62826204839223
 20
1.783538504227723
 10
18.58172159919155
 20
1.710459540454759
  0
LWPOLYLINE
  5
1BE2
102
{ACAD_REACTORS
330
1BC3
102
}
330
17
100
AcDbEntity
  8
FORMAT
100
AcDbPolyline
 90
        4
 70
     1
 43
0.0
 10
18.69909563560171
 20
1.88358108566864
 10
18.76524659356423
 20
1.713109476365676
 42
0.0660149720166298
 10
18.38785745722185
 20
1.588367271668551
 10
18.58554865404905
 20
1.88358108566864
  0
LWPOLYLINE
  5
1BE8
102
{ACAD_REACTORS
330
1BC3
102
}
330
17
100
AcDbEntity
  8
FORMAT
100
AcDbPolyline
 90
       10
 70
     1
 43
0.0
 10
19.32441040374714
 20
1.588367271668551
 10
19.42512151196604
 20
1.672994180678528
 10
19.49873166881898
 20
1.588367271668551
 10
19.63891357810321
 20
1.588367271668551
 10
19.51594515370286
 20
1.729739578259558
 42
0.0105244554857435
 10
19.3511479302497
 20
1.728615885980886
 10
19.20273596552112
 20
1.603906248114725
 10
19.22280638543401
 20
1.724328767592048
 42
0.0083241925565687
 10
19.11409061761985
 20
1.719221592902623
 10
19.09228156408083
 20
1.588367271668551
  0
TEXT
  5
1BF4
330
17
100
AcDbEntity
  8
FORMAT
  6
BYBLOCK
100
AcDbText
 10
20.39470493981089
 20
1.818847500646924
 30
0.0
 40
0.0679797890292734
  1
AMX CORPORATION
 41
1.011836867459718
  7
ARIAL
100
AcDbText
  0
TEXT
  5
1BF5
330
17
100
AcDbEntity
  8
FORMAT
100
AcDbText
 10
19.6705904550301
 20
1.589363547029911
 30
0.0
 40
0.0382762801557953
  1
TM
  7
ARIAL
 11
19.6705904550301
 21
1.608501687107809
 31
0.0
100
AcDbText
 73
     2
  0
DIMENSION
  5
20FC
330
17
100
AcDbEntity
  8
DIM
100
AcDbDimension
  2
*D3
 10
21.14422809472798
 20
9.798754598283977
 30
0.0
 11
11.6390963543768
 21
9.798754598283977
 31
0.0
 70
   160
  3
STANDARD
100
AcDbAlignedDimension
 13
2.144228094728052
 23
8.827844452818339
 33
0.0
 14
21.14422809472798
 24
8.827844452818339
 34
0.0
100
AcDbRotatedDimension
1001
ACAD
1000
DSTYLE
1002
{
1070
     4
1000
mm
1070
    41
1040
0.12
1070
    42
1040
0.1
1070
    44
1040
0.1
1070
    78
1070
     4
1070
   140
1040
0.12
1070
   170
1070
     1
1070
   171
1070
     1
1070
   271
1070
     2
1070
   272
1070
     2
1070
   274
1070
     1
1070
   285
1070
     4
1070
   340
1005
21
1002
}
  0
DIMENSION
  5
210B
330
17
100
AcDbEntity
  8
DIM
100
AcDbDimension
  2
*D4
 10
1.30868034456161
 20
12.64259908122677
 30
0.0
 11
1.308680344561608
 21
12.34758746257347
 31
0.0
 70
   160
  3
STANDARD
100
AcDbAlignedDimension
 13
2.230887688908853
 23
12.14259908122677
 33
0.0
 14
3.230887688908853
 24
12.64259908122677
 34
0.0
 50
90.0
100
AcDbRotatedDimension
1001
ACAD
1000
DSTYLE
1002
{
1070
   287
1070
     1
1070
   287
1070
     1
1070
   287
1070
     1
1070
   287
1070
     1
1070
   287
1070
     1
1070
   287
1070
     1
1070
   287
1070
     1
1070
     4
1000
mm
1070
    41
1040
0.12
1070
    42
1040
0.1
1070
    44
1040
0.1
1070
    78
1070
     4
1070
   140
1040
0.12
1070
   170
1070
     1
1070
   171
1070
     1
1070
   271
1070
     2
1070
   272
1070
     2
1070
   274
1070
     1
1070
   285
1070
     4
1070
   289
1070
     1
1070
   340
1005
21
1002
}
  0
DIMENSION
  5
2125
330
17
100
AcDbEntity
  8
DIM
100
AcDbDimension
  2
*D5
 10
1.217668059590835
 20
8.827844452818339
 30
0.0
 11
1.217668059590833
 21
7.967844452818341
 31
0.0
 70
    32
  3
STANDARD
100
AcDbAlignedDimension
 13
2.144228094728052
 23
7.107844452818341
 33
0.0
 14
2.144228094728052
 24
8.827844452818339
 34
0.0
 50
90.0
100
AcDbRotatedDimension
1001
ACAD
1000
DSTYLE
1002
{
1070
     4
1000
mm
1070
    41
1040
0.12
1070
    42
1040
0.1
1070
    44
1040
0.1
1070
    78
1070
     4
1070
   140
1040
0.12
1070
   170
1070
     1
1070
   171
1070
     1
1070
   271
1070
     2
1070
   272
1070
     2
1070
   274
1070
     1
1070
   285
1070
     4
1070
   340
1005
21
1002
}
  0
INSERT
  5
22E1
330
17
100
AcDbEntity
  8
FORMAT
100
AcDbBlockReference
 66
     1
  2
APPR-BLOCK
 10
16.63165828446169
 20
1.834365580625794
 30
0.0
 41
0.6462738281991604
 42
0.64627382819916
 43
0.64627382819916
  0
ATTRIB
  5
22E2
330
22E1
100
AcDbEntity
  8
TB-TXT
100
AcDbText
 10
16.69828394595839
 20
1.682369501845392
 30
0.0
 40
0.0775528593838992
  1
DAS
  7
ARIAL
100
AcDbAttribute
  2
REL-DR
 70
     0
  0
ATTRIB
  5
22E3
330
22E1
100
AcDbEntity
  8
TB-TXT
100
AcDbText
 10
17.2449385411836
 20
1.682369501845392
 30
0.0
 40
0.0775528593838992
  1
5/8/03
  7
ARIAL
100
AcDbAttribute
  2
DATE-DR
 70
     0
  0
ATTRIB
  5
22E4
330
22E1
100
AcDbEntity
  8
TB-TXT
100
AcDbText
 10
16.69828394595839
 20
1.477055832238559
 30
0.0
 40
0.0775528593838992
  1
PS
  7
ARIAL
100
AcDbAttribute
  2
REL-ES
 70
     0
  0
ATTRIB
  5
22E5
330
22E1
100
AcDbEntity
  8
TB-TXT
100
AcDbText
 10
17.2449385411836
 20
1.477055832238559
 30
0.0
 40
0.0775528593838992
  1
5/16/03
  7
ARIAL
100
AcDbAttribute
  2
DATE-ES
 70
     0
  0
ATTRIB
  5
22E6
330
22E1
100
AcDbEntity
  8
TB-TXT
100
AcDbText
 10
16.69828394595839
 20
1.271742162631722
 30
0.0
 40
0.0775528593838992
  1
PL
  7
ARIAL
100
AcDbAttribute
  2
REL-ENGR
 70
     0
  0
ATTRIB
  5
22E7
330
22E1
100
AcDbEntity
  8
TB-TXT
100
AcDbText
 10
17.2449385411836
 20
1.271742162631722
 30
0.0
 40
0.0775528593838992
  1
5/16/03
  7
ARIAL
100
AcDbAttribute
  2
DATE-ENGR
 70
     0
  0
ATTRIB
  5
22E8
330
22E1
100
AcDbEntity
  8
TB-TXT
100
AcDbText
 10
16.69828394595839
 20
1.066428493024897
 30
0.0
 40
0.0775528593838992
  1
KZ
  7
ARIAL
100
AcDbAttribute
  2
REL-PROD
 70
     0
  0
ATTRIB
  5
22E9
330
22E1
100
AcDbEntity
  8
TB-TXT
100
AcDbText
 10
17.2449385411836
 20
1.066428493024897
 30
0.0
 40
0.0775528593838992
  1
5/16/03
  7
ARIAL
100
AcDbAttribute
  2
DATE-PROD
 70
     0
  0
ATTRIB
  5
22EA
330
22E1
100
AcDbEntity
  8
TB-TXT
100
AcDbText
 10
16.69828394595839
 20
0.8611148234180724
 30
0.0
 40
0.0775528593838992
  1
JS
  7
ARIAL
100
AcDbAttribute
  2
REL-MATL
 70
     0
  0
ATTRIB
  5
22EB
330
22E1
100
AcDbEntity
  8
TB-TXT
100
AcDbText
 10
17.2449385411836
 20
0.8611148234180724
 30
0.0
 40
0.0775528593838992
  1
5/16/03
  7
ARIAL
100
AcDbAttribute
  2
DATE-MATL
 70
     0
  0
ATTRIB
  5
22EC
330
22E1
100
AcDbEntity
  8
TB-TXT
100
AcDbText
 10
16.69828394595839
 20
0.6558011538112377
 30
0.0
 40
0.0775528593838992
  1
AK
  7
ARIAL
100
AcDbAttribute
  2
REL-QUAL
 70
     0
  0
ATTRIB
  5
22ED
330
22E1
100
AcDbEntity
  8
TB-TXT
100
AcDbText
 10
17.2449385411836
 20
0.6558011538112377
 30
0.0
 40
0.0775528593838992
  1
5/16/03
  7
ARIAL
100
AcDbAttribute
  2
DATE-QUAL
 70
     0
  0
SEQEND
  5
22EE
330
22E1
100
AcDbEntity
  8
FORMAT
  0
ENDSEC
  0
SECTION
  2
OBJECTS
  0
DICTIONARY
  5
C
330
0
100
AcDbDictionary
  3
ACAD_GROUP
350
D
  3
ACAD_LAYOUT
350
1967
  3
ACAD_MLINESTYLE
350
1A
  3
ACAD_PLOTSETTINGS
350
1968
  3
ACAD_PLOTSTYLENAME
350
1965
  3
ACDBHEADERROUNDTRIPXREC
350
2360
  3
ACDBVARIABLEDICTIONARY
350
30
  0
DICTIONARY
  5
1CF5
330
17
100
AcDbDictionary
280
     1
  3
ACAD_LAYOUTSELFREF
360
2382
  0
DICTIONARY
  5
1CF3
330
14
100
AcDbDictionary
280
     1
  3
ACAD_LAYOUTSELFREF
360
2381
  0
DICTIONARY
  5
D
102
{ACAD_REACTORS
330
C
102
}
330
C
100
AcDbDictionary
  0
DICTIONARY
  5
1967
102
{ACAD_REACTORS
330
C
102
}
330
C
100
AcDbDictionary
  0
DICTIONARY
  5
1A
102
{ACAD_REACTORS
330
C
102
}
330
C
100
AcDbDictionary
  3
STANDARD
350
1B
  0
DICTIONARY
  5
1968
102
{ACAD_REACTORS
330
C
102
}
330
C
100
AcDbDictionary
  0
ACDBDICTIONARYWDFLT
  5
1965
102
{ACAD_REACTORS
330
C
102
}
330
C
100
AcDbDictionary
281
     1
  3
Normal
350
1966
  3
Style 1
350
22CE
100
AcDbDictionaryWithDefault
340
1966
  0
DICTIONARY
  5
2360
102
{ACAD_REACTORS
330
C
102
}
330
C
100
AcDbDictionary
  3
CEPSNTYPE
350
236A
  3
DIMSTYLEDATA
350
236E
  3
FINGERPRINTGUID
350
236B
  3
HYPERLINKBASE
350
2363
  3
INSUNITS
350
2369
  3
LAYOUTDICT
350
2365
  3
LWETCUNION
350
2368
  3
PLOTSETDICT
350
2366
  3
PLOTSTYLNAMDICT
350
2367
  3
PSVPSCALE
350
236D
  3
PUCSBASE
350
2371
  3
PUCSORGBACK
350
2377
  3
PUCSORGBOTTOM
350
2373
  3
PUCSORGFRONT
350
2376
  3
PUCSORGLEFT
350
2374
  3
PUCSORGRIGHT
350
2375
  3
PUCSORGTOP
350
2372
  3
PUCSORTHOREF
350
236F
  3
PUCSORTHOVIEW
350
2370
  3
STYLESHEET
350
2364
  3
TSTACKALIGN
350
2361
  3
TSTACKSIZE
350
2362
  3
UCSBASE
350
237A
  3
UCSORGBACK
350
2380
  3
UCSORGBOTTOM
350
237C
  3
UCSORGFRONT
350
237F
  3
UCSORGLEFT
350
237D
  3
UCSORGRIGHT
350
237E
  3
UCSORGTOP
350
237B
  3
UCSORTHOREF
350
2378
  3
UCSORTHOVIEW
350
2379
  3
VERSIONGUID
350
236C
  0
DICTIONARY
  5
30
102
{ACAD_REACTORS
330
C
102
}
330
C
100
AcDbDictionary
  3
DIMADEC
350
31
  3
DIMASSOC
350
1CA8
  0
XRECORD
  5
2382
102
{ACAD_REACTORS
330
1CF5
102
}
330
1CF5
100
AcDbXrecord
340
17
  0
XRECORD
  5
2381
102
{ACAD_REACTORS
330
1CF3
102
}
330
1CF3
100
AcDbXrecord
340
14
  0
MLINESTYLE
  5
1B
102
{ACAD_REACTORS
330
1A
102
}
330
1A
100
AcDbMlineStyle
  2
STANDARD
 70
     0
  3

 62
   256
 51
90.0
 52
90.0
 71
     2
 49
0.5
 62
   256
  6
BYLAYER
 49
-0.5
 62
   256
  6
BYLAYER
  0
ACDBPLACEHOLDER
  5
1966
102
{ACAD_REACTORS
330
1965
102
}
330
1965
100
AcDbPlaceHolder
280
     0
  0
ACDBPLACEHOLDER
  5
22CE
102
{ACAD_REACTORS
330
1965
102
}
330
1965
100
AcDbPlaceHolder
280
     0
  0
XRECORD
  5
236A
102
{ACAD_REACTORS
330
2360
102
}
330
2360
100
AcDbXrecord
 90
        0
  0
XRECORD
  5
236E
102
{ACAD_REACTORS
330
2360
102
}
330
2360
100
AcDbXrecord
1000
DSTYLE
1002
{
1070
   289
 70
     1
1002
}
  0
XRECORD
  5
236B
102
{ACAD_REACTORS
330
2360
102
}
330
2360
100
AcDbXrecord
  1
{9ED668E0-09C4-11D6-B7C2-00B0D0421EA1}
  0
XRECORD
  5
2363
102
{ACAD_REACTORS
330
2360
102
}
330
2360
100
AcDbXrecord
  1

  0
XRECORD
  5
2369
102
{ACAD_REACTORS
330
2360
102
}
330
2360
100
AcDbXrecord
 90
        0
  0
XRECORD
  5
2365
102
{ACAD_REACTORS
330
2360
102
}
330
2360
100
AcDbXrecord
340
1967
  0
XRECORD
  5
2368
102
{ACAD_REACTORS
330
2360
102
}
330
2360
100
AcDbXrecord
 90
    10781
  0
XRECORD
  5
2366
102
{ACAD_REACTORS
330
2360
102
}
330
2360
100
AcDbXrecord
340
1968
  0
XRECORD
  5
2367
102
{ACAD_REACTORS
330
2360
102
}
330
2360
100
AcDbXrecord
340
1965
  0
XRECORD
  5
236D
102
{ACAD_REACTORS
330
2360
102
}
330
2360
100
AcDbXrecord
 40
0.0
  0
XRECORD
  5
2371
102
{ACAD_REACTORS
330
2360
102
}
330
2360
100
AcDbXrecord
340
0
  0
XRECORD
  5
2377
102
{ACAD_REACTORS
330
2360
102
}
330
2360
100
AcDbXrecord
 10
0.0
 20
0.0
 30
0.0
  0
XRECORD
  5
2373
102
{ACAD_REACTORS
330
2360
102
}
330
2360
100
AcDbXrecord
 10
0.0
 20
0.0
 30
0.0
  0
XRECORD
  5
2376
102
{ACAD_REACTORS
330
2360
102
}
330
2360
100
AcDbXrecord
 10
0.0
 20
0.0
 30
0.0
  0
XRECORD
  5
2374
102
{ACAD_REACTORS
330
2360
102
}
330
2360
100
AcDbXrecord
 10
0.0
 20
0.0
 30
0.0
  0
XRECORD
  5
2375
102
{ACAD_REACTORS
330
2360
102
}
330
2360
100
AcDbXrecord
 10
0.0
 20
0.0
 30
0.0
  0
XRECORD
  5
2372
102
{ACAD_REACTORS
330
2360
102
}
330
2360
100
AcDbXrecord
 10
0.0
 20
0.0
 30
0.0
  0
XRECORD
  5
236F
102
{ACAD_REACTORS
330
2360
102
}
330
2360
100
AcDbXrecord
340
0
  0
XRECORD
  5
2370
102
{ACAD_REACTORS
330
2360
102
}
330
2360
100
AcDbXrecord
 70
     0
  0
XRECORD
  5
2364
102
{ACAD_REACTORS
330
2360
102
}
330
2360
100
AcDbXrecord
  1
monochrome.ctb
  0
XRECORD
  5
2361
102
{ACAD_REACTORS
330
2360
102
}
330
2360
100
AcDbXrecord
 90
        1
  0
XRECORD
  5
2362
102
{ACAD_REACTORS
330
2360
102
}
330
2360
100
AcDbXrecord
 90
       70
  0
XRECORD
  5
237A
102
{ACAD_REACTORS
330
2360
102
}
330
2360
100
AcDbXrecord
340
0
  0
XRECORD
  5
2380
102
{ACAD_REACTORS
330
2360
102
}
330
2360
100
AcDbXrecord
 10
0.0
 20
0.0
 30
0.0
  0
XRECORD
  5
237C
102
{ACAD_REACTORS
330
2360
102
}
330
2360
100
AcDbXrecord
 10
0.0
 20
0.0
 30
0.0
  0
XRECORD
  5
237F
102
{ACAD_REACTORS
330
2360
102
}
330
2360
100
AcDbXrecord
 10
0.0
 20
0.0
 30
0.0
  0
XRECORD
  5
237D
102
{ACAD_REACTORS
330
2360
102
}
330
2360
100
AcDbXrecord
 10
0.0
 20
0.0
 30
0.0
  0
XRECORD
  5
237E
102
{ACAD_REACTORS
330
2360
102
}
330
2360
100
AcDbXrecord
 10
0.0
 20
0.0
 30
0.0
  0
XRECORD
  5
237B
102
{ACAD_REACTORS
330
2360
102
}
330
2360
100
AcDbXrecord
 10
0.0
 20
0.0
 30
0.0
  0
XRECORD
  5
2378
102
{ACAD_REACTORS
330
2360
102
}
330
2360
100
AcDbXrecord
340
0
  0
XRECORD
  5
2379
102
{ACAD_REACTORS
330
2360
102
}
330
2360
100
AcDbXrecord
 70
     0
  0
XRECORD
  5
236C
102
{ACAD_REACTORS
330
2360
102
}
330
2360
100
AcDbXrecord
  1
{81CD84BD-4926-460A-BDCE-22F7D485F5C0}
  0
DICTIONARYVAR
  5
31
102
{ACAD_REACTORS
330
30
102
}
330
30
100
DictionaryVariables
280
     0
  1
1
  0
DICTIONARYVAR
  5
1CA8
102
{ACAD_REACTORS
330
30
102
}
330
30
100
DictionaryVariables
280
     0
  1
0
  0
ENDSEC
  0
EOF
