  0
SECTION
  2
HEADER
  9
$ACADVER
  1
AC1014
  9
$ACADMAINTVER
 70
     9
  9
$DWGCODEPAGE
  3
ANSI_1252
  9
$INSBASE
 10
0.0
 20
0.0
 30
0.0
  9
$EXTMIN
 10
-0.001
 20
-0.001
 30
0.0
  9
$EXTMAX
 10
68.001
 20
44.001
 30
0.0
  9
$LIMMIN
 10
0.0
 20
0.0
  9
$LIMMAX
 10
34.0
 20
22.0
  9
$ORTHOMODE
 70
     1
  9
$REGENMODE
 70
     1
  9
$FILLMODE
 70
     1
  9
$QTEXTMODE
 70
     0
  9
$MIRRTEXT
 70
     1
  9
$DRAGMODE
 70
     2
  9
$LTSCALE
 40
1.0
  9
$OSMODE
 70
   433
  9
$ATTMODE
 70
     1
  9
$TEXTSIZE
 40
0.125
  9
$TRACEWID
 40
0.05
  9
$TEXTSTYLE
  7
STANDARD
  9
$CLAYER
  8
DIM
  9
$CELTYPE
  6
BYLAYER
  9
$CECOLOR
 62
   256
  9
$CELTSCALE
 40
1.0
  9
$DELOBJ
 70
     1
  9
$DISPSILH
 70
     0
  9
$DIMSCALE
 40
1.0
  9
$DIMASZ
 40
0.13
  9
$DIMEXO
 40
0.05
  9
$DIMDLI
 40
0.38
  9
$DIMRND
 40
0.0
  9
$DIMDLE
 40
0.0
  9
$DIMEXE
 40
0.125
  9
$DIMTP
 40
0.0
  9
$DIMTM
 40
0.0
  9
$DIMTXT
 40
0.125
  9
$DIMCEN
 40
0.09
  9
$DIMTSZ
 40
0.0
  9
$DIMTOL
 70
     0
  9
$DIMLIM
 70
     0
  9
$DIMTIH
 70
     1
  9
$DIMTOH
 70
     1
  9
$DIMSE1
 70
     0
  9
$DIMSE2
 70
     0
  9
$DIMTAD
 70
     0
  9
$DIMZIN
 70
     4
  9
$DIMBLK
  1

  9
$DIMASO
 70
     1
  9
$DIMSHO
 70
     1
  9
$DIMPOST
  1

  9
$DIMAPOST
  1

  9
$DIMALT
 70
     1
  9
$DIMALTD
 70
     2
  9
$DIMALTF
 40
25.4
  9
$DIMLFAC
 40
1.0
  9
$DIMTOFL
 70
     0
  9
$DIMTVP
 40
0.0
  9
$DIMTIX
 70
     0
  9
$DIMSOXD
 70
     0
  9
$DIMSAH
 70
     0
  9
$DIMBLK1
  1

  9
$DIMBLK2
  1

  9
$DIMSTYLE
  2
STANDARD
  9
$DIMCLRD
 70
     0
  9
$DIMCLRE
 70
     0
  9
$DIMCLRT
 70
     0
  9
$DIMTFAC
 40
1.0
  9
$DIMGAP
 40
0.06
  9
$DIMJUST
 70
     0
  9
$DIMSD1
 70
     0
  9
$DIMSD2
 70
     0
  9
$DIMTOLJ
 70
     1
  9
$DIMTZIN
 70
     0
  9
$DIMALTZ
 70
     4
  9
$DIMALTTZ
 70
     0
  9
$DIMFIT
 70
     3
  9
$DIMUPT
 70
     0
  9
$DIMUNIT
 70
     2
  9
$DIMDEC
 70
     2
  9
$DIMTDEC
 70
     2
  9
$DIMALTU
 70
     2
  9
$DIMALTTD
 70
     2
  9
$DIMTXSTY
  7
STANDARD
  9
$DIMAUNIT
 70
     0
  9
$LUNITS
 70
     2
  9
$LUPREC
 70
     2
  9
$SKETCHINC
 40
0.1
  9
$FILLETRAD
 40
0.5
  9
$AUNITS
 70
     0
  9
$AUPREC
 70
     2
  9
$MENU
  1
.
  9
$ELEVATION
 40
0.0
  9
$PELEVATION
 40
0.0
  9
$THICKNESS
 40
0.0
  9
$LIMCHECK
 70
     0
  9
$CHAMFERA
 40
0.5
  9
$CHAMFERB
 40
0.5
  9
$CHAMFERC
 40
1.0
  9
$CHAMFERD
 40
0.0
  9
$SKPOLY
 70
     0
  9
$TDCREATE
 40
2456454.67858632
  9
$TDUPDATE
 40
2456889.574464618
  9
$TDINDWG
 40
0.0811868403
  9
$TDUSRTIMER
 40
2456889.782455266
  9
$USRTIMER
 70
     1
  9
$ANGBASE
 50
0.0
  9
$ANGDIR
 70
     0
  9
$PDMODE
 70
     0
  9
$PDSIZE
 40
-1.0
  9
$PLINEWID
 40
0.0
  9
$COORDS
 70
     1
  9
$SPLFRAME
 70
     0
  9
$SPLINETYPE
 70
     6
  9
$SPLINESEGS
 70
     8
  9
$ATTDIA
 70
     0
  9
$ATTREQ
 70
     1
  9
$HANDLING
 70
     1
  9
$HANDSEED
  5
DA4D
  9
$SURFTAB1
 70
     6
  9
$SURFTAB2
 70
     6
  9
$SURFTYPE
 70
     6
  9
$SURFU
 70
     6
  9
$SURFV
 70
     6
  9
$UCSNAME
  2

  9
$UCSORG
 10
0.0
 20
0.0
 30
0.0
  9
$UCSXDIR
 10
1.0
 20
0.0
 30
0.0
  9
$UCSYDIR
 10
0.0
 20
1.0
 30
0.0
  9
$PUCSNAME
  2

  9
$PUCSORG
 10
0.0
 20
0.0
 30
0.0
  9
$PUCSXDIR
 10
1.0
 20
0.0
 30
0.0
  9
$PUCSYDIR
 10
0.0
 20
1.0
 30
0.0
  9
$USERI1
 70
     0
  9
$USERI2
 70
     0
  9
$USERI3
 70
     0
  9
$USERI4
 70
     0
  9
$USERI5
 70
     0
  9
$USERR1
 40
0.0
  9
$USERR2
 40
0.0
  9
$USERR3
 40
0.0
  9
$USERR4
 40
0.0
  9
$USERR5
 40
0.0
  9
$WORLDVIEW
 70
     1
  9
$SHADEDGE
 70
     3
  9
$SHADEDIF
 70
    70
  9
$TILEMODE
 70
     1
  9
$MAXACTVP
 70
    64
  9
$PINSBASE
 10
0.0
 20
0.0
 30
0.0
  9
$PLIMCHECK
 70
     0
  9
$PEXTMIN
 10
1.000000000000000E+20
 20
1.000000000000000E+20
 30
1.000000000000000E+20
  9
$PEXTMAX
 10
-1.000000000000000E+20
 20
-1.000000000000000E+20
 30
-1.000000000000000E+20
  9
$PLIMMIN
 10
0.0
 20
0.0
  9
$PLIMMAX
 10
0.0
 20
0.0
  9
$UNITMODE
 70
     0
  9
$VISRETAIN
 70
     1
  9
$PLINEGEN
 70
     0
  9
$PSLTSCALE
 70
     1
  9
$TREEDEPTH
 70
  3020
  9
$PICKSTYLE
 70
     1
  9
$CMLSTYLE
  2
STANDARD
  9
$CMLJUST
 70
     0
  9
$CMLSCALE
 40
1.0
  9
$PROXYGRAPHICS
 70
     1
  9
$MEASUREMENT
 70
     0
  0
ENDSEC
  0
SECTION
  2
CLASSES
  0
CLASS
  1
ACDBDICTIONARYWDFLT
  2
AcDbDictionaryWithDefault
  3
ObjectDBX Classes
 90
        0
280
     0
281
     0
  0
CLASS
  1
VISUALSTYLE
  2
AcDbVisualStyle
  3
ObjectDBX Classes
 90
     4095
280
     0
281
     0
  0
CLASS
  1
MATERIAL
  2
AcDbMaterial
  3
ObjectDBX Classes
 90
     1153
280
     0
281
     0
  0
CLASS
  1
SCALE
  2
AcDbScale
  3
ObjectDBX Classes
 90
     1153
280
     0
281
     0
  0
CLASS
  1
DICTIONARYVAR
  2
AcDbDictionaryVar
  3
ObjectDBX Classes
 90
        0
280
     0
281
     0
  0
CLASS
  1
ACDBPLACEHOLDER
  2
AcDbPlaceHolder
  3
ObjectDBX Classes
 90
        0
280
     0
281
     0
  0
CLASS
  1
LAYOUT
  2
AcDbLayout
  3
ObjectDBX Classes
 90
        0
280
     0
281
     0
  0
CLASS
  1
TABLESTYLE
  2
AcDbTableStyle
  3
ObjectDBX Classes
 90
     4095
280
     0
281
     0
  0
CLASS
  1
RASTERVARIABLES
  2
AcDbRasterVariables
  3
ISM
 90
        0
280
     0
281
     0
  0
CLASS
  1
XRECORD
  2
AcDbXrecord
  3
AutoCAD 2000
 90
        0
280
     0
281
     0
  0
CLASS
  1
LWPOLYLINE
  2
AcDbPolyline
  3
AutoCAD 2000
 90
        0
280
     0
281
     1
  0
CLASS
  1
HATCH
  2
AcDbHatch
  3
AutoCAD 2000
 90
        0
280
     0
281
     1
  0
ENDSEC
  0
SECTION
  2
TABLES
  0
TABLE
  2
VPORT
  5
8
330
0
100
AcDbSymbolTable
 70
    11
  0
VPORT
  5
1B6E
330
8
100
AcDbSymbolTableRecord
100
AcDbViewportTableRecord
  2
*ACTIVE
 70
     0
 10
0.0
 20
0.0
 11
1.0
 21
1.0
 12
34.00000000000001
 22
22.0
 13
0.0
 23
0.0
 14
0.5
 24
0.5
 15
0.5
 25
0.5
 16
0.0
 26
0.0
 36
1.0
 17
0.0
 27
0.0
 37
0.0
 40
44.88204
 41
1.59136690647482
 42
50.0
 43
0.0
 44
0.0
 50
0.0
 51
0.0
 71
    16
 72
  2000
 73
     1
 74
     3
 75
     0
 76
     0
 77
     0
 78
     0
  0
ENDTAB
  0
TABLE
  2
LTYPE
  5
5
330
0
100
AcDbSymbolTable
 70
     5
  0
LTYPE
  5
14
330
5
100
AcDbSymbolTableRecord
100
AcDbLinetypeTableRecord
  2
BYBLOCK
 70
     0
  3

 72
    65
 73
     0
 40
0.0
  0
LTYPE
  5
15
330
5
100
AcDbSymbolTableRecord
100
AcDbLinetypeTableRecord
  2
BYLAYER
 70
     0
  3

 72
    65
 73
     0
 40
0.0
  0
LTYPE
  5
16
330
5
100
AcDbSymbolTableRecord
100
AcDbLinetypeTableRecord
  2
CONTINUOUS
 70
     0
  3
Solid line
 72
    65
 73
     0
 40
0.0
  0
LTYPE
  5
40
330
5
100
AcDbSymbolTableRecord
100
AcDbLinetypeTableRecord
  2
PHANTOM
 70
     0
  3
Phantom ______  __  __  ______  __  __  ______
 72
    65
 73
     6
 40
0.4999999999999999
 49
0.25
 74
     0
 49
-0.05
 74
     0
 49
0.05
 74
     0
 49
-0.05
 74
     0
 49
0.05
 74
     0
 49
-0.05
 74
     0
  0
LTYPE
  5
41
330
5
100
AcDbSymbolTableRecord
100
AcDbLinetypeTableRecord
  2
CENTER
 70
     0
  3
Center ____ _ ____ _ ____ _ ____ _ ____ _ ____
 72
    65
 73
     4
 40
0.4
 49
0.25
 74
     0
 49
-0.05
 74
     0
 49
0.05
 74
     0
 49
-0.05
 74
     0
  0
LTYPE
  5
B762
330
5
100
AcDbSymbolTableRecord
100
AcDbLinetypeTableRecord
  2
HIDDEN
 70
     0
  3
Hidden __ __ __ __ __ __ __ __ __ __ __ __ __ _
 72
    65
 73
     2
 40
0.375
 49
0.25
 74
     0
 49
-0.125
 74
     0
  0
ENDTAB
  0
TABLE
  2
LAYER
  5
2
102
{ACAD_XDICTIONARY
360
1B88
102
}
330
0
100
AcDbSymbolTable
 70
    16
  0
LAYER
  5
10
330
2
100
AcDbSymbolTableRecord
100
AcDbLayerTableRecord
  2
0
 70
     0
 62
     7
  6
CONTINUOUS
  0
LAYER
  5
45
330
2
100
AcDbSymbolTableRecord
100
AcDbLayerTableRecord
  2
FORMAT
 70
     0
 62
     7
  6
CONTINUOUS
  0
LAYER
  5
46
330
2
100
AcDbSymbolTableRecord
100
AcDbLayerTableRecord
  2
TXT
 70
     0
 62
     3
  6
CONTINUOUS
  0
LAYER
  5
47
330
2
100
AcDbSymbolTableRecord
100
AcDbLayerTableRecord
  2
TB-TXT
 70
     0
 62
     3
  6
CONTINUOUS
  0
LAYER
  5
A13
330
2
100
AcDbSymbolTableRecord
100
AcDbLayerTableRecord
  2
DIM
 70
     0
 62
     1
  6
CONTINUOUS
  0
LAYER
  5
A33
330
2
100
AcDbSymbolTableRecord
100
AcDbLayerTableRecord
  2
DEFPOINTS
 70
     0
 62
     7
  6
CONTINUOUS
  0
LAYER
  5
B5FF
330
2
100
AcDbSymbolTableRecord
100
AcDbLayerTableRecord
  2
SILK2
 70
     0
 62
     7
  6
CONTINUOUS
  0
LAYER
  5
B601
330
2
100
AcDbSymbolTableRecord
100
AcDbLayerTableRecord
  2
CORNERS
 70
     0
 62
     5
  6
CONTINUOUS
  0
LAYER
  5
B6A9
330
2
100
AcDbSymbolTableRecord
100
AcDbLayerTableRecord
  2
SILK1
 70
     0
 62
     9
  6
CONTINUOUS
  0
LAYER
  5
B75F
330
2
100
AcDbSymbolTableRecord
100
AcDbLayerTableRecord
  2
SILK
 70
     0
 62
     7
  6
CONTINUOUS
  0
LAYER
  5
B7DB
330
2
100
AcDbSymbolTableRecord
100
AcDbLayerTableRecord
  2
PART
 70
     0
 62
     7
  6
CONTINUOUS
  0
LAYER
  5
C29F
330
2
100
AcDbSymbolTableRecord
100
AcDbLayerTableRecord
  2
DETAIL
 70
     0
 62
     7
  6
CONTINUOUS
  0
ENDTAB
  0
TABLE
  2
STYLE
  5
3
330
0
100
AcDbSymbolTable
 70
    13
  0
STYLE
  5
11
330
3
100
AcDbSymbolTableRecord
100
AcDbTextStyleTableRecord
  2
STANDARD
 70
     0
 40
0.0
 41
1.0
 50
0.0
 71
     0
 42
0.125
  3
txt
  4

  0
STYLE
  5
A16
330
3
100
AcDbSymbolTableRecord
100
AcDbTextStyleTableRecord
  2
ROMANS
 70
     0
 40
0.0
 41
1.0
 50
0.0
 71
     0
 42
4.0
  3
ROMANS.SHX
  4

  0
STYLE
  5
A17
330
3
100
AcDbSymbolTableRecord
100
AcDbTextStyleTableRecord
  2
ARIAL
 70
     0
 40
0.0
 41
1.0
 50
0.0
 71
     0
 42
0.12
  3
arial.ttf
  4

1001
ACAD
1000
Arial
1071
       34
  0
STYLE
  5
B604
330
3
100
AcDbSymbolTableRecord
100
AcDbTextStyleTableRecord
  2
R
 70
     0
 40
0.0
 41
1.0
 50
0.0
 71
     0
 42
0.2
  3
swissc.ttf
  4

1001
ACAD
1000
Swis721 Cn BT
1071
       34
  0
STYLE
  5
B765
330
3
100
AcDbSymbolTableRecord
100
AcDbTextStyleTableRecord
  2
B
 70
     0
 40
0.0
 41
1.0
 50
0.0
 71
     0
 42
0.06
  3
swisscb.ttf
  4

1001
ACAD
1000
Swis721 Cn BT
1071
 33554466
  0
STYLE
  5
C2A3
330
3
100
AcDbSymbolTableRecord
100
AcDbTextStyleTableRecord
  2
TEXTSTYLE_2
 70
     0
 40
0.0
 41
0.8
 50
0.0
 71
     0
 42
0.2
  3
txt
  4

  0
ENDTAB
  0
TABLE
  2
VIEW
  5
6
330
0
100
AcDbSymbolTable
 70
     0
  0
ENDTAB
  0
TABLE
  2
UCS
  5
7
330
0
100
AcDbSymbolTable
 70
     0
  0
ENDTAB
  0
TABLE
  2
APPID
  5
9
330
0
100
AcDbSymbolTable
 70
     2
  0
APPID
  5
12
330
9
100
AcDbSymbolTableRecord
100
AcDbRegAppTableRecord
  2
ACAD
 70
     0
  0
APPID
  5
D9CF
330
9
100
AcDbSymbolTableRecord
100
AcDbRegAppTableRecord
  2
ACAD_DSTYLE_DIMRADIAL_EXTE
 70
     0
  0
ENDTAB
  0
TABLE
  2
DIMSTYLE
  5
A
330
0
100
AcDbSymbolTable
 70
     1
  0
DIMSTYLE
105
27
102
{ACAD_REACTORS
330
D997
330
D9A5
330
D9B3
330
D9C1
330
D9D0
330
D9DC
330
D9E8
330
D9F4
102
}
330
A
100
AcDbSymbolTableRecord
100
AcDbDimStyleTableRecord
  2
STANDARD
 70
     0
  3

  4

  5

  6

  7

 40
1.0
 41
0.18
 42
0.0625
 43
0.38
 44
0.18
 45
0.0
 46
0.0
 47
0.0
 48
0.0
140
0.18
141
0.09
142
0.0
143
25.4
144
1.0
145
0.0
146
1.0
147
0.09
 71
     0
 72
     0
 73
     1
 74
     1
 75
     0
 76
     0
 77
     0
 78
     0
170
     0
171
     2
172
     0
173
     0
174
     0
175
     0
176
     0
177
     0
178
     0
270
     2
271
     4
272
     4
273
     2
274
     2
340
11
275
     0
280
     0
281
     0
282
     0
283
     1
284
     0
285
     0
286
     0
287
     3
288
     0
  0
ENDTAB
  0
TABLE
  2
BLOCK_RECORD
  5
1
330
0
100
AcDbSymbolTable
 70
    47
  0
BLOCK_RECORD
  5
1F
330
1
100
AcDbSymbolTableRecord
100
AcDbBlockTableRecord
  2
*MODEL_SPACE
  0
BLOCK_RECORD
  5
1B
330
1
100
AcDbSymbolTableRecord
100
AcDbBlockTableRecord
  2
*PAPER_SPACE
  0
BLOCK_RECORD
  5
23
330
1
100
AcDbSymbolTableRecord
100
AcDbBlockTableRecord
  2
*PAPER_SPACE0
  0
BLOCK_RECORD
  5
96A
330
1
100
AcDbSymbolTableRecord
100
AcDbBlockTableRecord
  2
REV-BLOCK
  0
BLOCK_RECORD
  5
973
330
1
100
AcDbSymbolTableRecord
100
AcDbBlockTableRecord
  2
TITLE-BLOCK
  0
BLOCK_RECORD
  5
D998
330
1
100
AcDbSymbolTableRecord
100
AcDbBlockTableRecord
  2
*D39
  0
BLOCK_RECORD
  5
D9A6
330
1
100
AcDbSymbolTableRecord
100
AcDbBlockTableRecord
  2
*D40
  0
BLOCK_RECORD
  5
D9B4
330
1
100
AcDbSymbolTableRecord
100
AcDbBlockTableRecord
  2
*D41
  0
BLOCK_RECORD
  5
D9C2
330
1
100
AcDbSymbolTableRecord
100
AcDbBlockTableRecord
  2
*D42
  0
BLOCK_RECORD
  5
D9D1
330
1
100
AcDbSymbolTableRecord
100
AcDbBlockTableRecord
  2
*D43
  0
BLOCK_RECORD
  5
D9DD
330
1
100
AcDbSymbolTableRecord
100
AcDbBlockTableRecord
  2
*D44
  0
BLOCK_RECORD
  5
D9E9
330
1
100
AcDbSymbolTableRecord
100
AcDbBlockTableRecord
  2
*D45
  0
BLOCK_RECORD
  5
D9F5
330
1
100
AcDbSymbolTableRecord
100
AcDbBlockTableRecord
  2
*D46
  0
ENDTAB
  0
ENDSEC
  0
SECTION
  2
BLOCKS
  0
BLOCK
  5
20
330
1F
100
AcDbEntity
  8
0
100
AcDbBlockBegin
  2
*MODEL_SPACE
 70
     0
 10
0.0
 20
0.0
 30
0.0
  3
*MODEL_SPACE
  1

  0
ENDBLK
  5
21
330
1F
100
AcDbEntity
  8
0
100
AcDbBlockEnd
  0
BLOCK
  5
1C
330
1B
100
AcDbEntity
 67
     1
  8
0
100
AcDbBlockBegin
  2
*PAPER_SPACE
 70
     0
 10
0.0
 20
0.0
 30
0.0
  3
*PAPER_SPACE
  1

  0
ENDBLK
  5
1D
330
1B
100
AcDbEntity
 67
     1
  8
0
100
AcDbBlockEnd
  0
BLOCK
  5
24
330
23
100
AcDbEntity
  8
0
100
AcDbBlockBegin
  2
*PAPER_SPACE0
 70
     0
 10
0.0
 20
0.0
 30
0.0
  3
*PAPER_SPACE0
  1

  0
ENDBLK
  5
25
330
23
100
AcDbEntity
  8
0
100
AcDbBlockEnd
  0
BLOCK
  5
971
330
96A
100
AcDbEntity
  8
0
100
AcDbBlockBegin
  2
REV-BLOCK
 70
     2
 10
0.0
 20
0.0
 30
0.0
  3
REV-BLOCK
  1

  0
ATTDEF
  5
96B
330
96A
100
AcDbEntity
  8
TB-TXT
100
AcDbText
 10
-7.419585413768535
 20
-0.2641364156046725
 30
0.0
 40
0.12
  1
--
  7
ARIAL
 72
     1
 11
-7.363760038598002
 21
-0.2041364156046725
 31
0.0
100
AcDbAttributeDefinition
  3
REV
  2
REV
 70
     0
 74
     2
  0
ATTDEF
  5
96C
330
96A
100
AcDbEntity
  8
TB-TXT
100
AcDbText
 10
-7.021598876369779
 20
-0.2621627084294076
 30
0.0
 40
0.12
  1

  7
ARIAL
100
AcDbAttributeDefinition
  3
ECN N0,
  2
ECN
 70
     0
  0
ATTDEF
  5
96D
330
96A
100
AcDbEntity
  8
TB-TXT
100
AcDbText
 10
-6.384132553865101
 20
-0.2621627084294076
 30
0.0
 40
0.12
  1

  7
ARIAL
100
AcDbAttributeDefinition
  3
DESCRIPTION
  2
DESCRIPTION
 70
     0
  0
ATTDEF
  5
96E
330
96A
100
AcDbEntity
  8
TB-TXT
100
AcDbText
 10
-1.912314371261914
 20
-0.2641364156046725
 30
0.0
 40
0.12
  1

  7
ARIAL
 72
     1
 11
-1.912314371261914
 21
-0.2041364156046725
 31
0.0
100
AcDbAttributeDefinition
  3
REV DATE
  2
REV-DATE
 70
     0
 74
     2
  0
ATTDEF
  5
96F
330
96A
100
AcDbEntity
  8
TB-TXT
100
AcDbText
 10
-0.700882090597787
 20
-0.2641364156046725
 30
0.0
 40
0.12
  1

  7
ARIAL
 72
     1
 11
-0.700882090597787
 21
-0.2041364156046725
 31
0.0
100
AcDbAttributeDefinition
  3
APPR
  2
APPR
 70
     0
 74
     2
  0
LWPOLYLINE
  5
970
330
96A
100
AcDbEntity
  8
FORMAT
100
AcDbPolyline
 90
        2
 70
     0
 43
0.0198
 10
-7.662633477940091
 20
-0.4059699235454914
 10
0.0
 20
-0.4059699235454914
  0
ENDBLK
  5
972
330
96A
100
AcDbEntity
  8
0
100
AcDbBlockEnd
  0
BLOCK
  5
97D
330
973
100
AcDbEntity
  8
0
100
AcDbBlockBegin
  2
TITLE-BLOCK
 70
     2
 10
0.0
 20
0.0
 30
0.0
  3
TITLE-BLOCK
  1

  0
ATTDEF
  5
974
330
973
100
AcDbEntity
  8
TB-TXT
100
AcDbText
 10
-5.452069740892156
 20
1.724637434505384
 30
0.0
 40
0.15996
  1

  7
ARIAL
100
AcDbAttributeDefinition
  3
TITLE (LINE 1)
  2
LINE1
 70
     0
  0
ATTDEF
  5
975
330
973
100
AcDbEntity
  8
TB-TXT
100
AcDbText
 10
-5.452069740892156
 20
1.465654577362527
 30
0.0
 40
0.15996
  1

  7
ARIAL
100
AcDbAttributeDefinition
  3
TITLE (LINE 2)
  2
LINE2
 70
     0
  0
ATTDEF
  5
976
330
973
100
AcDbEntity
  8
TB-TXT
100
AcDbText
 10
-5.452069740892156
 20
1.206671720219671
 30
0.0
 40
0.15996
  1

  7
ARIAL
100
AcDbAttributeDefinition
  3
TITLE (LINE 3)
  2
LINE3
 70
     0
  0
ATTDEF
  5
977
330
973
100
AcDbEntity
  8
TB-TXT
100
AcDbText
 10
-5.452069740892156
 20
0.9476888630768138
 30
0.0
 40
0.15996
  1

  7
ARIAL
100
AcDbAttributeDefinition
  3
TITLE (LINE 4)
  2
LINE4
 70
     0
  0
ATTDEF
  5
978
330
973
100
AcDbEntity
  8
TB-TXT
100
AcDbText
 10
-2.607663526262058
 20
0.4958239300695659
 30
0.0
 40
0.12
  1

  7
ARIAL
100
AcDbAttributeDefinition
  3
DWG NO.
  2
DWG#
 70
     0
  0
ATTDEF
  5
979
330
973
100
AcDbEntity
  8
TB-TXT
100
AcDbText
 10
-5.506905230490375
 20
0.1136078675417114
 30
0.0
 40
0.12
  1

  7
ARIAL
100
AcDbAttributeDefinition
  3
FILE NO.
  2
FILE#
 70
     0
  0
ATTDEF
  5
97A
330
973
100
AcDbEntity
  8
TB-TXT
100
AcDbText
 10
-0.2425360425092862
 20
0.4881363695403174
 30
0.0
 40
0.12
  1

  7
ARIAL
 72
     4
 11
-0.2425360425092862
 21
0.4881363695403174
 31
0.0
100
AcDbAttributeDefinition
  3
REV
  2
REV
 70
     0
  0
ATTDEF
  5
97B
330
973
100
AcDbEntity
  8
TB-TXT
100
AcDbText
 10
-4.48505514322369
 20
0.4958239300695659
 30
0.0
 40
0.12
  1
FULL
  7
ARIAL
100
AcDbAttributeDefinition
  3
SCALE
  2
SCALE
 70
     0
  0
ATTDEF
  5
97C
330
973
100
AcDbEntity
  8
TB-TXT
100
AcDbText
 10
-1.004564496465349
 20
0.0916846763858388
 30
0.0
 40
0.12
  1
1 OF 1
  7
ARIAL
100
AcDbAttributeDefinition
  3
SHEET N0.
  2
SHT#
 70
     0
  0
ENDBLK
  5
97E
330
973
100
AcDbEntity
  8
0
100
AcDbBlockEnd
  0
BLOCK
  5
D9A3
330
D998
100
AcDbEntity
  8
0
100
AcDbBlockBegin
  2
*D39
 70
     1
 10
0.0
 20
0.0
 30
0.0
  3
*D39
  1

  0
LINE
  5
D999
330
D998
100
AcDbEntity
  8
DIM
 62
     0
100
AcDbLine
 10
37.27452496777926
 20
26.52751639026556
 30
0.0
 11
37.27452496777926
 21
29.58047333097462
 31
0.0
  0
LINE
  5
D99A
330
D998
100
AcDbEntity
  8
DIM
 62
     0
100
AcDbLine
 10
40.74374496777926
 20
26.05451639026555
 30
0.0
 11
40.74374496777926
 21
29.58047333097462
 31
0.0
  0
LINE
  5
D99B
330
D998
100
AcDbEntity
  8
DIM
 62
     0
100
AcDbLine
 10
37.40452496777926
 20
29.45547333097462
 30
0.0
 11
37.78246830111259
 21
29.45547333097462
 31
0.0
  0
LINE
  5
D99C
330
D998
100
AcDbEntity
  8
DIM
 62
     0
100
AcDbLine
 10
40.61374496777925
 20
29.45547333097462
 30
0.0
 11
40.23580163444593
 21
29.45547333097462
 31
0.0
  0
SOLID
  5
D99D
330
D998
100
AcDbEntity
  8
DIM
 62
     0
100
AcDbTrace
 10
37.40452496777926
 20
29.47713999764129
 30
0.0
 11
37.40452496777926
 21
29.43380666430795
 31
0.0
 12
37.27452496777926
 22
29.45547333097462
 32
0.0
 13
37.27452496777926
 23
29.45547333097462
 33
0.0
  0
SOLID
  5
D99E
330
D998
100
AcDbEntity
  8
DIM
 62
     0
100
AcDbTrace
 10
40.61374496777925
 20
29.43380666430795
 30
0.0
 11
40.61374496777925
 21
29.47713999764129
 31
0.0
 12
40.74374496777926
 22
29.45547333097462
 32
0.0
 13
40.74374496777926
 23
29.45547333097462
 33
0.0
  0
MTEXT
  5
D99F
330
D998
100
AcDbEntity
  8
DIM
 62
     0
100
AcDbMText
 10
39.00913496777926
 20
29.45547333097462
 30
0.0
 40
0.25
 41
0.0
 71
     5
 72
     1
  1
\A1;3.47 [88.12]
  0
POINT
  5
D9A0
330
D998
100
AcDbEntity
  8
DEFPOINTS
 62
     0
100
AcDbPoint
 10
37.27452496777926
 20
26.47751639026556
 30
0.0
  0
POINT
  5
D9A1
330
D998
100
AcDbEntity
  8
DEFPOINTS
 62
     0
100
AcDbPoint
 10
40.74374496777926
 20
26.00451639026555
 30
0.0
  0
POINT
  5
D9A2
330
D998
100
AcDbEntity
  8
DEFPOINTS
 62
     0
100
AcDbPoint
 10
40.74374496777926
 20
29.45547333097462
 30
0.0
  0
ENDBLK
  5
D9A4
330
D998
100
AcDbEntity
  8
0
100
AcDbBlockEnd
  0
BLOCK
  5
D9B1
330
D9A6
100
AcDbEntity
  8
0
100
AcDbBlockBegin
  2
*D40
 70
     1
 10
0.0
 20
0.0
 30
0.0
  3
*D40
  1

  0
LINE
  5
D9A7
330
D9A6
100
AcDbEntity
  8
DIM
 62
     0
100
AcDbLine
 10
40.67074496777926
 20
26.12751639026555
 30
0.0
 11
43.21415727000658
 21
26.12751639026555
 31
0.0
  0
LINE
  5
D9A8
330
D9A6
100
AcDbEntity
  8
DIM
 62
     0
100
AcDbLine
 10
40.67074496777926
 20
20.82034639026555
 30
0.0
 11
43.21415727000658
 21
20.82034639026555
 31
0.0
  0
LINE
  5
D9A9
330
D9A6
100
AcDbEntity
  8
DIM
 62
     0
100
AcDbLine
 10
43.08915727000658
 20
25.99751639026556
 30
0.0
 11
43.08915727000658
 21
23.65893139026555
 31
0.0
  0
LINE
  5
D9AA
330
D9A6
100
AcDbEntity
  8
DIM
 62
     0
100
AcDbLine
 10
43.08915727000658
 20
20.95034639026555
 30
0.0
 11
43.08915727000658
 21
23.28893139026556
 31
0.0
  0
SOLID
  5
D9AB
330
D9A6
100
AcDbEntity
  8
DIM
 62
     0
100
AcDbTrace
 10
43.11082393667325
 20
25.99751639026556
 30
0.0
 11
43.06749060333991
 21
25.99751639026556
 31
0.0
 12
43.08915727000658
 22
26.12751639026555
 32
0.0
 13
43.08915727000658
 23
26.12751639026555
 33
0.0
  0
SOLID
  5
D9AC
330
D9A6
100
AcDbEntity
  8
DIM
 62
     0
100
AcDbTrace
 10
43.06749060333991
 20
20.95034639026555
 30
0.0
 11
43.11082393667325
 21
20.95034639026555
 31
0.0
 12
43.08915727000658
 22
20.82034639026555
 32
0.0
 13
43.08915727000658
 23
20.82034639026555
 33
0.0
  0
MTEXT
  5
D9AD
330
D9A6
100
AcDbEntity
  8
DIM
 62
     0
100
AcDbMText
 10
43.08915727000658
 20
23.47393139026556
 30
0.0
 40
0.25
 41
0.0
 71
     5
 72
     1
  1
\A1;5.31 [134.80]
  0
POINT
  5
D9AE
330
D9A6
100
AcDbEntity
  8
DEFPOINTS
 62
     0
100
AcDbPoint
 10
40.62074496777926
 20
26.12751639026555
 30
0.0
  0
POINT
  5
D9AF
330
D9A6
100
AcDbEntity
  8
DEFPOINTS
 62
     0
100
AcDbPoint
 10
40.62074496777926
 20
20.82034639026555
 30
0.0
  0
POINT
  5
D9B0
330
D9A6
100
AcDbEntity
  8
DEFPOINTS
 62
     0
100
AcDbPoint
 10
43.08915727000658
 20
20.82034639026555
 30
0.0
  0
ENDBLK
  5
D9B2
330
D9A6
100
AcDbEntity
  8
0
100
AcDbBlockEnd
  0
BLOCK
  5
D9BF
330
D9B4
100
AcDbEntity
  8
0
100
AcDbBlockBegin
  2
*D41
 70
     1
 10
0.0
 20
0.0
 30
0.0
  3
*D41
  1

  0
LINE
  5
D9B5
330
D9B4
100
AcDbEntity
  8
DIM
 62
     0
100
AcDbLine
 10
24.37901547937926
 20
27.61751639026555
 30
0.0
 11
24.37901547937926
 21
29.4008480325382
 31
0.0
  0
LINE
  5
D9B6
330
D9B4
100
AcDbEntity
  8
DIM
 62
     0
100
AcDbLine
 10
32.06072547937926
 20
27.61751639026555
 30
0.0
 11
32.06072547937926
 21
29.4008480325382
 31
0.0
  0
LINE
  5
D9B7
330
D9B4
100
AcDbEntity
  8
DIM
 62
     0
100
AcDbLine
 10
24.50901547937926
 20
29.2758480325382
 30
0.0
 11
26.90987047937926
 21
29.2758480325382
 31
0.0
  0
LINE
  5
D9B8
330
D9B4
100
AcDbEntity
  8
DIM
 62
     0
100
AcDbLine
 10
31.93072547937926
 20
29.2758480325382
 30
0.0
 11
29.52987047937926
 21
29.2758480325382
 31
0.0
  0
SOLID
  5
D9B9
330
D9B4
100
AcDbEntity
  8
DIM
 62
     0
100
AcDbTrace
 10
24.50901547937926
 20
29.29751469920487
 30
0.0
 11
24.50901547937926
 21
29.25418136587153
 31
0.0
 12
24.37901547937926
 22
29.2758480325382
 32
0.0
 13
24.37901547937926
 23
29.2758480325382
 33
0.0
  0
SOLID
  5
D9BA
330
D9B4
100
AcDbEntity
  8
DIM
 62
     0
100
AcDbTrace
 10
31.93072547937926
 20
29.25418136587153
 30
0.0
 11
31.93072547937926
 21
29.29751469920487
 31
0.0
 12
32.06072547937926
 22
29.2758480325382
 32
0.0
 13
32.06072547937926
 23
29.2758480325382
 33
0.0
  0
MTEXT
  5
D9BB
330
D9B4
100
AcDbEntity
  8
DIM
 62
     0
100
AcDbMText
 10
28.21987047937926
 20
29.2758480325382
 30
0.0
 40
0.25
 41
0.0
 71
     5
 72
     1
  1
\A1;7.68 [195.12]
  0
POINT
  5
D9BC
330
D9B4
100
AcDbEntity
  8
DEFPOINTS
 62
     0
100
AcDbPoint
 10
24.37901547937926
 20
27.56751639026555
 30
0.0
  0
POINT
  5
D9BD
330
D9B4
100
AcDbEntity
  8
DEFPOINTS
 62
     0
100
AcDbPoint
 10
32.06072547937926
 20
27.56751639026555
 30
0.0
  0
POINT
  5
D9BE
330
D9B4
100
AcDbEntity
  8
DEFPOINTS
 62
     0
100
AcDbPoint
 10
32.06072547937926
 20
29.2758480325382
 30
0.0
  0
ENDBLK
  5
D9C0
330
D9B4
100
AcDbEntity
  8
0
100
AcDbBlockEnd
  0
BLOCK
  5
D9CD
330
D9C2
100
AcDbEntity
  8
0
100
AcDbBlockBegin
  2
*D42
 70
     1
 10
0.0
 20
0.0
 30
0.0
  3
*D42
  1

  0
LINE
  5
D9C3
330
D9C2
100
AcDbEntity
  8
DIM
 62
     0
100
AcDbLine
 10
32.11072547937925
 20
27.56751639026555
 30
0.0
 11
34.16275322086445
 21
27.56751639026555
 31
0.0
  0
LINE
  5
D9C4
330
D9C2
100
AcDbEntity
  8
DIM
 62
     0
100
AcDbLine
 10
32.11072547937925
 20
19.38034639026555
 30
0.0
 11
34.16275322086445
 21
19.38034639026555
 31
0.0
  0
LINE
  5
D9C5
330
D9C2
100
AcDbEntity
  8
DIM
 62
     0
100
AcDbLine
 10
34.03775322086445
 20
27.43751639026555
 30
0.0
 11
34.03775322086445
 21
23.65893139026555
 31
0.0
  0
LINE
  5
D9C6
330
D9C2
100
AcDbEntity
  8
DIM
 62
     0
100
AcDbLine
 10
34.03775322086445
 20
19.51034639026555
 30
0.0
 11
34.03775322086445
 21
23.28893139026555
 31
0.0
  0
SOLID
  5
D9C7
330
D9C2
100
AcDbEntity
  8
DIM
 62
     0
100
AcDbTrace
 10
34.05941988753112
 20
27.43751639026555
 30
0.0
 11
34.01608655419778
 21
27.43751639026555
 31
0.0
 12
34.03775322086445
 22
27.56751639026555
 32
0.0
 13
34.03775322086445
 23
27.56751639026555
 33
0.0
  0
SOLID
  5
D9C8
330
D9C2
100
AcDbEntity
  8
DIM
 62
     0
100
AcDbTrace
 10
34.01608655419778
 20
19.51034639026555
 30
0.0
 11
34.05941988753112
 21
19.51034639026555
 31
0.0
 12
34.03775322086445
 22
19.38034639026555
 32
0.0
 13
34.03775322086445
 23
19.38034639026555
 33
0.0
  0
MTEXT
  5
D9C9
330
D9C2
100
AcDbEntity
  8
DIM
 62
     0
100
AcDbMText
 10
34.03775322086445
 20
23.47393139026555
 30
0.0
 40
0.25
 41
0.0
 71
     5
 72
     1
  1
\A1;8.19 [207.95]
  0
POINT
  5
D9CA
330
D9C2
100
AcDbEntity
  8
DEFPOINTS
 62
     0
100
AcDbPoint
 10
32.06072547937926
 20
27.56751639026555
 30
0.0
  0
POINT
  5
D9CB
330
D9C2
100
AcDbEntity
  8
DEFPOINTS
 62
     0
100
AcDbPoint
 10
32.06072547937926
 20
19.38034639026555
 30
0.0
  0
POINT
  5
D9CC
330
D9C2
100
AcDbEntity
  8
DEFPOINTS
 62
     0
100
AcDbPoint
 10
34.03775322086445
 20
19.38034639026555
 30
0.0
  0
ENDBLK
  5
D9CE
330
D9C2
100
AcDbEntity
  8
0
100
AcDbBlockEnd
  0
BLOCK
  5
D9DA
330
D9D1
100
AcDbEntity
  8
0
100
AcDbBlockBegin
  2
*D43
 70
     1
 10
0.0
 20
0.0
 30
0.0
  3
*D43
  1

  0
LINE
  5
D9D2
330
D9D1
100
AcDbEntity
  8
DIM
 62
     0
100
AcDbLine
 10
22.89177914169658
 20
11.92749174980119
 30
0.0
 11
23.17011247502991
 21
11.92749174980119
 31
0.0
  0
LINE
  5
D9D3
330
D9D1
100
AcDbEntity
  8
DIM
 62
     0
100
AcDbLine
 10
23.17011247502991
 20
11.92749174980119
 30
0.0
 11
25.71721655239769
 21
12.7743524526908
 31
0.0
  0
MTEXT
  5
D9D4
330
D9D1
100
AcDbEntity
  8
DIM
 62
     0
100
AcDbMText
 10
21.54011247502991
 20
11.92749174980119
 30
0.0
 40
0.25
 41
0.0
 71
     5
 72
     1
  1
\A1;{%%c.85 [%%c21.59]\PTYP 2 PL}
  0
SOLID
  5
D9D5
330
D9D1
100
AcDbEntity
  8
DIM
 62
     0
100
AcDbTrace
 10
25.7240523584964
 20
12.7537923894753
 30
0.0
 11
25.71038074629897
 21
12.79491251590629
 31
0.0
 12
25.84057693169067
 22
12.81536728928308
 32
0.0
 13
25.84057693169067
 23
12.81536728928308
 33
0.0
  0
LINE
  5
D9D6
330
D9D1
100
AcDbEntity
  8
DIM
 62
     0
100
AcDbLine
 10
26.15387047937926
 20
12.94945425506555
 30
0.0
 11
26.33387047937926
 21
12.94945425506555
 31
0.0
  0
LINE
  5
D9D7
330
D9D1
100
AcDbEntity
  8
DIM
 62
     0
100
AcDbLine
 10
26.24387047937926
 20
12.85945425506555
 30
0.0
 11
26.24387047937926
 21
13.03945425506555
 31
0.0
  0
POINT
  5
D9D8
330
D9D1
100
AcDbEntity
  8
DEFPOINTS
 62
     0
100
AcDbPoint
 10
25.84057693169067
 20
12.81536728928308
 30
0.0
  0
POINT
  5
D9D9
330
D9D1
100
AcDbEntity
  8
DEFPOINTS
 62
     0
100
AcDbPoint
 10
26.64716402706785
 20
13.08354122084802
 30
0.0
  0
ENDBLK
  5
D9DB
330
D9D1
100
AcDbEntity
  8
0
100
AcDbBlockEnd
  0
BLOCK
  5
D9E6
330
D9DD
100
AcDbEntity
  8
0
100
AcDbBlockBegin
  2
*D44
 70
     1
 10
0.0
 20
0.0
 30
0.0
  3
*D44
  1

  0
LINE
  5
D9DE
330
D9DD
100
AcDbEntity
  8
DIM
 62
     0
100
AcDbLine
 10
32.37302707283828
 20
14.91067423513516
 30
0.0
 11
32.09469373950495
 21
14.91067423513516
 31
0.0
  0
LINE
  5
D9DF
330
D9DD
100
AcDbEntity
  8
DIM
 62
     0
100
AcDbLine
 10
32.09469373950495
 20
14.91067423513516
 30
0.0
 11
30.50444207699748
 21
13.33952064278909
 31
0.0
  0
MTEXT
  5
D9E0
330
D9DD
100
AcDbEntity
  8
DIM
 62
     0
100
AcDbMText
 10
33.72469373950495
 20
14.91067423513516
 30
0.0
 40
0.25
 41
0.0
 71
     5
 72
     1
  1
\A1;{%%c.85 [%%c21.59]\PTYP 2 PL}
  0
SOLID
  5
D9E1
330
D9DD
100
AcDbEntity
  8
DIM
 62
     0
100
AcDbTrace
 10
30.48921426005933
 20
13.35493356060963
 30
0.0
 11
30.51966989393564
 21
13.32410772496856
 31
0.0
 12
30.4119645700743
 22
13.24815374116016
 32
0.0
 13
30.4119645700743
 23
13.24815374116016
 33
0.0
  0
LINE
  5
D9E2
330
D9DD
100
AcDbEntity
  8
DIM
 62
     0
100
AcDbLine
 10
30.01963425897926
 20
12.94945425506555
 30
0.0
 11
30.19963425897926
 21
12.94945425506555
 31
0.0
  0
LINE
  5
D9E3
330
D9DD
100
AcDbEntity
  8
DIM
 62
     0
100
AcDbLine
 10
30.10963425897926
 20
12.85945425506555
 30
0.0
 11
30.10963425897926
 21
13.03945425506555
 31
0.0
  0
POINT
  5
D9E4
330
D9DD
100
AcDbEntity
  8
DEFPOINTS
 62
     0
100
AcDbPoint
 10
30.4119645700743
 20
13.24815374116016
 30
0.0
  0
POINT
  5
D9E5
330
D9DD
100
AcDbEntity
  8
DEFPOINTS
 62
     0
100
AcDbPoint
 10
29.80730394788423
 20
12.65075476897095
 30
0.0
  0
ENDBLK
  5
D9E7
330
D9DD
100
AcDbEntity
  8
0
100
AcDbBlockEnd
  0
BLOCK
  5
D9F2
330
D9E9
100
AcDbEntity
  8
0
100
AcDbBlockBegin
  2
*D45
 70
     1
 10
0.0
 20
0.0
 30
0.0
  3
*D45
  1

  0
LINE
  5
D9EA
330
D9E9
100
AcDbEntity
  8
DIM
 62
     0
100
AcDbLine
 10
27.8545595604392
 20
15.1503496737932
 30
0.0
 11
28.09122622710586
 21
15.1503496737932
 31
0.0
  0
LINE
  5
D9EB
330
D9E9
100
AcDbEntity
  8
DIM
 62
     0
100
AcDbLine
 10
28.09122622710586
 20
15.1503496737932
 30
0.0
 11
29.16649401447109
 21
13.39620092968363
 31
0.0
  0
MTEXT
  5
D9EC
330
D9E9
100
AcDbEntity
  8
DIM
 62
     0
100
AcDbMText
 10
26.50289289377253
 20
15.1503496737932
 30
0.0
 40
0.25
 41
0.0
 71
     5
 72
     1
  1
\A1;{%%c.79 [%%c20.02]\PTYP 2 PL}
  0
SOLID
  5
D9ED
330
D9E9
100
AcDbEntity
  8
DIM
 62
     0
100
AcDbTrace
 10
29.14802166469363
 20
13.38487764667279
 30
0.0
 11
29.18496636424856
 21
13.40752421269446
 31
0.0
 12
29.2344337125361
 22
13.28536683101884
 32
0.0
 13
29.2344337125361
 23
13.28536683101884
 33
0.0
  0
LINE
  5
D9EE
330
D9E9
100
AcDbEntity
  8
DIM
 62
     0
100
AcDbLine
 10
29.35034325897926
 20
12.94945425506555
 30
0.0
 11
29.53034325897926
 21
12.94945425506555
 31
0.0
  0
LINE
  5
D9EF
330
D9E9
100
AcDbEntity
  8
DIM
 62
     0
100
AcDbLine
 10
29.44034325897926
 20
12.85945425506555
 30
0.0
 11
29.44034325897926
 21
13.03945425506555
 31
0.0
  0
POINT
  5
D9F0
330
D9E9
100
AcDbEntity
  8
DEFPOINTS
 62
     0
100
AcDbPoint
 10
29.2344337125361
 20
13.28536683101884
 30
0.0
  0
POINT
  5
D9F1
330
D9E9
100
AcDbEntity
  8
DEFPOINTS
 62
     0
100
AcDbPoint
 10
29.64625280542242
 20
12.61354167911227
 30
0.0
  0
ENDBLK
  5
D9F3
330
D9E9
100
AcDbEntity
  8
0
100
AcDbBlockEnd
  0
BLOCK
  5
DA00
330
D9F5
100
AcDbEntity
  8
0
100
AcDbBlockBegin
  2
*D46
 70
     1
 10
0.0
 20
0.0
 30
0.0
  3
*D46
  1

  0
LINE
  5
D9F6
330
D9F5
100
AcDbEntity
  8
DIM
 62
     0
100
AcDbLine
 10
29.44034325897926
 20
12.81945425506555
 30
0.0
 11
29.44034325897926
 21
16.33644748895156
 31
0.0
  0
LINE
  5
D9F7
330
D9F5
100
AcDbEntity
  8
DIM
 62
     0
100
AcDbLine
 10
30.10963425897926
 20
12.81945425506555
 30
0.0
 11
30.10963425897926
 21
16.33644748895156
 31
0.0
  0
LINE
  5
D9F8
330
D9F5
100
AcDbEntity
  8
DIM
 62
     0
100
AcDbLine
 10
30.10963425897926
 20
16.21144748895156
 30
0.0
 11
31.06394106344057
 21
16.21144748895156
 31
0.0
  0
LINE
  5
D9F9
330
D9F5
100
AcDbEntity
  8
DIM
 62
     0
100
AcDbLine
 10
29.57034325897926
 20
16.21144748895156
 30
0.0
 11
29.97963425897926
 21
16.21144748895156
 31
0.0
  0
SOLID
  5
D9FA
330
D9F5
100
AcDbEntity
  8
DIM
 62
     0
100
AcDbTrace
 10
29.57034325897926
 20
16.23311415561823
 30
0.0
 11
29.57034325897926
 21
16.1897808222849
 31
0.0
 12
29.44034325897926
 22
16.21144748895156
 32
0.0
 13
29.44034325897926
 23
16.21144748895156
 33
0.0
  0
SOLID
  5
D9FB
330
D9F5
100
AcDbEntity
  8
DIM
 62
     0
100
AcDbTrace
 10
29.97963425897926
 20
16.1897808222849
 30
0.0
 11
29.97963425897926
 21
16.23311415561823
 31
0.0
 12
30.10963425897926
 22
16.21144748895156
 32
0.0
 13
30.10963425897926
 23
16.21144748895156
 33
0.0
  0
MTEXT
  5
D9FC
330
D9F5
100
AcDbEntity
  8
DIM
 62
     0
100
AcDbMText
 10
32.12394106344058
 20
16.21144748895156
 30
0.0
 40
0.25
 41
0.0
 71
     5
 72
     1
  1
\A1;{.67 [17.00]\PTYP 2 PL}
  0
POINT
  5
D9FD
330
D9F5
100
AcDbEntity
  8
DEFPOINTS
 62
     0
100
AcDbPoint
 10
29.44034325897926
 20
12.76945425506555
 30
0.0
  0
POINT
  5
D9FE
330
D9F5
100
AcDbEntity
  8
DEFPOINTS
 62
     0
100
AcDbPoint
 10
30.10963425897926
 20
12.76945425506555
 30
0.0
  0
POINT
  5
D9FF
330
D9F5
100
AcDbEntity
  8
DEFPOINTS
 62
     0
100
AcDbPoint
 10
30.10963425897926
 20
16.21144748895156
 30
0.0
  0
ENDBLK
  5
DA01
330
D9F5
100
AcDbEntity
  8
0
100
AcDbBlockEnd
  0
ENDSEC
  0
SECTION
  2
ENTITIES
  0
INSERT
  5
AE9
330
1F
100
AcDbEntity
  8
TB-TXT
100
AcDbBlockReference
 66
     1
  2
REV-BLOCK
 10
67.0
 20
41.60019199999999
 30
0.0
 41
1.939393939393938
 42
1.939393939393938
 43
1.939393939393938
  0
ATTRIB
  5
AEA
330
AE9
100
AcDbEntity
  8
TB-TXT
100
AcDbText
 10
52.57012840999175
 20
41.04429107276667
 30
0.0
 40
0.32
  1
A
  7
ARIAL
 72
     1
 11
52.71876840999175
 21
41.20429107276667
 31
0.0
100
AcDbAttribute
  2
REV
 70
     0
 74
     2
  0
ATTRIB
  5
AEB
330
AE9
100
AcDbEntity
  8
TB-TXT
100
AcDbText
 10
53.3831453163983
 20
41.0744403583073
 30
0.0
 40
0.32
  1
22460
  7
ARIAL
100
AcDbAttribute
  2
ECN
 70
     0
  0
ATTRIB
  5
AEC
330
AE9
100
AcDbEntity
  8
TB-TXT
100
AcDbText
 10
54.73059638806049
 20
41.07910081240772
 30
0.0
 40
0.32
  1
 INITIAL RELEASE
  7
ARIAL
100
AcDbAttribute
  2
DESCRIPTION
 70
     0
  0
ATTRIB
  5
AED
330
AE9
100
AcDbEntity
  8
TB-TXT
100
AcDbText
 10
62.36006909815872
 20
41.04429107276667
 30
0.0
 40
0.32
  1
 06/12/14
  7
ARIAL
 72
     1
 11
63.29126909815872
 21
41.20429107276667
 31
0.0
100
AcDbAttribute
  2
REV-DATE
 70
     0
 74
     2
  0
ATTRIB
  5
AEE
330
AE9
100
AcDbEntity
  8
TB-TXT
100
AcDbText
 10
64.4741535212649
 20
41.04429107276667
 30
0.0
 40
0.32
  1
J. PORTER
  7
ARIAL
 72
     1
 11
65.6407135212649
 21
41.20429107276667
 31
0.0
100
AcDbAttribute
  2
APPR
 70
     0
 74
     2
  0
SEQEND
  5
AEF
330
AE9
100
AcDbEntity
  8
TB-TXT
  0
INSERT
  5
AF0
330
1F
100
AcDbEntity
  8
TB-TXT
100
AcDbBlockReference
 66
     1
  2
TITLE-BLOCK
 10
65.20518019099677
 20
0.9743616572102383
 30
0.0
 41
1.939393939393955
 42
1.939393939393955
 43
1.939393939393955
  0
ATTRIB
  5
AF1
330
AF0
100
AcDbEntity
  8
TB-TXT
100
AcDbText
 10
54.63146917835738
 20
4.319113045341908
 30
0.0
 40
0.34
  1
PICTORIAL,
  7
ARIAL
100
AcDbAttribute
  2
LINE1
 70
     0
  0
ATTRIB
  5
AF2
330
AF0
100
AcDbEntity
  8
TB-TXT
100
AcDbText
 10
54.63146917835738
 20
3.816843261792144
 30
0.0
 40
0.34
  1
CB-MXP-70-F, FLUSH
  7
ARIAL
100
AcDbAttribute
  2
LINE2
 70
     0
  0
ATTRIB
  5
AF3
330
AF0
100
AcDbEntity
  8
TB-TXT
100
AcDbText
 10
54.63146917835738
 20
3.314573478242352
 30
0.0
 40
0.34
  1
ROUGH-IN BOX,
  7
ARIAL
100
AcDbAttribute
  2
LINE3
 70
     0
  0
ATTRIB
  5
AF4
330
AF0
100
AcDbEntity
  8
TB-TXT
100
AcDbText
 10
54.63146917835738
 20
2.812303694692559
 30
0.0
 40
0.34
  1
MODERO X 7.0
  7
ARIAL
100
AcDbAttribute
  2
LINE4
 70
     0
  0
ATTRIB
  5
AF5
330
AF0
100
AcDbEntity
  8
TB-TXT
100
AcDbText
 10
57.34481489077189
 20
1.878696866234122
 30
0.0
 40
0.34
  1
95-5968-83
  7
ARIAL
100
AcDbAttribute
  2
DWG#
 70
     0
  0
ATTRIB
  5
AF6
330
AF0
100
AcDbEntity
  8
TB-TXT
100
AcDbText
 10
59.3436991182781
 20
1.226242402317837
 30
0.0
 40
0.2327272727272746
  1
95-5968-83_REV-B
  7
ARIAL
100
AcDbAttribute
  2
FILE#
 70
     0
  0
ATTRIB
  5
AF7
330
AF0
100
AcDbEntity
  8
TB-TXT
100
AcDbText
 10
66.31831903581984
 20
1.794384037241857
 30
0.0
 40
0.34
  1
B
  7
ARIAL
 72
     4
 11
66.47658903581984
 21
1.964384037241857
 31
0.0
100
AcDbAttribute
  2
REV
 70
     0
  0
ATTRIB
  5
AF8
330
AF0
100
AcDbEntity
  8
TB-TXT
100
AcDbText
 10
55.4683110156534
 20
1.158278334294778
 30
0.0
 40
0.34
  1
 1/1
  7
ARIAL
100
AcDbAttribute
  2
SCALE
 70
     0
  0
ATTRIB
  5
AF9
330
AF0
100
AcDbEntity
  8
TB-TXT
100
AcDbText
 10
65.12278688559752
 20
1.171870951531048
 30
0.0
 40
0.34
  1
1 OF 1
  7
ARIAL
100
AcDbAttribute
  2
SHT#
 70
     0
  0
SEQEND
  5
AFA
330
AF0
100
AcDbEntity
  8
TB-TXT
  0
TEXT
  5
AFB
330
1F
100
AcDbEntity
  8
TXT
100
AcDbText
 10
13.14499304955308
 20
51.60334911141315
 30
0.0
 40
0.12
  1

  7
ROMANS
100
AcDbText
  0
LWPOLYLINE
  5
B12
330
1F
100
AcDbEntity
  8
FORMAT
100
AcDbPolyline
 90
        4
 70
     1
 43
0.0581818181818182
 10
1.0
 20
1.0
 10
67.0
 20
1.0
 10
67.0
 20
43.0
 10
1.0
 20
43.0
  0
TEXT
  5
B13
330
1F
100
AcDbEntity
  8
TXT
100
AcDbText
 10
26.5033019469864
 20
2.963083107332565
 30
0.0
 40
0.4
  1
UNLESS OTHERWISE STATED, THE ARTICLE
  7
ARIAL
100
AcDbText
  0
TEXT
  5
B14
330
1F
100
AcDbEntity
  8
TXT
100
AcDbText
 10
26.5033019469864
 20
2.263083107332562
 30
0.0
 40
0.4
  1
SPECIFIED SHALL BE RoHS COMPLIANT
  7
ARIAL
100
AcDbText
  0
TEXT
  5
B15
330
1F
100
AcDbEntity
  8
TXT
100
AcDbText
 10
26.5033019469864
 20
1.56308310733256
 30
0.0
 40
0.4
  1
PER EU DIRECTIVE 2002/95/EC
  7
ARIAL
100
AcDbText
  0
LWPOLYLINE
  5
B16
330
1F
100
AcDbEntity
  8
FORMAT
  6
PHANTOM
 48
10.0
100
AcDbPolyline
 90
        2
 70
     0
 43
0.002
 10
68.0
 20
44.0
 10
0.0
 20
44.0
  0
HATCH
  5
B17
330
1F
100
AcDbEntity
  8
FORMAT
  6
CONTINUOUS
100
AcDbHatch
 10
0.0
 20
0.0
 30
0.0
210
0.0
220
0.0
230
1.0
  2
SOLID
 70
     1
 71
     0
 91
        1
 92
        1
 93
        3
 72
     1
 10
34.22698199999999
 20
43.393146
 11
33.77301599999999
 21
43.393146
 72
     1
 10
33.77301599999998
 20
43.393146
 11
33.99999999999999
 21
43.0
 72
     1
 10
34.0
 20
43.0
 11
34.226982
 21
43.393146
 97
        0
 75
     0
 76
     1
 98
        1
 10
0.0
 20
0.0
  0
HATCH
  5
B18
330
1F
100
AcDbEntity
  8
FORMAT
  6
CONTINUOUS
100
AcDbHatch
 10
0.0
 20
0.0
 30
0.0
210
0.0
220
0.0
230
1.0
  2
SOLID
 70
     1
 71
     0
 91
        1
 92
        1
 93
        3
 72
     1
 10
34.22698399999999
 20
0.6068539999999985
 11
33.99999999999999
 21
0.9999999999999998
 72
     1
 10
34.0
 20
1.0
 11
33.773018
 21
0.6068539999999985
 72
     1
 10
33.77301799999998
 20
0.6068539999999985
 11
34.22698399999998
 21
0.6068539999999985
 97
        0
 75
     0
 76
     1
 98
        1
 10
0.0
 20
0.0
  0
LWPOLYLINE
  5
B19
330
1F
100
AcDbEntity
  8
FORMAT
  6
PHANTOM
 48
10.0
100
AcDbPolyline
 90
        2
 70
     0
 43
0.002
 10
0.0
 20
0.0
 10
68.0
 20
0.0
  0
LINE
  5
B1A
330
1F
100
AcDbEntity
  8
FORMAT
  6
CONTINUOUS
100
AcDbLine
 10
33.77301799999998
 20
0.6068539999999985
 30
0.0
 11
34.22698399999999
 21
0.6068539999999985
 31
0.0
  0
LINE
  5
B1B
330
1F
100
AcDbEntity
  8
FORMAT
  6
CONTINUOUS
100
AcDbLine
 10
34.22698199999999
 20
43.393146
 30
0.0
 11
33.77301599999998
 21
43.393146
 31
0.0
  0
LINE
  5
B1C
330
1F
100
AcDbEntity
  8
FORMAT
  6
CONTINUOUS
100
AcDbLine
 10
34.0
 20
1.0
 30
0.0
 11
33.77301799999998
 21
0.6068539999999985
 31
0.0
  0
LINE
  5
B1D
330
1F
100
AcDbEntity
  8
FORMAT
  6
CONTINUOUS
100
AcDbLine
 10
33.77301599999998
 20
43.393146
 30
0.0
 11
34.0
 21
43.0
 31
0.0
  0
HATCH
  5
B1E
330
1F
100
AcDbEntity
  8
FORMAT
  6
CONTINUOUS
100
AcDbHatch
 10
0.0
 20
0.0
 30
0.0
210
0.0
220
0.0
230
1.0
  2
SOLID
 70
     1
 71
     0
 91
        1
 92
        1
 93
        3
 72
     1
 10
0.6068539999999985
 20
21.77301599999998
 11
0.9999999999999982
 21
21.99999999999999
 72
     1
 10
1.0
 20
21.99999999999999
 11
0.6068540000000002
 21
22.22698199999999
 72
     1
 10
0.6068539999999985
 20
22.22698199999999
 11
0.6068539999999985
 21
21.77301599999999
 97
        0
 75
     0
 76
     1
 98
        1
 10
-0.5
 20
0.0
  0
LWPOLYLINE
  5
B1F
330
1F
100
AcDbEntity
  8
FORMAT
  6
PHANTOM
 48
10.0
100
AcDbPolyline
 90
        2
 70
     0
 43
0.002
 10
0.0
 20
44.0
 10
0.0
 20
0.0
  0
LINE
  5
B20
330
1F
100
AcDbEntity
  8
FORMAT
  6
CONTINUOUS
100
AcDbLine
 10
0.6068539999999985
 20
22.22698199999999
 30
0.0
 11
0.6068539999999985
 21
21.773016
 31
0.0
  0
LINE
  5
B21
330
1F
100
AcDbEntity
  8
FORMAT
  6
CONTINUOUS
100
AcDbLine
 10
0.6068539999999985
 20
21.773016
 30
0.0
 11
1.0
 21
22.0
 31
0.0
  0
TEXT
  5
B22
330
1F
100
AcDbEntity
  8
FORMAT
  6
CONTINUOUS
100
AcDbText
 10
12.51725
 20
0.2999999999999972
 30
0.0
 40
0.4999999999999999
  1
B
  7
ARIAL
 72
     1
 11
12.75
 21
0.2999999999999972
 31
0.0
100
AcDbText
  0
TEXT
  5
B23
330
1F
100
AcDbEntity
  8
FORMAT
  6
CONTINUOUS
100
AcDbText
 10
0.2119999999999944
 20
5.25
 30
0.0
 40
0.4999999999999999
  1
4
  7
ARIAL
 72
     2
 11
0.5999999999999943
 21
5.25
 31
0.0
100
AcDbText
  0
TEXT
  5
B24
330
1F
100
AcDbEntity
  8
FORMAT
  6
CONTINUOUS
100
AcDbText
 10
4.01775
 20
0.2999999999999972
 30
0.0
 40
0.4999999999999999
  1
A
  7
ARIAL
 72
     1
 11
4.25
 21
0.2999999999999972
 31
0.0
100
AcDbText
  0
LINE
  5
B25
330
1F
100
AcDbEntity
  8
FORMAT
  6
CONTINUOUS
100
AcDbLine
 10
8.5
 20
0.0
 30
0.0
 11
8.5
 21
1.0
 31
0.0
  0
LINE
  5
B26
330
1F
100
AcDbEntity
  8
FORMAT
  6
CONTINUOUS
100
AcDbLine
 10
0.0
 20
11.0
 30
0.0
 11
1.0
 21
11.0
 31
0.0
  0
TEXT
  5
B27
330
1F
100
AcDbEntity
  8
FORMAT
  6
CONTINUOUS
100
AcDbText
 10
0.2119999999999944
 20
16.25
 30
0.0
 40
0.4999999999999999
  1
3
  7
ARIAL
 72
     2
 11
0.5999999999999943
 21
16.25
 31
0.0
100
AcDbText
  0
LINE
  5
B28
330
1F
100
AcDbEntity
  8
FORMAT
  6
CONTINUOUS
100
AcDbLine
 10
17.0
 20
0.0
 30
0.0
 11
17.0
 21
1.0
 31
0.0
  0
TEXT
  5
B29
330
1F
100
AcDbEntity
  8
FORMAT
  6
CONTINUOUS
100
AcDbText
 10
20.998
 20
0.2999999999999972
 30
0.0
 40
0.4999999999999999
  1
C
  7
ARIAL
 72
     1
 11
21.25
 21
0.2999999999999972
 31
0.0
100
AcDbText
  0
LINE
  5
B2A
330
1F
100
AcDbEntity
  8
FORMAT
  6
CONTINUOUS
100
AcDbLine
 10
25.5
 20
0.0
 30
0.0
 11
25.5
 21
1.0
 31
0.0
  0
TEXT
  5
B2B
330
1F
100
AcDbEntity
  8
FORMAT
  6
CONTINUOUS
100
AcDbText
 10
29.498
 20
0.2999999999999972
 30
0.0
 40
0.4999999999999999
  1
D
  7
ARIAL
 72
     1
 11
29.75
 21
0.2999999999999972
 31
0.0
100
AcDbText
  0
TEXT
  5
B2C
330
1F
100
AcDbEntity
  8
FORMAT
  6
CONTINUOUS
100
AcDbText
 10
12.51725
 20
43.19999999999999
 30
0.0
 40
0.4999999999999999
  1
B
  7
ARIAL
 72
     1
 11
12.75
 21
43.19999999999999
 31
0.0
100
AcDbText
  0
LINE
  5
B2D
330
1F
100
AcDbEntity
  8
FORMAT
  6
CONTINUOUS
100
AcDbLine
 10
1.0
 20
22.0
 30
0.0
 11
0.6068539999999985
 21
22.22698199999999
 31
0.0
  0
LINE
  5
B2E
330
1F
100
AcDbEntity
  8
FORMAT
  6
CONTINUOUS
100
AcDbLine
 10
0.0
 20
22.0
 30
0.0
 11
1.0
 21
22.0
 31
0.0
  0
TEXT
  5
B2F
330
1F
100
AcDbEntity
  8
FORMAT
  6
CONTINUOUS
100
AcDbText
 10
0.2119999999999944
 20
27.25
 30
0.0
 40
0.4999999999999999
  1
2
  7
ARIAL
 72
     2
 11
0.5999999999999943
 21
27.25
 31
0.0
100
AcDbText
  0
LINE
  5
B30
330
1F
100
AcDbEntity
  8
FORMAT
  6
CONTINUOUS
100
AcDbLine
 10
0.0
 20
33.0
 30
0.0
 11
1.0
 21
33.0
 31
0.0
  0
TEXT
  5
B31
330
1F
100
AcDbEntity
  8
FORMAT
  6
CONTINUOUS
100
AcDbText
 10
0.2119999999999944
 20
38.25
 30
0.0
 40
0.4999999999999999
  1
1
  7
ARIAL
 72
     2
 11
0.5999999999999943
 21
38.25
 31
0.0
100
AcDbText
  0
TEXT
  5
B32
330
1F
100
AcDbEntity
  8
FORMAT
  6
CONTINUOUS
100
AcDbText
 10
4.01775
 20
43.19999999999999
 30
0.0
 40
0.4999999999999999
  1
A
  7
ARIAL
 72
     1
 11
4.25
 21
43.19999999999999
 31
0.0
100
AcDbText
  0
LINE
  5
B33
330
1F
100
AcDbEntity
  8
FORMAT
  6
CONTINUOUS
100
AcDbLine
 10
8.5
 20
43.0
 30
0.0
 11
8.5
 21
44.0
 31
0.0
  0
LINE
  5
B34
330
1F
100
AcDbEntity
  8
FORMAT
  6
CONTINUOUS
100
AcDbLine
 10
17.0
 20
43.0
 30
0.0
 11
17.0
 21
44.0
 31
0.0
  0
TEXT
  5
B35
330
1F
100
AcDbEntity
  8
FORMAT
  6
CONTINUOUS
100
AcDbText
 10
20.998
 20
43.19999999999999
 30
0.0
 40
0.4999999999999999
  1
C
  7
ARIAL
 72
     1
 11
21.25
 21
43.19999999999999
 31
0.0
100
AcDbText
  0
LINE
  5
B36
330
1F
100
AcDbEntity
  8
FORMAT
  6
CONTINUOUS
100
AcDbLine
 10
25.5
 20
43.0
 30
0.0
 11
25.5
 21
44.0
 31
0.0
  0
TEXT
  5
B37
330
1F
100
AcDbEntity
  8
FORMAT
  6
CONTINUOUS
100
AcDbText
 10
29.498
 20
43.19999999999999
 30
0.0
 40
0.4999999999999999
  1
D
  7
ARIAL
 72
     1
 11
29.75
 21
43.19999999999999
 31
0.0
100
AcDbText
  0
LWPOLYLINE
  5
B38
330
1F
100
AcDbEntity
  8
FORMAT
  6
PHANTOM
 48
10.0
100
AcDbPolyline
 90
        2
 70
     0
 43
0.002
 10
68.0
 20
0.0
 10
68.0
 20
44.0
  0
HATCH
  5
B39
330
1F
100
AcDbEntity
  8
FORMAT
  6
CONTINUOUS
100
AcDbHatch
 10
0.0
 20
0.0
 30
0.0
210
0.0
220
0.0
230
1.0
  2
SOLID
 70
     1
 71
     0
 91
        1
 92
        1
 93
        3
 72
     1
 10
67.0
 20
21.99999999999999
 11
67.393146
 21
21.77301799999999
 72
     1
 10
67.393146
 20
21.77301799999999
 11
67.393146
 21
22.22698399999999
 72
     1
 10
67.393146
 20
22.22698399999999
 11
67.0
 21
21.99999999999999
 97
        0
 75
     0
 76
     1
 98
        1
 10
0.5
 20
0.0
  0
LINE
  5
B3A
330
1F
100
AcDbEntity
  8
FORMAT
  6
CONTINUOUS
100
AcDbLine
 10
67.393146
 20
21.77301799999999
 30
0.0
 11
67.393146
 21
22.226984
 31
0.0
  0
LINE
  5
B3B
330
1F
100
AcDbEntity
  8
FORMAT
  6
CONTINUOUS
100
AcDbLine
 10
67.0
 20
22.0
 30
0.0
 11
67.393146
 21
21.77301799999999
 31
0.0
  0
HATCH
  5
B3C
330
1F
100
AcDbEntity
  8
FORMAT
100
AcDbHatch
 10
0.0
 20
0.0
 30
0.0
210
0.0
220
0.0
230
1.0
  2
SOLID
 70
     1
 71
     1
 91
        5
 92
        1
 93
        4
 72
     1
 10
55.7904848911551
 20
6.019796791591126
 11
55.99209255425802
 21
5.50025204370646
 72
     2
 10
56.85046827406932
 20
0.9734472759176374
 40
4.607468967018356
 50
100.7369884767685
 51
115.8445848643795
 73
     1
 72
     1
 10
54.84192717189836
 20
5.120076379530239
 11
55.44442880507103
 21
6.019796791591126
 72
     1
 10
55.44442880507103
 20
6.019796791591126
 11
55.7904848911551
 21
6.019796791591126
 97
        1
330
B3D
 92
       16
 93
        4
 72
     1
 10
55.65250277262248
 20
5.492602241466983
 11
55.65294275460113
 21
5.492175858525968
 72
     1
 10
55.65294275460113
 20
5.492175858525968
 11
55.57460602218097
 21
5.714897940896996
 72
     1
 10
55.57460602218097
 20
5.714897940896996
 11
55.43276512535795
 21
5.492175858525968
 72
     1
 10
55.43276512535795
 20
5.492175858525968
 11
55.65250277262248
 21
5.492602241466983
 97
        1
330
B7E
 92
        1
 93
        7
 72
     1
 10
55.70759466952654
 20
5.338331059270899
 11
55.78504060117939
 21
5.120076379530236
 72
     1
 10
55.78504060117939
 20
5.120076379530236
 11
56.44879019548728
 21
5.120076379530236
 72
     1
 10
56.44879019548728
 20
5.120076379530236
 11
56.50689629337501
 21
5.468712966856742
 72
     2
 10
57.68836032279307
 20
-4.42352432032598
 40
9.962540629715742
 50
96.81077116038438
 51
98.7658188097698
 73
     1
 72
     1
 10
56.17010641634423
 20
5.422648584630025
 11
56.12568833589188
 21
5.15597452161651
 72
     1
 10
56.12568833589188
 20
5.15597452161651
 11
56.03142151215607
 21
5.398900968051798
 72
     2
 10
56.90408927645301
 20
-0.162598503970651
 40
5.62954930737346
 50
98.9176989492496
 51
102.2711423007093
 73
     1
 97
        1
330
B7F
 92
        1
 93
       13
 72
     1
 10
58.76697229782357
 20
6.019796791591126
 11
58.38559308368377
 21
5.699326243464888
 72
     2
 10
59.50413621198224
 20
-65.29098306771115
 40
70.99912080319244
 50
90.9026935983278
 51
91.42767319127441
 73
     1
 72
     1
 10
57.73519173911555
 20
5.686097671624879
 11
57.46385897942815
 21
5.998039036066714
 72
     1
 10
57.46385897942815
 20
5.998039036066714
 11
57.4094340475377
 21
5.67148944472401
 72
     2
 10
58.00110244585749
 20
-5.489959264676891
 40
11.17711987884881
 50
93.03440911951206
 51
99.32746877910856
 73
     1
 72
     1
 10
56.18954926455075
 20
5.539378152296749
 11
56.26956932173155
 21
6.019796791591126
 72
     1
 10
56.26956932173155
 20
6.019796791591126
 11
56.54501601569831
 21
6.019796791591126
 72
     1
 10
56.54501601569831
 20
6.019796791591126
 11
56.81693032882256
 21
5.722190848589221
 72
     1
 10
56.81693032882256
 20
5.722190848589221
 11
57.18844671895877
 21
6.019796791591126
 72
     1
 10
57.18844671895877
 20
6.019796791591126
 11
57.87216476307992
 21
6.019796791591126
 72
     1
 10
57.87216476307992
 20
6.019796791591126
 11
58.06962646650678
 21
5.792782282679802
 72
     1
 10
58.06962646650678
 20
5.792782282679802
 11
58.33978737680931
 21
6.019796791591126
 72
     1
 10
58.33978737680931
 20
6.019796791591126
 11
58.76697229782357
 21
6.019796791591126
 97
        1
330
B7C
 92
        1
 93
       10
 72
     1
 10
57.69625092981138
 20
5.120076379530236
 11
58.00318724338706
 21
5.377993027854401
 72
     1
 10
58.00318724338706
 20
5.377993027854401
 11
58.22752823799783
 21
5.120076379530236
 72
     1
 10
58.22752823799783
 20
5.120076379530236
 11
58.65475934712416
 21
5.120076379530236
 72
     1
 10
58.65475934712416
 20
5.120076379530236
 11
58.27998961676212
 21
5.550935451524815
 72
     2
 10
58.11020532676488
 20
-6.380024524400872
 40
11.93216797787688
 50
89.18470377236854
 51
91.5966422469087
 73
     1
 72
     1
 10
57.77773864217966
 20
5.547510784954177
 11
57.32542486915165
 21
5.167434374407641
 72
     1
 10
57.32542486915165
 20
5.167434374407641
 11
57.38659330239526
 21
5.534444973869341
 72
     2
 10
57.68836032279272
 20
-4.423524320325857
 40
9.962540629715594
 50
91.73576423011795
 51
93.64348457294629
 73
     1
 72
     1
 10
57.05526126176369
 20
5.518879884777562
 11
56.98879401088914
 21
5.120076379530236
 72
     1
 10
56.98879401088914
 20
5.120076379530236
 11
57.69625092981138
 21
5.120076379530236
 97
        1
330
B7D
 75
     0
 76
     1
 98
        1
 10
54.80698284518152
 20
4.643911927564591
  0
LWPOLYLINE
  5
B3D
102
{ACAD_REACTORS
330
B3C
102
}
330
1F
100
AcDbEntity
  8
FORMAT
100
AcDbPolyline
 90
        4
 70
     1
 43
0.0
 10
55.7904848911551
 20
6.019796791591126
 10
55.99209255425802
 20
5.50025204370646
 42
0.0660149720166298
 10
54.84192717189836
 20
5.120076379530239
 10
55.44442880507103
 20
6.019796791591126
  0
TEXT
  5
B3E
330
1F
100
AcDbEntity
  8
FORMAT
100
AcDbText
 10
54.34025051703043
 20
1.33441632659526
 30
0.0
 40
0.2176
  1
SCALE
  7
ARIAL
100
AcDbText
  0
LWPOLYLINE
  5
B3F
330
1F
100
AcDbEntity
  8
FORMAT
100
AcDbPolyline
 90
        3
 70
     0
 43
0.04
 10
39.10731301988994
 20
1.0
 10
39.10731309679272
 20
6.226682841673394
 10
67.0
 20
6.226682871043295
  0
LWPOLYLINE
  5
B40
330
1F
100
AcDbEntity
  8
FORMAT
100
AcDbPolyline
 90
        2
 70
     0
 43
0.04
 10
54.24863012549628
 20
4.88378283578448
 10
67.0
 20
4.88378283578448
  0
LWPOLYLINE
  5
B41
330
1F
100
AcDbEntity
  8
FORMAT
100
AcDbPolyline
 90
        2
 70
     0
 43
0.04
 10
54.24863012549628
 20
2.545784213247554
 10
67.0
 20
2.545784213247554
  0
LWPOLYLINE
  5
B42
330
1F
100
AcDbEntity
  8
FORMAT
100
AcDbPolyline
 90
        2
 70
     0
 43
0.04
 10
54.24863012549628
 20
1.647297139297415
 10
67.0
 20
1.647297139297415
  0
LWPOLYLINE
  5
B43
330
1F
100
AcDbEntity
  8
FORMAT
100
AcDbPolyline
 90
        2
 70
     0
 43
0.04
 10
55.23406756144158
 20
2.545784213247554
 10
55.23406756144158
 20
1.647297139297415
  0
TEXT
  5
B44
330
1F
100
AcDbEntity
  8
FORMAT
  6
CONTINUOUS
100
AcDbText
 10
54.9785
 20
0.2999999999999972
 30
0.0
 40
0.4999999999999999
  1
G
  7
ARIAL
 72
     1
 11
55.25
 21
0.2999999999999972
 31
0.0
100
AcDbText
  0
TEXT
  5
B45
330
1F
100
AcDbEntity
  8
FORMAT
100
AcDbText
 10
39.48661641327749
 20
4.817533161412726
 30
0.0
 40
0.262656
  1
All information contained herein
  7
ARIAL
100
AcDbText
  0
TEXT
  5
B46
330
1F
100
AcDbEntity
  8
FORMAT
100
AcDbText
 10
39.48715390850265
 20
2.182014907660985
 30
0.0
 40
0.262656
  1
reproduced, or used as the basis
  7
ARIAL
100
AcDbText
  0
TEXT
  5
B47
330
1F
100
AcDbEntity
  8
FORMAT
100
AcDbText
 10
39.50238293988048
 20
2.619774907661011
 30
0.0
 40
0.262656
  1
This drawing may not be copied,
  7
ARIAL
100
AcDbText
  0
TEXT
  5
B48
330
1F
100
AcDbEntity
  8
FORMAT
100
AcDbText
 10
39.48679557835254
 20
3.057534907661008
 30
0.0
 40
0.262656
  1
has been previously established.
  7
ARIAL
100
AcDbText
  0
TEXT
  5
B49
330
1F
100
AcDbEntity
  8
FORMAT
100
AcDbText
 10
39.50990787303198
 20
1.30201578078514
 30
0.0
 40
0.262656
  1
written permission.
  7
ARIAL
100
AcDbText
  0
LINE
  5
B4A
330
1F
100
AcDbEntity
  8
FORMAT
  6
CONTINUOUS
100
AcDbLine
 10
34.0
 20
0.0
 30
0.0
 11
34.0
 21
1.0
 31
0.0
  0
LINE
  5
B4B
330
1F
100
AcDbEntity
  8
FORMAT
  6
CONTINUOUS
100
AcDbLine
 10
34.22698399999999
 20
0.6068539999999985
 30
0.0
 11
34.0
 21
1.0
 31
0.0
  0
TEXT
  5
B4C
330
1F
100
AcDbEntity
  8
FORMAT
  6
CONTINUOUS
100
AcDbText
 10
38.01725
 20
0.2999999999999972
 30
0.0
 40
0.4999999999999999
  1
E
  7
ARIAL
 72
     1
 11
38.25
 21
0.2999999999999972
 31
0.0
100
AcDbText
  0
LINE
  5
B4D
330
1F
100
AcDbEntity
  8
FORMAT
  6
CONTINUOUS
100
AcDbLine
 10
42.5
 20
0.0
 30
0.0
 11
42.5
 21
1.0
 31
0.0
  0
TEXT
  5
B4E
330
1F
100
AcDbEntity
  8
FORMAT
100
AcDbText
 10
39.50757872705651
 20
1.739775780785166
 30
0.0
 40
0.262656
  1
for manufacture or sale without
  7
ARIAL
100
AcDbText
  0
TEXT
  5
B4F
330
1F
100
AcDbEntity
  8
FORMAT
100
AcDbText
 10
39.50453292078089
 20
3.495294907661005
 30
0.0
 40
0.262656
  1
to the extent the information
  7
ARIAL
100
AcDbText
  0
TEXT
  5
B50
330
1F
100
AcDbEntity
  8
FORMAT
100
AcDbText
 10
39.50453292078089
 20
4.3797731614127
 30
0.0
 40
0.262656
  1
that is not generally known 
  7
ARIAL
100
AcDbText
  0
TEXT
  5
B51
330
1F
100
AcDbEntity
  8
FORMAT
100
AcDbText
 10
39.49969546375502
 20
3.937534034536881
 30
0.0
 40
0.262656
  1
shall be confidential except
  7
ARIAL
100
AcDbText
  0
TEXT
  5
B52
330
1F
100
AcDbEntity
  8
FORMAT
100
AcDbText
 10
39.48679557835254
 20
5.259772288288573
 30
0.0
 40
0.262656
  1
property of AMX LLC.
  7
ARIAL
100
AcDbText
  0
TEXT
  5
B53
330
1F
100
AcDbEntity
  8
FORMAT
100
AcDbText
 10
39.48303311177682
 20
5.702011415164421
 30
0.0
 40
0.262656
  1
NOTICE:   This drawing is the 
  7
ARIAL
100
AcDbText
  0
LWPOLYLINE
  5
B54
330
1F
100
AcDbEntity
  8
FORMAT
100
AcDbPolyline
 90
        4
 70
     1
 43
0.0256
 10
52.0237056242772
 20
1.755520585114823
 10
52.71490562427724
 20
1.937920585114824
 10
52.71490562427721
 20
1.27449478910836
 10
52.0237056242772
 20
1.448320585114828
  0
LWPOLYLINE
  5
B55
330
1F
100
AcDbEntity
  8
FORMAT
100
AcDbPolyline
 90
        2
 70
     0
 43
0.0256
 10
51.15934304363623
 20
1.488014287790691
 10
51.15934304363623
 20
1.167389232989876
  0
LWPOLYLINE
  5
B56
330
1F
100
AcDbEntity
  8
FORMAT
100
AcDbPolyline
 90
        2
 70
     1
 43
0.0256
 10
51.49534304363621
 20
1.60192058511484
 42
0.9999999999999998
 10
50.82334304363621
 20
1.60192058511484
 42
1.0
  0
TEXT
  5
B57
330
1F
100
AcDbEntity
  8
FORMAT
  6
CONTINUOUS
100
AcDbText
 10
46.42309754593055
 20
1.208788474551817
 30
0.0
 40
0.248
  1
          PROJECTION 
  7
ARIAL
100
AcDbText
  0
LWPOLYLINE
  5
B58
330
1F
100
AcDbEntity
  8
FORMAT
100
AcDbPolyline
 90
        2
 70
     0
 43
0.04
 10
54.24863012549628
 20
6.226682871043295
 10
54.24863012549628
 20
1.0
  0
LWPOLYLINE
  5
B59
330
1F
100
AcDbEntity
  8
FORMAT
100
AcDbPolyline
 90
        2
 70
     0
 43
0.04
 10
45.20179027162794
 20
6.226665442905954
 10
45.20179452697866
 20
1.0
  0
TEXT
  5
B5A
330
1F
100
AcDbEntity
  8
FORMAT
  6
CONTINUOUS
100
AcDbText
 10
46.53675
 20
0.2999999999999972
 30
0.0
 40
0.4999999999999999
  1
F
  7
ARIAL
 72
     1
 11
46.75
 21
0.2999999999999972
 31
0.0
100
AcDbText
  0
LINE
  5
B5B
330
1F
100
AcDbEntity
  8
FORMAT
  6
CONTINUOUS
100
AcDbLine
 10
51.0
 20
0.0
 30
0.0
 11
51.0
 21
1.0
 31
0.0
  0
TEXT
  5
B5C
330
1F
100
AcDbEntity
  8
FORMAT
  6
CONTINUOUS
100
AcDbText
 10
45.51194952766173
 20
5.482756790280575
 30
0.0
 40
0.3798466050509413
  1
%%uUNLESS OTHERWISE SPECIFIED
  7
ARIAL
 72
     1
 11
49.72520807088677
 21
5.482756790280575
 31
0.0
100
AcDbText
  0
TEXT
  5
B5D
330
1F
100
AcDbEntity
  8
FORMAT
  6
CONTINUOUS
100
AcDbText
 10
45.33363197287362
 20
4.845604342215765
 30
0.0
 40
0.24
  1
TOLERANCE ON DECIMAL DIMENSIONS:   .X = %%p
  7
ARIAL
 72
     2
 11
53.02923197287362
 21
4.845604342215765
 31
0.0
100
AcDbText
  0
TEXT
  5
B5E
330
1F
100
AcDbEntity
  8
FORMAT
  6
CONTINUOUS
100
AcDbText
 10
45.70184858382191
 20
3.196728762324749
 30
0.0
 40
0.24
  1
SURFACE FLATNESS .003 TIR PER LINEAR INCH  
  7
ARIAL
 72
     2
 11
53.68832858382191
 21
3.196728762324749
 31
0.0
100
AcDbText
  0
TEXT
  5
B5F
330
1F
100
AcDbEntity
  8
FORMAT
  6
CONTINUOUS
100
AcDbText
 10
47.33324807088677
 20
2.796724617347472
 30
0.0
 40
0.24
  1
ALL DIMENSIONS IN INCHES. 
  7
ARIAL
 72
     1
 11
49.72520807088677
 21
2.796724617347472
 31
0.0
100
AcDbText
  0
TEXT
  5
B60
330
1F
100
AcDbEntity
  8
FORMAT
  6
CONTINUOUS
100
AcDbText
 10
46.46481407088677
 20
2.24563112789232
 30
0.0
 40
0.3720000000000001
  1
DO NOT SCALE DRAWING
  7
ARIAL
 72
     1
 11
49.72520807088677
 21
2.24563112789232
 31
0.0
100
AcDbText
  0
LWPOLYLINE
  5
B61
330
1F
100
AcDbEntity
  8
FORMAT
100
AcDbPolyline
 90
        2
 70
     0
 43
0.04
 10
45.20179452697866
 20
2.111032403271679
 10
54.24862587014559
 20
2.111014975134346
  0
TEXT
  5
B62
330
1F
100
AcDbEntity
  8
FORMAT
  6
CONTINUOUS
100
AcDbText
 10
46.42309754593055
 20
1.603821958299825
 30
0.0
 40
0.248
  1
          THIRD ANGLE
  7
ARIAL
100
AcDbText
  0
TEXT
  5
B63
330
1F
100
AcDbEntity
  8
FORMAT
  6
CONTINUOUS
100
AcDbText
 10
53.09436776298292
 20
4.845604342215765
 30
0.0
 40
0.24
  1
0.1
  7
ARIAL
 72
     2
 11
53.55996776298292
 21
4.845604342215765
 31
0.0
100
AcDbText
  0
LWPOLYLINE
  5
B64
330
1F
100
AcDbEntity
  8
FORMAT
  6
CENTER
100
AcDbPolyline
 90
        2
 70
     0
 43
0.0256
 10
51.62132817125462
 20
1.60192058511484
 10
52.87788211390057
 20
1.60192058511484
  0
TEXT
  5
B65
330
1F
100
AcDbEntity
  8
FORMAT
  6
CONTINUOUS
100
AcDbText
 10
51.20691197287362
 20
3.730656688936858
 30
0.0
 40
0.24
  1
ANGLES:  %%p
  7
ARIAL
 72
     2
 11
53.02923197287362
 21
3.730656688936858
 31
0.0
100
AcDbText
  0
TEXT
  5
B66
330
1F
100
AcDbEntity
  8
FORMAT
  6
CONTINUOUS
100
AcDbText
 10
51.92355197287362
 20
4.473955124456129
 30
0.0
 40
0.24
  1
.XX = %%p
  7
ARIAL
 72
     2
 11
53.02923197287362
 21
4.473955124456129
 31
0.0
100
AcDbText
  0
TEXT
  5
B67
330
1F
100
AcDbEntity
  8
FORMAT
  6
CONTINUOUS
100
AcDbText
 10
51.70011197287361
 20
4.10230590669649
 30
0.0
 40
0.24
  1
.XXX = %%p
  7
ARIAL
 72
     2
 11
53.02923197287362
 21
4.10230590669649
 31
0.0
100
AcDbText
  0
LWPOLYLINE
  5
B68
330
1F
100
AcDbEntity
  8
FORMAT
100
AcDbPolyline
 90
        2
 70
     1
 43
0.0256
 10
51.31294304363621
 20
1.60192058511484
 42
0.9999999999999999
 10
51.00574304363622
 20
1.60192058511484
 42
1.0
  0
LWPOLYLINE
  5
B69
330
1F
100
AcDbEntity
  8
FORMAT
100
AcDbPolyline
 90
        2
 70
     0
 43
0.0256
 10
50.73080217011361
 20
1.60192058511484
 10
51.04543674631063
 20
1.60192058511484
  0
LWPOLYLINE
  5
B6A
330
1F
100
AcDbEntity
  8
FORMAT
100
AcDbPolyline
 90
        2
 70
     0
 43
0.0256
 10
51.15934304363623
 20
1.651826882438911
 10
51.15934304363623
 20
1.552014287792616
  0
LWPOLYLINE
  5
B6B
330
1F
100
AcDbEntity
  8
FORMAT
100
AcDbPolyline
 90
        2
 70
     0
 43
0.0256
 10
51.10943674631068
 20
1.60192058511484
 10
51.20924934096175
 20
1.60192058511484
  0
LWPOLYLINE
  5
B6C
330
1F
100
AcDbEntity
  8
FORMAT
100
AcDbPolyline
 90
        2
 70
     0
 43
0.0256
 10
51.15934304363623
 20
2.046469561915586
 10
51.15934304363623
 20
1.715826882439757
  0
LWPOLYLINE
  5
B6D
330
1F
100
AcDbEntity
  8
FORMAT
100
AcDbPolyline
 90
        2
 70
     0
 43
0.0256
 10
51.2732493409618
 20
1.60192058511484
 10
51.56640004596051
 20
1.60192058511484
  0
TEXT
  5
B6E
330
1F
100
AcDbEntity
  8
FORMAT
100
AcDbText
 10
54.37995897734919
 20
2.224336995367565
 30
0.0
 40
0.2176
  1
SIZE
  7
ARIAL
100
AcDbText
  0
TEXT
  5
B6F
330
1F
100
AcDbEntity
  8
FORMAT
100
AcDbText
 10
54.5844487242112
 20
1.796927043338229
 30
0.0
 40
0.32
  1
D
  7
ARIAL
100
AcDbText
  0
TEXT
  5
B70
330
1F
100
AcDbEntity
  8
FORMAT
  6
CONTINUOUS
100
AcDbText
 10
53.14433570279089
 20
4.10230590669649
 30
0.0
 40
0.24
  1
0.005
  7
ARIAL
 72
     2
 11
53.98241570279089
 21
4.10230590669649
 31
0.0
100
AcDbText
  0
TEXT
  5
B71
330
1F
100
AcDbEntity
  8
FORMAT
  6
CONTINUOUS
100
AcDbText
 10
53.13339103858566
 20
3.730656688936858
 30
0.0
 40
0.24
  1
0.5%%d
 41
0.9999999999999999
 51
1.0
  7
ARIAL
 72
     2
 11
53.73291103858566
 21
3.730656688936858
 31
0.0
100
AcDbText
  0
TEXT
  5
B72
330
1F
100
AcDbEntity
  8
FORMAT
  6
CONTINUOUS
100
AcDbText
 10
53.09895594176322
 20
4.473955124456129
 30
0.0
 40
0.24
  1
0.01
  7
ARIAL
 72
     2
 11
53.75079594176322
 21
4.473955124456129
 31
0.0
100
AcDbText
  0
TEXT
  5
B73
330
1F
100
AcDbEntity
  8
FORMAT
  6
BYBLOCK
100
AcDbText
 10
62.85993007478081
 20
5.112175097286638
 30
0.0
 40
0.2071813746399129
  1
RICHARDSON, TX 75082
 41
1.018884921437548
  7
ARIAL
100
AcDbText
  0
TEXT
  5
B74
330
1F
100
AcDbEntity
  8
FORMAT
  6
BYBLOCK
100
AcDbText
 10
62.86973577299923
 20
5.467341970092406
 30
0.0
 40
0.2071813746399129
  1
3000 RESEARCH DRIVE
 41
1.011836867459718
  7
ARIAL
100
AcDbText
  0
TEXT
  5
B75
330
1F
100
AcDbEntity
  8
FORMAT
100
AcDbText
 10
63.70474774205366
 20
1.33441632659526
 30
0.0
 40
0.2327272727272727
  1
SHEET
  7
ARIAL
100
AcDbText
  0
LWPOLYLINE
  5
B76
330
1F
100
AcDbEntity
  8
FORMAT
100
AcDbPolyline
 90
        2
 70
     0
 43
0.04
 10
63.63791933618654
 20
1.647297139297415
 10
63.63791933618654
 20
1.0
  0
LWPOLYLINE
  5
B77
330
1F
100
AcDbEntity
  8
FORMAT
100
AcDbPolyline
 90
        2
 70
     0
 43
0.04
 10
56.84126745398248
 20
1.647297139297415
 10
56.84126745398248
 20
1.0
  0
TEXT
  5
B78
330
1F
100
AcDbEntity
  8
FORMAT
100
AcDbText
 10
56.93288784551663
 20
1.33441632659526
 30
0.0
 40
0.2176
  1
ACAD FILE NO.
  7
ARIAL
100
AcDbText
  0
LINE
  5
B79
330
1F
100
AcDbEntity
  8
FORMAT
  6
CONTINUOUS
100
AcDbLine
 10
59.5
 20
0.0
 30
0.0
 11
59.5
 21
1.0
 31
0.0
  0
TEXT
  5
B7A
330
1F
100
AcDbEntity
  8
FORMAT
  6
CONTINUOUS
100
AcDbText
 10
63.498
 20
0.2999999999999972
 30
0.0
 40
0.4999999999999999
  1
H
  7
ARIAL
 72
     1
 11
63.75
 21
0.2999999999999972
 31
0.0
100
AcDbText
  0
TEXT
  5
B7B
330
1F
100
AcDbEntity
  8
FORMAT
100
AcDbText
 10
55.36190552086538
 20
2.224336995367565
 30
0.0
 40
0.2176
  1
DWG. NO.
  7
ARIAL
100
AcDbText
  0
LWPOLYLINE
  5
B7C
102
{ACAD_REACTORS
330
B3C
102
}
330
1F
100
AcDbEntity
  8
FORMAT
100
AcDbPolyline
 90
       13
 70
     1
 43
0.0
 10
58.76697229782357
 20
6.019796791591126
 10
58.38559308368377
 20
5.699326243464888
 42
0.0022906596071181
 10
57.73519173911555
 20
5.686097671624879
 10
57.46385897942815
 20
5.998039036066714
 10
57.4094340475377
 20
5.67148944472401
 42
0.0274655559228494
 10
56.18954926455075
 20
5.539378152296749
 10
56.26956932173155
 20
6.019796791591126
 10
56.54501601569831
 20
6.019796791591126
 10
56.81693032882256
 20
5.722190848589221
 10
57.18844671895877
 20
6.019796791591126
 10
57.87216476307992
 20
6.019796791591126
 10
58.06962646650678
 20
5.792782282679802
 10
58.33978737680931
 20
6.019796791591126
  0
LWPOLYLINE
  5
B7D
102
{ACAD_REACTORS
330
B3C
102
}
330
1F
100
AcDbEntity
  8
FORMAT
100
AcDbPolyline
 90
       10
 70
     1
 43
0.0
 10
57.69625092981138
 20
5.120076379530236
 10
58.00318724338706
 20
5.377993027854401
 10
58.22752823799783
 20
5.120076379530236
 10
58.65475934712416
 20
5.120076379530236
 10
58.27998961676212
 20
5.550935451524815
 42
0.0105244554857435
 10
57.77773864217966
 20
5.547510784954177
 10
57.32542486915165
 20
5.167434374407641
 10
57.38659330239526
 20
5.534444973869341
 42
0.0083241925565687
 10
57.05526126176369
 20
5.518879884777562
 10
56.98879401088914
 20
5.120076379530236
  0
LWPOLYLINE
  5
B7E
102
{ACAD_REACTORS
330
B3C
102
}
330
1F
100
AcDbEntity
  8
FORMAT
100
AcDbPolyline
 90
        4
 70
     1
 43
0.0
 10
55.65250277262248
 20
5.492602241466983
 10
55.65294275460113
 20
5.492175858525968
 10
55.57460602218097
 20
5.714897940896996
 10
55.43276512535795
 20
5.492175858525968
  0
LWPOLYLINE
  5
B7F
102
{ACAD_REACTORS
330
B3C
102
}
330
1F
100
AcDbEntity
  8
FORMAT
100
AcDbPolyline
 90
        7
 70
     1
 43
0.0
 10
55.70759466952654
 20
5.338331059270899
 10
55.78504060117939
 20
5.120076379530236
 10
56.44879019548728
 20
5.120076379530236
 10
56.50689629337501
 20
5.468712966856742
 42
0.0085307115550227
 10
56.17010641634423
 20
5.422648584630025
 10
56.12568833589188
 20
5.15597452161651
 10
56.03142151215607
 20
5.398900968051798
 42
0.014633201278307
  0
TEXT
  5
B80
330
1F
100
AcDbEntity
  8
FORMAT
100
AcDbText
 10
58.75130067212277
 20
5.123112718739786
 30
0.0
 40
0.1166542652164634
  1
TM
  7
ARIAL
 11
58.75130067212277
 21
5.181439851348017
 31
0.0
100
AcDbText
 73
     2
  0
TEXT
  5
B81
330
1F
100
AcDbEntity
  8
FORMAT
  6
BYBLOCK
100
AcDbText
 10
62.86973577299923
 20
5.822508842898173
 30
0.0
 40
0.2071813746399129
  1
AMX LLC
 41
1.011836867459718
  7
ARIAL
100
AcDbText
  0
TEXT
  5
B82
330
1F
100
AcDbEntity
  8
FORMAT
100
AcDbText
 10
66.15288098488114
 20
2.224336995367565
 30
0.0
 40
0.2176
  1
REV.
  7
ARIAL
 72
     1
 11
66.50735138488113
 21
2.224336995367565
 31
0.0
100
AcDbText
  0
LWPOLYLINE
  5
B83
330
1F
100
AcDbEntity
  8
FORMAT
100
AcDbPolyline
 90
        2
 70
     0
 43
0.04
 10
65.8986287480611
 20
2.545784213247554
 10
65.8986287480611
 20
1.647297139297415
  0
TEXT
  5
B84
330
1F
100
AcDbEntity
  8
FORMAT
  6
CONTINUOUS
100
AcDbText
 10
67.25219420573697
 20
5.25
 30
0.0
 40
0.4999999999999999
  1
4
  7
ARIAL
 72
     2
 11
67.64019420573698
 21
5.25
 31
0.0
100
AcDbText
  0
LINE
  5
B85
330
1F
100
AcDbEntity
  8
FORMAT
  6
CONTINUOUS
100
AcDbLine
 10
67.0
 20
11.0
 30
0.0
 11
68.0
 21
11.0
 31
0.0
  0
TEXT
  5
B86
330
1F
100
AcDbEntity
  8
FORMAT
  6
CONTINUOUS
100
AcDbText
 10
67.25219420573697
 20
16.25
 30
0.0
 40
0.4999999999999999
  1
3
  7
ARIAL
 72
     2
 11
67.64019420573698
 21
16.25
 31
0.0
100
AcDbText
  0
LWPOLYLINE
  5
B87
330
1F
100
AcDbEntity
  8
FORMAT
100
AcDbPolyline
 90
        2
 70
     0
 43
0.0384
 10
52.1391350730859
 20
41.60019199999999
 10
67.0
 20
41.60019199999999
  0
LWPOLYLINE
  5
B88
330
1F
100
AcDbEntity
  8
FORMAT
100
AcDbPolyline
 90
        2
 70
     0
 43
0.0384
 10
52.1391350730859
 20
42.28166399999998
 10
67.0
 20
42.28166399999998
  0
TEXT
  5
B89
330
1F
100
AcDbEntity
  8
FORMAT
  6
CONTINUOUS
100
AcDbText
 10
54.9785
 20
43.19999999999999
 30
0.0
 40
0.4999999999999999
  1
G
  7
ARIAL
 72
     1
 11
55.25
 21
43.19999999999999
 31
0.0
100
AcDbText
  0
LINE
  5
B8A
330
1F
100
AcDbEntity
  8
FORMAT
  6
CONTINUOUS
100
AcDbLine
 10
34.0
 20
43.0
 30
0.0
 11
34.0
 21
44.0
 31
0.0
  0
LINE
  5
B8B
330
1F
100
AcDbEntity
  8
FORMAT
  6
CONTINUOUS
100
AcDbLine
 10
34.0
 20
43.0
 30
0.0
 11
34.22698199999999
 21
43.393146
 31
0.0
  0
TEXT
  5
B8C
330
1F
100
AcDbEntity
  8
FORMAT
  6
CONTINUOUS
100
AcDbText
 10
38.01725
 20
43.19999999999999
 30
0.0
 40
0.4999999999999999
  1
E
  7
ARIAL
 72
     1
 11
38.25
 21
43.19999999999999
 31
0.0
100
AcDbText
  0
LINE
  5
B8D
330
1F
100
AcDbEntity
  8
FORMAT
  6
CONTINUOUS
100
AcDbLine
 10
42.5
 20
43.0
 30
0.0
 11
42.5
 21
44.0
 31
0.0
  0
LWPOLYLINE
  5
B8E
330
1F
100
AcDbEntity
  8
FORMAT
100
AcDbPolyline
 90
        2
 70
     0
 10
52.1391350730859
 20
43.0
 40
0.0512
 41
0.0512
 10
52.1391350730859
 20
40.02552078139929
 40
0.0512
 41
0.0512
  0
TEXT
  5
B8F
330
1F
100
AcDbEntity
  8
FORMAT
100
AcDbText
 10
52.32727335155818
 20
41.85534147703882
 30
0.0
 40
0.2304
  1
REV
  7
ARIAL
 72
     1
 11
52.65789735155818
 21
41.85534147703882
 31
0.0
100
AcDbText
  0
LWPOLYLINE
  5
B90
330
1F
100
AcDbEntity
  8
FORMAT
100
AcDbPolyline
 90
        2
 70
     0
 10
53.21114793179379
 20
40.02552078139929
 40
0.0384
 41
0.0384
 10
53.21114793179379
 20
42.28166399999998
 40
0.0384
 41
0.0384
  0
LWPOLYLINE
  5
B91
330
1F
100
AcDbEntity
  8
FORMAT
100
AcDbPolyline
 90
        2
 70
     0
 10
54.72107287504443
 20
40.02552078139929
 40
0.0384
 41
0.0384
 10
54.72107287504443
 20
42.28166399999998
 40
0.0384
 41
0.0384
  0
TEXT
  5
B92
330
1F
100
AcDbEntity
  8
FORMAT
100
AcDbText
 10
53.70659633072115
 20
41.85534147703882
 30
0.0
 40
0.2304
  1
ECN
  7
ARIAL
 72
     1
 11
54.04609073072115
 21
41.85534147703882
 31
0.0
100
AcDbText
  0
TEXT
  5
B93
330
1F
100
AcDbEntity
  8
FORMAT
  6
CONTINUOUS
100
AcDbText
 10
46.53675
 20
43.19999999999999
 30
0.0
 40
0.4999999999999999
  1
F
  7
ARIAL
 72
     1
 11
46.75
 21
43.19999999999999
 31
0.0
100
AcDbText
  0
LINE
  5
B94
330
1F
100
AcDbEntity
  8
FORMAT
  6
CONTINUOUS
100
AcDbLine
 10
51.0
 20
43.0
 30
0.0
 11
51.0
 21
44.0
 31
0.0
  0
LINE
  5
B95
330
1F
100
AcDbEntity
  8
FORMAT
  6
CONTINUOUS
100
AcDbLine
 10
67.393146
 20
22.226984
 30
0.0
 11
67.0
 21
22.0
 31
0.0
  0
LINE
  5
B96
330
1F
100
AcDbEntity
  8
FORMAT
  6
CONTINUOUS
100
AcDbLine
 10
67.0
 20
22.0
 30
0.0
 11
68.0
 21
22.0
 31
0.0
  0
TEXT
  5
B97
330
1F
100
AcDbEntity
  8
FORMAT
  6
CONTINUOUS
100
AcDbText
 10
67.25219420573697
 20
27.25
 30
0.0
 40
0.4999999999999999
  1
2
  7
ARIAL
 72
     2
 11
67.64019420573698
 21
27.25
 31
0.0
100
AcDbText
  0
LINE
  5
B98
330
1F
100
AcDbEntity
  8
FORMAT
  6
CONTINUOUS
100
AcDbLine
 10
67.0
 20
33.0
 30
0.0
 11
68.0
 21
33.0
 31
0.0
  0
TEXT
  5
B99
330
1F
100
AcDbEntity
  8
FORMAT
100
AcDbText
 10
64.73659226316987
 20
41.85534147703882
 30
0.0
 40
0.2304
  1
APPROVED
  7
ARIAL
 72
     1
 11
65.62996826316987
 21
41.85534147703882
 31
0.0
100
AcDbText
  0
TEXT
  5
B9A
330
1F
100
AcDbEntity
  8
FORMAT
100
AcDbText
 10
58.41700527396397
 20
42.47492155479824
 30
0.0
 40
0.3072
  1
REVISIONS
  7
ARIAL
 72
     1
 11
59.58467247396396
 21
42.47492155479824
 31
0.0
100
AcDbText
  0
TEXT
  5
B9B
330
1F
100
AcDbEntity
  8
FORMAT
100
AcDbText
 10
57.20813854340221
 20
41.85534147703882
 30
0.0
 40
0.2304
  1
DESCRIPTION
  7
ARIAL
 72
     1
 11
58.30714654340221
 21
41.85534147703882
 31
0.0
100
AcDbText
  0
TEXT
  5
B9C
330
1F
100
AcDbEntity
  8
FORMAT
100
AcDbText
 10
62.80107866316984
 20
41.85534147703882
 30
0.0
 40
0.2304
  1
DATE
  7
ARIAL
 72
     1
 11
63.22996826316984
 21
41.85534147703882
 31
0.0
100
AcDbText
  0
LWPOLYLINE
  5
B9D
330
1F
100
AcDbEntity
  8
FORMAT
100
AcDbPolyline
 90
        2
 70
     0
 10
62.14990426316984
 20
40.02552078139929
 40
0.0384
 41
0.0384
 10
62.14990426316984
 20
42.28166399999998
 40
0.0384
 41
0.0384
  0
LWPOLYLINE
  5
B9E
330
1F
100
AcDbEntity
  8
FORMAT
100
AcDbPolyline
 90
        2
 70
     0
 10
64.38990426316985
 20
40.02552078139929
 40
0.0384
 41
0.0384
 10
64.38990426316985
 20
42.28166399999998
 40
0.0384
 41
0.0384
  0
LINE
  5
B9F
330
1F
100
AcDbEntity
  8
FORMAT
  6
CONTINUOUS
100
AcDbLine
 10
59.5
 20
43.0
 30
0.0
 11
59.5
 21
44.0
 31
0.0
  0
TEXT
  5
BA0
330
1F
100
AcDbEntity
  8
FORMAT
  6
CONTINUOUS
100
AcDbText
 10
63.498
 20
43.19999999999999
 30
0.0
 40
0.4999999999999999
  1
H
  7
ARIAL
 72
     1
 11
63.75
 21
43.19999999999999
 31
0.0
100
AcDbText
  0
TEXT
  5
BA1
330
1F
100
AcDbEntity
  8
FORMAT
  6
CONTINUOUS
100
AcDbText
 10
67.25219420573697
 20
38.25
 30
0.0
 40
0.4999999999999999
  1
1
  7
ARIAL
 72
     2
 11
67.64019420573698
 21
38.25
 31
0.0
100
AcDbText
  0
TEXT
  5
1B03
330
1F
100
AcDbEntity
  8
TXT
100
AcDbText
 10
55.98067848461702
 20
50.32390952747566
 30
0.0
 40
0.12
  1

  7
ROMANS
100
AcDbText
  0
TEXT
  5
1B65
330
1F
100
AcDbEntity
  8
TB-TXT
100
AcDbText
 10
3.533809067585764
 20
40.33483405107839
 30
0.0
 40
0.4
  1
1. DIMENSIONS IN [ ] ARE IN MILLIMETERS
100
AcDbText
  0
TEXT
  5
1B66
330
1F
100
AcDbEntity
  8
TB-TXT
100
AcDbText
 10
2.856611855143854
 20
41.23948578258361
 30
0.0
 40
0.4
  1
NOTES, UNLESS OTHERWISE SPECIFIED:
100
AcDbText
  0
MTEXT
  5
C705
330
1F
100
AcDbEntity
  8
TXT
  6
CONTINUOUS
100
AcDbMText
 10
52.03576078950169
 20
17.9856913423169
 30
0.0
 40
0.5
 41
13.06526315033303
 71
     2
 72
     1
  1
{FRONT VIEW,\PCOVER AND\PSPACERS REMOVED}
  7
ARIAL
1001
ACAD
1000
ACAD_MTEXT_DEFINED_HEIGHT_BEGIN
1070
    46
1040
1.26275
1000
ACAD_MTEXT_DEFINED_HEIGHT_END
  0
LINE
  5
D504
330
1F
100
AcDbEntity
  8
0
  6
CONTINUOUS
100
AcDbLine
 10
25.46987047937926
 20
26.47751639026556
 30
0.0
 11
25.34487047937926
 21
26.35251639026556
 31
0.0
  0
LINE
  5
D505
330
1F
100
AcDbEntity
  8
0
  6
CONTINUOUS
100
AcDbLine
 10
24.43901547937926
 20
19.38034639026555
 30
0.0
 11
24.37901547937926
 21
19.38034639026555
 31
0.0
  0
LINE
  5
D506
330
1F
100
AcDbEntity
  8
0
  6
CONTINUOUS
100
AcDbLine
 10
32.00072547937926
 20
19.38034639026555
 30
0.0
 11
32.06072547937926
 21
19.38034639026555
 31
0.0
  0
LINE
  5
D507
330
1F
100
AcDbEntity
  8
0
  6
CONTINUOUS
100
AcDbLine
 10
25.34487047937926
 20
20.59534639026555
 30
0.0
 11
25.46987047937926
 21
20.47034639026555
 31
0.0
  0
LINE
  5
D508
330
1F
100
AcDbEntity
  8
0
  6
CONTINUOUS
100
AcDbLine
 10
24.37901547937926
 20
19.38034639026555
 30
0.0
 11
24.37901547937926
 21
20.82034639026556
 31
0.0
  0
LINE
  5
D509
330
1F
100
AcDbEntity
  8
0
  6
CONTINUOUS
100
AcDbLine
 10
24.37901547937926
 20
20.82034639026556
 30
0.0
 11
24.37901547937926
 21
21.00334639026556
 31
0.0
  0
LINE
  5
D50A
330
1F
100
AcDbEntity
  8
0
  6
CONTINUOUS
100
AcDbLine
 10
24.37901547937926
 20
21.00334639026556
 30
0.0
 11
24.37901547937926
 21
25.94451639026556
 31
0.0
  0
LINE
  5
D50B
330
1F
100
AcDbEntity
  8
0
  6
CONTINUOUS
100
AcDbLine
 10
24.37901547937926
 20
25.94451639026556
 30
0.0
 11
24.37901547937926
 21
26.12751639026555
 31
0.0
  0
LINE
  5
D50C
330
1F
100
AcDbEntity
  8
0
  6
CONTINUOUS
100
AcDbLine
 10
24.37901547937926
 20
26.12751639026555
 30
0.0
 11
24.37901547937926
 21
27.56751639026555
 31
0.0
  0
LINE
  5
D50D
330
1F
100
AcDbEntity
  8
0
  6
CONTINUOUS
100
AcDbLine
 10
24.43901547937926
 20
26.06751639026555
 30
0.0
 11
24.43901547937926
 21
26.04876283726556
 31
0.0
  0
LINE
  5
D50E
330
1F
100
AcDbEntity
  8
0
  6
CONTINUOUS
100
AcDbLine
 10
24.43901547937926
 20
25.94451639026556
 30
0.0
 11
24.43901547937926
 21
21.00334639026556
 31
0.0
  0
LINE
  5
D50F
330
1F
100
AcDbEntity
  8
0
  6
CONTINUOUS
100
AcDbLine
 10
24.43901547937926
 20
19.38034639026555
 30
0.0
 11
24.43901547937926
 21
20.88034639026555
 31
0.0
  0
LINE
  5
D510
330
1F
100
AcDbEntity
  8
0
  6
CONTINUOUS
100
AcDbLine
 10
24.43901547937926
 20
20.88034639026555
 30
0.0
 11
24.43901547937926
 21
20.89909994326555
 31
0.0
  0
LINE
  5
D511
330
1F
100
AcDbEntity
  8
0
  6
CONTINUOUS
100
AcDbLine
 10
24.43901547937926
 20
26.06751639026555
 30
0.0
 11
24.43901547937926
 21
27.56751639026555
 31
0.0
  0
LINE
  5
D512
330
1F
100
AcDbEntity
  8
0
  6
CONTINUOUS
100
AcDbLine
 10
24.45401547937927
 20
25.99101639026556
 30
0.0
 11
24.45401547937927
 21
20.95684639026555
 31
0.0
  0
LINE
  5
D513
330
1F
100
AcDbEntity
  8
0
  6
CONTINUOUS
100
AcDbLine
 10
24.49001547937926
 20
20.95684639026555
 30
0.0
 11
24.49001547937926
 21
20.84434639026556
 31
0.0
  0
LINE
  5
D514
330
1F
100
AcDbEntity
  8
0
  6
CONTINUOUS
100
AcDbLine
 10
24.49001547937926
 20
25.99101639026556
 30
0.0
 11
24.49001547937926
 21
26.10351639026555
 31
0.0
  0
LINE
  5
D515
330
1F
100
AcDbEntity
  8
0
  6
CONTINUOUS
100
AcDbLine
 10
24.50201547937926
 20
25.98623738946555
 30
0.0
 11
24.50201547937926
 21
25.97079733126555
 31
0.0
  0
LINE
  5
D516
330
1F
100
AcDbEntity
  8
0
  6
CONTINUOUS
100
AcDbLine
 10
24.50201547937926
 20
20.97706544906556
 30
0.0
 11
24.50201547937926
 21
20.96162539086556
 31
0.0
  0
LINE
  5
D517
330
1F
100
AcDbEntity
  8
0
  6
CONTINUOUS
100
AcDbLine
 10
24.43901547937926
 20
19.53034639026556
 30
0.0
 11
24.37901547937926
 21
19.53034639026556
 31
0.0
  0
LINE
  5
D518
330
1F
100
AcDbEntity
  8
0
  6
CONTINUOUS
100
AcDbLine
 10
32.00072547937926
 20
19.53034639026556
 30
0.0
 11
32.06072547937926
 21
19.53034639026556
 31
0.0
  0
LINE
  5
D519
330
1F
100
AcDbEntity
  8
0
  6
CONTINUOUS
100
AcDbLine
 10
24.53001547937927
 20
20.99684639026555
 30
0.0
 11
24.53001547937927
 21
25.95101639026555
 31
0.0
  0
LINE
  5
D51A
330
1F
100
AcDbEntity
  8
0
  6
CONTINUOUS
100
AcDbLine
 10
25.43440439977926
 20
25.74378746986555
 30
0.0
 11
25.44996047937926
 21
25.77073139026555
 31
0.0
  0
LINE
  5
D51B
330
1F
100
AcDbEntity
  8
0
  6
CONTINUOUS
100
AcDbLine
 10
25.49351655917926
 20
25.68467531046555
 30
0.0
 11
25.47796047937926
 21
25.65773139026555
 31
0.0
  0
LINE
  5
D51C
330
1F
100
AcDbEntity
  8
0
  6
CONTINUOUS
100
AcDbLine
 10
25.43440439977926
 20
25.68467531046555
 30
0.0
 11
25.49351655917926
 21
25.74378746986555
 31
0.0
  0
LINE
  5
D51D
330
1F
100
AcDbEntity
  8
0
  6
CONTINUOUS
100
AcDbLine
 10
25.40746047937926
 20
25.72823139026556
 30
0.0
 11
25.43440439977926
 21
25.74378746986555
 31
0.0
  0
LINE
  5
D51E
330
1F
100
AcDbEntity
  8
0
  6
CONTINUOUS
100
AcDbLine
 10
25.18001547937926
 20
20.92084639026555
 30
0.0
 11
25.18001547937926
 21
20.84434639026556
 31
0.0
  0
LINE
  5
D51F
330
1F
100
AcDbEntity
  8
0
  6
CONTINUOUS
100
AcDbLine
 10
25.18001547937926
 20
26.02701639026555
 30
0.0
 11
25.18001547937926
 21
26.10351639026555
 31
0.0
  0
LINE
  5
D520
330
1F
100
AcDbEntity
  8
0
  6
CONTINUOUS
100
AcDbLine
 10
25.44996047937926
 20
25.62973139026555
 30
0.0
 11
25.47796047937926
 21
25.79873139026555
 31
0.0
  0
LINE
  5
D521
330
1F
100
AcDbEntity
  8
0
  6
CONTINUOUS
100
AcDbLine
 10
25.44996047937926
 20
25.65773139026555
 30
0.0
 11
25.47796047937926
 21
25.77073139026555
 31
0.0
  0
LINE
  5
D522
330
1F
100
AcDbEntity
  8
0
  6
CONTINUOUS
100
AcDbLine
 10
25.52046047937926
 20
25.70023139026556
 30
0.0
 11
25.49351655917926
 21
25.68467531046555
 31
0.0
  0
LINE
  5
D523
330
1F
100
AcDbEntity
  8
0
  6
CONTINUOUS
100
AcDbLine
 10
26.46987047937926
 20
20.47034639026555
 30
0.0
 11
25.46987047937926
 21
20.47034639026555
 31
0.0
  0
LINE
  5
D524
330
1F
100
AcDbEntity
  8
0
  6
CONTINUOUS
100
AcDbLine
 10
29.96987047937926
 20
20.47034639026555
 30
0.0
 11
30.96987047937926
 21
20.47034639026555
 31
0.0
  0
LINE
  5
D525
330
1F
100
AcDbEntity
  8
0
  6
CONTINUOUS
100
AcDbLine
 10
25.30487047937926
 20
26.12751639026555
 30
0.0
 11
25.30487047937926
 21
26.06751639026555
 31
0.0
  0
LINE
  5
D526
330
1F
100
AcDbEntity
  8
0
  6
CONTINUOUS
100
AcDbLine
 10
25.30487047937926
 20
20.82034639026556
 30
0.0
 11
25.30487047937926
 21
20.88034639026555
 31
0.0
  0
LINE
  5
D527
330
1F
100
AcDbEntity
  8
0
  6
CONTINUOUS
100
AcDbLine
 10
25.34487047937926
 20
20.88034639026555
 30
0.0
 11
25.34487047937926
 21
20.59534639026555
 31
0.0
  0
LINE
  5
D528
330
1F
100
AcDbEntity
  8
0
  6
CONTINUOUS
100
AcDbLine
 10
25.34487047937926
 20
26.06751639026555
 30
0.0
 11
25.34487047937926
 21
26.35251639026556
 31
0.0
  0
LINE
  5
D529
330
1F
100
AcDbEntity
  8
0
  6
CONTINUOUS
100
AcDbLine
 10
25.37946047937926
 20
25.70023139026556
 30
0.0
 11
25.37946047937926
 21
25.72823139026556
 31
0.0
  0
LINE
  5
D52A
330
1F
100
AcDbEntity
  8
0
  6
CONTINUOUS
100
AcDbLine
 10
25.44996047937926
 20
25.62973139026555
 30
0.0
 11
25.44996047937926
 21
25.65773139026555
 31
0.0
  0
LINE
  5
D52B
330
1F
100
AcDbEntity
  8
0
  6
CONTINUOUS
100
AcDbLine
 10
25.44996047937926
 20
25.77073139026555
 30
0.0
 11
25.44996047937926
 21
25.79873139026555
 31
0.0
  0
LINE
  5
D52C
330
1F
100
AcDbEntity
  8
0
  6
CONTINUOUS
100
AcDbLine
 10
25.47796047937926
 20
25.79873139026555
 30
0.0
 11
25.47796047937926
 21
25.77073139026555
 31
0.0
  0
LINE
  5
D52D
330
1F
100
AcDbEntity
  8
0
  6
CONTINUOUS
100
AcDbLine
 10
25.47796047937926
 20
25.65773139026555
 30
0.0
 11
25.47796047937926
 21
25.62973139026555
 31
0.0
  0
LINE
  5
D52E
330
1F
100
AcDbEntity
  8
0
  6
CONTINUOUS
100
AcDbLine
 10
25.54846047937927
 20
25.72823139026556
 30
0.0
 11
25.54846047937927
 21
25.70023139026556
 31
0.0
  0
LINE
  5
D52F
330
1F
100
AcDbEntity
  8
0
  6
CONTINUOUS
100
AcDbLine
 10
30.91928047937926
 20
21.21963139026555
 30
0.0
 11
31.03228047937926
 21
21.24763139026555
 31
0.0
  0
LINE
  5
D530
330
1F
100
AcDbEntity
  8
0
  6
CONTINUOUS
100
AcDbLine
 10
30.89128047937927
 20
21.21963139026555
 30
0.0
 11
31.06028047937926
 21
21.24763139026555
 31
0.0
  0
LINE
  5
D531
330
1F
100
AcDbEntity
  8
0
  6
CONTINUOUS
100
AcDbLine
 10
30.78237047937926
 20
20.74972631146555
 30
0.0
 11
30.15737047937926
 21
20.74972631146555
 31
0.0
  0
LINE
  5
D532
330
1F
100
AcDbEntity
  8
0
  6
CONTINUOUS
100
AcDbLine
 10
26.28237047937926
 20
20.74972631146555
 30
0.0
 11
25.65737047937926
 21
20.74972631146555
 31
0.0
  0
LINE
  5
D533
330
1F
100
AcDbEntity
  8
0
  6
CONTINUOUS
100
AcDbLine
 10
26.59487047937926
 20
20.78909639026556
 30
0.0
 11
26.28237047937926
 21
20.78909639026556
 31
0.0
  0
LINE
  5
D534
330
1F
100
AcDbEntity
  8
0
  6
CONTINUOUS
100
AcDbLine
 10
25.65737047937926
 20
20.78909639026556
 30
0.0
 11
25.34487047937926
 21
20.78909639026556
 31
0.0
  0
LINE
  5
D535
330
1F
100
AcDbEntity
  8
0
  6
CONTINUOUS
100
AcDbLine
 10
29.84487047937926
 20
20.78909639026556
 30
0.0
 11
30.15737047937926
 21
20.78909639026556
 31
0.0
  0
LINE
  5
D536
330
1F
100
AcDbEntity
  8
0
  6
CONTINUOUS
100
AcDbLine
 10
30.78237047937926
 20
20.78909639026556
 30
0.0
 11
31.09487047937926
 21
20.78909639026556
 31
0.0
  0
LINE
  5
D537
330
1F
100
AcDbEntity
  8
0
  6
CONTINUOUS
100
AcDbLine
 10
32.06072547937926
 20
20.82034639026556
 30
0.0
 11
32.00072547937926
 21
20.82034639026556
 31
0.0
  0
LINE
  5
D538
330
1F
100
AcDbEntity
  8
0
  6
CONTINUOUS
100
AcDbLine
 10
24.37901547937926
 20
20.82034639026556
 30
0.0
 11
24.43901547937926
 21
20.82034639026556
 31
0.0
  0
LINE
  5
D539
330
1F
100
AcDbEntity
  8
0
  6
CONTINUOUS
100
AcDbLine
 10
24.43901547937926
 20
20.82034639026556
 30
0.0
 11
25.34487047937926
 21
20.82034639026556
 31
0.0
  0
LINE
  5
D53A
330
1F
100
AcDbEntity
  8
0
  6
CONTINUOUS
100
AcDbLine
 10
25.65737047937926
 20
20.82034639026556
 30
0.0
 11
26.28237047937926
 21
20.82034639026556
 31
0.0
  0
LINE
  5
D53B
330
1F
100
AcDbEntity
  8
0
  6
CONTINUOUS
100
AcDbLine
 10
26.59487047937926
 20
20.82034639026556
 30
0.0
 11
29.84487047937926
 21
20.82034639026556
 31
0.0
  0
LINE
  5
D53C
330
1F
100
AcDbEntity
  8
0
  6
CONTINUOUS
100
AcDbLine
 10
30.15737047937926
 20
20.82034639026556
 30
0.0
 11
30.78237047937926
 21
20.82034639026556
 31
0.0
  0
LINE
  5
D53D
330
1F
100
AcDbEntity
  8
0
  6
CONTINUOUS
100
AcDbLine
 10
31.09487047937926
 20
20.82034639026556
 30
0.0
 11
32.00072547937926
 21
20.82034639026556
 31
0.0
  0
LINE
  5
D53E
330
1F
100
AcDbEntity
  8
0
  6
CONTINUOUS
100
AcDbLine
 10
24.49001547937926
 20
20.84434639026556
 30
0.0
 11
25.18001547937926
 21
20.84434639026556
 31
0.0
  0
LINE
  5
D53F
330
1F
100
AcDbEntity
  8
0
  6
CONTINUOUS
100
AcDbLine
 10
31.25972547937926
 20
20.84434639026556
 30
0.0
 11
31.94972547937926
 21
20.84434639026556
 31
0.0
  0
LINE
  5
D540
330
1F
100
AcDbEntity
  8
0
  6
CONTINUOUS
100
AcDbLine
 10
24.49001547937926
 20
20.87797139026556
 30
0.0
 11
25.18001547937926
 21
20.87797139026556
 31
0.0
  0
LINE
  5
D541
330
1F
100
AcDbEntity
  8
0
  6
CONTINUOUS
100
AcDbLine
 10
31.25972547937926
 20
20.87797139026556
 30
0.0
 11
31.94972547937926
 21
20.87797139026556
 31
0.0
  0
LINE
  5
D542
330
1F
100
AcDbEntity
  8
0
  6
CONTINUOUS
100
AcDbLine
 10
32.06072547937926
 20
20.88034639026555
 30
0.0
 11
32.00072547937926
 21
20.88034639026555
 31
0.0
  0
LINE
  5
D543
330
1F
100
AcDbEntity
  8
0
  6
CONTINUOUS
100
AcDbLine
 10
24.43901547937926
 20
20.88034639026555
 30
0.0
 11
24.49001547937926
 21
20.88034639026555
 31
0.0
  0
LINE
  5
D544
330
1F
100
AcDbEntity
  8
0
  6
CONTINUOUS
100
AcDbLine
 10
24.37901547937926
 20
20.88034639026555
 30
0.0
 11
24.43901547937926
 21
20.88034639026555
 31
0.0
  0
LINE
  5
D545
330
1F
100
AcDbEntity
  8
0
  6
CONTINUOUS
100
AcDbLine
 10
25.18001547937926
 20
20.88034639026555
 30
0.0
 11
31.25972547937926
 21
20.88034639026555
 31
0.0
  0
LINE
  5
D546
330
1F
100
AcDbEntity
  8
0
  6
CONTINUOUS
100
AcDbLine
 10
31.94972547937926
 20
20.88034639026555
 30
0.0
 11
32.00072547937926
 21
20.88034639026555
 31
0.0
  0
LINE
  5
D547
330
1F
100
AcDbEntity
  8
0
  6
CONTINUOUS
100
AcDbLine
 10
24.49001547937926
 20
20.89934639026556
 30
0.0
 11
25.18001547937926
 21
20.89934639026556
 31
0.0
  0
LINE
  5
D548
330
1F
100
AcDbEntity
  8
0
  6
CONTINUOUS
100
AcDbLine
 10
31.25972547937926
 20
20.89934639026556
 30
0.0
 11
31.94972547937926
 21
20.89934639026556
 31
0.0
  0
LINE
  5
D549
330
1F
100
AcDbEntity
  8
0
  6
CONTINUOUS
100
AcDbLine
 10
25.65737047937926
 20
20.88034639026555
 30
0.0
 11
25.65737047937926
 21
20.74972631146555
 31
0.0
  0
LINE
  5
D54A
330
1F
100
AcDbEntity
  8
0
  6
CONTINUOUS
100
AcDbLine
 10
25.65737047937926
 20
26.06751639026555
 30
0.0
 11
25.65737047937926
 21
26.19813646886556
 31
0.0
  0
LINE
  5
D54B
330
1F
100
AcDbEntity
  8
0
  6
CONTINUOUS
100
AcDbLine
 10
31.94972547937926
 20
20.92084639026555
 30
0.0
 11
24.49001547937926
 21
20.92084639026555
 31
0.0
  0
LINE
  5
D54C
330
1F
100
AcDbEntity
  8
0
  6
CONTINUOUS
100
AcDbLine
 10
24.49001547937926
 20
20.95684639026555
 30
0.0
 11
24.45401547937927
 21
20.95684639026555
 31
0.0
  0
LINE
  5
D54D
330
1F
100
AcDbEntity
  8
0
  6
CONTINUOUS
100
AcDbLine
 10
31.94972547937926
 20
20.95684639026555
 30
0.0
 11
31.98572547937926
 21
20.95684639026555
 31
0.0
  0
LINE
  5
D54E
330
1F
100
AcDbEntity
  8
0
  6
CONTINUOUS
100
AcDbLine
 10
31.90972547937926
 20
20.99684639026555
 30
0.0
 11
24.53001547937927
 21
20.99684639026555
 31
0.0
  0
LINE
  5
D54F
330
1F
100
AcDbEntity
  8
0
  6
CONTINUOUS
100
AcDbLine
 10
32.06072547937926
 20
21.00334639026556
 30
0.0
 11
32.00072547937926
 21
21.00334639026556
 31
0.0
  0
LINE
  5
D550
330
1F
100
AcDbEntity
  8
0
  6
CONTINUOUS
100
AcDbLine
 10
24.37901547937926
 20
21.00334639026556
 30
0.0
 11
24.43901547937926
 21
21.00334639026556
 31
0.0
  0
LINE
  5
D551
330
1F
100
AcDbEntity
  8
0
  6
CONTINUOUS
100
AcDbLine
 10
30.98978047937926
 20
21.14913139026555
 30
0.0
 11
30.96178047937926
 21
21.14913139026555
 31
0.0
  0
LINE
  5
D552
330
1F
100
AcDbEntity
  8
0
  6
CONTINUOUS
100
AcDbLine
 10
31.06028047937926
 20
21.21963139026555
 30
0.0
 11
31.03228047937926
 21
21.21963139026555
 31
0.0
  0
LINE
  5
D553
330
1F
100
AcDbEntity
  8
0
  6
CONTINUOUS
100
AcDbLine
 10
30.91928047937926
 20
21.21963139026555
 30
0.0
 11
30.89128047937927
 21
21.21963139026555
 31
0.0
  0
LINE
  5
D554
330
1F
100
AcDbEntity
  8
0
  6
CONTINUOUS
100
AcDbLine
 10
30.89128047937927
 20
21.24763139026555
 30
0.0
 11
30.91928047937926
 21
21.24763139026555
 31
0.0
  0
LINE
  5
D555
330
1F
100
AcDbEntity
  8
0
  6
CONTINUOUS
100
AcDbLine
 10
31.03228047937926
 20
21.24763139026555
 30
0.0
 11
31.06028047937926
 21
21.24763139026555
 31
0.0
  0
LINE
  5
D556
330
1F
100
AcDbEntity
  8
0
  6
CONTINUOUS
100
AcDbLine
 10
25.47796047937926
 20
25.62973139026555
 30
0.0
 11
25.44996047937926
 21
25.79873139026555
 31
0.0
  0
LINE
  5
D557
330
1F
100
AcDbEntity
  8
0
  6
CONTINUOUS
100
AcDbLine
 10
26.28237047937926
 20
20.88034639026555
 30
0.0
 11
26.28237047937926
 21
20.74972631146555
 31
0.0
  0
LINE
  5
D558
330
1F
100
AcDbEntity
  8
0
  6
CONTINUOUS
100
AcDbLine
 10
26.28237047937926
 20
26.06751639026555
 30
0.0
 11
26.28237047937926
 21
26.19813646886556
 31
0.0
  0
LINE
  5
D559
330
1F
100
AcDbEntity
  8
0
  6
CONTINUOUS
100
AcDbLine
 10
30.96178047937926
 20
21.31813139026556
 30
0.0
 11
30.98978047937926
 21
21.31813139026556
 31
0.0
  0
LINE
  5
D55A
330
1F
100
AcDbEntity
  8
0
  6
CONTINUOUS
100
AcDbLine
 10
25.47796047937926
 20
25.65773139026555
 30
0.0
 11
25.44996047937926
 21
25.77073139026555
 31
0.0
  0
LINE
  5
D55B
330
1F
100
AcDbEntity
  8
0
  6
CONTINUOUS
100
AcDbLine
 10
26.59487047937926
 20
20.88034639026555
 30
0.0
 11
26.59487047937926
 21
20.59534639026555
 31
0.0
  0
LINE
  5
D55C
330
1F
100
AcDbEntity
  8
0
  6
CONTINUOUS
100
AcDbLine
 10
26.59487047937926
 20
26.06751639026555
 30
0.0
 11
26.59487047937926
 21
26.35251639026556
 31
0.0
  0
LINE
  5
D55D
330
1F
100
AcDbEntity
  8
0
  6
CONTINUOUS
100
AcDbLine
 10
26.63487047937926
 20
26.12751639026555
 30
0.0
 11
26.63487047937926
 21
26.06751639026555
 31
0.0
  0
LINE
  5
D55E
330
1F
100
AcDbEntity
  8
0
  6
CONTINUOUS
100
AcDbLine
 10
26.63487047937926
 20
20.82034639026556
 30
0.0
 11
26.63487047937926
 21
20.88034639026555
 31
0.0
  0
LINE
  5
D55F
330
1F
100
AcDbEntity
  8
0
  6
CONTINUOUS
100
AcDbLine
 10
30.89128047937927
 20
21.24763139026555
 30
0.0
 11
31.06028047937926
 21
21.21963139026555
 31
0.0
  0
LINE
  5
D560
330
1F
100
AcDbEntity
  8
0
  6
CONTINUOUS
100
AcDbLine
 10
30.91928047937926
 20
21.24763139026555
 30
0.0
 11
31.03228047937926
 21
21.21963139026555
 31
0.0
  0
LINE
  5
D561
330
1F
100
AcDbEntity
  8
0
  6
CONTINUOUS
100
AcDbLine
 10
25.44996047937926
 20
25.65773139026555
 30
0.0
 11
25.43440439977926
 21
25.68467531046555
 31
0.0
  0
LINE
  5
D562
330
1F
100
AcDbEntity
  8
0
  6
CONTINUOUS
100
AcDbLine
 10
25.47796047937926
 20
25.77073139026555
 30
0.0
 11
25.49351655917926
 21
25.74378746986555
 31
0.0
  0
LINE
  5
D563
330
1F
100
AcDbEntity
  8
0
  6
CONTINUOUS
100
AcDbLine
 10
29.96987047937926
 20
26.47751639026556
 30
0.0
 11
29.84487047937926
 21
26.35251639026556
 31
0.0
  0
LINE
  5
D564
330
1F
100
AcDbEntity
  8
0
  6
CONTINUOUS
100
AcDbLine
 10
29.84487047937926
 20
20.59534639026555
 30
0.0
 11
29.96987047937926
 21
20.47034639026555
 31
0.0
  0
LINE
  5
D565
330
1F
100
AcDbEntity
  8
0
  6
CONTINUOUS
100
AcDbLine
 10
30.94622439977926
 20
21.20407531046556
 30
0.0
 11
30.91928047937926
 21
21.21963139026555
 31
0.0
  0
LINE
  5
D566
330
1F
100
AcDbEntity
  8
0
  6
CONTINUOUS
100
AcDbLine
 10
31.00533655917926
 20
21.26318746986556
 30
0.0
 11
31.03228047937926
 21
21.24763139026555
 31
0.0
  0
LINE
  5
D567
330
1F
100
AcDbEntity
  8
0
  6
CONTINUOUS
100
AcDbLine
 10
25.49351655917926
 20
25.68467531046555
 30
0.0
 11
25.43440439977926
 21
25.74378746986555
 31
0.0
  0
LINE
  5
D568
330
1F
100
AcDbEntity
  8
0
  6
CONTINUOUS
100
AcDbLine
 10
30.94622439977926
 20
21.26318746986556
 30
0.0
 11
31.00533655917926
 21
21.20407531046556
 31
0.0
  0
LINE
  5
D569
330
1F
100
AcDbEntity
  8
0
  6
CONTINUOUS
100
AcDbLine
 10
25.43440439977926
 20
25.68467531046555
 30
0.0
 11
25.40746047937926
 21
25.70023139026556
 31
0.0
  0
LINE
  5
D56A
330
1F
100
AcDbEntity
  8
0
  6
CONTINUOUS
100
AcDbLine
 10
25.49351655917926
 20
25.74378746986555
 30
0.0
 11
25.52046047937926
 21
25.72823139026556
 31
0.0
  0
LINE
  5
D56B
330
1F
100
AcDbEntity
  8
0
  6
CONTINUOUS
100
AcDbLine
 10
26.46987047937926
 20
20.47034639026555
 30
0.0
 11
26.59487047937926
 21
20.59534639026555
 31
0.0
  0
LINE
  5
D56C
330
1F
100
AcDbEntity
  8
0
  6
CONTINUOUS
100
AcDbLine
 10
26.59487047937926
 20
26.35251639026556
 30
0.0
 11
26.46987047937926
 21
26.47751639026556
 31
0.0
  0
LINE
  5
D56D
330
1F
100
AcDbEntity
  8
0
  6
CONTINUOUS
100
AcDbLine
 10
25.40746047937926
 20
25.72823139026556
 30
0.0
 11
25.52046047937926
 21
25.70023139026556
 31
0.0
  0
LINE
  5
D56E
330
1F
100
AcDbEntity
  8
0
  6
CONTINUOUS
100
AcDbLine
 10
30.96178047937926
 20
21.17713139026555
 30
0.0
 11
30.94622439977926
 21
21.20407531046556
 31
0.0
  0
LINE
  5
D56F
330
1F
100
AcDbEntity
  8
0
  6
CONTINUOUS
100
AcDbLine
 10
30.98978047937926
 20
21.29013139026555
 30
0.0
 11
31.00533655917926
 21
21.26318746986556
 31
0.0
  0
LINE
  5
D570
330
1F
100
AcDbEntity
  8
0
  6
CONTINUOUS
100
AcDbLine
 10
29.80487047937926
 20
26.12751639026555
 30
0.0
 11
29.80487047937926
 21
26.06751639026555
 31
0.0
  0
LINE
  5
D571
330
1F
100
AcDbEntity
  8
0
  6
CONTINUOUS
100
AcDbLine
 10
29.80487047937926
 20
20.82034639026556
 30
0.0
 11
29.80487047937926
 21
20.88034639026555
 31
0.0
  0
LINE
  5
D572
330
1F
100
AcDbEntity
  8
0
  6
CONTINUOUS
100
AcDbLine
 10
29.84487047937926
 20
20.88034639026555
 30
0.0
 11
29.84487047937926
 21
20.59534639026555
 31
0.0
  0
LINE
  5
D573
330
1F
100
AcDbEntity
  8
0
  6
CONTINUOUS
100
AcDbLine
 10
29.84487047937926
 20
26.06751639026555
 30
0.0
 11
29.84487047937926
 21
26.35251639026556
 31
0.0
  0
LINE
  5
D574
330
1F
100
AcDbEntity
  8
0
  6
CONTINUOUS
100
AcDbLine
 10
25.37946047937926
 20
25.72823139026556
 30
0.0
 11
25.54846047937927
 21
25.70023139026556
 31
0.0
  0
LINE
  5
D575
330
1F
100
AcDbEntity
  8
0
  6
CONTINUOUS
100
AcDbLine
 10
30.15737047937926
 20
20.88034639026555
 30
0.0
 11
30.15737047937926
 21
20.74972631146555
 31
0.0
  0
LINE
  5
D576
330
1F
100
AcDbEntity
  8
0
  6
CONTINUOUS
100
AcDbLine
 10
30.15737047937926
 20
26.06751639026555
 30
0.0
 11
30.15737047937926
 21
26.19813646886556
 31
0.0
  0
LINE
  5
D577
330
1F
100
AcDbEntity
  8
0
  6
CONTINUOUS
100
AcDbLine
 10
25.47796047937926
 20
25.62973139026555
 30
0.0
 11
25.44996047937926
 21
25.62973139026555
 31
0.0
  0
LINE
  5
D578
330
1F
100
AcDbEntity
  8
0
  6
CONTINUOUS
100
AcDbLine
 10
25.54846047937927
 20
25.70023139026556
 30
0.0
 11
25.52046047937926
 21
25.70023139026556
 31
0.0
  0
LINE
  5
D579
330
1F
100
AcDbEntity
  8
0
  6
CONTINUOUS
100
AcDbLine
 10
25.40746047937926
 20
25.70023139026556
 30
0.0
 11
25.37946047937926
 21
25.70023139026556
 31
0.0
  0
LINE
  5
D57A
330
1F
100
AcDbEntity
  8
0
  6
CONTINUOUS
100
AcDbLine
 10
25.37946047937926
 20
25.72823139026556
 30
0.0
 11
25.40746047937926
 21
25.72823139026556
 31
0.0
  0
LINE
  5
D57B
330
1F
100
AcDbEntity
  8
0
  6
CONTINUOUS
100
AcDbLine
 10
25.52046047937926
 20
25.72823139026556
 30
0.0
 11
25.54846047937927
 21
25.72823139026556
 31
0.0
  0
LINE
  5
D57C
330
1F
100
AcDbEntity
  8
0
  6
CONTINUOUS
100
AcDbLine
 10
30.98978047937926
 20
21.17713139026555
 30
0.0
 11
30.96178047937926
 21
21.29013139026555
 31
0.0
  0
LINE
  5
D57D
330
1F
100
AcDbEntity
  8
0
  6
CONTINUOUS
100
AcDbLine
 10
30.78237047937926
 20
20.88034639026555
 30
0.0
 11
30.78237047937926
 21
20.74972631146555
 31
0.0
  0
LINE
  5
D57E
330
1F
100
AcDbEntity
  8
0
  6
CONTINUOUS
100
AcDbLine
 10
30.78237047937926
 20
26.06751639026555
 30
0.0
 11
30.78237047937926
 21
26.19813646886556
 31
0.0
  0
LINE
  5
D57F
330
1F
100
AcDbEntity
  8
0
  6
CONTINUOUS
100
AcDbLine
 10
25.37946047937926
 20
25.70023139026556
 30
0.0
 11
25.54846047937927
 21
25.72823139026556
 31
0.0
  0
LINE
  5
D580
330
1F
100
AcDbEntity
  8
0
  6
CONTINUOUS
100
AcDbLine
 10
25.44996047937926
 20
25.79873139026555
 30
0.0
 11
25.47796047937926
 21
25.79873139026555
 31
0.0
  0
LINE
  5
D581
330
1F
100
AcDbEntity
  8
0
  6
CONTINUOUS
100
AcDbLine
 10
32.06072547937926
 20
25.94451639026556
 30
0.0
 11
32.00072547937926
 21
25.94451639026556
 31
0.0
  0
LINE
  5
D582
330
1F
100
AcDbEntity
  8
0
  6
CONTINUOUS
100
AcDbLine
 10
24.37901547937926
 20
25.94451639026556
 30
0.0
 11
24.43901547937926
 21
25.94451639026556
 31
0.0
  0
LINE
  5
D583
330
1F
100
AcDbEntity
  8
0
  6
CONTINUOUS
100
AcDbLine
 10
24.53001547937927
 20
25.95101639026555
 30
0.0
 11
31.90972547937926
 21
25.95101639026555
 31
0.0
  0
LINE
  5
D584
330
1F
100
AcDbEntity
  8
0
  6
CONTINUOUS
100
AcDbLine
 10
24.49001547937926
 20
25.99101639026556
 30
0.0
 11
24.45401547937927
 21
25.99101639026556
 31
0.0
  0
LINE
  5
D585
330
1F
100
AcDbEntity
  8
0
  6
CONTINUOUS
100
AcDbLine
 10
31.94972547937926
 20
25.99101639026556
 30
0.0
 11
31.98572547937926
 21
25.99101639026556
 31
0.0
  0
LINE
  5
D586
330
1F
100
AcDbEntity
  8
0
  6
CONTINUOUS
100
AcDbLine
 10
31.94972547937926
 20
26.02701639026555
 30
0.0
 11
24.49001547937926
 21
26.02701639026555
 31
0.0
  0
LINE
  5
D587
330
1F
100
AcDbEntity
  8
0
  6
CONTINUOUS
100
AcDbLine
 10
31.94972547937926
 20
26.04851639026555
 30
0.0
 11
31.25972547937926
 21
26.04851639026555
 31
0.0
  0
LINE
  5
D588
330
1F
100
AcDbEntity
  8
0
  6
CONTINUOUS
100
AcDbLine
 10
25.18001547937926
 20
26.04851639026555
 30
0.0
 11
24.49001547937926
 21
26.04851639026555
 31
0.0
  0
LINE
  5
D589
330
1F
100
AcDbEntity
  8
0
  6
CONTINUOUS
100
AcDbLine
 10
32.06072547937926
 20
26.06751639026555
 30
0.0
 11
32.00072547937926
 21
26.06751639026555
 31
0.0
  0
LINE
  5
D58A
330
1F
100
AcDbEntity
  8
0
  6
CONTINUOUS
100
AcDbLine
 10
32.00072547937926
 20
26.06751639026555
 30
0.0
 11
31.94972547937926
 21
26.06751639026555
 31
0.0
  0
LINE
  5
D58B
330
1F
100
AcDbEntity
  8
0
  6
CONTINUOUS
100
AcDbLine
 10
24.49001547937926
 20
26.06751639026555
 30
0.0
 11
24.43901547937926
 21
26.06751639026555
 31
0.0
  0
LINE
  5
D58C
330
1F
100
AcDbEntity
  8
0
  6
CONTINUOUS
100
AcDbLine
 10
24.37901547937926
 20
26.06751639026555
 30
0.0
 11
24.43901547937926
 21
26.06751639026555
 31
0.0
  0
LINE
  5
D58D
330
1F
100
AcDbEntity
  8
0
  6
CONTINUOUS
100
AcDbLine
 10
25.18001547937926
 20
26.06751639026555
 30
0.0
 11
31.25972547937926
 21
26.06751639026555
 31
0.0
  0
LINE
  5
D58E
330
1F
100
AcDbEntity
  8
0
  6
CONTINUOUS
100
AcDbLine
 10
31.94972547937926
 20
26.06989139026555
 30
0.0
 11
31.25972547937926
 21
26.06989139026555
 31
0.0
  0
LINE
  5
D58F
330
1F
100
AcDbEntity
  8
0
  6
CONTINUOUS
100
AcDbLine
 10
25.18001547937926
 20
26.06989139026555
 30
0.0
 11
24.49001547937926
 21
26.06989139026555
 31
0.0
  0
LINE
  5
D590
330
1F
100
AcDbEntity
  8
0
  6
CONTINUOUS
100
AcDbLine
 10
31.94972547937926
 20
26.10351639026555
 30
0.0
 11
31.25972547937926
 21
26.10351639026555
 31
0.0
  0
LINE
  5
D591
330
1F
100
AcDbEntity
  8
0
  6
CONTINUOUS
100
AcDbLine
 10
25.18001547937926
 20
26.10351639026555
 30
0.0
 11
24.49001547937926
 21
26.10351639026555
 31
0.0
  0
LINE
  5
D592
330
1F
100
AcDbEntity
  8
0
  6
CONTINUOUS
100
AcDbLine
 10
32.06072547937926
 20
26.12751639026555
 30
0.0
 11
32.00072547937926
 21
26.12751639026555
 31
0.0
  0
LINE
  5
D593
330
1F
100
AcDbEntity
  8
0
  6
CONTINUOUS
100
AcDbLine
 10
24.37901547937926
 20
26.12751639026555
 30
0.0
 11
24.43901547937926
 21
26.12751639026555
 31
0.0
  0
LINE
  5
D594
330
1F
100
AcDbEntity
  8
0
  6
CONTINUOUS
100
AcDbLine
 10
24.43901547937926
 20
26.12751639026555
 30
0.0
 11
25.34487047937926
 21
26.12751639026555
 31
0.0
  0
LINE
  5
D595
330
1F
100
AcDbEntity
  8
0
  6
CONTINUOUS
100
AcDbLine
 10
25.65737047937926
 20
26.12751639026555
 30
0.0
 11
26.28237047937926
 21
26.12751639026555
 31
0.0
  0
LINE
  5
D596
330
1F
100
AcDbEntity
  8
0
  6
CONTINUOUS
100
AcDbLine
 10
26.59487047937926
 20
26.12751639026555
 30
0.0
 11
29.84487047937926
 21
26.12751639026555
 31
0.0
  0
LINE
  5
D597
330
1F
100
AcDbEntity
  8
0
  6
CONTINUOUS
100
AcDbLine
 10
30.15737047937926
 20
26.12751639026555
 30
0.0
 11
30.78237047937926
 21
26.12751639026555
 31
0.0
  0
LINE
  5
D598
330
1F
100
AcDbEntity
  8
0
  6
CONTINUOUS
100
AcDbLine
 10
31.09487047937926
 20
26.12751639026555
 30
0.0
 11
32.00072547937926
 21
26.12751639026555
 31
0.0
  0
LINE
  5
D599
330
1F
100
AcDbEntity
  8
0
  6
CONTINUOUS
100
AcDbLine
 10
30.98978047937926
 20
21.14913139026555
 30
0.0
 11
30.96178047937926
 21
21.31813139026556
 31
0.0
  0
LINE
  5
D59A
330
1F
100
AcDbEntity
  8
0
  6
CONTINUOUS
100
AcDbLine
 10
30.89128047937927
 20
21.21963139026555
 30
0.0
 11
30.89128047937927
 21
21.24763139026555
 31
0.0
  0
LINE
  5
D59B
330
1F
100
AcDbEntity
  8
0
  6
CONTINUOUS
100
AcDbLine
 10
30.96178047937926
 20
21.14913139026555
 30
0.0
 11
30.96178047937926
 21
21.17713139026555
 31
0.0
  0
LINE
  5
D59C
330
1F
100
AcDbEntity
  8
0
  6
CONTINUOUS
100
AcDbLine
 10
30.96178047937926
 20
21.29013139026555
 30
0.0
 11
30.96178047937926
 21
21.31813139026556
 31
0.0
  0
LINE
  5
D59D
330
1F
100
AcDbEntity
  8
0
  6
CONTINUOUS
100
AcDbLine
 10
30.98978047937926
 20
21.31813139026556
 30
0.0
 11
30.98978047937926
 21
21.29013139026555
 31
0.0
  0
LINE
  5
D59E
330
1F
100
AcDbEntity
  8
0
  6
CONTINUOUS
100
AcDbLine
 10
30.98978047937926
 20
21.17713139026555
 30
0.0
 11
30.98978047937926
 21
21.14913139026555
 31
0.0
  0
LINE
  5
D59F
330
1F
100
AcDbEntity
  8
0
  6
CONTINUOUS
100
AcDbLine
 10
31.06028047937926
 20
21.24763139026555
 30
0.0
 11
31.06028047937926
 21
21.21963139026555
 31
0.0
  0
LINE
  5
D5A0
330
1F
100
AcDbEntity
  8
0
  6
CONTINUOUS
100
AcDbLine
 10
31.09487047937926
 20
20.88034639026555
 30
0.0
 11
31.09487047937926
 21
20.59534639026555
 31
0.0
  0
LINE
  5
D5A1
330
1F
100
AcDbEntity
  8
0
  6
CONTINUOUS
100
AcDbLine
 10
31.09487047937926
 20
26.06751639026555
 30
0.0
 11
31.09487047937926
 21
26.35251639026556
 31
0.0
  0
LINE
  5
D5A2
330
1F
100
AcDbEntity
  8
0
  6
CONTINUOUS
100
AcDbLine
 10
31.13487047937926
 20
26.12751639026555
 30
0.0
 11
31.13487047937926
 21
26.06751639026555
 31
0.0
  0
LINE
  5
D5A3
330
1F
100
AcDbEntity
  8
0
  6
CONTINUOUS
100
AcDbLine
 10
31.13487047937926
 20
20.82034639026556
 30
0.0
 11
31.13487047937926
 21
20.88034639026555
 31
0.0
  0
LINE
  5
D5A4
330
1F
100
AcDbEntity
  8
0
  6
CONTINUOUS
100
AcDbLine
 10
31.25972547937926
 20
20.92084639026555
 30
0.0
 11
31.25972547937926
 21
20.84434639026556
 31
0.0
  0
LINE
  5
D5A5
330
1F
100
AcDbEntity
  8
0
  6
CONTINUOUS
100
AcDbLine
 10
31.25972547937926
 20
26.02701639026555
 30
0.0
 11
31.25972547937926
 21
26.10351639026555
 31
0.0
  0
LINE
  5
D5A6
330
1F
100
AcDbEntity
  8
0
  6
CONTINUOUS
100
AcDbLine
 10
25.40746047937926
 20
25.70023139026556
 30
0.0
 11
25.52046047937926
 21
25.72823139026556
 31
0.0
  0
LINE
  5
D5A7
330
1F
100
AcDbEntity
  8
0
  6
CONTINUOUS
100
AcDbLine
 10
26.59487047937926
 20
26.15876639026555
 30
0.0
 11
26.28237047937926
 21
26.15876639026555
 31
0.0
  0
LINE
  5
D5A8
330
1F
100
AcDbEntity
  8
0
  6
CONTINUOUS
100
AcDbLine
 10
25.65737047937926
 20
26.15876639026555
 30
0.0
 11
25.34487047937926
 21
26.15876639026555
 31
0.0
  0
LINE
  5
D5A9
330
1F
100
AcDbEntity
  8
0
  6
CONTINUOUS
100
AcDbLine
 10
29.84487047937926
 20
26.15876639026555
 30
0.0
 11
30.15737047937926
 21
26.15876639026555
 31
0.0
  0
LINE
  5
D5AA
330
1F
100
AcDbEntity
  8
0
  6
CONTINUOUS
100
AcDbLine
 10
30.78237047937926
 20
26.15876639026555
 30
0.0
 11
31.09487047937926
 21
26.15876639026555
 31
0.0
  0
LINE
  5
D5AB
330
1F
100
AcDbEntity
  8
0
  6
CONTINUOUS
100
AcDbLine
 10
30.78237047937926
 20
26.19813646886556
 30
0.0
 11
30.15737047937926
 21
26.19813646886556
 31
0.0
  0
LINE
  5
D5AC
330
1F
100
AcDbEntity
  8
0
  6
CONTINUOUS
100
AcDbLine
 10
26.28237047937926
 20
26.19813646886556
 30
0.0
 11
25.65737047937926
 21
26.19813646886556
 31
0.0
  0
LINE
  5
D5AD
330
1F
100
AcDbEntity
  8
0
  6
CONTINUOUS
100
AcDbLine
 10
26.46987047937926
 20
26.47751639026556
 30
0.0
 11
25.46987047937926
 21
26.47751639026556
 31
0.0
  0
LINE
  5
D5AE
330
1F
100
AcDbEntity
  8
0
  6
CONTINUOUS
100
AcDbLine
 10
29.96987047937926
 20
26.47751639026556
 30
0.0
 11
30.96987047937926
 21
26.47751639026556
 31
0.0
  0
LINE
  5
D5AF
330
1F
100
AcDbEntity
  8
0
  6
CONTINUOUS
100
AcDbLine
 10
30.96178047937926
 20
21.14913139026555
 30
0.0
 11
30.98978047937926
 21
21.31813139026556
 31
0.0
  0
LINE
  5
D5B0
330
1F
100
AcDbEntity
  8
0
  6
CONTINUOUS
100
AcDbLine
 10
30.96178047937926
 20
21.17713139026555
 30
0.0
 11
30.98978047937926
 21
21.29013139026555
 31
0.0
  0
LINE
  5
D5B1
330
1F
100
AcDbEntity
  8
0
  6
CONTINUOUS
100
AcDbLine
 10
30.91928047937926
 20
21.24763139026555
 30
0.0
 11
30.94622439977926
 21
21.26318746986556
 31
0.0
  0
LINE
  5
D5B2
330
1F
100
AcDbEntity
  8
0
  6
CONTINUOUS
100
AcDbLine
 10
31.03228047937926
 20
21.21963139026555
 30
0.0
 11
31.00533655917926
 21
21.20407531046556
 31
0.0
  0
LINE
  5
D5B3
330
1F
100
AcDbEntity
  8
0
  6
CONTINUOUS
100
AcDbLine
 10
31.90972547937926
 20
25.95101639026555
 30
0.0
 11
31.90972547937926
 21
20.99684639026555
 31
0.0
  0
LINE
  5
D5B4
330
1F
100
AcDbEntity
  8
0
  6
CONTINUOUS
100
AcDbLine
 10
31.93772547937926
 20
20.96162539086556
 30
0.0
 11
31.93772547937926
 21
20.97706544906556
 31
0.0
  0
LINE
  5
D5B5
330
1F
100
AcDbEntity
  8
0
  6
CONTINUOUS
100
AcDbLine
 10
31.93772547937926
 20
25.97079733126555
 30
0.0
 11
31.93772547937926
 21
25.98623738946555
 31
0.0
  0
LINE
  5
D5B6
330
1F
100
AcDbEntity
  8
0
  6
CONTINUOUS
100
AcDbLine
 10
31.94972547937926
 20
20.95684639026555
 30
0.0
 11
31.94972547937926
 21
20.84434639026556
 31
0.0
  0
LINE
  5
D5B7
330
1F
100
AcDbEntity
  8
0
  6
CONTINUOUS
100
AcDbLine
 10
31.94972547937926
 20
25.99101639026556
 30
0.0
 11
31.94972547937926
 21
26.10351639026555
 31
0.0
  0
LINE
  5
D5B8
330
1F
100
AcDbEntity
  8
0
  6
CONTINUOUS
100
AcDbLine
 10
31.98572547937926
 20
25.99101639026556
 30
0.0
 11
31.98572547937926
 21
20.95684639026555
 31
0.0
  0
LINE
  5
D5B9
330
1F
100
AcDbEntity
  8
0
  6
CONTINUOUS
100
AcDbLine
 10
32.00072547937926
 20
26.06751639026555
 30
0.0
 11
32.00072547937926
 21
26.04876283726556
 31
0.0
  0
LINE
  5
D5BA
330
1F
100
AcDbEntity
  8
0
  6
CONTINUOUS
100
AcDbLine
 10
32.00072547937926
 20
19.38034639026555
 30
0.0
 11
32.00072547937926
 21
20.88034639026555
 31
0.0
  0
LINE
  5
D5BB
330
1F
100
AcDbEntity
  8
0
  6
CONTINUOUS
100
AcDbLine
 10
32.00072547937926
 20
20.88034639026555
 30
0.0
 11
32.00072547937926
 21
20.89909994326555
 31
0.0
  0
LINE
  5
D5BC
330
1F
100
AcDbEntity
  8
0
  6
CONTINUOUS
100
AcDbLine
 10
32.00072547937926
 20
21.00334639026556
 30
0.0
 11
32.00072547937926
 21
25.94451639026556
 31
0.0
  0
LINE
  5
D5BD
330
1F
100
AcDbEntity
  8
0
  6
CONTINUOUS
100
AcDbLine
 10
32.00072547937926
 20
26.06751639026555
 30
0.0
 11
32.00072547937926
 21
27.56751639026555
 31
0.0
  0
LINE
  5
D5BE
330
1F
100
AcDbEntity
  8
0
  6
CONTINUOUS
100
AcDbLine
 10
30.94622439977926
 20
21.26318746986556
 30
0.0
 11
30.96178047937926
 21
21.29013139026555
 31
0.0
  0
LINE
  5
D5BF
330
1F
100
AcDbEntity
  8
0
  6
CONTINUOUS
100
AcDbLine
 10
31.00533655917926
 20
21.20407531046556
 30
0.0
 11
30.98978047937926
 21
21.17713139026555
 31
0.0
  0
LINE
  5
D5C0
330
1F
100
AcDbEntity
  8
0
  6
CONTINUOUS
100
AcDbLine
 10
30.94622439977926
 20
21.20407531046556
 30
0.0
 11
31.00533655917926
 21
21.26318746986556
 31
0.0
  0
LINE
  5
D5C1
330
1F
100
AcDbEntity
  8
0
  6
CONTINUOUS
100
AcDbLine
 10
32.06072547937926
 20
27.56751639026555
 30
0.0
 11
32.06072547937926
 21
26.12751639026555
 31
0.0
  0
LINE
  5
D5C2
330
1F
100
AcDbEntity
  8
0
  6
CONTINUOUS
100
AcDbLine
 10
32.06072547937926
 20
26.12751639026555
 30
0.0
 11
32.06072547937926
 21
25.94451639026556
 31
0.0
  0
LINE
  5
D5C3
330
1F
100
AcDbEntity
  8
0
  6
CONTINUOUS
100
AcDbLine
 10
32.06072547937926
 20
25.94451639026556
 30
0.0
 11
32.06072547937926
 21
21.00334639026556
 31
0.0
  0
LINE
  5
D5C4
330
1F
100
AcDbEntity
  8
0
  6
CONTINUOUS
100
AcDbLine
 10
32.06072547937926
 20
21.00334639026556
 30
0.0
 11
32.06072547937926
 21
20.82034639026556
 31
0.0
  0
LINE
  5
D5C5
330
1F
100
AcDbEntity
  8
0
  6
CONTINUOUS
100
AcDbLine
 10
32.06072547937926
 20
20.82034639026556
 30
0.0
 11
32.06072547937926
 21
19.38034639026555
 31
0.0
  0
LINE
  5
D5C6
330
1F
100
AcDbEntity
  8
0
  6
CONTINUOUS
100
AcDbLine
 10
30.96987047937926
 20
20.47034639026555
 30
0.0
 11
31.09487047937926
 21
20.59534639026555
 31
0.0
  0
LINE
  5
D5C7
330
1F
100
AcDbEntity
  8
0
  6
CONTINUOUS
100
AcDbLine
 10
24.43901547937926
 20
27.41751639026555
 30
0.0
 11
24.37901547937926
 21
27.41751639026555
 31
0.0
  0
LINE
  5
D5C8
330
1F
100
AcDbEntity
  8
0
  6
CONTINUOUS
100
AcDbLine
 10
32.00072547937926
 20
27.41751639026555
 30
0.0
 11
32.06072547937926
 21
27.41751639026555
 31
0.0
  0
LINE
  5
D5C9
330
1F
100
AcDbEntity
  8
0
  6
CONTINUOUS
100
AcDbLine
 10
24.43901547937926
 20
27.56751639026555
 30
0.0
 11
24.37901547937926
 21
27.56751639026555
 31
0.0
  0
LINE
  5
D5CA
330
1F
100
AcDbEntity
  8
0
  6
CONTINUOUS
100
AcDbLine
 10
32.00072547937926
 20
27.56751639026555
 30
0.0
 11
32.06072547937926
 21
27.56751639026555
 31
0.0
  0
LINE
  5
D5CB
330
1F
100
AcDbEntity
  8
0
  6
CONTINUOUS
100
AcDbLine
 10
31.09487047937926
 20
26.35251639026556
 30
0.0
 11
30.96987047937926
 21
26.47751639026556
 31
0.0
  0
LINE
  5
D5CC
330
1F
100
AcDbEntity
  8
0
  6
CONTINUOUS
100
AcDbLine
 10
38.34952496777926
 20
19.38034639026555
 30
0.0
 11
39.04952496777926
 21
19.38034639026555
 31
0.0
  0
LINE
  5
D5CD
330
1F
100
AcDbEntity
  8
0
  6
CONTINUOUS
100
AcDbLine
 10
38.34952496777926
 20
27.56751639026555
 30
0.0
 11
38.19952496777925
 21
27.41751639026555
 31
0.0
  0
LINE
  5
D5CE
330
1F
100
AcDbEntity
  8
0
  6
CONTINUOUS
100
AcDbLine
 10
38.92452496777926
 20
20.05534639026556
 30
0.0
 11
38.47452496777926
 21
20.05534639026556
 31
0.0
  0
LINE
  5
D5CF
330
1F
100
AcDbEntity
  8
0
  6
CONTINUOUS
100
AcDbLine
 10
38.47452496777926
 20
20.20534639026555
 30
0.0
 11
38.92452496777926
 21
20.20534639026555
 31
0.0
  0
LINE
  5
D5D0
330
1F
100
AcDbEntity
  8
0
  6
CONTINUOUS
100
AcDbLine
 10
38.19952496777925
 20
19.53034639026556
 30
0.0
 11
38.34952496777926
 21
19.38034639026555
 31
0.0
  0
LINE
  5
D5D1
330
1F
100
AcDbEntity
  8
0
  6
CONTINUOUS
100
AcDbLine
 10
37.21452496777925
 20
20.47034639026555
 30
0.0
 11
37.27452496777926
 21
20.47034639026555
 31
0.0
  0
LINE
  5
D5D2
330
1F
100
AcDbEntity
  8
0
  6
CONTINUOUS
100
AcDbLine
 10
37.21452496777925
 20
20.59534639026555
 30
0.0
 11
37.27452496777926
 21
20.59534639026555
 31
0.0
  0
LINE
  5
D5D3
330
1F
100
AcDbEntity
  8
0
  6
CONTINUOUS
100
AcDbLine
 10
37.27452496777926
 20
20.78909639026556
 30
0.0
 11
37.21452496777925
 21
20.78909639026556
 31
0.0
  0
LINE
  5
D5D4
330
1F
100
AcDbEntity
  8
0
  6
CONTINUOUS
100
AcDbLine
 10
40.62074496777926
 20
20.82034639026556
 30
0.0
 11
39.19952496777925
 21
20.82034639026556
 31
0.0
  0
LINE
  5
D5D5
330
1F
100
AcDbEntity
  8
0
  6
CONTINUOUS
100
AcDbLine
 10
39.19952496777925
 20
20.82034639026556
 30
0.0
 11
38.99952496777927
 21
20.82034639026556
 31
0.0
  0
LINE
  5
D5D6
330
1F
100
AcDbEntity
  8
0
  6
CONTINUOUS
100
AcDbLine
 10
38.92952496777926
 20
20.82034639026556
 30
0.0
 11
38.75952496777926
 21
20.82034639026556
 31
0.0
  0
LINE
  5
D5D7
330
1F
100
AcDbEntity
  8
0
  6
CONTINUOUS
100
AcDbLine
 10
38.63952496777927
 20
20.82034639026556
 30
0.0
 11
38.46952496777926
 21
20.82034639026556
 31
0.0
  0
LINE
  5
D5D8
330
1F
100
AcDbEntity
  8
0
  6
CONTINUOUS
100
AcDbLine
 10
38.39952496777926
 20
20.82034639026556
 30
0.0
 11
38.19952496777925
 21
20.82034639026556
 31
0.0
  0
LINE
  5
D5D9
330
1F
100
AcDbEntity
  8
0
  6
CONTINUOUS
100
AcDbLine
 10
38.19952496777925
 20
20.82034639026556
 30
0.0
 11
37.30577496777926
 21
20.82034639026556
 31
0.0
  0
LINE
  5
D5DA
330
1F
100
AcDbEntity
  8
0
  6
CONTINUOUS
100
AcDbLine
 10
37.44676406017926
 20
26.04851639026555
 30
0.0
 11
37.45910492217926
 21
26.06989139026555
 31
0.0
  0
LINE
  5
D5DB
330
1F
100
AcDbEntity
  8
0
  6
CONTINUOUS
100
AcDbLine
 10
37.47794097477926
 20
26.03051639026555
 30
0.0
 11
37.49028183677926
 21
26.05189139026555
 31
0.0
  0
LINE
  5
D5DC
330
1F
100
AcDbEntity
  8
0
  6
CONTINUOUS
100
AcDbLine
 10
37.51734513057926
 20
20.84434639026556
 30
0.0
 11
37.63952496777927
 21
20.84434639026556
 31
0.0
  0
LINE
  5
D5DD
330
1F
100
AcDbEntity
  8
0
  6
CONTINUOUS
100
AcDbLine
 10
38.19952496777925
 20
20.88034639026555
 30
0.0
 11
37.63952496777927
 21
20.88034639026555
 31
0.0
  0
LINE
  5
D5DE
330
1F
100
AcDbEntity
  8
0
  6
CONTINUOUS
100
AcDbLine
 10
37.45910492217926
 20
20.88034639026555
 30
0.0
 11
37.30577496777926
 21
20.88034639026555
 31
0.0
  0
LINE
  5
D5DF
330
1F
100
AcDbEntity
  8
0
  6
CONTINUOUS
100
AcDbLine
 10
37.51734513057926
 20
20.88034639026555
 30
0.0
 11
37.63952496777927
 21
20.88034639026555
 31
0.0
  0
LINE
  5
D5E0
330
1F
100
AcDbEntity
  8
0
  6
CONTINUOUS
100
AcDbLine
 10
38.19952496777925
 20
20.88034639026555
 30
0.0
 11
38.39952496777926
 21
20.88034639026555
 31
0.0
  0
LINE
  5
D5E1
330
1F
100
AcDbEntity
  8
0
  6
CONTINUOUS
100
AcDbLine
 10
38.46952496777926
 20
20.88034639026555
 30
0.0
 11
38.63952496777927
 21
20.88034639026555
 31
0.0
  0
LINE
  5
D5E2
330
1F
100
AcDbEntity
  8
0
  6
CONTINUOUS
100
AcDbLine
 10
38.75952496777926
 20
20.88034639026555
 30
0.0
 11
38.92952496777926
 21
20.88034639026555
 31
0.0
  0
LINE
  5
D5E3
330
1F
100
AcDbEntity
  8
0
  6
CONTINUOUS
100
AcDbLine
 10
38.99952496777927
 20
20.88034639026555
 30
0.0
 11
40.62074496777926
 21
20.88034639026555
 31
0.0
  0
LINE
  5
D5E4
330
1F
100
AcDbEntity
  8
0
  6
CONTINUOUS
100
AcDbLine
 10
37.63952496777927
 20
20.92084639026555
 30
0.0
 11
37.47794097477926
 21
20.92084639026555
 31
0.0
  0
LINE
  5
D5E5
330
1F
100
AcDbEntity
  8
0
  6
CONTINUOUS
100
AcDbLine
 10
37.35052496777926
 20
20.92084639026555
 30
0.0
 11
37.40952496777926
 21
20.92084639026555
 31
0.0
  0
LINE
  5
D5E6
330
1F
100
AcDbEntity
  8
0
  6
CONTINUOUS
100
AcDbLine
 10
37.35052496777926
 20
20.95684639026555
 30
0.0
 11
37.63952496777927
 21
20.95684639026555
 31
0.0
  0
LINE
  5
D5E7
330
1F
100
AcDbEntity
  8
0
  6
CONTINUOUS
100
AcDbLine
 10
38.13952496777927
 20
21.00334639026556
 30
0.0
 11
37.63952496777927
 21
21.00334639026556
 31
0.0
  0
LINE
  5
D5E8
330
1F
100
AcDbEntity
  8
0
  6
CONTINUOUS
100
AcDbLine
 10
38.13952496777927
 20
21.00334639026556
 30
0.0
 11
38.19952496777925
 21
21.00334639026556
 31
0.0
  0
LINE
  5
D5E9
330
1F
100
AcDbEntity
  8
0
  6
CONTINUOUS
100
AcDbLine
 10
37.23652496777926
 20
21.07663139026555
 30
0.0
 11
37.27452496777926
 21
21.07663139026555
 31
0.0
  0
LINE
  5
D5EA
330
1F
100
AcDbEntity
  8
0
  6
CONTINUOUS
100
AcDbLine
 10
37.44676406017926
 20
20.89934639026556
 30
0.0
 11
37.45910492217926
 21
20.87797139026556
 31
0.0
  0
LINE
  5
D5EB
330
1F
100
AcDbEntity
  8
0
  6
CONTINUOUS
100
AcDbLine
 10
37.47794097477926
 20
20.91734639026556
 30
0.0
 11
37.49028183677926
 21
20.89597139026555
 31
0.0
  0
LINE
  5
D5EC
330
1F
100
AcDbEntity
  8
0
  6
CONTINUOUS
100
AcDbLine
 10
37.23652496777926
 20
21.39063139026555
 30
0.0
 11
37.27452496777926
 21
21.39063139026555
 31
0.0
  0
LINE
  5
D5ED
330
1F
100
AcDbEntity
  8
0
  6
CONTINUOUS
100
AcDbLine
 10
37.18452496777925
 20
25.81923139026556
 30
0.0
 11
37.18452496777925
 21
25.60923139026556
 31
0.0
  0
LINE
  5
D5EE
330
1F
100
AcDbEntity
  8
0
  6
CONTINUOUS
100
AcDbLine
 10
37.18452496777925
 20
21.33863139026555
 30
0.0
 11
37.18452496777925
 21
21.12863139026555
 31
0.0
  0
LINE
  5
D5EF
330
1F
100
AcDbEntity
  8
0
  6
CONTINUOUS
100
AcDbLine
 10
37.21452496777925
 20
20.47034639026555
 30
0.0
 11
37.21452496777925
 21
20.78909639026556
 31
0.0
  0
LINE
  5
D5F0
330
1F
100
AcDbEntity
  8
0
  6
CONTINUOUS
100
AcDbLine
 10
37.21452496777925
 20
26.15876639026555
 30
0.0
 11
37.21452496777925
 21
26.47751639026556
 31
0.0
  0
LINE
  5
D5F1
330
1F
100
AcDbEntity
  8
0
  6
CONTINUOUS
100
AcDbLine
 10
37.23652496777926
 20
21.07663139026555
 30
0.0
 11
37.23652496777926
 21
21.39063139026555
 31
0.0
  0
LINE
  5
D5F2
330
1F
100
AcDbEntity
  8
0
  6
CONTINUOUS
100
AcDbLine
 10
37.23652496777926
 20
25.55723139026556
 30
0.0
 11
37.23652496777926
 21
25.87123139026556
 31
0.0
  0
LINE
  5
D5F3
330
1F
100
AcDbEntity
  8
0
  6
CONTINUOUS
100
AcDbLine
 10
37.27452496777926
 20
25.95101639026555
 30
0.0
 11
37.27452496777926
 21
20.99684639026555
 31
0.0
  0
LINE
  5
D5F4
330
1F
100
AcDbEntity
  8
0
  6
CONTINUOUS
100
AcDbLine
 10
37.27452496777926
 20
20.78909639026556
 30
0.0
 11
37.27452496777926
 21
20.47034639026555
 31
0.0
  0
LINE
  5
D5F5
330
1F
100
AcDbEntity
  8
0
  6
CONTINUOUS
100
AcDbLine
 10
37.27452496777926
 20
26.15876639026555
 30
0.0
 11
37.27452496777926
 21
26.47751639026556
 31
0.0
  0
LINE
  5
D5F6
330
1F
100
AcDbEntity
  8
0
  6
CONTINUOUS
100
AcDbLine
 10
37.30577496777926
 20
26.12751639026555
 30
0.0
 11
37.30577496777926
 21
26.06751639026555
 31
0.0
  0
LINE
  5
D5F7
330
1F
100
AcDbEntity
  8
0
  6
CONTINUOUS
100
AcDbLine
 10
37.30577496777926
 20
20.82034639026556
 30
0.0
 11
37.30577496777926
 21
20.88034639026555
 31
0.0
  0
LINE
  5
D5F8
330
1F
100
AcDbEntity
  8
0
  6
CONTINUOUS
100
AcDbLine
 10
37.35052496777926
 20
20.95684639026555
 30
0.0
 11
37.35052496777926
 21
20.92084639026555
 31
0.0
  0
LINE
  5
D5F9
330
1F
100
AcDbEntity
  8
0
  6
CONTINUOUS
100
AcDbLine
 10
37.35052496777926
 20
20.95684639026555
 30
0.0
 11
37.35052496777926
 21
25.99101639026556
 31
0.0
  0
LINE
  5
D5FA
330
1F
100
AcDbEntity
  8
0
  6
CONTINUOUS
100
AcDbLine
 10
37.35052496777926
 20
25.99101639026556
 30
0.0
 11
37.35052496777926
 21
26.02701639026555
 31
0.0
  0
LINE
  5
D5FB
330
1F
100
AcDbEntity
  8
0
  6
CONTINUOUS
100
AcDbLine
 10
37.40952496777926
 20
20.95684639026555
 30
0.0
 11
37.40952496777926
 21
20.92084639026555
 31
0.0
  0
LINE
  5
D5FC
330
1F
100
AcDbEntity
  8
0
  6
CONTINUOUS
100
AcDbLine
 10
37.40952496777926
 20
25.99101639026556
 30
0.0
 11
37.40952496777926
 21
26.02701639026555
 31
0.0
  0
LINE
  5
D5FD
330
1F
100
AcDbEntity
  8
0
  6
CONTINUOUS
100
AcDbLine
 10
37.51734513057926
 20
20.88034639026555
 30
0.0
 11
37.51734513057926
 21
20.84434639026556
 31
0.0
  0
LINE
  5
D5FE
330
1F
100
AcDbEntity
  8
0
  6
CONTINUOUS
100
AcDbLine
 10
37.51734513057926
 20
26.06751639026555
 30
0.0
 11
37.51734513057926
 21
26.10351639026555
 31
0.0
  0
LINE
  5
D5FF
330
1F
100
AcDbEntity
  8
0
  6
CONTINUOUS
100
AcDbLine
 10
37.63952496777927
 20
20.88034639026555
 30
0.0
 11
37.63952496777927
 21
20.82034639026556
 31
0.0
  0
LINE
  5
D600
330
1F
100
AcDbEntity
  8
0
  6
CONTINUOUS
100
AcDbLine
 10
37.63952496777927
 20
20.88034639026555
 30
0.0
 11
37.63952496777927
 21
26.06751639026555
 31
0.0
  0
LINE
  5
D601
330
1F
100
AcDbEntity
  8
0
  6
CONTINUOUS
100
AcDbLine
 10
37.63952496777927
 20
26.06751639026555
 30
0.0
 11
37.63952496777927
 21
26.12751639026555
 31
0.0
  0
LINE
  5
D602
330
1F
100
AcDbEntity
  8
0
  6
CONTINUOUS
100
AcDbLine
 10
38.13952496777927
 20
20.88034639026555
 30
0.0
 11
38.13952496777927
 21
21.00334639026556
 31
0.0
  0
LINE
  5
D603
330
1F
100
AcDbEntity
  8
0
  6
CONTINUOUS
100
AcDbLine
 10
38.13952496777927
 20
25.94451639026556
 30
0.0
 11
38.13952496777927
 21
26.06751639026555
 31
0.0
  0
LINE
  5
D604
330
1F
100
AcDbEntity
  8
0
  6
CONTINUOUS
100
AcDbLine
 10
38.19952496777925
 20
27.41751639026555
 30
0.0
 11
38.19952496777925
 21
26.12751639026555
 31
0.0
  0
LINE
  5
D605
330
1F
100
AcDbEntity
  8
0
  6
CONTINUOUS
100
AcDbLine
 10
38.19952496777925
 20
26.06751639026555
 30
0.0
 11
38.19952496777925
 21
25.94451639026556
 31
0.0
  0
LINE
  5
D606
330
1F
100
AcDbEntity
  8
0
  6
CONTINUOUS
100
AcDbLine
 10
38.19952496777925
 20
21.00334639026556
 30
0.0
 11
38.19952496777925
 21
20.88034639026555
 31
0.0
  0
LINE
  5
D607
330
1F
100
AcDbEntity
  8
0
  6
CONTINUOUS
100
AcDbLine
 10
38.19952496777925
 20
20.82034639026556
 30
0.0
 11
38.19952496777925
 21
19.53034639026556
 31
0.0
  0
LINE
  5
D608
330
1F
100
AcDbEntity
  8
0
  6
CONTINUOUS
100
AcDbLine
 10
38.39952496777926
 20
26.12751639026555
 30
0.0
 11
38.39952496777926
 21
26.06751639026555
 31
0.0
  0
LINE
  5
D609
330
1F
100
AcDbEntity
  8
0
  6
CONTINUOUS
100
AcDbLine
 10
38.39952496777926
 20
20.88034639026555
 30
0.0
 11
38.39952496777926
 21
20.82034639026556
 31
0.0
  0
LINE
  5
D60A
330
1F
100
AcDbEntity
  8
0
  6
CONTINUOUS
100
AcDbLine
 10
38.80452496777926
 20
22.77393139026555
 30
0.0
 11
38.61952496777926
 21
22.77393139026555
 31
0.0
  0
LINE
  5
D60B
330
1F
100
AcDbEntity
  8
0
  6
CONTINUOUS
100
AcDbLine
 10
38.46952496777926
 20
20.82034639026556
 30
0.0
 11
38.46952496777926
 21
20.88034639026555
 31
0.0
  0
LINE
  5
D60C
330
1F
100
AcDbEntity
  8
0
  6
CONTINUOUS
100
AcDbLine
 10
38.46952496777926
 20
26.06751639026555
 30
0.0
 11
38.46952496777926
 21
26.12751639026555
 31
0.0
  0
LINE
  5
D60D
330
1F
100
AcDbEntity
  8
0
  6
CONTINUOUS
100
AcDbLine
 10
38.63952496777927
 20
26.12751639026555
 30
0.0
 11
38.63952496777927
 21
26.06751639026555
 31
0.0
  0
LINE
  5
D60E
330
1F
100
AcDbEntity
  8
0
  6
CONTINUOUS
100
AcDbLine
 10
38.63952496777927
 20
20.88034639026555
 30
0.0
 11
38.63952496777927
 21
20.82034639026556
 31
0.0
  0
LINE
  5
D60F
330
1F
100
AcDbEntity
  8
0
  6
CONTINUOUS
100
AcDbLine
 10
38.61952496777926
 20
22.92393139026555
 30
0.0
 11
38.80452496777926
 21
22.92393139026555
 31
0.0
  0
LINE
  5
D610
330
1F
100
AcDbEntity
  8
0
  6
CONTINUOUS
100
AcDbLine
 10
38.75952496777926
 20
20.82034639026556
 30
0.0
 11
38.75952496777926
 21
20.88034639026555
 31
0.0
  0
LINE
  5
D611
330
1F
100
AcDbEntity
  8
0
  6
CONTINUOUS
100
AcDbLine
 10
38.75952496777926
 20
26.06751639026555
 30
0.0
 11
38.75952496777926
 21
26.12751639026555
 31
0.0
  0
LINE
  5
D612
330
1F
100
AcDbEntity
  8
0
  6
CONTINUOUS
100
AcDbLine
 10
38.92952496777926
 20
26.12751639026555
 30
0.0
 11
38.92952496777926
 21
26.06751639026555
 31
0.0
  0
LINE
  5
D613
330
1F
100
AcDbEntity
  8
0
  6
CONTINUOUS
100
AcDbLine
 10
38.92952496777926
 20
20.88034639026555
 30
0.0
 11
38.92952496777926
 21
20.82034639026556
 31
0.0
  0
LINE
  5
D614
330
1F
100
AcDbEntity
  8
0
  6
CONTINUOUS
100
AcDbLine
 10
38.99952496777927
 20
20.82034639026556
 30
0.0
 11
38.99952496777927
 21
20.88034639026555
 31
0.0
  0
LINE
  5
D615
330
1F
100
AcDbEntity
  8
0
  6
CONTINUOUS
100
AcDbLine
 10
38.99952496777927
 20
26.06751639026555
 30
0.0
 11
38.99952496777927
 21
26.12751639026555
 31
0.0
  0
LINE
  5
D616
330
1F
100
AcDbEntity
  8
0
  6
CONTINUOUS
100
AcDbLine
 10
39.19952496777925
 20
19.53034639026556
 30
0.0
 11
39.19952496777925
 21
20.82034639026556
 31
0.0
  0
LINE
  5
D617
330
1F
100
AcDbEntity
  8
0
  6
CONTINUOUS
100
AcDbLine
 10
39.19952496777925
 20
26.12751639026555
 30
0.0
 11
39.19952496777925
 21
27.41751639026555
 31
0.0
  0
LINE
  5
D618
330
1F
100
AcDbEntity
  8
0
  6
CONTINUOUS
100
AcDbLine
 10
38.80452496777926
 20
24.02393139026555
 30
0.0
 11
38.61952496777926
 21
24.02393139026555
 31
0.0
  0
LINE
  5
D619
330
1F
100
AcDbEntity
  8
0
  6
CONTINUOUS
100
AcDbLine
 10
38.61952496777926
 20
24.17393139026555
 30
0.0
 11
38.80452496777926
 21
24.17393139026555
 31
0.0
  0
LINE
  5
D61A
330
1F
100
AcDbEntity
  8
0
  6
CONTINUOUS
100
AcDbLine
 10
37.47794097477926
 20
20.91734639026556
 30
0.0
 11
37.44676406017926
 21
20.89934639026556
 31
0.0
  0
LINE
  5
D61B
330
1F
100
AcDbEntity
  8
0
  6
CONTINUOUS
100
AcDbLine
 10
37.49028183677926
 20
20.89597139026555
 30
0.0
 11
37.45910492217926
 21
20.87797139026556
 31
0.0
  0
LINE
  5
D61C
330
1F
100
AcDbEntity
  8
0
  6
CONTINUOUS
100
AcDbLine
 10
37.47794097477926
 20
26.03051639026555
 30
0.0
 11
37.44676406017926
 21
26.04851639026555
 31
0.0
  0
LINE
  5
D61D
330
1F
100
AcDbEntity
  8
0
  6
CONTINUOUS
100
AcDbLine
 10
37.49028183677926
 20
26.05189139026555
 30
0.0
 11
37.45910492217926
 21
26.06989139026555
 31
0.0
  0
LINE
  5
D61E
330
1F
100
AcDbEntity
  8
0
  6
CONTINUOUS
100
AcDbLine
 10
40.62074496777926
 20
26.06751639026555
 30
0.0
 11
40.62074496777926
 21
20.88034639026555
 31
0.0
  0
LINE
  5
D61F
330
1F
100
AcDbEntity
  8
0
  6
CONTINUOUS
100
AcDbLine
 10
40.62074496777926
 20
20.88034639026555
 30
0.0
 11
40.62074496777926
 21
20.82034639026556
 31
0.0
  0
LINE
  5
D620
330
1F
100
AcDbEntity
  8
0
  6
CONTINUOUS
100
AcDbLine
 10
40.62074496777926
 20
26.06751639026555
 30
0.0
 11
40.62074496777926
 21
26.12751639026555
 31
0.0
  0
LINE
  5
D621
330
1F
100
AcDbEntity
  8
0
  6
CONTINUOUS
100
AcDbLine
 10
40.74374496777926
 20
20.94334639026555
 30
0.0
 11
40.74374496777926
 21
26.00451639026555
 31
0.0
  0
LINE
  5
D622
330
1F
100
AcDbEntity
  8
0
  6
CONTINUOUS
100
AcDbLine
 10
37.23652496777926
 20
25.55723139026556
 30
0.0
 11
37.27452496777926
 21
25.55723139026556
 31
0.0
  0
LINE
  5
D623
330
1F
100
AcDbEntity
  8
0
  6
CONTINUOUS
100
AcDbLine
 10
37.23652496777926
 20
25.87123139026556
 30
0.0
 11
37.27452496777926
 21
25.87123139026556
 31
0.0
  0
LINE
  5
D624
330
1F
100
AcDbEntity
  8
0
  6
CONTINUOUS
100
AcDbLine
 10
37.63952496777927
 20
25.94451639026556
 30
0.0
 11
38.13952496777927
 21
25.94451639026556
 31
0.0
  0
LINE
  5
D625
330
1F
100
AcDbEntity
  8
0
  6
CONTINUOUS
100
AcDbLine
 10
38.13952496777927
 20
25.94451639026556
 30
0.0
 11
38.19952496777925
 21
25.94451639026556
 31
0.0
  0
LINE
  5
D626
330
1F
100
AcDbEntity
  8
0
  6
CONTINUOUS
100
AcDbLine
 10
37.35052496777926
 20
25.99101639026556
 30
0.0
 11
37.63952496777927
 21
25.99101639026556
 31
0.0
  0
LINE
  5
D627
330
1F
100
AcDbEntity
  8
0
  6
CONTINUOUS
100
AcDbLine
 10
37.63952496777927
 20
26.02701639026555
 30
0.0
 11
37.47794097477926
 21
26.02701639026555
 31
0.0
  0
LINE
  5
D628
330
1F
100
AcDbEntity
  8
0
  6
CONTINUOUS
100
AcDbLine
 10
37.35052496777926
 20
26.02701639026555
 30
0.0
 11
37.40952496777926
 21
26.02701639026555
 31
0.0
  0
LINE
  5
D629
330
1F
100
AcDbEntity
  8
0
  6
CONTINUOUS
100
AcDbLine
 10
40.62074496777926
 20
26.06751639026555
 30
0.0
 11
38.99952496777927
 21
26.06751639026555
 31
0.0
  0
LINE
  5
D62A
330
1F
100
AcDbEntity
  8
0
  6
CONTINUOUS
100
AcDbLine
 10
38.92952496777926
 20
26.06751639026555
 30
0.0
 11
38.75952496777926
 21
26.06751639026555
 31
0.0
  0
LINE
  5
D62B
330
1F
100
AcDbEntity
  8
0
  6
CONTINUOUS
100
AcDbLine
 10
38.63952496777927
 20
26.06751639026555
 30
0.0
 11
38.46952496777926
 21
26.06751639026555
 31
0.0
  0
LINE
  5
D62C
330
1F
100
AcDbEntity
  8
0
  6
CONTINUOUS
100
AcDbLine
 10
38.39952496777926
 20
26.06751639026555
 30
0.0
 11
38.19952496777925
 21
26.06751639026555
 31
0.0
  0
LINE
  5
D62D
330
1F
100
AcDbEntity
  8
0
  6
CONTINUOUS
100
AcDbLine
 10
38.19952496777925
 20
26.06751639026555
 30
0.0
 11
37.63952496777927
 21
26.06751639026555
 31
0.0
  0
LINE
  5
D62E
330
1F
100
AcDbEntity
  8
0
  6
CONTINUOUS
100
AcDbLine
 10
37.45910492217926
 20
26.06751639026555
 30
0.0
 11
37.30577496777926
 21
26.06751639026555
 31
0.0
  0
LINE
  5
D62F
330
1F
100
AcDbEntity
  8
0
  6
CONTINUOUS
100
AcDbLine
 10
37.51734513057926
 20
26.06751639026555
 30
0.0
 11
37.63952496777927
 21
26.06751639026555
 31
0.0
  0
LINE
  5
D630
330
1F
100
AcDbEntity
  8
0
  6
CONTINUOUS
100
AcDbLine
 10
37.51734513057926
 20
26.10351639026555
 30
0.0
 11
37.63952496777927
 21
26.10351639026555
 31
0.0
  0
LINE
  5
D631
330
1F
100
AcDbEntity
  8
0
  6
CONTINUOUS
100
AcDbLine
 10
40.62074496777926
 20
26.12751639026555
 30
0.0
 11
39.19952496777925
 21
26.12751639026555
 31
0.0
  0
LINE
  5
D632
330
1F
100
AcDbEntity
  8
0
  6
CONTINUOUS
100
AcDbLine
 10
38.19952496777925
 20
26.12751639026555
 30
0.0
 11
37.30577496777926
 21
26.12751639026555
 31
0.0
  0
LINE
  5
D633
330
1F
100
AcDbEntity
  8
0
  6
CONTINUOUS
100
AcDbLine
 10
38.19952496777925
 20
26.12751639026555
 30
0.0
 11
38.39952496777926
 21
26.12751639026555
 31
0.0
  0
LINE
  5
D634
330
1F
100
AcDbEntity
  8
0
  6
CONTINUOUS
100
AcDbLine
 10
38.46952496777926
 20
26.12751639026555
 30
0.0
 11
38.63952496777927
 21
26.12751639026555
 31
0.0
  0
LINE
  5
D635
330
1F
100
AcDbEntity
  8
0
  6
CONTINUOUS
100
AcDbLine
 10
38.75952496777926
 20
26.12751639026555
 30
0.0
 11
38.92952496777926
 21
26.12751639026555
 31
0.0
  0
LINE
  5
D636
330
1F
100
AcDbEntity
  8
0
  6
CONTINUOUS
100
AcDbLine
 10
38.99952496777927
 20
26.12751639026555
 30
0.0
 11
39.19952496777925
 21
26.12751639026555
 31
0.0
  0
LINE
  5
D637
330
1F
100
AcDbEntity
  8
0
  6
CONTINUOUS
100
AcDbLine
 10
37.27452496777926
 20
26.15876639026555
 30
0.0
 11
37.21452496777925
 21
26.15876639026555
 31
0.0
  0
LINE
  5
D638
330
1F
100
AcDbEntity
  8
0
  6
CONTINUOUS
100
AcDbLine
 10
39.04952496777926
 20
19.38034639026555
 30
0.0
 11
39.19952496777925
 21
19.53034639026556
 31
0.0
  0
LINE
  5
D639
330
1F
100
AcDbEntity
  8
0
  6
CONTINUOUS
100
AcDbLine
 10
37.21452496777925
 20
26.35251639026556
 30
0.0
 11
37.27452496777926
 21
26.35251639026556
 31
0.0
  0
LINE
  5
D63A
330
1F
100
AcDbEntity
  8
0
  6
CONTINUOUS
100
AcDbLine
 10
37.21452496777925
 20
26.47751639026556
 30
0.0
 11
37.27452496777926
 21
26.47751639026556
 31
0.0
  0
LINE
  5
D63B
330
1F
100
AcDbEntity
  8
0
  6
CONTINUOUS
100
AcDbLine
 10
39.19952496777925
 20
27.41751639026555
 30
0.0
 11
39.04952496777926
 21
27.56751639026555
 31
0.0
  0
LINE
  5
D63C
330
1F
100
AcDbEntity
  8
0
  6
CONTINUOUS
100
AcDbLine
 10
38.92452496777926
 20
26.74251639026556
 30
0.0
 11
38.47452496777926
 21
26.74251639026556
 31
0.0
  0
LINE
  5
D63D
330
1F
100
AcDbEntity
  8
0
  6
CONTINUOUS
100
AcDbLine
 10
38.47452496777926
 20
26.89251639026556
 30
0.0
 11
38.92452496777926
 21
26.89251639026556
 31
0.0
  0
LINE
  5
D63E
330
1F
100
AcDbEntity
  8
0
  6
CONTINUOUS
100
AcDbLine
 10
39.04952496777926
 20
27.56751639026555
 30
0.0
 11
38.34952496777926
 21
27.56751639026555
 31
0.0
  0
LINE
  5
D63F
330
1F
100
AcDbEntity
  8
0
  6
CONTINUOUS
100
AcDbLine
 10
16.05955432657926
 20
19.38034639026555
 30
0.0
 11
16.75955432657926
 21
19.38034639026555
 31
0.0
  0
LINE
  5
D640
330
1F
100
AcDbEntity
  8
0
  6
CONTINUOUS
100
AcDbLine
 10
16.63455432657926
 20
20.05534639026556
 30
0.0
 11
16.18455432657926
 21
20.05534639026556
 31
0.0
  0
LINE
  5
D641
330
1F
100
AcDbEntity
  8
0
  6
CONTINUOUS
100
AcDbLine
 10
16.18455432657926
 20
20.20534639026555
 30
0.0
 11
16.63455432657926
 21
20.20534639026555
 31
0.0
  0
LINE
  5
D642
330
1F
100
AcDbEntity
  8
0
  6
CONTINUOUS
100
AcDbLine
 10
16.05955432657926
 20
27.56751639026555
 30
0.0
 11
15.90955432657926
 21
27.41751639026555
 31
0.0
  0
LINE
  5
D643
330
1F
100
AcDbEntity
  8
0
  6
CONTINUOUS
100
AcDbLine
 10
17.89455432657926
 20
20.47034639026555
 30
0.0
 11
17.83455432657927
 21
20.47034639026555
 31
0.0
  0
LINE
  5
D644
330
1F
100
AcDbEntity
  8
0
  6
CONTINUOUS
100
AcDbLine
 10
15.90955432657926
 20
19.53034639026556
 30
0.0
 11
16.05955432657926
 21
19.38034639026555
 31
0.0
  0
LINE
  5
D645
330
1F
100
AcDbEntity
  8
0
  6
CONTINUOUS
100
AcDbLine
 10
17.89455432657926
 20
20.59534639026555
 30
0.0
 11
17.83455432657927
 21
20.59534639026555
 31
0.0
  0
LINE
  5
D646
330
1F
100
AcDbEntity
  8
0
  6
CONTINUOUS
100
AcDbLine
 10
17.83455432657927
 20
20.78909639026556
 30
0.0
 11
17.89455432657926
 21
20.78909639026556
 31
0.0
  0
LINE
  5
D647
330
1F
100
AcDbEntity
  8
0
  6
CONTINUOUS
100
AcDbLine
 10
16.90955432657926
 20
20.82034639026556
 30
0.0
 11
16.70955432657927
 21
20.82034639026556
 31
0.0
  0
LINE
  5
D648
330
1F
100
AcDbEntity
  8
0
  6
CONTINUOUS
100
AcDbLine
 10
16.63955432657927
 20
20.82034639026556
 30
0.0
 11
16.46955432657926
 21
20.82034639026556
 31
0.0
  0
LINE
  5
D649
330
1F
100
AcDbEntity
  8
0
  6
CONTINUOUS
100
AcDbLine
 10
16.34955432657926
 20
20.82034639026556
 30
0.0
 11
16.17955432657926
 21
20.82034639026556
 31
0.0
  0
LINE
  5
D64A
330
1F
100
AcDbEntity
  8
0
  6
CONTINUOUS
100
AcDbLine
 10
16.10955432657926
 20
20.82034639026556
 30
0.0
 11
15.90955432657926
 21
20.82034639026556
 31
0.0
  0
LINE
  5
D64B
330
1F
100
AcDbEntity
  8
0
  6
CONTINUOUS
100
AcDbLine
 10
14.48833432657926
 20
20.82034639026556
 30
0.0
 11
15.90955432657926
 21
20.82034639026556
 31
0.0
  0
LINE
  5
D64C
330
1F
100
AcDbEntity
  8
0
  6
CONTINUOUS
100
AcDbLine
 10
16.90955432657926
 20
20.82034639026556
 30
0.0
 11
17.80330432657927
 21
20.82034639026556
 31
0.0
  0
LINE
  5
D64D
330
1F
100
AcDbEntity
  8
0
  6
CONTINUOUS
100
AcDbLine
 10
17.59173416377926
 20
20.84434639026556
 30
0.0
 11
17.46955432657926
 21
20.84434639026556
 31
0.0
  0
LINE
  5
D64E
330
1F
100
AcDbEntity
  8
0
  6
CONTINUOUS
100
AcDbLine
 10
17.59173416377926
 20
20.88034639026555
 30
0.0
 11
17.46955432657926
 21
20.88034639026555
 31
0.0
  0
LINE
  5
D64F
330
1F
100
AcDbEntity
  8
0
  6
CONTINUOUS
100
AcDbLine
 10
14.48833432657926
 20
20.88034639026555
 30
0.0
 11
16.10955432657926
 21
20.88034639026555
 31
0.0
  0
LINE
  5
D650
330
1F
100
AcDbEntity
  8
0
  6
CONTINUOUS
100
AcDbLine
 10
16.17955432657926
 20
20.88034639026555
 30
0.0
 11
16.34955432657926
 21
20.88034639026555
 31
0.0
  0
LINE
  5
D651
330
1F
100
AcDbEntity
  8
0
  6
CONTINUOUS
100
AcDbLine
 10
16.46955432657926
 20
20.88034639026555
 30
0.0
 11
16.63955432657927
 21
20.88034639026555
 31
0.0
  0
LINE
  5
D652
330
1F
100
AcDbEntity
  8
0
  6
CONTINUOUS
100
AcDbLine
 10
16.70955432657927
 20
20.88034639026555
 30
0.0
 11
16.90955432657926
 21
20.88034639026555
 31
0.0
  0
LINE
  5
D653
330
1F
100
AcDbEntity
  8
0
  6
CONTINUOUS
100
AcDbLine
 10
16.90955432657926
 20
20.88034639026555
 30
0.0
 11
17.46955432657926
 21
20.88034639026555
 31
0.0
  0
LINE
  5
D654
330
1F
100
AcDbEntity
  8
0
  6
CONTINUOUS
100
AcDbLine
 10
17.64997437217927
 20
20.88034639026555
 30
0.0
 11
17.80330432657927
 21
20.88034639026555
 31
0.0
  0
LINE
  5
D655
330
1F
100
AcDbEntity
  8
0
  6
CONTINUOUS
100
AcDbLine
 10
17.75855432657927
 20
20.92084639026555
 30
0.0
 11
17.69955432657926
 21
20.92084639026555
 31
0.0
  0
LINE
  5
D656
330
1F
100
AcDbEntity
  8
0
  6
CONTINUOUS
100
AcDbLine
 10
17.46955432657926
 20
20.92084639026555
 30
0.0
 11
17.63113831977926
 21
20.92084639026555
 31
0.0
  0
LINE
  5
D657
330
1F
100
AcDbEntity
  8
0
  6
CONTINUOUS
100
AcDbLine
 10
17.75855432657927
 20
20.95684639026555
 30
0.0
 11
17.46955432657926
 21
20.95684639026555
 31
0.0
  0
LINE
  5
D658
330
1F
100
AcDbEntity
  8
0
  6
CONTINUOUS
100
AcDbLine
 10
17.46955432657926
 20
21.00334639026556
 30
0.0
 11
16.96955432657926
 21
21.00334639026556
 31
0.0
  0
LINE
  5
D659
330
1F
100
AcDbEntity
  8
0
  6
CONTINUOUS
100
AcDbLine
 10
16.96955432657926
 20
21.00334639026556
 30
0.0
 11
16.90955432657926
 21
21.00334639026556
 31
0.0
  0
LINE
  5
D65A
330
1F
100
AcDbEntity
  8
0
  6
CONTINUOUS
100
AcDbLine
 10
17.87255432657926
 20
21.07663139026555
 30
0.0
 11
17.83455432657927
 21
21.07663139026555
 31
0.0
  0
LINE
  5
D65B
330
1F
100
AcDbEntity
  8
0
  6
CONTINUOUS
100
AcDbLine
 10
17.87255432657926
 20
21.39063139026555
 30
0.0
 11
17.83455432657927
 21
21.39063139026555
 31
0.0
  0
LINE
  5
D65C
330
1F
100
AcDbEntity
  8
0
  6
CONTINUOUS
100
AcDbLine
 10
14.36533432657926
 20
26.00451639026555
 30
0.0
 11
14.36533432657926
 21
20.94334639026555
 31
0.0
  0
LINE
  5
D65D
330
1F
100
AcDbEntity
  8
0
  6
CONTINUOUS
100
AcDbLine
 10
14.48833432657926
 20
20.88034639026555
 30
0.0
 11
14.48833432657926
 21
20.82034639026556
 31
0.0
  0
LINE
  5
D65E
330
1F
100
AcDbEntity
  8
0
  6
CONTINUOUS
100
AcDbLine
 10
14.48833432657926
 20
20.88034639026555
 30
0.0
 11
14.48833432657926
 21
26.06751639026555
 31
0.0
  0
LINE
  5
D65F
330
1F
100
AcDbEntity
  8
0
  6
CONTINUOUS
100
AcDbLine
 10
14.48833432657926
 20
26.06751639026555
 30
0.0
 11
14.48833432657926
 21
26.12751639026555
 31
0.0
  0
LINE
  5
D660
330
1F
100
AcDbEntity
  8
0
  6
CONTINUOUS
100
AcDbLine
 10
17.61879745777926
 20
26.05189139026555
 30
0.0
 11
17.64997437217927
 21
26.06989139026555
 31
0.0
  0
LINE
  5
D661
330
1F
100
AcDbEntity
  8
0
  6
CONTINUOUS
100
AcDbLine
 10
17.63113831977926
 20
26.03051639026555
 30
0.0
 11
17.66231523417926
 21
26.04851639026555
 31
0.0
  0
LINE
  5
D662
330
1F
100
AcDbEntity
  8
0
  6
CONTINUOUS
100
AcDbLine
 10
17.61879745777926
 20
20.89597139026555
 30
0.0
 11
17.64997437217927
 21
20.87797139026556
 31
0.0
  0
LINE
  5
D663
330
1F
100
AcDbEntity
  8
0
  6
CONTINUOUS
100
AcDbLine
 10
17.63113831977926
 20
20.91734639026556
 30
0.0
 11
17.66231523417926
 21
20.89934639026556
 31
0.0
  0
LINE
  5
D664
330
1F
100
AcDbEntity
  8
0
  6
CONTINUOUS
100
AcDbLine
 10
16.30455432657926
 20
22.77393139026555
 30
0.0
 11
16.48955432657926
 21
22.77393139026555
 31
0.0
  0
LINE
  5
D665
330
1F
100
AcDbEntity
  8
0
  6
CONTINUOUS
100
AcDbLine
 10
16.48955432657926
 20
22.92393139026555
 30
0.0
 11
16.30455432657926
 21
22.92393139026555
 31
0.0
  0
LINE
  5
D666
330
1F
100
AcDbEntity
  8
0
  6
CONTINUOUS
100
AcDbLine
 10
15.90955432657926
 20
27.41751639026555
 30
0.0
 11
15.90955432657926
 21
26.12751639026555
 31
0.0
  0
LINE
  5
D667
330
1F
100
AcDbEntity
  8
0
  6
CONTINUOUS
100
AcDbLine
 10
15.90955432657926
 20
20.82034639026556
 30
0.0
 11
15.90955432657926
 21
19.53034639026556
 31
0.0
  0
LINE
  5
D668
330
1F
100
AcDbEntity
  8
0
  6
CONTINUOUS
100
AcDbLine
 10
16.10955432657926
 20
26.12751639026555
 30
0.0
 11
16.10955432657926
 21
26.06751639026555
 31
0.0
  0
LINE
  5
D669
330
1F
100
AcDbEntity
  8
0
  6
CONTINUOUS
100
AcDbLine
 10
16.10955432657926
 20
20.88034639026555
 30
0.0
 11
16.10955432657926
 21
20.82034639026556
 31
0.0
  0
LINE
  5
D66A
330
1F
100
AcDbEntity
  8
0
  6
CONTINUOUS
100
AcDbLine
 10
16.17955432657926
 20
20.82034639026556
 30
0.0
 11
16.17955432657926
 21
20.88034639026555
 31
0.0
  0
LINE
  5
D66B
330
1F
100
AcDbEntity
  8
0
  6
CONTINUOUS
100
AcDbLine
 10
16.17955432657926
 20
26.06751639026555
 30
0.0
 11
16.17955432657926
 21
26.12751639026555
 31
0.0
  0
LINE
  5
D66C
330
1F
100
AcDbEntity
  8
0
  6
CONTINUOUS
100
AcDbLine
 10
16.34955432657926
 20
26.12751639026555
 30
0.0
 11
16.34955432657926
 21
26.06751639026555
 31
0.0
  0
LINE
  5
D66D
330
1F
100
AcDbEntity
  8
0
  6
CONTINUOUS
100
AcDbLine
 10
16.34955432657926
 20
20.88034639026555
 30
0.0
 11
16.34955432657926
 21
20.82034639026556
 31
0.0
  0
LINE
  5
D66E
330
1F
100
AcDbEntity
  8
0
  6
CONTINUOUS
100
AcDbLine
 10
16.46955432657926
 20
20.82034639026556
 30
0.0
 11
16.46955432657926
 21
20.88034639026555
 31
0.0
  0
LINE
  5
D66F
330
1F
100
AcDbEntity
  8
0
  6
CONTINUOUS
100
AcDbLine
 10
16.46955432657926
 20
26.06751639026555
 30
0.0
 11
16.46955432657926
 21
26.12751639026555
 31
0.0
  0
LINE
  5
D670
330
1F
100
AcDbEntity
  8
0
  6
CONTINUOUS
100
AcDbLine
 10
16.63955432657927
 20
26.12751639026555
 30
0.0
 11
16.63955432657927
 21
26.06751639026555
 31
0.0
  0
LINE
  5
D671
330
1F
100
AcDbEntity
  8
0
  6
CONTINUOUS
100
AcDbLine
 10
16.63955432657927
 20
20.88034639026555
 30
0.0
 11
16.63955432657927
 21
20.82034639026556
 31
0.0
  0
LINE
  5
D672
330
1F
100
AcDbEntity
  8
0
  6
CONTINUOUS
100
AcDbLine
 10
16.70955432657927
 20
20.82034639026556
 30
0.0
 11
16.70955432657927
 21
20.88034639026555
 31
0.0
  0
LINE
  5
D673
330
1F
100
AcDbEntity
  8
0
  6
CONTINUOUS
100
AcDbLine
 10
16.70955432657927
 20
26.06751639026555
 30
0.0
 11
16.70955432657927
 21
26.12751639026555
 31
0.0
  0
LINE
  5
D674
330
1F
100
AcDbEntity
  8
0
  6
CONTINUOUS
100
AcDbLine
 10
16.30455432657926
 20
24.02393139026555
 30
0.0
 11
16.48955432657926
 21
24.02393139026555
 31
0.0
  0
LINE
  5
D675
330
1F
100
AcDbEntity
  8
0
  6
CONTINUOUS
100
AcDbLine
 10
16.90955432657926
 20
19.53034639026556
 30
0.0
 11
16.90955432657926
 21
20.82034639026556
 31
0.0
  0
LINE
  5
D676
330
1F
100
AcDbEntity
  8
0
  6
CONTINUOUS
100
AcDbLine
 10
16.90955432657926
 20
20.88034639026555
 30
0.0
 11
16.90955432657926
 21
21.00334639026556
 31
0.0
  0
LINE
  5
D677
330
1F
100
AcDbEntity
  8
0
  6
CONTINUOUS
100
AcDbLine
 10
16.90955432657926
 20
25.94451639026556
 30
0.0
 11
16.90955432657926
 21
26.06751639026555
 31
0.0
  0
LINE
  5
D678
330
1F
100
AcDbEntity
  8
0
  6
CONTINUOUS
100
AcDbLine
 10
16.90955432657926
 20
26.12751639026555
 30
0.0
 11
16.90955432657926
 21
27.41751639026555
 31
0.0
  0
LINE
  5
D679
330
1F
100
AcDbEntity
  8
0
  6
CONTINUOUS
100
AcDbLine
 10
16.96955432657926
 20
26.06751639026555
 30
0.0
 11
16.96955432657926
 21
25.94451639026556
 31
0.0
  0
LINE
  5
D67A
330
1F
100
AcDbEntity
  8
0
  6
CONTINUOUS
100
AcDbLine
 10
16.96955432657926
 20
21.00334639026556
 30
0.0
 11
16.96955432657926
 21
20.88034639026555
 31
0.0
  0
LINE
  5
D67B
330
1F
100
AcDbEntity
  8
0
  6
CONTINUOUS
100
AcDbLine
 10
16.48955432657926
 20
24.17393139026555
 30
0.0
 11
16.30455432657926
 21
24.17393139026555
 31
0.0
  0
LINE
  5
D67C
330
1F
100
AcDbEntity
  8
0
  6
CONTINUOUS
100
AcDbLine
 10
17.46955432657926
 20
20.88034639026555
 30
0.0
 11
17.46955432657926
 21
20.82034639026556
 31
0.0
  0
LINE
  5
D67D
330
1F
100
AcDbEntity
  8
0
  6
CONTINUOUS
100
AcDbLine
 10
17.46955432657926
 20
20.88034639026555
 30
0.0
 11
17.46955432657926
 21
26.06751639026555
 31
0.0
  0
LINE
  5
D67E
330
1F
100
AcDbEntity
  8
0
  6
CONTINUOUS
100
AcDbLine
 10
17.46955432657926
 20
26.06751639026555
 30
0.0
 11
17.46955432657926
 21
26.12751639026555
 31
0.0
  0
LINE
  5
D67F
330
1F
100
AcDbEntity
  8
0
  6
CONTINUOUS
100
AcDbLine
 10
17.59173416377926
 20
20.88034639026555
 30
0.0
 11
17.59173416377926
 21
20.84434639026556
 31
0.0
  0
LINE
  5
D680
330
1F
100
AcDbEntity
  8
0
  6
CONTINUOUS
100
AcDbLine
 10
17.59173416377926
 20
26.06751639026555
 30
0.0
 11
17.59173416377926
 21
26.10351639026555
 31
0.0
  0
LINE
  5
D681
330
1F
100
AcDbEntity
  8
0
  6
CONTINUOUS
100
AcDbLine
 10
17.69955432657926
 20
20.95684639026555
 30
0.0
 11
17.69955432657926
 21
20.92084639026555
 31
0.0
  0
LINE
  5
D682
330
1F
100
AcDbEntity
  8
0
  6
CONTINUOUS
100
AcDbLine
 10
17.69955432657926
 20
25.99101639026556
 30
0.0
 11
17.69955432657926
 21
26.02701639026555
 31
0.0
  0
LINE
  5
D683
330
1F
100
AcDbEntity
  8
0
  6
CONTINUOUS
100
AcDbLine
 10
17.75855432657927
 20
25.99101639026556
 30
0.0
 11
17.75855432657927
 21
20.95684639026555
 31
0.0
  0
LINE
  5
D684
330
1F
100
AcDbEntity
  8
0
  6
CONTINUOUS
100
AcDbLine
 10
17.75855432657927
 20
20.95684639026555
 30
0.0
 11
17.75855432657927
 21
20.92084639026555
 31
0.0
  0
LINE
  5
D685
330
1F
100
AcDbEntity
  8
0
  6
CONTINUOUS
100
AcDbLine
 10
17.75855432657927
 20
25.99101639026556
 30
0.0
 11
17.75855432657927
 21
26.02701639026555
 31
0.0
  0
LINE
  5
D686
330
1F
100
AcDbEntity
  8
0
  6
CONTINUOUS
100
AcDbLine
 10
17.80330432657927
 20
26.12751639026555
 30
0.0
 11
17.80330432657927
 21
26.06751639026555
 31
0.0
  0
LINE
  5
D687
330
1F
100
AcDbEntity
  8
0
  6
CONTINUOUS
100
AcDbLine
 10
17.80330432657927
 20
20.82034639026556
 30
0.0
 11
17.80330432657927
 21
20.88034639026555
 31
0.0
  0
LINE
  5
D688
330
1F
100
AcDbEntity
  8
0
  6
CONTINUOUS
100
AcDbLine
 10
17.83455432657927
 20
20.47034639026555
 30
0.0
 11
17.83455432657927
 21
20.78909639026556
 31
0.0
  0
LINE
  5
D689
330
1F
100
AcDbEntity
  8
0
  6
CONTINUOUS
100
AcDbLine
 10
17.83455432657927
 20
20.99684639026555
 30
0.0
 11
17.83455432657927
 21
25.95101639026555
 31
0.0
  0
LINE
  5
D68A
330
1F
100
AcDbEntity
  8
0
  6
CONTINUOUS
100
AcDbLine
 10
17.83455432657927
 20
26.15876639026555
 30
0.0
 11
17.83455432657927
 21
26.47751639026556
 31
0.0
  0
LINE
  5
D68B
330
1F
100
AcDbEntity
  8
0
  6
CONTINUOUS
100
AcDbLine
 10
17.87255432657926
 20
21.07663139026555
 30
0.0
 11
17.87255432657926
 21
21.39063139026555
 31
0.0
  0
LINE
  5
D68C
330
1F
100
AcDbEntity
  8
0
  6
CONTINUOUS
100
AcDbLine
 10
17.87255432657926
 20
25.55723139026556
 30
0.0
 11
17.87255432657926
 21
25.87123139026556
 31
0.0
  0
LINE
  5
D68D
330
1F
100
AcDbEntity
  8
0
  6
CONTINUOUS
100
AcDbLine
 10
17.89455432657926
 20
20.78909639026556
 30
0.0
 11
17.89455432657926
 21
20.47034639026555
 31
0.0
  0
LINE
  5
D68E
330
1F
100
AcDbEntity
  8
0
  6
CONTINUOUS
100
AcDbLine
 10
17.89455432657926
 20
26.15876639026555
 30
0.0
 11
17.89455432657926
 21
26.47751639026556
 31
0.0
  0
LINE
  5
D68F
330
1F
100
AcDbEntity
  8
0
  6
CONTINUOUS
100
AcDbLine
 10
17.92455432657926
 20
21.12863139026555
 30
0.0
 11
17.92455432657926
 21
21.33863139026555
 31
0.0
  0
LINE
  5
D690
330
1F
100
AcDbEntity
  8
0
  6
CONTINUOUS
100
AcDbLine
 10
17.92455432657926
 20
25.60923139026556
 30
0.0
 11
17.92455432657926
 21
25.81923139026556
 31
0.0
  0
LINE
  5
D691
330
1F
100
AcDbEntity
  8
0
  6
CONTINUOUS
100
AcDbLine
 10
17.87255432657926
 20
25.55723139026556
 30
0.0
 11
17.83455432657927
 21
25.55723139026556
 31
0.0
  0
LINE
  5
D692
330
1F
100
AcDbEntity
  8
0
  6
CONTINUOUS
100
AcDbLine
 10
17.87255432657926
 20
25.87123139026556
 30
0.0
 11
17.83455432657927
 21
25.87123139026556
 31
0.0
  0
LINE
  5
D693
330
1F
100
AcDbEntity
  8
0
  6
CONTINUOUS
100
AcDbLine
 10
17.63113831977926
 20
20.91734639026556
 30
0.0
 11
17.61879745777926
 21
20.89597139026555
 31
0.0
  0
LINE
  5
D694
330
1F
100
AcDbEntity
  8
0
  6
CONTINUOUS
100
AcDbLine
 10
17.66231523417926
 20
20.89934639026556
 30
0.0
 11
17.64997437217927
 21
20.87797139026556
 31
0.0
  0
LINE
  5
D695
330
1F
100
AcDbEntity
  8
0
  6
CONTINUOUS
100
AcDbLine
 10
16.96955432657926
 20
25.94451639026556
 30
0.0
 11
16.90955432657926
 21
25.94451639026556
 31
0.0
  0
LINE
  5
D696
330
1F
100
AcDbEntity
  8
0
  6
CONTINUOUS
100
AcDbLine
 10
16.96955432657926
 20
25.94451639026556
 30
0.0
 11
17.46955432657926
 21
25.94451639026556
 31
0.0
  0
LINE
  5
D697
330
1F
100
AcDbEntity
  8
0
  6
CONTINUOUS
100
AcDbLine
 10
17.75855432657927
 20
25.99101639026556
 30
0.0
 11
17.46955432657926
 21
25.99101639026556
 31
0.0
  0
LINE
  5
D698
330
1F
100
AcDbEntity
  8
0
  6
CONTINUOUS
100
AcDbLine
 10
17.75855432657927
 20
26.02701639026555
 30
0.0
 11
17.69955432657926
 21
26.02701639026555
 31
0.0
  0
LINE
  5
D699
330
1F
100
AcDbEntity
  8
0
  6
CONTINUOUS
100
AcDbLine
 10
17.46955432657926
 20
26.02701639026555
 30
0.0
 11
17.63113831977926
 21
26.02701639026555
 31
0.0
  0
LINE
  5
D69A
330
1F
100
AcDbEntity
  8
0
  6
CONTINUOUS
100
AcDbLine
 10
17.59173416377926
 20
26.06751639026555
 30
0.0
 11
17.46955432657926
 21
26.06751639026555
 31
0.0
  0
LINE
  5
D69B
330
1F
100
AcDbEntity
  8
0
  6
CONTINUOUS
100
AcDbLine
 10
16.90955432657926
 20
26.06751639026555
 30
0.0
 11
16.70955432657927
 21
26.06751639026555
 31
0.0
  0
LINE
  5
D69C
330
1F
100
AcDbEntity
  8
0
  6
CONTINUOUS
100
AcDbLine
 10
16.63955432657927
 20
26.06751639026555
 30
0.0
 11
16.46955432657926
 21
26.06751639026555
 31
0.0
  0
LINE
  5
D69D
330
1F
100
AcDbEntity
  8
0
  6
CONTINUOUS
100
AcDbLine
 10
16.34955432657926
 20
26.06751639026555
 30
0.0
 11
16.17955432657926
 21
26.06751639026555
 31
0.0
  0
LINE
  5
D69E
330
1F
100
AcDbEntity
  8
0
  6
CONTINUOUS
100
AcDbLine
 10
14.48833432657926
 20
26.06751639026555
 30
0.0
 11
16.10955432657926
 21
26.06751639026555
 31
0.0
  0
LINE
  5
D69F
330
1F
100
AcDbEntity
  8
0
  6
CONTINUOUS
100
AcDbLine
 10
16.90955432657926
 20
26.06751639026555
 30
0.0
 11
17.46955432657926
 21
26.06751639026555
 31
0.0
  0
LINE
  5
D6A0
330
1F
100
AcDbEntity
  8
0
  6
CONTINUOUS
100
AcDbLine
 10
17.64997437217927
 20
26.06751639026555
 30
0.0
 11
17.80330432657927
 21
26.06751639026555
 31
0.0
  0
LINE
  5
D6A1
330
1F
100
AcDbEntity
  8
0
  6
CONTINUOUS
100
AcDbLine
 10
17.59173416377926
 20
26.10351639026555
 30
0.0
 11
17.46955432657926
 21
26.10351639026555
 31
0.0
  0
LINE
  5
D6A2
330
1F
100
AcDbEntity
  8
0
  6
CONTINUOUS
100
AcDbLine
 10
14.48833432657926
 20
26.12751639026555
 30
0.0
 11
15.90955432657926
 21
26.12751639026555
 31
0.0
  0
LINE
  5
D6A3
330
1F
100
AcDbEntity
  8
0
  6
CONTINUOUS
100
AcDbLine
 10
15.90955432657926
 20
26.12751639026555
 30
0.0
 11
16.10955432657926
 21
26.12751639026555
 31
0.0
  0
LINE
  5
D6A4
330
1F
100
AcDbEntity
  8
0
  6
CONTINUOUS
100
AcDbLine
 10
16.17955432657926
 20
26.12751639026555
 30
0.0
 11
16.34955432657926
 21
26.12751639026555
 31
0.0
  0
LINE
  5
D6A5
330
1F
100
AcDbEntity
  8
0
  6
CONTINUOUS
100
AcDbLine
 10
16.46955432657926
 20
26.12751639026555
 30
0.0
 11
16.63955432657927
 21
26.12751639026555
 31
0.0
  0
LINE
  5
D6A6
330
1F
100
AcDbEntity
  8
0
  6
CONTINUOUS
100
AcDbLine
 10
16.70955432657927
 20
26.12751639026555
 30
0.0
 11
16.90955432657926
 21
26.12751639026555
 31
0.0
  0
LINE
  5
D6A7
330
1F
100
AcDbEntity
  8
0
  6
CONTINUOUS
100
AcDbLine
 10
16.90955432657926
 20
26.12751639026555
 30
0.0
 11
17.80330432657927
 21
26.12751639026555
 31
0.0
  0
LINE
  5
D6A8
330
1F
100
AcDbEntity
  8
0
  6
CONTINUOUS
100
AcDbLine
 10
17.83455432657927
 20
26.15876639026555
 30
0.0
 11
17.89455432657926
 21
26.15876639026555
 31
0.0
  0
LINE
  5
D6A9
330
1F
100
AcDbEntity
  8
0
  6
CONTINUOUS
100
AcDbLine
 10
17.63113831977926
 20
26.03051639026555
 30
0.0
 11
17.61879745777926
 21
26.05189139026555
 31
0.0
  0
LINE
  5
D6AA
330
1F
100
AcDbEntity
  8
0
  6
CONTINUOUS
100
AcDbLine
 10
17.66231523417926
 20
26.04851639026555
 30
0.0
 11
17.64997437217927
 21
26.06989139026555
 31
0.0
  0
LINE
  5
D6AB
330
1F
100
AcDbEntity
  8
0
  6
CONTINUOUS
100
AcDbLine
 10
17.89455432657926
 20
26.35251639026556
 30
0.0
 11
17.83455432657927
 21
26.35251639026556
 31
0.0
  0
LINE
  5
D6AC
330
1F
100
AcDbEntity
  8
0
  6
CONTINUOUS
100
AcDbLine
 10
17.89455432657926
 20
26.47751639026556
 30
0.0
 11
17.83455432657927
 21
26.47751639026556
 31
0.0
  0
LINE
  5
D6AD
330
1F
100
AcDbEntity
  8
0
  6
CONTINUOUS
100
AcDbLine
 10
16.63455432657926
 20
26.74251639026556
 30
0.0
 11
16.18455432657926
 21
26.74251639026556
 31
0.0
  0
LINE
  5
D6AE
330
1F
100
AcDbEntity
  8
0
  6
CONTINUOUS
100
AcDbLine
 10
16.75955432657926
 20
19.38034639026555
 30
0.0
 11
16.90955432657926
 21
19.53034639026556
 31
0.0
  0
LINE
  5
D6AF
330
1F
100
AcDbEntity
  8
0
  6
CONTINUOUS
100
AcDbLine
 10
16.18455432657926
 20
26.89251639026556
 30
0.0
 11
16.63455432657926
 21
26.89251639026556
 31
0.0
  0
LINE
  5
D6B0
330
1F
100
AcDbEntity
  8
0
  6
CONTINUOUS
100
AcDbLine
 10
16.90955432657926
 20
27.41751639026555
 30
0.0
 11
16.75955432657926
 21
27.56751639026555
 31
0.0
  0
LINE
  5
D6B1
330
1F
100
AcDbEntity
  8
0
  6
CONTINUOUS
100
AcDbLine
 10
16.75955432657926
 20
27.56751639026555
 30
0.0
 11
16.05955432657926
 21
27.56751639026555
 31
0.0
  0
LINE
  5
D6B2
330
1F
100
AcDbEntity
  8
0
  6
CONTINUOUS
100
AcDbLine
 10
24.37901547937926
 20
34.93551529186555
 30
0.0
 11
24.37901547937926
 21
33.51429529186555
 31
0.0
  0
LINE
  5
D6B3
330
1F
100
AcDbEntity
  8
0
  6
CONTINUOUS
100
AcDbLine
 10
24.37901547937926
 20
31.95429529186556
 30
0.0
 11
24.37901547937926
 21
33.51429529186555
 31
0.0
  0
LINE
  5
D6B4
330
1F
100
AcDbEntity
  8
0
  6
CONTINUOUS
100
AcDbLine
 10
24.43901547937926
 20
34.93551529186555
 30
0.0
 11
24.43901547937926
 21
33.51429529186555
 31
0.0
  0
LINE
  5
D6B5
330
1F
100
AcDbEntity
  8
0
  6
CONTINUOUS
100
AcDbLine
 10
24.43901547937926
 20
32.51429529186555
 30
0.0
 11
24.43901547937926
 21
31.95429529186556
 31
0.0
  0
LINE
  5
D6B6
330
1F
100
AcDbEntity
  8
0
  6
CONTINUOUS
100
AcDbLine
 10
24.43901547937926
 20
32.51429529186555
 30
0.0
 11
24.43901547937926
 21
33.51429529186555
 31
0.0
  0
LINE
  5
D6B7
330
1F
100
AcDbEntity
  8
0
  6
CONTINUOUS
100
AcDbLine
 10
24.45401547937927
 20
31.66529529186555
 30
0.0
 11
24.45401547937927
 21
31.95429529186556
 31
0.0
  0
LINE
  5
D6B8
330
1F
100
AcDbEntity
  8
0
  6
CONTINUOUS
100
AcDbLine
 10
24.49001547937926
 20
31.66529529186555
 30
0.0
 11
24.49001547937926
 21
31.95429529186556
 31
0.0
  0
LINE
  5
D6B9
330
1F
100
AcDbEntity
  8
0
  6
CONTINUOUS
100
AcDbLine
 10
25.18001547937926
 20
31.70429529186556
 30
0.0
 11
25.18001547937926
 21
31.95429529186556
 31
0.0
  0
LINE
  5
D6BA
330
1F
100
AcDbEntity
  8
0
  6
CONTINUOUS
100
AcDbLine
 10
25.24001547937926
 20
31.95429529186556
 30
0.0
 11
25.24001547937926
 21
31.70429529186556
 31
0.0
  0
LINE
  5
D6BB
330
1F
100
AcDbEntity
  8
0
  6
CONTINUOUS
100
AcDbLine
 10
25.30487047937926
 20
31.95429529186556
 30
0.0
 11
25.30487047937926
 21
32.10429529186555
 31
0.0
  0
LINE
  5
D6BC
330
1F
100
AcDbEntity
  8
0
  6
CONTINUOUS
100
AcDbLine
 10
25.30696047937926
 20
31.58929529186555
 30
0.0
 11
25.30696047937926
 21
31.55129529186556
 31
0.0
  0
LINE
  5
D6BD
330
1F
100
AcDbEntity
  8
0
  6
CONTINUOUS
100
AcDbLine
 10
25.34487047937926
 20
31.52929529186555
 30
0.0
 11
25.34487047937926
 21
31.58929529186555
 31
0.0
  0
LINE
  5
D6BE
330
1F
100
AcDbEntity
  8
0
  6
CONTINUOUS
100
AcDbLine
 10
25.34487047937926
 20
31.58929529186555
 30
0.0
 11
25.34487047937926
 21
32.10429529186555
 31
0.0
  0
LINE
  5
D6BF
330
1F
100
AcDbEntity
  8
0
  6
CONTINUOUS
100
AcDbLine
 10
25.39487047937926
 20
34.13851529186555
 30
0.0
 11
25.39487047937926
 21
34.32351529186555
 31
0.0
  0
LINE
  5
D6C0
330
1F
100
AcDbEntity
  8
0
  6
CONTINUOUS
100
AcDbLine
 10
25.42487047937927
 20
32.06429529186556
 30
0.0
 11
25.42487047937927
 21
32.10429529186555
 31
0.0
  0
LINE
  5
D6C1
330
1F
100
AcDbEntity
  8
0
  6
CONTINUOUS
100
AcDbLine
 10
25.46987047937926
 20
31.52929529186555
 30
0.0
 11
25.46987047937926
 21
31.58929529186555
 31
0.0
  0
LINE
  5
D6C2
330
1F
100
AcDbEntity
  8
0
  6
CONTINUOUS
100
AcDbLine
 10
25.54487047937926
 20
34.32351529186555
 30
0.0
 11
25.54487047937926
 21
34.13851529186555
 31
0.0
  0
LINE
  5
D6C3
330
1F
100
AcDbEntity
  8
0
  6
CONTINUOUS
100
AcDbLine
 10
25.65737047937926
 20
31.58929529186555
 30
0.0
 11
25.65737047937926
 21
31.65991537066555
 31
0.0
  0
LINE
  5
D6C4
330
1F
100
AcDbEntity
  8
0
  6
CONTINUOUS
100
AcDbLine
 10
25.66487047937926
 20
32.10429529186555
 30
0.0
 11
25.66487047937926
 21
32.06429529186556
 31
0.0
  0
LINE
  5
D6C5
330
1F
100
AcDbEntity
  8
0
  6
CONTINUOUS
100
AcDbLine
 10
25.74487047937926
 20
32.06429529186556
 30
0.0
 11
25.74487047937926
 21
32.10429529186555
 31
0.0
  0
LINE
  5
D6C6
330
1F
100
AcDbEntity
  8
0
  6
CONTINUOUS
100
AcDbLine
 10
25.92987047937926
 20
32.10429529186555
 30
0.0
 11
25.92987047937926
 21
32.06429529186556
 31
0.0
  0
LINE
  5
D6C7
330
1F
100
AcDbEntity
  8
0
  6
CONTINUOUS
100
AcDbLine
 10
26.00987047937926
 20
32.06429529186556
 30
0.0
 11
26.00987047937926
 21
32.10429529186555
 31
0.0
  0
LINE
  5
D6C8
330
1F
100
AcDbEntity
  8
0
  6
CONTINUOUS
100
AcDbLine
 10
26.19487047937926
 20
32.10429529186555
 30
0.0
 11
26.19487047937926
 21
32.06429529186556
 31
0.0
  0
LINE
  5
D6C9
330
1F
100
AcDbEntity
  8
0
  6
CONTINUOUS
100
AcDbLine
 10
26.27487047937926
 20
32.06429529186556
 30
0.0
 11
26.27487047937926
 21
32.10429529186555
 31
0.0
  0
LINE
  5
D6CA
330
1F
100
AcDbEntity
  8
0
  6
CONTINUOUS
100
AcDbLine
 10
26.28237047937926
 20
31.58929529186555
 30
0.0
 11
26.28237047937926
 21
31.65991537066555
 31
0.0
  0
LINE
  5
D6CB
330
1F
100
AcDbEntity
  8
0
  6
CONTINUOUS
100
AcDbLine
 10
26.46987047937926
 20
31.52929529186555
 30
0.0
 11
26.46987047937926
 21
31.58929529186555
 31
0.0
  0
LINE
  5
D6CC
330
1F
100
AcDbEntity
  8
0
  6
CONTINUOUS
100
AcDbLine
 10
26.51487047937926
 20
32.10429529186555
 30
0.0
 11
26.51487047937926
 21
32.06429529186556
 31
0.0
  0
LINE
  5
D6CD
330
1F
100
AcDbEntity
  8
0
  6
CONTINUOUS
100
AcDbLine
 10
25.35896047937926
 20
31.49929529186555
 30
0.0
 11
25.56896047937926
 21
31.49929529186555
 31
0.0
  0
LINE
  5
D6CE
330
1F
100
AcDbEntity
  8
0
  6
CONTINUOUS
100
AcDbLine
 10
30.87078047937926
 20
31.49929529186555
 30
0.0
 11
31.08078047937926
 21
31.49929529186555
 31
0.0
  0
LINE
  5
D6CF
330
1F
100
AcDbEntity
  8
0
  6
CONTINUOUS
100
AcDbLine
 10
26.59487047937926
 20
31.52929529186555
 30
0.0
 11
25.34487047937926
 21
31.52929529186555
 31
0.0
  0
LINE
  5
D6D0
330
1F
100
AcDbEntity
  8
0
  6
CONTINUOUS
100
AcDbLine
 10
29.84487047937926
 20
31.52929529186555
 30
0.0
 11
31.09487047937926
 21
31.52929529186555
 31
0.0
  0
LINE
  5
D6D1
330
1F
100
AcDbEntity
  8
0
  6
CONTINUOUS
100
AcDbLine
 10
25.30696047937926
 20
31.55129529186556
 30
0.0
 11
25.34487047937926
 21
31.55129529186556
 31
0.0
  0
LINE
  5
D6D2
330
1F
100
AcDbEntity
  8
0
  6
CONTINUOUS
100
AcDbLine
 10
31.09487047937926
 20
31.55129529186556
 30
0.0
 11
31.13278047937926
 21
31.55129529186556
 31
0.0
  0
LINE
  5
D6D3
330
1F
100
AcDbEntity
  8
0
  6
CONTINUOUS
100
AcDbLine
 10
24.53001547937927
 20
31.58929529186555
 30
0.0
 11
25.34487047937926
 21
31.58929529186555
 31
0.0
  0
LINE
  5
D6D4
330
1F
100
AcDbEntity
  8
0
  6
CONTINUOUS
100
AcDbLine
 10
25.34487047937926
 20
31.58929529186555
 30
0.0
 11
26.59487047937926
 21
31.58929529186555
 31
0.0
  0
LINE
  5
D6D5
330
1F
100
AcDbEntity
  8
0
  6
CONTINUOUS
100
AcDbLine
 10
26.59487047937926
 20
31.58929529186555
 30
0.0
 11
29.84487047937926
 21
31.58929529186555
 31
0.0
  0
LINE
  5
D6D6
330
1F
100
AcDbEntity
  8
0
  6
CONTINUOUS
100
AcDbLine
 10
29.84487047937926
 20
31.58929529186555
 30
0.0
 11
31.09487047937926
 21
31.58929529186555
 31
0.0
  0
LINE
  5
D6D7
330
1F
100
AcDbEntity
  8
0
  6
CONTINUOUS
100
AcDbLine
 10
31.09487047937926
 20
31.58929529186555
 30
0.0
 11
31.90972547937926
 21
31.58929529186555
 31
0.0
  0
LINE
  5
D6D8
330
1F
100
AcDbEntity
  8
0
  6
CONTINUOUS
100
AcDbLine
 10
26.59487047937926
 20
31.62054529186555
 30
0.0
 11
26.28237047937926
 21
31.62054529186555
 31
0.0
  0
LINE
  5
D6D9
330
1F
100
AcDbEntity
  8
0
  6
CONTINUOUS
100
AcDbLine
 10
25.65737047937926
 20
31.62054529186555
 30
0.0
 11
25.34487047937926
 21
31.62054529186555
 31
0.0
  0
LINE
  5
D6DA
330
1F
100
AcDbEntity
  8
0
  6
CONTINUOUS
100
AcDbLine
 10
29.84487047937926
 20
31.62054529186555
 30
0.0
 11
30.15737047937926
 21
31.62054529186555
 31
0.0
  0
LINE
  5
D6DB
330
1F
100
AcDbEntity
  8
0
  6
CONTINUOUS
100
AcDbLine
 10
30.78237047937926
 20
31.62054529186555
 30
0.0
 11
31.09487047937926
 21
31.62054529186555
 31
0.0
  0
LINE
  5
D6DC
330
1F
100
AcDbEntity
  8
0
  6
CONTINUOUS
100
AcDbLine
 10
26.59487047937926
 20
31.52929529186555
 30
0.0
 11
26.59487047937926
 21
31.58929529186555
 31
0.0
  0
LINE
  5
D6DD
330
1F
100
AcDbEntity
  8
0
  6
CONTINUOUS
100
AcDbLine
 10
26.59487047937926
 20
31.58929529186555
 30
0.0
 11
26.59487047937926
 21
32.10429529186555
 31
0.0
  0
LINE
  5
D6DE
330
1F
100
AcDbEntity
  8
0
  6
CONTINUOUS
100
AcDbLine
 10
26.63487047937926
 20
31.95429529186556
 30
0.0
 11
26.63487047937926
 21
32.10429529186555
 31
0.0
  0
LINE
  5
D6DF
330
1F
100
AcDbEntity
  8
0
  6
CONTINUOUS
100
AcDbLine
 10
25.65737047937926
 20
31.65991537066555
 30
0.0
 11
26.28237047937926
 21
31.65991537066555
 31
0.0
  0
LINE
  5
D6E0
330
1F
100
AcDbEntity
  8
0
  6
CONTINUOUS
100
AcDbLine
 10
30.15737047937926
 20
31.65991537066555
 30
0.0
 11
30.78237047937926
 21
31.65991537066555
 31
0.0
  0
LINE
  5
D6E1
330
1F
100
AcDbEntity
  8
0
  6
CONTINUOUS
100
AcDbLine
 10
31.94972547937926
 20
31.66529529186555
 30
0.0
 11
31.09487047937926
 21
31.66529529186555
 31
0.0
  0
LINE
  5
D6E2
330
1F
100
AcDbEntity
  8
0
  6
CONTINUOUS
100
AcDbLine
 10
29.84487047937926
 20
31.66529529186555
 30
0.0
 11
26.59487047937926
 21
31.66529529186555
 31
0.0
  0
LINE
  5
D6E3
330
1F
100
AcDbEntity
  8
0
  6
CONTINUOUS
100
AcDbLine
 10
24.49001547937926
 20
31.66529529186555
 30
0.0
 11
24.45401547937927
 21
31.66529529186555
 31
0.0
  0
LINE
  5
D6E4
330
1F
100
AcDbEntity
  8
0
  6
CONTINUOUS
100
AcDbLine
 10
25.34487047937926
 20
31.66529529186555
 30
0.0
 11
24.49001547937926
 21
31.66529529186555
 31
0.0
  0
LINE
  5
D6E5
330
1F
100
AcDbEntity
  8
0
  6
CONTINUOUS
100
AcDbLine
 10
31.94972547937926
 20
31.66529529186555
 30
0.0
 11
31.98572547937926
 21
31.66529529186555
 31
0.0
  0
LINE
  5
D6E6
330
1F
100
AcDbEntity
  8
0
  6
CONTINUOUS
100
AcDbLine
 10
31.25972547937926
 20
31.70429529186556
 30
0.0
 11
31.19972547937926
 21
31.70429529186556
 31
0.0
  0
LINE
  5
D6E7
330
1F
100
AcDbEntity
  8
0
  6
CONTINUOUS
100
AcDbLine
 10
25.24001547937926
 20
31.70429529186556
 30
0.0
 11
25.18001547937926
 21
31.70429529186556
 31
0.0
  0
LINE
  5
D6E8
330
1F
100
AcDbEntity
  8
0
  6
CONTINUOUS
100
AcDbLine
 10
31.94972547937926
 20
31.72429529186555
 30
0.0
 11
31.25972547937926
 21
31.72429529186555
 31
0.0
  0
LINE
  5
D6E9
330
1F
100
AcDbEntity
  8
0
  6
CONTINUOUS
100
AcDbLine
 10
25.18001547937926
 20
31.72429529186555
 30
0.0
 11
24.49001547937926
 21
31.72429529186555
 31
0.0
  0
LINE
  5
D6EA
330
1F
100
AcDbEntity
  8
0
  6
CONTINUOUS
100
AcDbLine
 10
31.94972547937926
 20
31.76153438426555
 30
0.0
 11
31.25972547937926
 21
31.76153438426555
 31
0.0
  0
LINE
  5
D6EB
330
1F
100
AcDbEntity
  8
0
  6
CONTINUOUS
100
AcDbLine
 10
25.18001547937926
 20
31.76153438426555
 30
0.0
 11
24.49001547937926
 21
31.76153438426555
 31
0.0
  0
LINE
  5
D6EC
330
1F
100
AcDbEntity
  8
0
  6
CONTINUOUS
100
AcDbLine
 10
31.94972547937926
 20
31.77387524626555
 30
0.0
 11
31.25972547937926
 21
31.77387524626555
 31
0.0
  0
LINE
  5
D6ED
330
1F
100
AcDbEntity
  8
0
  6
CONTINUOUS
100
AcDbLine
 10
25.18001547937926
 20
31.77387524626555
 30
0.0
 11
24.49001547937926
 21
31.77387524626555
 31
0.0
  0
LINE
  5
D6EE
330
1F
100
AcDbEntity
  8
0
  6
CONTINUOUS
100
AcDbLine
 10
31.94972547937926
 20
31.83211545466555
 30
0.0
 11
31.25972547937926
 21
31.83211545466555
 31
0.0
  0
LINE
  5
D6EF
330
1F
100
AcDbEntity
  8
0
  6
CONTINUOUS
100
AcDbLine
 10
25.18001547937926
 20
31.83211545466555
 30
0.0
 11
24.49001547937926
 21
31.83211545466555
 31
0.0
  0
LINE
  5
D6F0
330
1F
100
AcDbEntity
  8
0
  6
CONTINUOUS
100
AcDbLine
 10
26.59487047937926
 20
31.95429529186556
 30
0.0
 11
25.34487047937926
 21
31.95429529186556
 31
0.0
  0
LINE
  5
D6F1
330
1F
100
AcDbEntity
  8
0
  6
CONTINUOUS
100
AcDbLine
 10
24.37901547937926
 20
31.95429529186556
 30
0.0
 11
25.30487047937926
 21
31.95429529186556
 31
0.0
  0
LINE
  5
D6F2
330
1F
100
AcDbEntity
  8
0
  6
CONTINUOUS
100
AcDbLine
 10
26.63487047937926
 20
31.95429529186556
 30
0.0
 11
29.80487047937926
 21
31.95429529186556
 31
0.0
  0
LINE
  5
D6F3
330
1F
100
AcDbEntity
  8
0
  6
CONTINUOUS
100
AcDbLine
 10
29.84487047937926
 20
31.95429529186556
 30
0.0
 11
31.09487047937926
 21
31.95429529186556
 31
0.0
  0
LINE
  5
D6F4
330
1F
100
AcDbEntity
  8
0
  6
CONTINUOUS
100
AcDbLine
 10
31.13487047937926
 20
31.95429529186556
 30
0.0
 11
32.00072547937926
 21
31.95429529186556
 31
0.0
  0
LINE
  5
D6F5
330
1F
100
AcDbEntity
  8
0
  6
CONTINUOUS
100
AcDbLine
 10
32.01002306537926
 20
31.95429529186556
 30
0.0
 11
32.06072547937926
 21
31.95429529186556
 31
0.0
  0
LINE
  5
D6F6
330
1F
100
AcDbEntity
  8
0
  6
CONTINUOUS
100
AcDbLine
 10
26.51487047937926
 20
32.06429529186556
 30
0.0
 11
26.27487047937926
 21
32.06429529186556
 31
0.0
  0
LINE
  5
D6F7
330
1F
100
AcDbEntity
  8
0
  6
CONTINUOUS
100
AcDbLine
 10
26.19487047937926
 20
32.06429529186556
 30
0.0
 11
26.00987047937926
 21
32.06429529186556
 31
0.0
  0
LINE
  5
D6F8
330
1F
100
AcDbEntity
  8
0
  6
CONTINUOUS
100
AcDbLine
 10
25.92987047937926
 20
32.06429529186556
 30
0.0
 11
25.74487047937926
 21
32.06429529186556
 31
0.0
  0
LINE
  5
D6F9
330
1F
100
AcDbEntity
  8
0
  6
CONTINUOUS
100
AcDbLine
 10
25.66487047937926
 20
32.06429529186556
 30
0.0
 11
25.42487047937927
 21
32.06429529186556
 31
0.0
  0
LINE
  5
D6FA
330
1F
100
AcDbEntity
  8
0
  6
CONTINUOUS
100
AcDbLine
 10
29.92487047937927
 20
32.06429529186556
 30
0.0
 11
30.16487047937926
 21
32.06429529186556
 31
0.0
  0
LINE
  5
D6FB
330
1F
100
AcDbEntity
  8
0
  6
CONTINUOUS
100
AcDbLine
 10
30.24487047937926
 20
32.06429529186556
 30
0.0
 11
30.42987047937926
 21
32.06429529186556
 31
0.0
  0
LINE
  5
D6FC
330
1F
100
AcDbEntity
  8
0
  6
CONTINUOUS
100
AcDbLine
 10
30.50987047937926
 20
32.06429529186556
 30
0.0
 11
30.69487047937927
 21
32.06429529186556
 31
0.0
  0
LINE
  5
D6FD
330
1F
100
AcDbEntity
  8
0
  6
CONTINUOUS
100
AcDbLine
 10
30.77487047937926
 20
32.06429529186556
 30
0.0
 11
31.01487047937927
 21
32.06429529186556
 31
0.0
  0
LINE
  5
D6FE
330
1F
100
AcDbEntity
  8
0
  6
CONTINUOUS
100
AcDbLine
 10
31.01487047937927
 20
32.10429529186555
 30
0.0
 11
30.77487047937926
 21
32.10429529186555
 31
0.0
  0
LINE
  5
D6FF
330
1F
100
AcDbEntity
  8
0
  6
CONTINUOUS
100
AcDbLine
 10
30.69487047937927
 20
32.10429529186555
 30
0.0
 11
30.50987047937926
 21
32.10429529186555
 31
0.0
  0
LINE
  5
D700
330
1F
100
AcDbEntity
  8
0
  6
CONTINUOUS
100
AcDbLine
 10
30.42987047937926
 20
32.10429529186555
 30
0.0
 11
30.24487047937926
 21
32.10429529186555
 31
0.0
  0
LINE
  5
D701
330
1F
100
AcDbEntity
  8
0
  6
CONTINUOUS
100
AcDbLine
 10
30.16487047937926
 20
32.10429529186555
 30
0.0
 11
29.92487047937927
 21
32.10429529186555
 31
0.0
  0
LINE
  5
D702
330
1F
100
AcDbEntity
  8
0
  6
CONTINUOUS
100
AcDbLine
 10
25.30487047937926
 20
32.10429529186555
 30
0.0
 11
25.34487047937926
 21
32.10429529186555
 31
0.0
  0
LINE
  5
D703
330
1F
100
AcDbEntity
  8
0
  6
CONTINUOUS
100
AcDbLine
 10
25.42487047937927
 20
32.10429529186555
 30
0.0
 11
25.66487047937926
 21
32.10429529186555
 31
0.0
  0
LINE
  5
D704
330
1F
100
AcDbEntity
  8
0
  6
CONTINUOUS
100
AcDbLine
 10
25.74487047937926
 20
32.10429529186555
 30
0.0
 11
25.92987047937926
 21
32.10429529186555
 31
0.0
  0
LINE
  5
D705
330
1F
100
AcDbEntity
  8
0
  6
CONTINUOUS
100
AcDbLine
 10
26.00987047937926
 20
32.10429529186555
 30
0.0
 11
26.19487047937926
 21
32.10429529186555
 31
0.0
  0
LINE
  5
D706
330
1F
100
AcDbEntity
  8
0
  6
CONTINUOUS
100
AcDbLine
 10
26.27487047937926
 20
32.10429529186555
 30
0.0
 11
26.51487047937926
 21
32.10429529186555
 31
0.0
  0
LINE
  5
D707
330
1F
100
AcDbEntity
  8
0
  6
CONTINUOUS
100
AcDbLine
 10
26.59487047937926
 20
32.10429529186555
 30
0.0
 11
26.63487047937926
 21
32.10429529186555
 31
0.0
  0
LINE
  5
D708
330
1F
100
AcDbEntity
  8
0
  6
CONTINUOUS
100
AcDbLine
 10
29.80487047937926
 20
32.10429529186555
 30
0.0
 11
29.84487047937926
 21
32.10429529186555
 31
0.0
  0
LINE
  5
D709
330
1F
100
AcDbEntity
  8
0
  6
CONTINUOUS
100
AcDbLine
 10
31.09487047937926
 20
32.10429529186555
 30
0.0
 11
31.13487047937926
 21
32.10429529186555
 31
0.0
  0
LINE
  5
D70A
330
1F
100
AcDbEntity
  8
0
  6
CONTINUOUS
100
AcDbLine
 10
26.99939769997926
 20
32.43029529186555
 30
0.0
 11
26.48944596057926
 21
32.43029529186555
 31
0.0
  0
LINE
  5
D70B
330
1F
100
AcDbEntity
  8
0
  6
CONTINUOUS
100
AcDbLine
 10
32.06072547937926
 20
32.45429529186555
 30
0.0
 11
32.00072547937926
 21
32.45429529186555
 31
0.0
  0
LINE
  5
D70C
330
1F
100
AcDbEntity
  8
0
  6
CONTINUOUS
100
AcDbLine
 10
24.43901547937926
 20
32.45429529186555
 30
0.0
 11
24.37901547937926
 21
32.45429529186555
 31
0.0
  0
LINE
  5
D70D
330
1F
100
AcDbEntity
  8
0
  6
CONTINUOUS
100
AcDbLine
 10
26.48146389337926
 20
32.47029529186555
 30
0.0
 11
26.99939769997926
 21
32.47029529186555
 31
0.0
  0
LINE
  5
D70E
330
1F
100
AcDbEntity
  8
0
  6
CONTINUOUS
100
AcDbLine
 10
24.43901547937926
 20
32.51429529186555
 30
0.0
 11
24.37901547937926
 21
32.51429529186555
 31
0.0
  0
LINE
  5
D70F
330
1F
100
AcDbEntity
  8
0
  6
CONTINUOUS
100
AcDbLine
 10
32.00072547937926
 20
32.51429529186555
 30
0.0
 11
32.06072547937926
 21
32.51429529186555
 31
0.0
  0
LINE
  5
D710
330
1F
100
AcDbEntity
  8
0
  6
CONTINUOUS
100
AcDbLine
 10
24.43901547937926
 20
32.66429529186555
 30
0.0
 11
24.37901547937926
 21
32.66429529186555
 31
0.0
  0
LINE
  5
D711
330
1F
100
AcDbEntity
  8
0
  6
CONTINUOUS
100
AcDbLine
 10
32.00072547937926
 20
32.66429529186555
 30
0.0
 11
32.06072547937926
 21
32.66429529186555
 31
0.0
  0
LINE
  5
D712
330
1F
100
AcDbEntity
  8
0
  6
CONTINUOUS
100
AcDbLine
 10
30.38187047937926
 20
32.78529529186555
 30
0.0
 11
30.00987047937926
 21
32.78529529186555
 31
0.0
  0
LINE
  5
D713
330
1F
100
AcDbEntity
  8
0
  6
CONTINUOUS
100
AcDbLine
 10
26.93825219997926
 20
32.78529529186555
 30
0.0
 11
26.39125219997926
 21
32.78529529186555
 31
0.0
  0
LINE
  5
D714
330
1F
100
AcDbEntity
  8
0
  6
CONTINUOUS
100
AcDbLine
 10
29.77408404857926
 20
32.78529529186555
 30
0.0
 11
29.81424235557926
 21
32.78529529186555
 31
0.0
  0
LINE
  5
D715
330
1F
100
AcDbEntity
  8
0
  6
CONTINUOUS
100
AcDbLine
 10
26.66813454817926
 20
32.79929529186555
 30
0.0
 11
26.62805793357926
 21
32.79929529186555
 31
0.0
  0
LINE
  5
D716
330
1F
100
AcDbEntity
  8
0
  6
CONTINUOUS
100
AcDbLine
 10
25.90584263117926
 20
32.79929529186555
 30
0.0
 11
25.94591924557926
 21
32.79929529186555
 31
0.0
  0
LINE
  5
D717
330
1F
100
AcDbEntity
  8
0
  6
CONTINUOUS
100
AcDbLine
 10
27.35251382817926
 20
32.79929529186555
 30
0.0
 11
27.39260375277926
 21
32.79929529186555
 31
0.0
  0
LINE
  5
D718
330
1F
100
AcDbEntity
  8
0
  6
CONTINUOUS
100
AcDbLine
 10
29.77160641077926
 20
32.79929529186555
 30
0.0
 11
29.81168302517926
 21
32.79929529186555
 31
0.0
  0
LINE
  5
D719
330
1F
100
AcDbEntity
  8
0
  6
CONTINUOUS
100
AcDbLine
 10
30.58005793357927
 20
32.79929529186555
 30
0.0
 11
30.62013454817926
 21
32.79929529186555
 31
0.0
  0
LINE
  5
D71A
330
1F
100
AcDbEntity
  8
0
  6
CONTINUOUS
100
AcDbLine
 10
30.62013454817926
 20
32.84929529186555
 30
0.0
 11
30.58005793357927
 21
32.84929529186555
 31
0.0
  0
LINE
  5
D71B
330
1F
100
AcDbEntity
  8
0
  6
CONTINUOUS
100
AcDbLine
 10
29.81168302517926
 20
32.84929529186555
 30
0.0
 11
29.77160641077926
 21
32.84929529186555
 31
0.0
  0
LINE
  5
D71C
330
1F
100
AcDbEntity
  8
0
  6
CONTINUOUS
100
AcDbLine
 10
27.39260375277926
 20
32.84929529186555
 30
0.0
 11
27.35251382817926
 21
32.84929529186555
 31
0.0
  0
LINE
  5
D71D
330
1F
100
AcDbEntity
  8
0
  6
CONTINUOUS
100
AcDbLine
 10
25.94591924557926
 20
32.84929529186555
 30
0.0
 11
25.90584263117926
 21
32.84929529186555
 31
0.0
  0
LINE
  5
D71E
330
1F
100
AcDbEntity
  8
0
  6
CONTINUOUS
100
AcDbLine
 10
26.62805793357926
 20
32.84929529186555
 30
0.0
 11
26.66813454817926
 21
32.84929529186555
 31
0.0
  0
LINE
  5
D71F
330
1F
100
AcDbEntity
  8
0
  6
CONTINUOUS
100
AcDbLine
 10
29.81424235557926
 20
32.86329529186555
 30
0.0
 11
29.77408404857926
 21
32.86329529186555
 31
0.0
  0
LINE
  5
D720
330
1F
100
AcDbEntity
  8
0
  6
CONTINUOUS
100
AcDbLine
 10
26.39125219997926
 20
32.86329529186555
 30
0.0
 11
26.93825219997926
 21
32.86329529186555
 31
0.0
  0
LINE
  5
D721
330
1F
100
AcDbEntity
  8
0
  6
CONTINUOUS
100
AcDbLine
 10
30.00987047937926
 20
32.86329529186555
 30
0.0
 11
30.38187047937926
 21
32.86329529186555
 31
0.0
  0
LINE
  5
D722
330
1F
100
AcDbEntity
  8
0
  6
CONTINUOUS
100
AcDbLine
 10
26.99939769997926
 20
33.17829529186555
 30
0.0
 11
26.48146389337926
 21
33.17829529186555
 31
0.0
  0
LINE
  5
D723
330
1F
100
AcDbEntity
  8
0
  6
CONTINUOUS
100
AcDbLine
 10
26.48944596057926
 20
33.21829529186555
 30
0.0
 11
26.99939769997926
 21
33.21829529186555
 31
0.0
  0
LINE
  5
D724
330
1F
100
AcDbEntity
  8
0
  6
CONTINUOUS
100
AcDbLine
 10
24.43901547937926
 20
33.36429529186555
 30
0.0
 11
24.37901547937926
 21
33.36429529186555
 31
0.0
  0
LINE
  5
D725
330
1F
100
AcDbEntity
  8
0
  6
CONTINUOUS
100
AcDbLine
 10
32.00072547937926
 20
33.36429529186555
 30
0.0
 11
32.06072547937926
 21
33.36429529186555
 31
0.0
  0
LINE
  5
D726
330
1F
100
AcDbEntity
  8
0
  6
CONTINUOUS
100
AcDbLine
 10
24.43901547937926
 20
33.51429529186555
 30
0.0
 11
24.37901547937926
 21
33.51429529186555
 31
0.0
  0
LINE
  5
D727
330
1F
100
AcDbEntity
  8
0
  6
CONTINUOUS
100
AcDbLine
 10
32.00072547937926
 20
33.51429529186555
 30
0.0
 11
32.06072547937926
 21
33.51429529186555
 31
0.0
  0
LINE
  5
D728
330
1F
100
AcDbEntity
  8
0
  6
CONTINUOUS
100
AcDbLine
 10
29.80487047937926
 20
31.95429529186556
 30
0.0
 11
29.80487047937926
 21
32.10429529186555
 31
0.0
  0
LINE
  5
D729
330
1F
100
AcDbEntity
  8
0
  6
CONTINUOUS
100
AcDbLine
 10
29.84487047937926
 20
31.52929529186555
 30
0.0
 11
29.84487047937926
 21
31.58929529186555
 31
0.0
  0
LINE
  5
D72A
330
1F
100
AcDbEntity
  8
0
  6
CONTINUOUS
100
AcDbLine
 10
29.84487047937926
 20
31.58929529186555
 30
0.0
 11
29.84487047937926
 21
32.10429529186555
 31
0.0
  0
LINE
  5
D72B
330
1F
100
AcDbEntity
  8
0
  6
CONTINUOUS
100
AcDbLine
 10
29.92487047937927
 20
32.10429529186555
 30
0.0
 11
29.92487047937927
 21
32.06429529186556
 31
0.0
  0
LINE
  5
D72C
330
1F
100
AcDbEntity
  8
0
  6
CONTINUOUS
100
AcDbLine
 10
24.43901547937926
 20
34.93551529186555
 30
0.0
 11
24.37901547937926
 21
34.93551529186555
 31
0.0
  0
LINE
  5
D72D
330
1F
100
AcDbEntity
  8
0
  6
CONTINUOUS
100
AcDbLine
 10
24.43901547937926
 20
34.93551529186555
 30
0.0
 11
32.00072547937926
 21
34.93551529186555
 31
0.0
  0
LINE
  5
D72E
330
1F
100
AcDbEntity
  8
0
  6
CONTINUOUS
100
AcDbLine
 10
32.00072547937926
 20
34.93551529186555
 30
0.0
 11
32.06072547937926
 21
34.93551529186555
 31
0.0
  0
LINE
  5
D72F
330
1F
100
AcDbEntity
  8
0
  6
CONTINUOUS
100
AcDbLine
 10
29.96987047937926
 20
31.52929529186555
 30
0.0
 11
29.96987047937926
 21
31.58929529186555
 31
0.0
  0
LINE
  5
D730
330
1F
100
AcDbEntity
  8
0
  6
CONTINUOUS
100
AcDbLine
 10
30.15737047937926
 20
31.58929529186555
 30
0.0
 11
30.15737047937926
 21
31.65991537066555
 31
0.0
  0
LINE
  5
D731
330
1F
100
AcDbEntity
  8
0
  6
CONTINUOUS
100
AcDbLine
 10
30.16487047937926
 20
32.06429529186556
 30
0.0
 11
30.16487047937926
 21
32.10429529186555
 31
0.0
  0
LINE
  5
D732
330
1F
100
AcDbEntity
  8
0
  6
CONTINUOUS
100
AcDbLine
 10
31.93772547937926
 20
35.05851529186555
 30
0.0
 11
24.50201547937926
 21
35.05851529186555
 31
0.0
  0
LINE
  5
D733
330
1F
100
AcDbEntity
  8
0
  6
CONTINUOUS
100
AcDbLine
 10
30.24487047937926
 20
32.10429529186555
 30
0.0
 11
30.24487047937926
 21
32.06429529186556
 31
0.0
  0
LINE
  5
D734
330
1F
100
AcDbEntity
  8
0
  6
CONTINUOUS
100
AcDbLine
 10
30.42987047937926
 20
32.06429529186556
 30
0.0
 11
30.42987047937926
 21
32.10429529186555
 31
0.0
  0
LINE
  5
D735
330
1F
100
AcDbEntity
  8
0
  6
CONTINUOUS
100
AcDbLine
 10
30.50987047937926
 20
32.10429529186555
 30
0.0
 11
30.50987047937926
 21
32.06429529186556
 31
0.0
  0
LINE
  5
D736
330
1F
100
AcDbEntity
  8
0
  6
CONTINUOUS
100
AcDbLine
 10
30.69487047937927
 20
32.06429529186556
 30
0.0
 11
30.69487047937927
 21
32.10429529186555
 31
0.0
  0
LINE
  5
D737
330
1F
100
AcDbEntity
  8
0
  6
CONTINUOUS
100
AcDbLine
 10
30.77487047937926
 20
32.10429529186555
 30
0.0
 11
30.77487047937926
 21
32.06429529186556
 31
0.0
  0
LINE
  5
D738
330
1F
100
AcDbEntity
  8
0
  6
CONTINUOUS
100
AcDbLine
 10
30.78237047937926
 20
31.58929529186555
 30
0.0
 11
30.78237047937926
 21
31.65991537066555
 31
0.0
  0
LINE
  5
D739
330
1F
100
AcDbEntity
  8
0
  6
CONTINUOUS
100
AcDbLine
 10
30.89487047937926
 20
34.13851529186555
 30
0.0
 11
30.89487047937926
 21
34.32351529186555
 31
0.0
  0
LINE
  5
D73A
330
1F
100
AcDbEntity
  8
0
  6
CONTINUOUS
100
AcDbLine
 10
30.96987047937926
 20
31.52929529186555
 30
0.0
 11
30.96987047937926
 21
31.58929529186555
 31
0.0
  0
LINE
  5
D73B
330
1F
100
AcDbEntity
  8
0
  6
CONTINUOUS
100
AcDbLine
 10
31.01487047937927
 20
32.06429529186556
 30
0.0
 11
31.01487047937927
 21
32.10429529186555
 31
0.0
  0
LINE
  5
D73C
330
1F
100
AcDbEntity
  8
0
  6
CONTINUOUS
100
AcDbLine
 10
31.04487047937926
 20
34.32351529186555
 30
0.0
 11
31.04487047937926
 21
34.13851529186555
 31
0.0
  0
LINE
  5
D73D
330
1F
100
AcDbEntity
  8
0
  6
CONTINUOUS
100
AcDbLine
 10
31.09487047937926
 20
31.52929529186555
 30
0.0
 11
31.09487047937926
 21
31.58929529186555
 31
0.0
  0
LINE
  5
D73E
330
1F
100
AcDbEntity
  8
0
  6
CONTINUOUS
100
AcDbLine
 10
31.09487047937926
 20
31.58929529186555
 30
0.0
 11
31.09487047937926
 21
32.10429529186555
 31
0.0
  0
LINE
  5
D73F
330
1F
100
AcDbEntity
  8
0
  6
CONTINUOUS
100
AcDbLine
 10
31.13278047937926
 20
31.58929529186555
 30
0.0
 11
31.13278047937926
 21
31.55129529186556
 31
0.0
  0
LINE
  5
D740
330
1F
100
AcDbEntity
  8
0
  6
CONTINUOUS
100
AcDbLine
 10
31.13487047937926
 20
31.95429529186556
 30
0.0
 11
31.13487047937926
 21
32.10429529186555
 31
0.0
  0
LINE
  5
D741
330
1F
100
AcDbEntity
  8
0
  6
CONTINUOUS
100
AcDbLine
 10
31.19972547937926
 20
31.95429529186556
 30
0.0
 11
31.19972547937926
 21
31.70429529186556
 31
0.0
  0
LINE
  5
D742
330
1F
100
AcDbEntity
  8
0
  6
CONTINUOUS
100
AcDbLine
 10
31.25972547937926
 20
31.70429529186556
 30
0.0
 11
31.25972547937926
 21
31.95429529186556
 31
0.0
  0
LINE
  5
D743
330
1F
100
AcDbEntity
  8
0
  6
CONTINUOUS
100
AcDbLine
 10
31.94972547937926
 20
31.66529529186555
 30
0.0
 11
31.94972547937926
 21
31.95429529186556
 31
0.0
  0
LINE
  5
D744
330
1F
100
AcDbEntity
  8
0
  6
CONTINUOUS
100
AcDbLine
 10
31.98572547937926
 20
31.66529529186555
 30
0.0
 11
31.98572547937926
 21
31.95429529186556
 31
0.0
  0
LINE
  5
D745
330
1F
100
AcDbEntity
  8
0
  6
CONTINUOUS
100
AcDbLine
 10
32.00072547937926
 20
34.93551529186555
 30
0.0
 11
32.00072547937926
 21
33.51429529186555
 31
0.0
  0
LINE
  5
D746
330
1F
100
AcDbEntity
  8
0
  6
CONTINUOUS
100
AcDbLine
 10
32.00072547937926
 20
32.51429529186555
 30
0.0
 11
32.00072547937926
 21
31.95429529186556
 31
0.0
  0
LINE
  5
D747
330
1F
100
AcDbEntity
  8
0
  6
CONTINUOUS
100
AcDbLine
 10
32.00072547937926
 20
32.51429529186555
 30
0.0
 11
32.00072547937926
 21
33.51429529186555
 31
0.0
  0
LINE
  5
D748
330
1F
100
AcDbEntity
  8
0
  6
CONTINUOUS
100
AcDbLine
 10
32.06072547937926
 20
34.93551529186555
 30
0.0
 11
32.06072547937926
 21
33.51429529186555
 31
0.0
  0
LINE
  5
D749
330
1F
100
AcDbEntity
  8
0
  6
CONTINUOUS
100
AcDbLine
 10
32.06072547937926
 20
31.95429529186556
 30
0.0
 11
32.06072547937926
 21
33.51429529186555
 31
0.0
  0
LINE
  5
D74A
330
1F
100
AcDbEntity
  8
0
  6
CONTINUOUS
100
AcDbLine
 10
24.37901547937926
 20
10.83823425506555
 30
0.0
 11
24.37901547937926
 21
12.25945425506555
 31
0.0
  0
LINE
  5
D74B
330
1F
100
AcDbEntity
  8
0
  6
CONTINUOUS
100
AcDbLine
 10
24.37901547937926
 20
12.25945425506555
 30
0.0
 11
24.37901547937926
 21
13.81945425506555
 31
0.0
  0
LINE
  5
D74C
330
1F
100
AcDbEntity
  8
0
  6
CONTINUOUS
100
AcDbLine
 10
24.43901547937926
 20
10.83823425506555
 30
0.0
 11
24.43901547937926
 21
12.25945425506555
 31
0.0
  0
LINE
  5
D74D
330
1F
100
AcDbEntity
  8
0
  6
CONTINUOUS
100
AcDbLine
 10
24.43901547937926
 20
12.25945425506555
 30
0.0
 11
24.43901547937926
 21
13.25945425506555
 31
0.0
  0
LINE
  5
D74E
330
1F
100
AcDbEntity
  8
0
  6
CONTINUOUS
100
AcDbLine
 10
24.43901547937926
 20
13.25945425506555
 30
0.0
 11
24.43901547937926
 21
13.81945425506555
 31
0.0
  0
LINE
  5
D74F
330
1F
100
AcDbEntity
  8
0
  6
CONTINUOUS
100
AcDbLine
 10
24.45401547937927
 20
14.10845425506555
 30
0.0
 11
24.45401547937927
 21
13.81945425506555
 31
0.0
  0
LINE
  5
D750
330
1F
100
AcDbEntity
  8
0
  6
CONTINUOUS
100
AcDbLine
 10
24.49001547937926
 20
14.10845425506555
 30
0.0
 11
24.49001547937926
 21
13.81945425506555
 31
0.0
  0
LINE
  5
D751
330
1F
100
AcDbEntity
  8
0
  6
CONTINUOUS
100
AcDbLine
 10
25.18001547937926
 20
13.81945425506555
 30
0.0
 11
25.18001547937926
 21
14.06945425506555
 31
0.0
  0
LINE
  5
D752
330
1F
100
AcDbEntity
  8
0
  6
CONTINUOUS
100
AcDbLine
 10
25.24001547937926
 20
13.81945425506555
 30
0.0
 11
25.24001547937926
 21
14.06945425506555
 31
0.0
  0
LINE
  5
D753
330
1F
100
AcDbEntity
  8
0
  6
CONTINUOUS
100
AcDbLine
 10
25.30487047937926
 20
13.81945425506555
 30
0.0
 11
25.30487047937926
 21
13.66945425506555
 31
0.0
  0
LINE
  5
D754
330
1F
100
AcDbEntity
  8
0
  6
CONTINUOUS
100
AcDbLine
 10
25.30696047937926
 20
14.22245425506555
 30
0.0
 11
25.30696047937926
 21
14.18445425506555
 31
0.0
  0
LINE
  5
D755
330
1F
100
AcDbEntity
  8
0
  6
CONTINUOUS
100
AcDbLine
 10
25.34487047937926
 20
14.24445425506555
 30
0.0
 11
25.34487047937926
 21
14.18445425506555
 31
0.0
  0
LINE
  5
D756
330
1F
100
AcDbEntity
  8
0
  6
CONTINUOUS
100
AcDbLine
 10
25.34487047937926
 20
13.66945425506555
 30
0.0
 11
25.34487047937926
 21
14.18445425506555
 31
0.0
  0
LINE
  5
D757
330
1F
100
AcDbEntity
  8
0
  6
CONTINUOUS
100
AcDbLine
 10
25.39487047937926
 20
11.63523425506555
 30
0.0
 11
25.39487047937926
 21
11.45023425506555
 31
0.0
  0
LINE
  5
D758
330
1F
100
AcDbEntity
  8
0
  6
CONTINUOUS
100
AcDbLine
 10
25.42487047937927
 20
13.66945425506555
 30
0.0
 11
25.42487047937927
 21
13.70945425506555
 31
0.0
  0
LINE
  5
D759
330
1F
100
AcDbEntity
  8
0
  6
CONTINUOUS
100
AcDbLine
 10
25.46987047937926
 20
14.24445425506555
 30
0.0
 11
25.46987047937926
 21
14.18445425506555
 31
0.0
  0
LINE
  5
D75A
330
1F
100
AcDbEntity
  8
0
  6
CONTINUOUS
100
AcDbLine
 10
25.54487047937926
 20
11.45023425506555
 30
0.0
 11
25.54487047937926
 21
11.63523425506555
 31
0.0
  0
LINE
  5
D75B
330
1F
100
AcDbEntity
  8
0
  6
CONTINUOUS
100
AcDbLine
 10
25.65737047937926
 20
14.11383417646555
 30
0.0
 11
25.65737047937926
 21
14.18445425506555
 31
0.0
  0
LINE
  5
D75C
330
1F
100
AcDbEntity
  8
0
  6
CONTINUOUS
100
AcDbLine
 10
25.66487047937926
 20
13.70945425506555
 30
0.0
 11
25.66487047937926
 21
13.66945425506555
 31
0.0
  0
LINE
  5
D75D
330
1F
100
AcDbEntity
  8
0
  6
CONTINUOUS
100
AcDbLine
 10
25.74487047937926
 20
13.66945425506555
 30
0.0
 11
25.74487047937926
 21
13.70945425506555
 31
0.0
  0
LINE
  5
D75E
330
1F
100
AcDbEntity
  8
0
  6
CONTINUOUS
100
AcDbLine
 10
25.92987047937926
 20
13.70945425506555
 30
0.0
 11
25.92987047937926
 21
13.66945425506555
 31
0.0
  0
LINE
  5
D75F
330
1F
100
AcDbEntity
  8
0
  6
CONTINUOUS
100
AcDbLine
 10
26.00987047937926
 20
13.66945425506555
 30
0.0
 11
26.00987047937926
 21
13.70945425506555
 31
0.0
  0
LINE
  5
D760
330
1F
100
AcDbEntity
  8
0
  6
CONTINUOUS
100
AcDbLine
 10
26.19487047937926
 20
13.70945425506555
 30
0.0
 11
26.19487047937926
 21
13.66945425506555
 31
0.0
  0
LINE
  5
D761
330
1F
100
AcDbEntity
  8
0
  6
CONTINUOUS
100
AcDbLine
 10
26.27487047937926
 20
13.66945425506555
 30
0.0
 11
26.27487047937926
 21
13.70945425506555
 31
0.0
  0
LINE
  5
D762
330
1F
100
AcDbEntity
  8
0
  6
CONTINUOUS
100
AcDbLine
 10
26.28237047937926
 20
14.11383417646555
 30
0.0
 11
26.28237047937926
 21
14.18445425506555
 31
0.0
  0
LINE
  5
D763
330
1F
100
AcDbEntity
  8
0
  6
CONTINUOUS
100
AcDbLine
 10
26.46987047937926
 20
14.24445425506555
 30
0.0
 11
26.46987047937926
 21
14.18445425506555
 31
0.0
  0
LINE
  5
D764
330
1F
100
AcDbEntity
  8
0
  6
CONTINUOUS
100
AcDbLine
 10
26.51487047937926
 20
13.70945425506555
 30
0.0
 11
26.51487047937926
 21
13.66945425506555
 31
0.0
  0
LINE
  5
D765
330
1F
100
AcDbEntity
  8
0
  6
CONTINUOUS
100
AcDbLine
 10
24.50201547937926
 20
10.71523425506555
 30
0.0
 11
31.93772547937926
 21
10.71523425506555
 31
0.0
  0
LINE
  5
D766
330
1F
100
AcDbEntity
  8
0
  6
CONTINUOUS
100
AcDbLine
 10
24.43901547937926
 20
10.83823425506555
 30
0.0
 11
24.37901547937926
 21
10.83823425506555
 31
0.0
  0
LINE
  5
D767
330
1F
100
AcDbEntity
  8
0
  6
CONTINUOUS
100
AcDbLine
 10
32.00072547937926
 20
10.83823425506555
 30
0.0
 11
24.43901547937926
 21
10.83823425506555
 31
0.0
  0
LINE
  5
D768
330
1F
100
AcDbEntity
  8
0
  6
CONTINUOUS
100
AcDbLine
 10
32.00072547937926
 20
10.83823425506555
 30
0.0
 11
32.06072547937926
 21
10.83823425506555
 31
0.0
  0
LINE
  5
D769
330
1F
100
AcDbEntity
  8
0
  6
CONTINUOUS
100
AcDbLine
 10
26.59487047937926
 20
14.24445425506555
 30
0.0
 11
26.59487047937926
 21
14.18445425506555
 31
0.0
  0
LINE
  5
D76A
330
1F
100
AcDbEntity
  8
0
  6
CONTINUOUS
100
AcDbLine
 10
26.59487047937926
 20
13.66945425506555
 30
0.0
 11
26.59487047937926
 21
14.18445425506555
 31
0.0
  0
LINE
  5
D76B
330
1F
100
AcDbEntity
  8
0
  6
CONTINUOUS
100
AcDbLine
 10
26.63487047937926
 20
13.81945425506555
 30
0.0
 11
26.63487047937926
 21
13.66945425506555
 31
0.0
  0
LINE
  5
D76C
330
1F
100
AcDbEntity
  8
0
  6
CONTINUOUS
100
AcDbLine
 10
24.43901547937926
 20
12.25945425506555
 30
0.0
 11
24.37901547937926
 21
12.25945425506555
 31
0.0
  0
LINE
  5
D76D
330
1F
100
AcDbEntity
  8
0
  6
CONTINUOUS
100
AcDbLine
 10
32.00072547937926
 20
12.25945425506555
 30
0.0
 11
32.06072547937926
 21
12.25945425506555
 31
0.0
  0
LINE
  5
D76E
330
1F
100
AcDbEntity
  8
0
  6
CONTINUOUS
100
AcDbLine
 10
24.43901547937926
 20
12.40945425506555
 30
0.0
 11
24.37901547937926
 21
12.40945425506555
 31
0.0
  0
LINE
  5
D76F
330
1F
100
AcDbEntity
  8
0
  6
CONTINUOUS
100
AcDbLine
 10
32.00072547937926
 20
12.40945425506555
 30
0.0
 11
32.06072547937926
 21
12.40945425506555
 31
0.0
  0
LINE
  5
D770
330
1F
100
AcDbEntity
  8
0
  6
CONTINUOUS
100
AcDbLine
 10
29.95029499817926
 20
12.55545425506555
 30
0.0
 11
29.44034325897926
 21
12.55545425506555
 31
0.0
  0
LINE
  5
D771
330
1F
100
AcDbEntity
  8
0
  6
CONTINUOUS
100
AcDbLine
 10
29.44034325897926
 20
12.59545425506555
 30
0.0
 11
29.95827706557926
 21
12.59545425506555
 31
0.0
  0
LINE
  5
D772
330
1F
100
AcDbEntity
  8
0
  6
CONTINUOUS
100
AcDbLine
 10
30.04848875897926
 20
12.91045425506555
 30
0.0
 11
29.50148875897926
 21
12.91045425506555
 31
0.0
  0
LINE
  5
D773
330
1F
100
AcDbEntity
  8
0
  6
CONTINUOUS
100
AcDbLine
 10
26.46887047937926
 20
12.91045425506555
 30
0.0
 11
26.01887047937926
 21
12.91045425506555
 31
0.0
  0
LINE
  5
D774
330
1F
100
AcDbEntity
  8
0
  6
CONTINUOUS
100
AcDbLine
 10
26.62549860317926
 20
12.91045425506555
 30
0.0
 11
26.66565691037926
 21
12.91045425506555
 31
0.0
  0
LINE
  5
D775
330
1F
100
AcDbEntity
  8
0
  6
CONTINUOUS
100
AcDbLine
 10
29.81168302517926
 20
12.92445425506555
 30
0.0
 11
29.77160641077926
 21
12.92445425506555
 31
0.0
  0
LINE
  5
D776
330
1F
100
AcDbEntity
  8
0
  6
CONTINUOUS
100
AcDbLine
 10
25.81960641077927
 20
12.92445425506555
 30
0.0
 11
25.85968302517927
 21
12.92445425506555
 31
0.0
  0
LINE
  5
D777
330
1F
100
AcDbEntity
  8
0
  6
CONTINUOUS
100
AcDbLine
 10
26.62805793357926
 20
12.92445425506555
 30
0.0
 11
26.66813454817926
 21
12.92445425506555
 31
0.0
  0
LINE
  5
D778
330
1F
100
AcDbEntity
  8
0
  6
CONTINUOUS
100
AcDbLine
 10
29.04713720617926
 20
12.92445425506555
 30
0.0
 11
29.08722713077926
 21
12.92445425506555
 31
0.0
  0
LINE
  5
D779
330
1F
100
AcDbEntity
  8
0
  6
CONTINUOUS
100
AcDbLine
 10
30.49382171317926
 20
12.92445425506555
 30
0.0
 11
30.53389832757926
 21
12.92445425506555
 31
0.0
  0
LINE
  5
D77A
330
1F
100
AcDbEntity
  8
0
  6
CONTINUOUS
100
AcDbLine
 10
30.53389832757926
 20
12.97445425506555
 30
0.0
 11
30.49382171317926
 21
12.97445425506555
 31
0.0
  0
LINE
  5
D77B
330
1F
100
AcDbEntity
  8
0
  6
CONTINUOUS
100
AcDbLine
 10
29.08722713077926
 20
12.97445425506555
 30
0.0
 11
29.04713720617926
 21
12.97445425506555
 31
0.0
  0
LINE
  5
D77C
330
1F
100
AcDbEntity
  8
0
  6
CONTINUOUS
100
AcDbLine
 10
26.66813454817926
 20
12.97445425506555
 30
0.0
 11
26.62805793357926
 21
12.97445425506555
 31
0.0
  0
LINE
  5
D77D
330
1F
100
AcDbEntity
  8
0
  6
CONTINUOUS
100
AcDbLine
 10
25.85968302517927
 20
12.97445425506555
 30
0.0
 11
25.81960641077927
 21
12.97445425506555
 31
0.0
  0
LINE
  5
D77E
330
1F
100
AcDbEntity
  8
0
  6
CONTINUOUS
100
AcDbLine
 10
29.77160641077926
 20
12.97445425506555
 30
0.0
 11
29.81168302517926
 21
12.97445425506555
 31
0.0
  0
LINE
  5
D77F
330
1F
100
AcDbEntity
  8
0
  6
CONTINUOUS
100
AcDbLine
 10
26.66565691037926
 20
12.98845425506555
 30
0.0
 11
26.62549860317926
 21
12.98845425506555
 31
0.0
  0
LINE
  5
D780
330
1F
100
AcDbEntity
  8
0
  6
CONTINUOUS
100
AcDbLine
 10
26.01887047937926
 20
12.98845425506555
 30
0.0
 11
26.46887047937926
 21
12.98845425506555
 31
0.0
  0
LINE
  5
D781
330
1F
100
AcDbEntity
  8
0
  6
CONTINUOUS
100
AcDbLine
 10
29.50148875897926
 20
12.98845425506555
 30
0.0
 11
30.04848875897926
 21
12.98845425506555
 31
0.0
  0
LINE
  5
D782
330
1F
100
AcDbEntity
  8
0
  6
CONTINUOUS
100
AcDbLine
 10
24.43901547937926
 20
13.10945425506555
 30
0.0
 11
24.37901547937926
 21
13.10945425506555
 31
0.0
  0
LINE
  5
D783
330
1F
100
AcDbEntity
  8
0
  6
CONTINUOUS
100
AcDbLine
 10
32.00072547937926
 20
13.10945425506555
 30
0.0
 11
32.06072547937926
 21
13.10945425506555
 31
0.0
  0
LINE
  5
D784
330
1F
100
AcDbEntity
  8
0
  6
CONTINUOUS
100
AcDbLine
 10
24.43901547937926
 20
13.25945425506555
 30
0.0
 11
24.37901547937926
 21
13.25945425506555
 31
0.0
  0
LINE
  5
D785
330
1F
100
AcDbEntity
  8
0
  6
CONTINUOUS
100
AcDbLine
 10
32.00072547937926
 20
13.25945425506555
 30
0.0
 11
32.06072547937926
 21
13.25945425506555
 31
0.0
  0
LINE
  5
D786
330
1F
100
AcDbEntity
  8
0
  6
CONTINUOUS
100
AcDbLine
 10
29.95827706557926
 20
13.30345425506555
 30
0.0
 11
29.44034325897926
 21
13.30345425506555
 31
0.0
  0
LINE
  5
D787
330
1F
100
AcDbEntity
  8
0
  6
CONTINUOUS
100
AcDbLine
 10
24.37901547937926
 20
13.31945425506555
 30
0.0
 11
24.43901547937926
 21
13.31945425506555
 31
0.0
  0
LINE
  5
D788
330
1F
100
AcDbEntity
  8
0
  6
CONTINUOUS
100
AcDbLine
 10
32.00072547937926
 20
13.31945425506555
 30
0.0
 11
32.06072547937926
 21
13.31945425506555
 31
0.0
  0
LINE
  5
D789
330
1F
100
AcDbEntity
  8
0
  6
CONTINUOUS
100
AcDbLine
 10
29.44034325897926
 20
13.34345425506555
 30
0.0
 11
29.95029499817926
 21
13.34345425506555
 31
0.0
  0
LINE
  5
D78A
330
1F
100
AcDbEntity
  8
0
  6
CONTINUOUS
100
AcDbLine
 10
31.01487047937927
 20
13.66945425506555
 30
0.0
 11
30.77487047937926
 21
13.66945425506555
 31
0.0
  0
LINE
  5
D78B
330
1F
100
AcDbEntity
  8
0
  6
CONTINUOUS
100
AcDbLine
 10
30.69487047937927
 20
13.66945425506555
 30
0.0
 11
30.50987047937926
 21
13.66945425506555
 31
0.0
  0
LINE
  5
D78C
330
1F
100
AcDbEntity
  8
0
  6
CONTINUOUS
100
AcDbLine
 10
30.42987047937926
 20
13.66945425506555
 30
0.0
 11
30.24487047937926
 21
13.66945425506555
 31
0.0
  0
LINE
  5
D78D
330
1F
100
AcDbEntity
  8
0
  6
CONTINUOUS
100
AcDbLine
 10
30.16487047937926
 20
13.66945425506555
 30
0.0
 11
29.92487047937927
 21
13.66945425506555
 31
0.0
  0
LINE
  5
D78E
330
1F
100
AcDbEntity
  8
0
  6
CONTINUOUS
100
AcDbLine
 10
26.51487047937926
 20
13.66945425506555
 30
0.0
 11
26.27487047937926
 21
13.66945425506555
 31
0.0
  0
LINE
  5
D78F
330
1F
100
AcDbEntity
  8
0
  6
CONTINUOUS
100
AcDbLine
 10
26.19487047937926
 20
13.66945425506555
 30
0.0
 11
26.00987047937926
 21
13.66945425506555
 31
0.0
  0
LINE
  5
D790
330
1F
100
AcDbEntity
  8
0
  6
CONTINUOUS
100
AcDbLine
 10
25.92987047937926
 20
13.66945425506555
 30
0.0
 11
25.74487047937926
 21
13.66945425506555
 31
0.0
  0
LINE
  5
D791
330
1F
100
AcDbEntity
  8
0
  6
CONTINUOUS
100
AcDbLine
 10
25.66487047937926
 20
13.66945425506555
 30
0.0
 11
25.42487047937927
 21
13.66945425506555
 31
0.0
  0
LINE
  5
D792
330
1F
100
AcDbEntity
  8
0
  6
CONTINUOUS
100
AcDbLine
 10
25.30487047937926
 20
13.66945425506555
 30
0.0
 11
25.34487047937926
 21
13.66945425506555
 31
0.0
  0
LINE
  5
D793
330
1F
100
AcDbEntity
  8
0
  6
CONTINUOUS
100
AcDbLine
 10
26.59487047937926
 20
13.66945425506555
 30
0.0
 11
26.63487047937926
 21
13.66945425506555
 31
0.0
  0
LINE
  5
D794
330
1F
100
AcDbEntity
  8
0
  6
CONTINUOUS
100
AcDbLine
 10
29.80487047937926
 20
13.66945425506555
 30
0.0
 11
29.84487047937926
 21
13.66945425506555
 31
0.0
  0
LINE
  5
D795
330
1F
100
AcDbEntity
  8
0
  6
CONTINUOUS
100
AcDbLine
 10
31.09487047937926
 20
13.66945425506555
 30
0.0
 11
31.13487047937926
 21
13.66945425506555
 31
0.0
  0
LINE
  5
D796
330
1F
100
AcDbEntity
  8
0
  6
CONTINUOUS
100
AcDbLine
 10
25.42487047937927
 20
13.70945425506555
 30
0.0
 11
25.66487047937926
 21
13.70945425506555
 31
0.0
  0
LINE
  5
D797
330
1F
100
AcDbEntity
  8
0
  6
CONTINUOUS
100
AcDbLine
 10
25.74487047937926
 20
13.70945425506555
 30
0.0
 11
25.92987047937926
 21
13.70945425506555
 31
0.0
  0
LINE
  5
D798
330
1F
100
AcDbEntity
  8
0
  6
CONTINUOUS
100
AcDbLine
 10
26.00987047937926
 20
13.70945425506555
 30
0.0
 11
26.19487047937926
 21
13.70945425506555
 31
0.0
  0
LINE
  5
D799
330
1F
100
AcDbEntity
  8
0
  6
CONTINUOUS
100
AcDbLine
 10
26.27487047937926
 20
13.70945425506555
 30
0.0
 11
26.51487047937926
 21
13.70945425506555
 31
0.0
  0
LINE
  5
D79A
330
1F
100
AcDbEntity
  8
0
  6
CONTINUOUS
100
AcDbLine
 10
29.92487047937927
 20
13.70945425506555
 30
0.0
 11
30.16487047937926
 21
13.70945425506555
 31
0.0
  0
LINE
  5
D79B
330
1F
100
AcDbEntity
  8
0
  6
CONTINUOUS
100
AcDbLine
 10
30.24487047937926
 20
13.70945425506555
 30
0.0
 11
30.42987047937926
 21
13.70945425506555
 31
0.0
  0
LINE
  5
D79C
330
1F
100
AcDbEntity
  8
0
  6
CONTINUOUS
100
AcDbLine
 10
30.50987047937926
 20
13.70945425506555
 30
0.0
 11
30.69487047937927
 21
13.70945425506555
 31
0.0
  0
LINE
  5
D79D
330
1F
100
AcDbEntity
  8
0
  6
CONTINUOUS
100
AcDbLine
 10
30.77487047937926
 20
13.70945425506555
 30
0.0
 11
31.01487047937927
 21
13.70945425506555
 31
0.0
  0
LINE
  5
D79E
330
1F
100
AcDbEntity
  8
0
  6
CONTINUOUS
100
AcDbLine
 10
29.80487047937926
 20
13.81945425506555
 30
0.0
 11
26.63487047937926
 21
13.81945425506555
 31
0.0
  0
LINE
  5
D79F
330
1F
100
AcDbEntity
  8
0
  6
CONTINUOUS
100
AcDbLine
 10
26.59487047937926
 20
13.81945425506555
 30
0.0
 11
25.34487047937926
 21
13.81945425506555
 31
0.0
  0
LINE
  5
D7A0
330
1F
100
AcDbEntity
  8
0
  6
CONTINUOUS
100
AcDbLine
 10
24.42971789337926
 20
13.81945425506555
 30
0.0
 11
24.37901547937926
 21
13.81945425506555
 31
0.0
  0
LINE
  5
D7A1
330
1F
100
AcDbEntity
  8
0
  6
CONTINUOUS
100
AcDbLine
 10
25.30487047937926
 20
13.81945425506555
 30
0.0
 11
24.43901547937926
 21
13.81945425506555
 31
0.0
  0
LINE
  5
D7A2
330
1F
100
AcDbEntity
  8
0
  6
CONTINUOUS
100
AcDbLine
 10
29.84487047937926
 20
13.81945425506555
 30
0.0
 11
31.09487047937926
 21
13.81945425506555
 31
0.0
  0
LINE
  5
D7A3
330
1F
100
AcDbEntity
  8
0
  6
CONTINUOUS
100
AcDbLine
 10
31.13487047937926
 20
13.81945425506555
 30
0.0
 11
32.06072547937926
 21
13.81945425506555
 31
0.0
  0
LINE
  5
D7A4
330
1F
100
AcDbEntity
  8
0
  6
CONTINUOUS
100
AcDbLine
 10
24.49001547937926
 20
13.94163409226555
 30
0.0
 11
25.18001547937926
 21
13.94163409226555
 31
0.0
  0
LINE
  5
D7A5
330
1F
100
AcDbEntity
  8
0
  6
CONTINUOUS
100
AcDbLine
 10
31.25972547937926
 20
13.94163409226555
 30
0.0
 11
31.94972547937926
 21
13.94163409226555
 31
0.0
  0
LINE
  5
D7A6
330
1F
100
AcDbEntity
  8
0
  6
CONTINUOUS
100
AcDbLine
 10
29.80487047937926
 20
13.81945425506555
 30
0.0
 11
29.80487047937926
 21
13.66945425506555
 31
0.0
  0
LINE
  5
D7A7
330
1F
100
AcDbEntity
  8
0
  6
CONTINUOUS
100
AcDbLine
 10
29.84487047937926
 20
14.24445425506555
 30
0.0
 11
29.84487047937926
 21
14.18445425506555
 31
0.0
  0
LINE
  5
D7A8
330
1F
100
AcDbEntity
  8
0
  6
CONTINUOUS
100
AcDbLine
 10
29.84487047937926
 20
13.66945425506555
 30
0.0
 11
29.84487047937926
 21
14.18445425506555
 31
0.0
  0
LINE
  5
D7A9
330
1F
100
AcDbEntity
  8
0
  6
CONTINUOUS
100
AcDbLine
 10
29.92487047937927
 20
13.66945425506555
 30
0.0
 11
29.92487047937927
 21
13.70945425506555
 31
0.0
  0
LINE
  5
D7AA
330
1F
100
AcDbEntity
  8
0
  6
CONTINUOUS
100
AcDbLine
 10
24.49001547937926
 20
13.99987430066555
 30
0.0
 11
25.18001547937926
 21
13.99987430066555
 31
0.0
  0
LINE
  5
D7AB
330
1F
100
AcDbEntity
  8
0
  6
CONTINUOUS
100
AcDbLine
 10
31.25972547937926
 20
13.99987430066555
 30
0.0
 11
31.94972547937926
 21
13.99987430066555
 31
0.0
  0
LINE
  5
D7AC
330
1F
100
AcDbEntity
  8
0
  6
CONTINUOUS
100
AcDbLine
 10
24.49001547937926
 20
14.01221516266555
 30
0.0
 11
25.18001547937926
 21
14.01221516266555
 31
0.0
  0
LINE
  5
D7AD
330
1F
100
AcDbEntity
  8
0
  6
CONTINUOUS
100
AcDbLine
 10
31.25972547937926
 20
14.01221516266555
 30
0.0
 11
31.94972547937926
 21
14.01221516266555
 31
0.0
  0
LINE
  5
D7AE
330
1F
100
AcDbEntity
  8
0
  6
CONTINUOUS
100
AcDbLine
 10
24.49001547937926
 20
14.04945425506555
 30
0.0
 11
25.18001547937926
 21
14.04945425506555
 31
0.0
  0
LINE
  5
D7AF
330
1F
100
AcDbEntity
  8
0
  6
CONTINUOUS
100
AcDbLine
 10
31.25972547937926
 20
14.04945425506555
 30
0.0
 11
31.94972547937926
 21
14.04945425506555
 31
0.0
  0
LINE
  5
D7B0
330
1F
100
AcDbEntity
  8
0
  6
CONTINUOUS
100
AcDbLine
 10
25.18001547937926
 20
14.06945425506555
 30
0.0
 11
25.24001547937926
 21
14.06945425506555
 31
0.0
  0
LINE
  5
D7B1
330
1F
100
AcDbEntity
  8
0
  6
CONTINUOUS
100
AcDbLine
 10
31.19972547937926
 20
14.06945425506555
 30
0.0
 11
31.25972547937926
 21
14.06945425506555
 31
0.0
  0
LINE
  5
D7B2
330
1F
100
AcDbEntity
  8
0
  6
CONTINUOUS
100
AcDbLine
 10
24.49001547937926
 20
14.10845425506555
 30
0.0
 11
24.45401547937927
 21
14.10845425506555
 31
0.0
  0
LINE
  5
D7B3
330
1F
100
AcDbEntity
  8
0
  6
CONTINUOUS
100
AcDbLine
 10
24.49001547937926
 20
14.10845425506555
 30
0.0
 11
25.34487047937926
 21
14.10845425506555
 31
0.0
  0
LINE
  5
D7B4
330
1F
100
AcDbEntity
  8
0
  6
CONTINUOUS
100
AcDbLine
 10
26.59487047937926
 20
14.10845425506555
 30
0.0
 11
29.84487047937926
 21
14.10845425506555
 31
0.0
  0
LINE
  5
D7B5
330
1F
100
AcDbEntity
  8
0
  6
CONTINUOUS
100
AcDbLine
 10
31.09487047937926
 20
14.10845425506555
 30
0.0
 11
31.94972547937926
 21
14.10845425506555
 31
0.0
  0
LINE
  5
D7B6
330
1F
100
AcDbEntity
  8
0
  6
CONTINUOUS
100
AcDbLine
 10
31.94972547937926
 20
14.10845425506555
 30
0.0
 11
31.98572547937926
 21
14.10845425506555
 31
0.0
  0
LINE
  5
D7B7
330
1F
100
AcDbEntity
  8
0
  6
CONTINUOUS
100
AcDbLine
 10
25.65737047937926
 20
14.11383417646555
 30
0.0
 11
26.28237047937926
 21
14.11383417646555
 31
0.0
  0
LINE
  5
D7B8
330
1F
100
AcDbEntity
  8
0
  6
CONTINUOUS
100
AcDbLine
 10
30.15737047937926
 20
14.11383417646555
 30
0.0
 11
30.78237047937926
 21
14.11383417646555
 31
0.0
  0
LINE
  5
D7B9
330
1F
100
AcDbEntity
  8
0
  6
CONTINUOUS
100
AcDbLine
 10
26.59487047937926
 20
14.15320425506555
 30
0.0
 11
26.28237047937926
 21
14.15320425506555
 31
0.0
  0
LINE
  5
D7BA
330
1F
100
AcDbEntity
  8
0
  6
CONTINUOUS
100
AcDbLine
 10
25.65737047937926
 20
14.15320425506555
 30
0.0
 11
25.34487047937926
 21
14.15320425506555
 31
0.0
  0
LINE
  5
D7BB
330
1F
100
AcDbEntity
  8
0
  6
CONTINUOUS
100
AcDbLine
 10
29.84487047937926
 20
14.15320425506555
 30
0.0
 11
30.15737047937926
 21
14.15320425506555
 31
0.0
  0
LINE
  5
D7BC
330
1F
100
AcDbEntity
  8
0
  6
CONTINUOUS
100
AcDbLine
 10
30.78237047937926
 20
14.15320425506555
 30
0.0
 11
31.09487047937926
 21
14.15320425506555
 31
0.0
  0
LINE
  5
D7BD
330
1F
100
AcDbEntity
  8
0
  6
CONTINUOUS
100
AcDbLine
 10
31.90972547937926
 20
14.18445425506555
 30
0.0
 11
31.09487047937926
 21
14.18445425506555
 31
0.0
  0
LINE
  5
D7BE
330
1F
100
AcDbEntity
  8
0
  6
CONTINUOUS
100
AcDbLine
 10
29.84487047937926
 20
14.18445425506555
 30
0.0
 11
26.59487047937926
 21
14.18445425506555
 31
0.0
  0
LINE
  5
D7BF
330
1F
100
AcDbEntity
  8
0
  6
CONTINUOUS
100
AcDbLine
 10
26.59487047937926
 20
14.18445425506555
 30
0.0
 11
25.34487047937926
 21
14.18445425506555
 31
0.0
  0
LINE
  5
D7C0
330
1F
100
AcDbEntity
  8
0
  6
CONTINUOUS
100
AcDbLine
 10
25.34487047937926
 20
14.18445425506555
 30
0.0
 11
24.53001547937927
 21
14.18445425506555
 31
0.0
  0
LINE
  5
D7C1
330
1F
100
AcDbEntity
  8
0
  6
CONTINUOUS
100
AcDbLine
 10
29.84487047937926
 20
14.18445425506555
 30
0.0
 11
31.09487047937926
 21
14.18445425506555
 31
0.0
  0
LINE
  5
D7C2
330
1F
100
AcDbEntity
  8
0
  6
CONTINUOUS
100
AcDbLine
 10
25.30696047937926
 20
14.22245425506555
 30
0.0
 11
25.34487047937926
 21
14.22245425506555
 31
0.0
  0
LINE
  5
D7C3
330
1F
100
AcDbEntity
  8
0
  6
CONTINUOUS
100
AcDbLine
 10
31.09487047937926
 20
14.22245425506555
 30
0.0
 11
31.13278047937926
 21
14.22245425506555
 31
0.0
  0
LINE
  5
D7C4
330
1F
100
AcDbEntity
  8
0
  6
CONTINUOUS
100
AcDbLine
 10
29.96987047937926
 20
14.24445425506555
 30
0.0
 11
29.96987047937926
 21
14.18445425506555
 31
0.0
  0
LINE
  5
D7C5
330
1F
100
AcDbEntity
  8
0
  6
CONTINUOUS
100
AcDbLine
 10
30.15737047937926
 20
14.11383417646555
 30
0.0
 11
30.15737047937926
 21
14.18445425506555
 31
0.0
  0
LINE
  5
D7C6
330
1F
100
AcDbEntity
  8
0
  6
CONTINUOUS
100
AcDbLine
 10
30.16487047937926
 20
13.70945425506555
 30
0.0
 11
30.16487047937926
 21
13.66945425506555
 31
0.0
  0
LINE
  5
D7C7
330
1F
100
AcDbEntity
  8
0
  6
CONTINUOUS
100
AcDbLine
 10
25.34487047937926
 20
14.24445425506555
 30
0.0
 11
26.59487047937926
 21
14.24445425506555
 31
0.0
  0
LINE
  5
D7C8
330
1F
100
AcDbEntity
  8
0
  6
CONTINUOUS
100
AcDbLine
 10
29.84487047937926
 20
14.24445425506555
 30
0.0
 11
31.09487047937926
 21
14.24445425506555
 31
0.0
  0
LINE
  5
D7C9
330
1F
100
AcDbEntity
  8
0
  6
CONTINUOUS
100
AcDbLine
 10
31.08078047937926
 20
14.27445425506555
 30
0.0
 11
30.87078047937926
 21
14.27445425506555
 31
0.0
  0
LINE
  5
D7CA
330
1F
100
AcDbEntity
  8
0
  6
CONTINUOUS
100
AcDbLine
 10
25.56896047937926
 20
14.27445425506555
 30
0.0
 11
25.35896047937926
 21
14.27445425506555
 31
0.0
  0
LINE
  5
D7CB
330
1F
100
AcDbEntity
  8
0
  6
CONTINUOUS
100
AcDbLine
 10
30.24487047937926
 20
13.66945425506555
 30
0.0
 11
30.24487047937926
 21
13.70945425506555
 31
0.0
  0
LINE
  5
D7CC
330
1F
100
AcDbEntity
  8
0
  6
CONTINUOUS
100
AcDbLine
 10
30.42987047937926
 20
13.70945425506555
 30
0.0
 11
30.42987047937926
 21
13.66945425506555
 31
0.0
  0
LINE
  5
D7CD
330
1F
100
AcDbEntity
  8
0
  6
CONTINUOUS
100
AcDbLine
 10
30.50987047937926
 20
13.66945425506555
 30
0.0
 11
30.50987047937926
 21
13.70945425506555
 31
0.0
  0
LINE
  5
D7CE
330
1F
100
AcDbEntity
  8
0
  6
CONTINUOUS
100
AcDbLine
 10
30.69487047937927
 20
13.70945425506555
 30
0.0
 11
30.69487047937927
 21
13.66945425506555
 31
0.0
  0
LINE
  5
D7CF
330
1F
100
AcDbEntity
  8
0
  6
CONTINUOUS
100
AcDbLine
 10
30.77487047937926
 20
13.66945425506555
 30
0.0
 11
30.77487047937926
 21
13.70945425506555
 31
0.0
  0
LINE
  5
D7D0
330
1F
100
AcDbEntity
  8
0
  6
CONTINUOUS
100
AcDbLine
 10
30.78237047937926
 20
14.11383417646555
 30
0.0
 11
30.78237047937926
 21
14.18445425506555
 31
0.0
  0
LINE
  5
D7D1
330
1F
100
AcDbEntity
  8
0
  6
CONTINUOUS
100
AcDbLine
 10
30.89487047937926
 20
11.63523425506555
 30
0.0
 11
30.89487047937926
 21
11.45023425506555
 31
0.0
  0
LINE
  5
D7D2
330
1F
100
AcDbEntity
  8
0
  6
CONTINUOUS
100
AcDbLine
 10
30.96987047937926
 20
14.24445425506555
 30
0.0
 11
30.96987047937926
 21
14.18445425506555
 31
0.0
  0
LINE
  5
D7D3
330
1F
100
AcDbEntity
  8
0
  6
CONTINUOUS
100
AcDbLine
 10
31.01487047937927
 20
13.70945425506555
 30
0.0
 11
31.01487047937927
 21
13.66945425506555
 31
0.0
  0
LINE
  5
D7D4
330
1F
100
AcDbEntity
  8
0
  6
CONTINUOUS
100
AcDbLine
 10
31.04487047937926
 20
11.45023425506555
 30
0.0
 11
31.04487047937926
 21
11.63523425506555
 31
0.0
  0
LINE
  5
D7D5
330
1F
100
AcDbEntity
  8
0
  6
CONTINUOUS
100
AcDbLine
 10
31.09487047937926
 20
14.24445425506555
 30
0.0
 11
31.09487047937926
 21
14.18445425506555
 31
0.0
  0
LINE
  5
D7D6
330
1F
100
AcDbEntity
  8
0
  6
CONTINUOUS
100
AcDbLine
 10
31.09487047937926
 20
13.66945425506555
 30
0.0
 11
31.09487047937926
 21
14.18445425506555
 31
0.0
  0
LINE
  5
D7D7
330
1F
100
AcDbEntity
  8
0
  6
CONTINUOUS
100
AcDbLine
 10
31.13278047937926
 20
14.22245425506555
 30
0.0
 11
31.13278047937926
 21
14.18445425506555
 31
0.0
  0
LINE
  5
D7D8
330
1F
100
AcDbEntity
  8
0
  6
CONTINUOUS
100
AcDbLine
 10
31.13487047937926
 20
13.81945425506555
 30
0.0
 11
31.13487047937926
 21
13.66945425506555
 31
0.0
  0
LINE
  5
D7D9
330
1F
100
AcDbEntity
  8
0
  6
CONTINUOUS
100
AcDbLine
 10
31.19972547937926
 20
13.81945425506555
 30
0.0
 11
31.19972547937926
 21
14.06945425506555
 31
0.0
  0
LINE
  5
D7DA
330
1F
100
AcDbEntity
  8
0
  6
CONTINUOUS
100
AcDbLine
 10
31.25972547937926
 20
14.06945425506555
 30
0.0
 11
31.25972547937926
 21
13.81945425506555
 31
0.0
  0
LINE
  5
D7DB
330
1F
100
AcDbEntity
  8
0
  6
CONTINUOUS
100
AcDbLine
 10
31.94972547937926
 20
14.10845425506555
 30
0.0
 11
31.94972547937926
 21
13.81945425506555
 31
0.0
  0
LINE
  5
D7DC
330
1F
100
AcDbEntity
  8
0
  6
CONTINUOUS
100
AcDbLine
 10
31.98572547937926
 20
14.10845425506555
 30
0.0
 11
31.98572547937926
 21
13.81945425506555
 31
0.0
  0
LINE
  5
D7DD
330
1F
100
AcDbEntity
  8
0
  6
CONTINUOUS
100
AcDbLine
 10
32.00072547937926
 20
10.83823425506555
 30
0.0
 11
32.00072547937926
 21
12.25945425506555
 31
0.0
  0
LINE
  5
D7DE
330
1F
100
AcDbEntity
  8
0
  6
CONTINUOUS
100
AcDbLine
 10
32.00072547937926
 20
12.25945425506555
 30
0.0
 11
32.00072547937926
 21
13.25945425506555
 31
0.0
  0
LINE
  5
D7DF
330
1F
100
AcDbEntity
  8
0
  6
CONTINUOUS
100
AcDbLine
 10
32.00072547937926
 20
13.25945425506555
 30
0.0
 11
32.00072547937926
 21
13.81945425506555
 31
0.0
  0
LINE
  5
D7E0
330
1F
100
AcDbEntity
  8
0
  6
CONTINUOUS
100
AcDbLine
 10
32.06072547937926
 20
10.83823425506555
 30
0.0
 11
32.06072547937926
 21
12.25945425506555
 31
0.0
  0
LINE
  5
D7E1
330
1F
100
AcDbEntity
  8
0
  6
CONTINUOUS
100
AcDbLine
 10
32.06072547937926
 20
12.25945425506555
 30
0.0
 11
32.06072547937926
 21
13.81945425506555
 31
0.0
  0
LINE
  5
D7E2
330
1F
100
AcDbEntity
  8
0
  6
CONTINUOUS
100
AcDbLine
 10
48.87386092957927
 20
26.32096795906556
 30
0.0
 11
48.74886092957927
 21
26.19596795906556
 31
0.0
  0
LINE
  5
D7E3
330
1F
100
AcDbEntity
  8
0
  6
CONTINUOUS
100
AcDbLine
 10
47.84300592957926
 20
19.22379795906556
 30
0.0
 11
47.78300592957926
 21
19.22379795906556
 31
0.0
  0
LINE
  5
D7E4
330
1F
100
AcDbEntity
  8
0
  6
CONTINUOUS
100
AcDbLine
 10
55.40471592957925
 20
19.22379795906556
 30
0.0
 11
55.46471592957926
 21
19.22379795906556
 31
0.0
  0
LINE
  5
D7E5
330
1F
100
AcDbEntity
  8
0
  6
CONTINUOUS
100
AcDbLine
 10
48.74886092957927
 20
20.43879795906555
 30
0.0
 11
48.87386092957927
 21
20.31379795906555
 31
0.0
  0
LINE
  5
D7E6
330
1F
100
AcDbEntity
  8
0
  6
CONTINUOUS
100
AcDbLine
 10
47.78300592957926
 20
19.22379795906556
 30
0.0
 11
47.78300592957926
 21
20.66379795906555
 31
0.0
  0
LINE
  5
D7E7
330
1F
100
AcDbEntity
  8
0
  6
CONTINUOUS
100
AcDbLine
 10
47.78300592957926
 20
20.66379795906555
 30
0.0
 11
47.78300592957926
 21
20.84679795906555
 31
0.0
  0
LINE
  5
D7E8
330
1F
100
AcDbEntity
  8
0
  6
CONTINUOUS
100
AcDbLine
 10
47.78300592957926
 20
20.84679795906555
 30
0.0
 11
47.78300592957926
 21
25.78796795906555
 31
0.0
  0
LINE
  5
D7E9
330
1F
100
AcDbEntity
  8
0
  6
CONTINUOUS
100
AcDbLine
 10
47.78300592957926
 20
25.78796795906555
 30
0.0
 11
47.78300592957926
 21
25.97096795906555
 31
0.0
  0
LINE
  5
D7EA
330
1F
100
AcDbEntity
  8
0
  6
CONTINUOUS
100
AcDbLine
 10
47.78300592957926
 20
25.97096795906555
 30
0.0
 11
47.78300592957926
 21
27.41096795906555
 31
0.0
  0
LINE
  5
D7EB
330
1F
100
AcDbEntity
  8
0
  6
CONTINUOUS
100
AcDbLine
 10
47.84300592957926
 20
25.91096795906555
 30
0.0
 11
47.84300592957926
 21
25.89221440606556
 31
0.0
  0
LINE
  5
D7EC
330
1F
100
AcDbEntity
  8
0
  6
CONTINUOUS
100
AcDbLine
 10
47.84300592957926
 20
25.78796795906555
 30
0.0
 11
47.84300592957926
 21
20.84679795906555
 31
0.0
  0
LINE
  5
D7ED
330
1F
100
AcDbEntity
  8
0
  6
CONTINUOUS
100
AcDbLine
 10
47.84300592957926
 20
19.22379795906556
 30
0.0
 11
47.84300592957926
 21
20.72379795906556
 31
0.0
  0
LINE
  5
D7EE
330
1F
100
AcDbEntity
  8
0
  6
CONTINUOUS
100
AcDbLine
 10
47.84300592957926
 20
20.72379795906556
 30
0.0
 11
47.84300592957926
 21
20.74255151206555
 31
0.0
  0
LINE
  5
D7EF
330
1F
100
AcDbEntity
  8
0
  6
CONTINUOUS
100
AcDbLine
 10
47.84300592957926
 20
25.91096795906555
 30
0.0
 11
47.84300592957926
 21
27.41096795906555
 31
0.0
  0
LINE
  5
D7F0
330
1F
100
AcDbEntity
  8
0
  6
CONTINUOUS
100
AcDbLine
 10
47.90600592957927
 20
25.91096795906555
 30
0.0
 11
47.90600592957927
 21
25.85096795906556
 31
0.0
  0
LINE
  5
D7F1
330
1F
100
AcDbEntity
  8
0
  6
CONTINUOUS
100
AcDbLine
 10
47.90600592957927
 20
25.84796795906556
 30
0.0
 11
47.90600592957927
 21
20.78679795906555
 31
0.0
  0
LINE
  5
D7F2
330
1F
100
AcDbEntity
  8
0
  6
CONTINUOUS
100
AcDbLine
 10
47.90600592957927
 20
20.72379795906556
 30
0.0
 11
47.90600592957927
 21
20.78379795906555
 31
0.0
  0
LINE
  5
D7F3
330
1F
100
AcDbEntity
  8
0
  6
CONTINUOUS
100
AcDbLine
 10
47.84300592957926
 20
19.37379795906556
 30
0.0
 11
47.78300592957926
 21
19.37379795906556
 31
0.0
  0
LINE
  5
D7F4
330
1F
100
AcDbEntity
  8
0
  6
CONTINUOUS
100
AcDbLine
 10
55.40471592957925
 20
19.37379795906556
 30
0.0
 11
55.46471592957926
 21
19.37379795906556
 31
0.0
  0
LINE
  5
D7F5
330
1F
100
AcDbEntity
  8
0
  6
CONTINUOUS
100
AcDbLine
 10
48.28300592957926
 20
25.91096795906555
 30
0.0
 11
48.28300592957926
 21
25.85096795906556
 31
0.0
  0
LINE
  5
D7F6
330
1F
100
AcDbEntity
  8
0
  6
CONTINUOUS
100
AcDbLine
 10
48.28300592957926
 20
20.72379795906556
 30
0.0
 11
48.28300592957926
 21
20.78379795906555
 31
0.0
  0
LINE
  5
D7F7
330
1F
100
AcDbEntity
  8
0
  6
CONTINUOUS
100
AcDbLine
 10
49.87386092957927
 20
20.31379795906555
 30
0.0
 11
48.87386092957927
 21
20.31379795906555
 31
0.0
  0
LINE
  5
D7F8
330
1F
100
AcDbEntity
  8
0
  6
CONTINUOUS
100
AcDbLine
 10
53.37386092957927
 20
20.31379795906555
 30
0.0
 11
54.37386092957927
 21
20.31379795906555
 31
0.0
  0
LINE
  5
D7F9
330
1F
100
AcDbEntity
  8
0
  6
CONTINUOUS
100
AcDbLine
 10
48.70886092957926
 20
25.97096795906555
 30
0.0
 11
48.70886092957926
 21
25.91096795906555
 31
0.0
  0
LINE
  5
D7FA
330
1F
100
AcDbEntity
  8
0
  6
CONTINUOUS
100
AcDbLine
 10
48.70886092957926
 20
20.66379795906555
 30
0.0
 11
48.70886092957926
 21
20.72379795906556
 31
0.0
  0
LINE
  5
D7FB
330
1F
100
AcDbEntity
  8
0
  6
CONTINUOUS
100
AcDbLine
 10
48.74886092957927
 20
20.72379795906556
 30
0.0
 11
48.74886092957927
 21
20.43879795906555
 31
0.0
  0
LINE
  5
D7FC
330
1F
100
AcDbEntity
  8
0
  6
CONTINUOUS
100
AcDbLine
 10
48.74886092957927
 20
25.91096795906555
 30
0.0
 11
48.74886092957927
 21
26.19596795906556
 31
0.0
  0
LINE
  5
D7FD
330
1F
100
AcDbEntity
  8
0
  6
CONTINUOUS
100
AcDbLine
 10
54.18636092957927
 20
20.59317788026556
 30
0.0
 11
53.56136092957927
 21
20.59317788026556
 31
0.0
  0
LINE
  5
D7FE
330
1F
100
AcDbEntity
  8
0
  6
CONTINUOUS
100
AcDbLine
 10
49.68636092957927
 20
20.59317788026556
 30
0.0
 11
49.06136092957927
 21
20.59317788026556
 31
0.0
  0
LINE
  5
D7FF
330
1F
100
AcDbEntity
  8
0
  6
CONTINUOUS
100
AcDbLine
 10
49.99886092957927
 20
20.63254795906555
 30
0.0
 11
49.68636092957927
 21
20.63254795906555
 31
0.0
  0
LINE
  5
D800
330
1F
100
AcDbEntity
  8
0
  6
CONTINUOUS
100
AcDbLine
 10
49.06136092957927
 20
20.63254795906555
 30
0.0
 11
48.74886092957927
 21
20.63254795906555
 31
0.0
  0
LINE
  5
D801
330
1F
100
AcDbEntity
  8
0
  6
CONTINUOUS
100
AcDbLine
 10
53.24886092957927
 20
20.63254795906555
 30
0.0
 11
53.56136092957927
 21
20.63254795906555
 31
0.0
  0
LINE
  5
D802
330
1F
100
AcDbEntity
  8
0
  6
CONTINUOUS
100
AcDbLine
 10
54.18636092957927
 20
20.63254795906555
 30
0.0
 11
54.49886092957927
 21
20.63254795906555
 31
0.0
  0
LINE
  5
D803
330
1F
100
AcDbEntity
  8
0
  6
CONTINUOUS
100
AcDbLine
 10
55.46471592957926
 20
20.66379795906555
 30
0.0
 11
55.40471592957925
 21
20.66379795906555
 31
0.0
  0
LINE
  5
D804
330
1F
100
AcDbEntity
  8
0
  6
CONTINUOUS
100
AcDbLine
 10
47.78300592957926
 20
20.66379795906555
 30
0.0
 11
47.84300592957926
 21
20.66379795906555
 31
0.0
  0
LINE
  5
D805
330
1F
100
AcDbEntity
  8
0
  6
CONTINUOUS
100
AcDbLine
 10
47.84300592957926
 20
20.66379795906555
 30
0.0
 11
48.74886092957927
 21
20.66379795906555
 31
0.0
  0
LINE
  5
D806
330
1F
100
AcDbEntity
  8
0
  6
CONTINUOUS
100
AcDbLine
 10
49.06136092957927
 20
20.66379795906555
 30
0.0
 11
49.68636092957927
 21
20.66379795906555
 31
0.0
  0
LINE
  5
D807
330
1F
100
AcDbEntity
  8
0
  6
CONTINUOUS
100
AcDbLine
 10
49.99886092957927
 20
20.66379795906555
 30
0.0
 11
53.24886092957927
 21
20.66379795906555
 31
0.0
  0
LINE
  5
D808
330
1F
100
AcDbEntity
  8
0
  6
CONTINUOUS
100
AcDbLine
 10
53.56136092957927
 20
20.66379795906555
 30
0.0
 11
54.18636092957927
 21
20.66379795906555
 31
0.0
  0
LINE
  5
D809
330
1F
100
AcDbEntity
  8
0
  6
CONTINUOUS
100
AcDbLine
 10
54.49886092957927
 20
20.66379795906555
 30
0.0
 11
55.40471592957925
 21
20.66379795906555
 31
0.0
  0
LINE
  5
D80A
330
1F
100
AcDbEntity
  8
0
  6
CONTINUOUS
100
AcDbLine
 10
55.46471592957926
 20
20.72379795906556
 30
0.0
 11
55.40471592957925
 21
20.72379795906556
 31
0.0
  0
LINE
  5
D80B
330
1F
100
AcDbEntity
  8
0
  6
CONTINUOUS
100
AcDbLine
 10
55.34171592957927
 20
20.72379795906556
 30
0.0
 11
54.96471592957926
 21
20.72379795906556
 31
0.0
  0
LINE
  5
D80C
330
1F
100
AcDbEntity
  8
0
  6
CONTINUOUS
100
AcDbLine
 10
48.28300592957926
 20
20.72379795906556
 30
0.0
 11
47.90600592957927
 21
20.72379795906556
 31
0.0
  0
LINE
  5
D80D
330
1F
100
AcDbEntity
  8
0
  6
CONTINUOUS
100
AcDbLine
 10
47.78300592957926
 20
20.72379795906556
 30
0.0
 11
47.84300592957926
 21
20.72379795906556
 31
0.0
  0
LINE
  5
D80E
330
1F
100
AcDbEntity
  8
0
  6
CONTINUOUS
100
AcDbLine
 10
47.84300592957926
 20
20.72379795906556
 30
0.0
 11
47.90600592957927
 21
20.72379795906556
 31
0.0
  0
LINE
  5
D80F
330
1F
100
AcDbEntity
  8
0
  6
CONTINUOUS
100
AcDbLine
 10
48.28300592957926
 20
20.72379795906556
 30
0.0
 11
54.96471592957926
 21
20.72379795906556
 31
0.0
  0
LINE
  5
D810
330
1F
100
AcDbEntity
  8
0
  6
CONTINUOUS
100
AcDbLine
 10
55.34171592957927
 20
20.72379795906556
 30
0.0
 11
55.40471592957925
 21
20.72379795906556
 31
0.0
  0
LINE
  5
D811
330
1F
100
AcDbEntity
  8
0
  6
CONTINUOUS
100
AcDbLine
 10
49.06136092957927
 20
20.72379795906556
 30
0.0
 11
49.06136092957927
 21
20.59317788026556
 31
0.0
  0
LINE
  5
D812
330
1F
100
AcDbEntity
  8
0
  6
CONTINUOUS
100
AcDbLine
 10
49.06136092957927
 20
25.91096795906555
 30
0.0
 11
49.06136092957927
 21
26.04158803786555
 31
0.0
  0
LINE
  5
D813
330
1F
100
AcDbEntity
  8
0
  6
CONTINUOUS
100
AcDbLine
 10
55.34171592957927
 20
20.78379795906555
 30
0.0
 11
54.96471592957926
 21
20.78379795906555
 31
0.0
  0
LINE
  5
D814
330
1F
100
AcDbEntity
  8
0
  6
CONTINUOUS
100
AcDbLine
 10
48.28300592957926
 20
20.78379795906555
 30
0.0
 11
47.90600592957927
 21
20.78379795906555
 31
0.0
  0
LINE
  5
D815
330
1F
100
AcDbEntity
  8
0
  6
CONTINUOUS
100
AcDbLine
 10
47.90600592957927
 20
20.78679795906555
 30
0.0
 11
55.34171592957927
 21
20.78679795906555
 31
0.0
  0
LINE
  5
D816
330
1F
100
AcDbEntity
  8
0
  6
CONTINUOUS
100
AcDbLine
 10
55.46471592957926
 20
20.84679795906555
 30
0.0
 11
55.40471592957925
 21
20.84679795906555
 31
0.0
  0
LINE
  5
D817
330
1F
100
AcDbEntity
  8
0
  6
CONTINUOUS
100
AcDbLine
 10
47.78300592957926
 20
20.84679795906555
 30
0.0
 11
47.84300592957926
 21
20.84679795906555
 31
0.0
  0
LINE
  5
D818
330
1F
100
AcDbEntity
  8
0
  6
CONTINUOUS
100
AcDbLine
 10
49.68636092957927
 20
20.72379795906556
 30
0.0
 11
49.68636092957927
 21
20.59317788026556
 31
0.0
  0
LINE
  5
D819
330
1F
100
AcDbEntity
  8
0
  6
CONTINUOUS
100
AcDbLine
 10
49.68636092957927
 20
25.91096795906555
 30
0.0
 11
49.68636092957927
 21
26.04158803786555
 31
0.0
  0
LINE
  5
D81A
330
1F
100
AcDbEntity
  8
0
  6
CONTINUOUS
100
AcDbLine
 10
49.99886092957927
 20
20.72379795906556
 30
0.0
 11
49.99886092957927
 21
20.43879795906555
 31
0.0
  0
LINE
  5
D81B
330
1F
100
AcDbEntity
  8
0
  6
CONTINUOUS
100
AcDbLine
 10
49.99886092957927
 20
25.91096795906555
 30
0.0
 11
49.99886092957927
 21
26.19596795906556
 31
0.0
  0
LINE
  5
D81C
330
1F
100
AcDbEntity
  8
0
  6
CONTINUOUS
100
AcDbLine
 10
50.03886092957926
 20
25.97096795906555
 30
0.0
 11
50.03886092957926
 21
25.91096795906555
 31
0.0
  0
LINE
  5
D81D
330
1F
100
AcDbEntity
  8
0
  6
CONTINUOUS
100
AcDbLine
 10
50.03886092957926
 20
20.66379795906555
 30
0.0
 11
50.03886092957926
 21
20.72379795906556
 31
0.0
  0
LINE
  5
D81E
330
1F
100
AcDbEntity
  8
0
  6
CONTINUOUS
100
AcDbLine
 10
53.37386092957927
 20
26.32096795906556
 30
0.0
 11
53.24886092957927
 21
26.19596795906556
 31
0.0
  0
LINE
  5
D81F
330
1F
100
AcDbEntity
  8
0
  6
CONTINUOUS
100
AcDbLine
 10
53.24886092957927
 20
20.43879795906555
 30
0.0
 11
53.37386092957927
 21
20.31379795906555
 31
0.0
  0
LINE
  5
D820
330
1F
100
AcDbEntity
  8
0
  6
CONTINUOUS
100
AcDbLine
 10
48.37206693557926
 20
21.54965537246555
 30
0.0
 11
48.97828471817925
 21
21.89965537246555
 31
0.0
  0
LINE
  5
D821
330
1F
100
AcDbEntity
  8
0
  6
CONTINUOUS
100
AcDbLine
 10
54.17443714097926
 20
24.89965537246555
 30
0.0
 11
54.78065492357926
 21
25.24965537246555
 31
0.0
  0
LINE
  5
D822
330
1F
100
AcDbEntity
  8
0
  6
CONTINUOUS
100
AcDbLine
 10
54.78065492357926
 20
21.38511054566555
 30
0.0
 11
54.17443714097926
 21
21.73511054566556
 31
0.0
  0
LINE
  5
D823
330
1F
100
AcDbEntity
  8
0
  6
CONTINUOUS
100
AcDbLine
 10
48.97828471817925
 20
24.73511054566556
 30
0.0
 11
48.37206693557926
 21
25.08511054566555
 31
0.0
  0
LINE
  5
D824
330
1F
100
AcDbEntity
  8
0
  6
CONTINUOUS
100
AcDbLine
 10
54.87565492357926
 20
25.08511054566555
 30
0.0
 11
54.26943714097926
 21
24.73511054566556
 31
0.0
  0
LINE
  5
D825
330
1F
100
AcDbEntity
  8
0
  6
CONTINUOUS
100
AcDbLine
 10
49.07328471817927
 20
21.73511054566556
 30
0.0
 11
48.46706693557925
 21
21.38511054566555
 31
0.0
  0
LINE
  5
D826
330
1F
100
AcDbEntity
  8
0
  6
CONTINUOUS
100
AcDbLine
 10
48.46706693557925
 20
25.24965537246555
 30
0.0
 11
49.07328471817927
 21
24.89965537246555
 31
0.0
  0
LINE
  5
D827
330
1F
100
AcDbEntity
  8
0
  6
CONTINUOUS
100
AcDbLine
 10
54.26943714097926
 20
21.89965537246555
 30
0.0
 11
54.87565492357926
 21
21.54965537246555
 31
0.0
  0
LINE
  5
D828
330
1F
100
AcDbEntity
  8
0
  6
CONTINUOUS
100
AcDbLine
 10
49.87386092957927
 20
20.31379795906555
 30
0.0
 11
49.99886092957927
 21
20.43879795906555
 31
0.0
  0
LINE
  5
D829
330
1F
100
AcDbEntity
  8
0
  6
CONTINUOUS
100
AcDbLine
 10
49.99886092957927
 20
26.19596795906556
 30
0.0
 11
49.87386092957927
 21
26.32096795906556
 31
0.0
  0
LINE
  5
D82A
330
1F
100
AcDbEntity
  8
0
  6
CONTINUOUS
100
AcDbLine
 10
53.20886092957926
 20
25.97096795906555
 30
0.0
 11
53.20886092957926
 21
25.91096795906555
 31
0.0
  0
LINE
  5
D82B
330
1F
100
AcDbEntity
  8
0
  6
CONTINUOUS
100
AcDbLine
 10
53.20886092957926
 20
20.66379795906555
 30
0.0
 11
53.20886092957926
 21
20.72379795906556
 31
0.0
  0
LINE
  5
D82C
330
1F
100
AcDbEntity
  8
0
  6
CONTINUOUS
100
AcDbLine
 10
53.24886092957927
 20
20.72379795906556
 30
0.0
 11
53.24886092957927
 21
20.43879795906555
 31
0.0
  0
LINE
  5
D82D
330
1F
100
AcDbEntity
  8
0
  6
CONTINUOUS
100
AcDbLine
 10
53.24886092957927
 20
25.91096795906555
 30
0.0
 11
53.24886092957927
 21
26.19596795906556
 31
0.0
  0
LINE
  5
D82E
330
1F
100
AcDbEntity
  8
0
  6
CONTINUOUS
100
AcDbLine
 10
53.56136092957927
 20
20.72379795906556
 30
0.0
 11
53.56136092957927
 21
20.59317788026556
 31
0.0
  0
LINE
  5
D82F
330
1F
100
AcDbEntity
  8
0
  6
CONTINUOUS
100
AcDbLine
 10
53.56136092957927
 20
25.91096795906555
 30
0.0
 11
53.56136092957927
 21
26.04158803786555
 31
0.0
  0
LINE
  5
D830
330
1F
100
AcDbEntity
  8
0
  6
CONTINUOUS
100
AcDbLine
 10
54.18636092957927
 20
20.72379795906556
 30
0.0
 11
54.18636092957927
 21
20.59317788026556
 31
0.0
  0
LINE
  5
D831
330
1F
100
AcDbEntity
  8
0
  6
CONTINUOUS
100
AcDbLine
 10
54.18636092957927
 20
25.91096795906555
 30
0.0
 11
54.18636092957927
 21
26.04158803786555
 31
0.0
  0
LINE
  5
D832
330
1F
100
AcDbEntity
  8
0
  6
CONTINUOUS
100
AcDbLine
 10
55.46471592957926
 20
25.78796795906555
 30
0.0
 11
55.40471592957925
 21
25.78796795906555
 31
0.0
  0
LINE
  5
D833
330
1F
100
AcDbEntity
  8
0
  6
CONTINUOUS
100
AcDbLine
 10
47.78300592957926
 20
25.78796795906555
 30
0.0
 11
47.84300592957926
 21
25.78796795906555
 31
0.0
  0
LINE
  5
D834
330
1F
100
AcDbEntity
  8
0
  6
CONTINUOUS
100
AcDbLine
 10
55.34171592957927
 20
25.84796795906556
 30
0.0
 11
47.90600592957927
 21
25.84796795906556
 31
0.0
  0
LINE
  5
D835
330
1F
100
AcDbEntity
  8
0
  6
CONTINUOUS
100
AcDbLine
 10
47.90600592957927
 20
25.85096795906556
 30
0.0
 11
48.28300592957926
 21
25.85096795906556
 31
0.0
  0
LINE
  5
D836
330
1F
100
AcDbEntity
  8
0
  6
CONTINUOUS
100
AcDbLine
 10
54.96471592957926
 20
25.85096795906556
 30
0.0
 11
55.34171592957927
 21
25.85096795906556
 31
0.0
  0
LINE
  5
D837
330
1F
100
AcDbEntity
  8
0
  6
CONTINUOUS
100
AcDbLine
 10
55.46471592957926
 20
25.91096795906555
 30
0.0
 11
55.40471592957925
 21
25.91096795906555
 31
0.0
  0
LINE
  5
D838
330
1F
100
AcDbEntity
  8
0
  6
CONTINUOUS
100
AcDbLine
 10
47.90600592957927
 20
25.91096795906555
 30
0.0
 11
47.84300592957926
 21
25.91096795906555
 31
0.0
  0
LINE
  5
D839
330
1F
100
AcDbEntity
  8
0
  6
CONTINUOUS
100
AcDbLine
 10
47.78300592957926
 20
25.91096795906555
 30
0.0
 11
47.84300592957926
 21
25.91096795906555
 31
0.0
  0
LINE
  5
D83A
330
1F
100
AcDbEntity
  8
0
  6
CONTINUOUS
100
AcDbLine
 10
47.90600592957927
 20
25.91096795906555
 30
0.0
 11
48.28300592957926
 21
25.91096795906555
 31
0.0
  0
LINE
  5
D83B
330
1F
100
AcDbEntity
  8
0
  6
CONTINUOUS
100
AcDbLine
 10
48.28300592957926
 20
25.91096795906555
 30
0.0
 11
54.96471592957926
 21
25.91096795906555
 31
0.0
  0
LINE
  5
D83C
330
1F
100
AcDbEntity
  8
0
  6
CONTINUOUS
100
AcDbLine
 10
55.34171592957927
 20
25.91096795906555
 30
0.0
 11
55.40471592957925
 21
25.91096795906555
 31
0.0
  0
LINE
  5
D83D
330
1F
100
AcDbEntity
  8
0
  6
CONTINUOUS
100
AcDbLine
 10
54.96471592957926
 20
25.91096795906555
 30
0.0
 11
55.34171592957927
 21
25.91096795906555
 31
0.0
  0
LINE
  5
D83E
330
1F
100
AcDbEntity
  8
0
  6
CONTINUOUS
100
AcDbLine
 10
55.46471592957926
 20
25.97096795906555
 30
0.0
 11
55.40471592957925
 21
25.97096795906555
 31
0.0
  0
LINE
  5
D83F
330
1F
100
AcDbEntity
  8
0
  6
CONTINUOUS
100
AcDbLine
 10
47.78300592957926
 20
25.97096795906555
 30
0.0
 11
47.84300592957926
 21
25.97096795906555
 31
0.0
  0
LINE
  5
D840
330
1F
100
AcDbEntity
  8
0
  6
CONTINUOUS
100
AcDbLine
 10
47.84300592957926
 20
25.97096795906555
 30
0.0
 11
48.74886092957927
 21
25.97096795906555
 31
0.0
  0
LINE
  5
D841
330
1F
100
AcDbEntity
  8
0
  6
CONTINUOUS
100
AcDbLine
 10
49.06136092957927
 20
25.97096795906555
 30
0.0
 11
49.68636092957927
 21
25.97096795906555
 31
0.0
  0
LINE
  5
D842
330
1F
100
AcDbEntity
  8
0
  6
CONTINUOUS
100
AcDbLine
 10
49.99886092957927
 20
25.97096795906555
 30
0.0
 11
53.24886092957927
 21
25.97096795906555
 31
0.0
  0
LINE
  5
D843
330
1F
100
AcDbEntity
  8
0
  6
CONTINUOUS
100
AcDbLine
 10
53.56136092957927
 20
25.97096795906555
 30
0.0
 11
54.18636092957927
 21
25.97096795906555
 31
0.0
  0
LINE
  5
D844
330
1F
100
AcDbEntity
  8
0
  6
CONTINUOUS
100
AcDbLine
 10
54.49886092957927
 20
25.97096795906555
 30
0.0
 11
55.40471592957925
 21
25.97096795906555
 31
0.0
  0
LINE
  5
D845
330
1F
100
AcDbEntity
  8
0
  6
CONTINUOUS
100
AcDbLine
 10
54.49886092957927
 20
20.72379795906556
 30
0.0
 11
54.49886092957927
 21
20.43879795906555
 31
0.0
  0
LINE
  5
D846
330
1F
100
AcDbEntity
  8
0
  6
CONTINUOUS
100
AcDbLine
 10
54.49886092957927
 20
25.91096795906555
 30
0.0
 11
54.49886092957927
 21
26.19596795906556
 31
0.0
  0
LINE
  5
D847
330
1F
100
AcDbEntity
  8
0
  6
CONTINUOUS
100
AcDbLine
 10
54.53886092957926
 20
25.97096795906555
 30
0.0
 11
54.53886092957926
 21
25.91096795906555
 31
0.0
  0
LINE
  5
D848
330
1F
100
AcDbEntity
  8
0
  6
CONTINUOUS
100
AcDbLine
 10
54.53886092957926
 20
20.66379795906555
 30
0.0
 11
54.53886092957926
 21
20.72379795906556
 31
0.0
  0
LINE
  5
D849
330
1F
100
AcDbEntity
  8
0
  6
CONTINUOUS
100
AcDbLine
 10
49.99886092957927
 20
26.00221795906555
 30
0.0
 11
49.68636092957927
 21
26.00221795906555
 31
0.0
  0
LINE
  5
D84A
330
1F
100
AcDbEntity
  8
0
  6
CONTINUOUS
100
AcDbLine
 10
49.06136092957927
 20
26.00221795906555
 30
0.0
 11
48.74886092957927
 21
26.00221795906555
 31
0.0
  0
LINE
  5
D84B
330
1F
100
AcDbEntity
  8
0
  6
CONTINUOUS
100
AcDbLine
 10
53.24886092957927
 20
26.00221795906555
 30
0.0
 11
53.56136092957927
 21
26.00221795906555
 31
0.0
  0
LINE
  5
D84C
330
1F
100
AcDbEntity
  8
0
  6
CONTINUOUS
100
AcDbLine
 10
54.18636092957927
 20
26.00221795906555
 30
0.0
 11
54.49886092957927
 21
26.00221795906555
 31
0.0
  0
LINE
  5
D84D
330
1F
100
AcDbEntity
  8
0
  6
CONTINUOUS
100
AcDbLine
 10
54.18636092957927
 20
26.04158803786555
 30
0.0
 11
53.56136092957927
 21
26.04158803786555
 31
0.0
  0
LINE
  5
D84E
330
1F
100
AcDbEntity
  8
0
  6
CONTINUOUS
100
AcDbLine
 10
49.68636092957927
 20
26.04158803786555
 30
0.0
 11
49.06136092957927
 21
26.04158803786555
 31
0.0
  0
LINE
  5
D84F
330
1F
100
AcDbEntity
  8
0
  6
CONTINUOUS
100
AcDbLine
 10
49.87386092957927
 20
26.32096795906556
 30
0.0
 11
48.87386092957927
 21
26.32096795906556
 31
0.0
  0
LINE
  5
D850
330
1F
100
AcDbEntity
  8
0
  6
CONTINUOUS
100
AcDbLine
 10
53.37386092957927
 20
26.32096795906556
 30
0.0
 11
54.37386092957927
 21
26.32096795906556
 31
0.0
  0
LINE
  5
D851
330
1F
100
AcDbEntity
  8
0
  6
CONTINUOUS
100
AcDbLine
 10
54.96471592957926
 20
25.91096795906555
 30
0.0
 11
54.96471592957926
 21
25.85096795906556
 31
0.0
  0
LINE
  5
D852
330
1F
100
AcDbEntity
  8
0
  6
CONTINUOUS
100
AcDbLine
 10
54.96471592957926
 20
20.72379795906556
 30
0.0
 11
54.96471592957926
 21
20.78379795906555
 31
0.0
  0
LINE
  5
D853
330
1F
100
AcDbEntity
  8
0
  6
CONTINUOUS
100
AcDbLine
 10
55.34171592957927
 20
25.91096795906555
 30
0.0
 11
55.34171592957927
 21
25.85096795906556
 31
0.0
  0
LINE
  5
D854
330
1F
100
AcDbEntity
  8
0
  6
CONTINUOUS
100
AcDbLine
 10
55.34171592957927
 20
20.72379795906556
 30
0.0
 11
55.34171592957927
 21
20.78379795906555
 31
0.0
  0
LINE
  5
D855
330
1F
100
AcDbEntity
  8
0
  6
CONTINUOUS
100
AcDbLine
 10
55.34171592957927
 20
20.78679795906555
 30
0.0
 11
55.34171592957927
 21
25.84796795906556
 31
0.0
  0
LINE
  5
D856
330
1F
100
AcDbEntity
  8
0
  6
CONTINUOUS
100
AcDbLine
 10
55.40471592957925
 20
25.91096795906555
 30
0.0
 11
55.40471592957925
 21
25.89221440606556
 31
0.0
  0
LINE
  5
D857
330
1F
100
AcDbEntity
  8
0
  6
CONTINUOUS
100
AcDbLine
 10
55.40471592957925
 20
19.22379795906556
 30
0.0
 11
55.40471592957925
 21
20.72379795906556
 31
0.0
  0
LINE
  5
D858
330
1F
100
AcDbEntity
  8
0
  6
CONTINUOUS
100
AcDbLine
 10
55.40471592957925
 20
20.72379795906556
 30
0.0
 11
55.40471592957925
 21
20.74255151206555
 31
0.0
  0
LINE
  5
D859
330
1F
100
AcDbEntity
  8
0
  6
CONTINUOUS
100
AcDbLine
 10
55.40471592957925
 20
20.84679795906555
 30
0.0
 11
55.40471592957925
 21
25.78796795906555
 31
0.0
  0
LINE
  5
D85A
330
1F
100
AcDbEntity
  8
0
  6
CONTINUOUS
100
AcDbLine
 10
55.40471592957925
 20
25.91096795906555
 30
0.0
 11
55.40471592957925
 21
27.41096795906555
 31
0.0
  0
LINE
  5
D85B
330
1F
100
AcDbEntity
  8
0
  6
CONTINUOUS
100
AcDbLine
 10
55.46471592957926
 20
27.41096795906555
 30
0.0
 11
55.46471592957926
 21
25.97096795906555
 31
0.0
  0
LINE
  5
D85C
330
1F
100
AcDbEntity
  8
0
  6
CONTINUOUS
100
AcDbLine
 10
55.46471592957926
 20
25.97096795906555
 30
0.0
 11
55.46471592957926
 21
25.78796795906555
 31
0.0
  0
LINE
  5
D85D
330
1F
100
AcDbEntity
  8
0
  6
CONTINUOUS
100
AcDbLine
 10
55.46471592957926
 20
25.78796795906555
 30
0.0
 11
55.46471592957926
 21
20.84679795906555
 31
0.0
  0
LINE
  5
D85E
330
1F
100
AcDbEntity
  8
0
  6
CONTINUOUS
100
AcDbLine
 10
55.46471592957926
 20
20.84679795906555
 30
0.0
 11
55.46471592957926
 21
20.66379795906555
 31
0.0
  0
LINE
  5
D85F
330
1F
100
AcDbEntity
  8
0
  6
CONTINUOUS
100
AcDbLine
 10
55.46471592957926
 20
20.66379795906555
 30
0.0
 11
55.46471592957926
 21
19.22379795906556
 31
0.0
  0
LINE
  5
D860
330
1F
100
AcDbEntity
  8
0
  6
CONTINUOUS
100
AcDbLine
 10
54.37386092957927
 20
20.31379795906555
 30
0.0
 11
54.49886092957927
 21
20.43879795906555
 31
0.0
  0
LINE
  5
D861
330
1F
100
AcDbEntity
  8
0
  6
CONTINUOUS
100
AcDbLine
 10
47.84300592957926
 20
27.26096795906555
 30
0.0
 11
47.78300592957926
 21
27.26096795906555
 31
0.0
  0
LINE
  5
D862
330
1F
100
AcDbEntity
  8
0
  6
CONTINUOUS
100
AcDbLine
 10
55.40471592957925
 20
27.26096795906555
 30
0.0
 11
55.46471592957926
 21
27.26096795906555
 31
0.0
  0
LINE
  5
D863
330
1F
100
AcDbEntity
  8
0
  6
CONTINUOUS
100
AcDbLine
 10
47.84300592957926
 20
27.41096795906555
 30
0.0
 11
47.78300592957926
 21
27.41096795906555
 31
0.0
  0
LINE
  5
D864
330
1F
100
AcDbEntity
  8
0
  6
CONTINUOUS
100
AcDbLine
 10
55.40471592957925
 20
27.41096795906555
 30
0.0
 11
55.46471592957926
 21
27.41096795906555
 31
0.0
  0
LINE
  5
D865
330
1F
100
AcDbEntity
  8
0
  6
CONTINUOUS
100
AcDbLine
 10
54.49886092957927
 20
26.19596795906556
 30
0.0
 11
54.37386092957927
 21
26.32096795906556
 31
0.0
  0
ARC
  5
D866
330
1F
100
AcDbEntity
  8
0
  6
CONTINUOUS
100
AcDbCircle
 10
24.35649606677926
 20
21.01580069906555
 30
0.0
 40
0.169860794
100
AcDbArc
 50
334.6615357397
 51
336.2351414436021
  0
ARC
  5
D867
330
1F
100
AcDbEntity
  8
0
  6
CONTINUOUS
100
AcDbCircle
 10
24.54896978837926
 20
20.82332697766555
 30
0.0
 40
0.169860794
100
AcDbArc
 50
113.7648585562986
 51
115.3384642603981
  0
ARC
  5
D868
330
1F
100
AcDbEntity
  8
0
  6
CONTINUOUS
100
AcDbCircle
 10
24.50201547937926
 20
21.00334639026556
 30
0.0
 40
0.123
100
AcDbArc
 50
180.0
 51
264.5265411421018
  0
CIRCLE
  5
D869
330
1F
100
AcDbEntity
  8
0
  6
CONTINUOUS
100
AcDbCircle
 10
25.46396047937926
 20
21.23363139026555
 30
0.0
 40
0.102
  0
ARC
  5
D86A
330
1F
100
AcDbEntity
  8
0
  6
CONTINUOUS
100
AcDbCircle
 10
24.50201547937926
 20
21.00334639026556
 30
0.0
 40
0.063
100
AcDbArc
 50
228.2529459267987
 51
258.8089241119021
  0
ARC
  5
D86B
330
1F
100
AcDbEntity
  8
0
  6
CONTINUOUS
100
AcDbCircle
 10
24.50201547937926
 20
21.00334639026556
 30
0.0
 40
0.063
100
AcDbArc
 50
180.0
 51
219.8045436556022
  0
ARC
  5
D86C
330
1F
100
AcDbEntity
  8
0
  6
CONTINUOUS
100
AcDbCircle
 10
24.54896978837926
 20
26.12453580286555
 30
0.0
 40
0.169860794
100
AcDbArc
 50
244.6615357397
 51
246.2351414437014
  0
ARC
  5
D86D
330
1F
100
AcDbEntity
  8
0
  6
CONTINUOUS
100
AcDbCircle
 10
24.35649606677926
 20
25.93206208126556
 30
0.0
 40
0.169860794
100
AcDbArc
 50
23.76485855650034
 51
25.3384642601992
  0
CIRCLE
  5
D86E
330
1F
100
AcDbEntity
  8
0
  6
CONTINUOUS
100
AcDbCircle
 10
25.46396047937926
 20
25.71423139026555
 30
0.0
 40
0.157
  0
ARC
  5
D86F
330
1F
100
AcDbEntity
  8
0
  6
CONTINUOUS
100
AcDbCircle
 10
24.50201547937926
 20
25.94451639026556
 30
0.0
 40
0.123
100
AcDbArc
 50
95.47345885789821
 51
180.0
  0
CIRCLE
  5
D870
330
1F
100
AcDbEntity
  8
0
  6
CONTINUOUS
100
AcDbCircle
 10
25.46396047937926
 20
25.71423139026555
 30
0.0
 40
0.105
  0
ARC
  5
D871
330
1F
100
AcDbEntity
  8
0
  6
CONTINUOUS
100
AcDbCircle
 10
24.50201547937926
 20
25.94451639026556
 30
0.0
 40
0.063
100
AcDbArc
 50
101.1910758880978
 51
131.7470540732013
  0
ARC
  5
D872
330
1F
100
AcDbEntity
  8
0
  6
CONTINUOUS
100
AcDbCircle
 10
24.50201547937926
 20
25.94451639026556
 30
0.0
 40
0.063
100
AcDbArc
 50
140.1954563443998
 51
180.0
  0
ARC
  5
D873
330
1F
100
AcDbEntity
  8
0
  6
CONTINUOUS
100
AcDbCircle
 10
31.89077117057926
 20
20.82332697766555
 30
0.0
 40
0.169860794
100
AcDbArc
 50
64.66153573980081
 51
66.23514144349966
  0
ARC
  5
D874
330
1F
100
AcDbEntity
  8
0
  6
CONTINUOUS
100
AcDbCircle
 10
32.08324489197926
 20
21.01580069906555
 30
0.0
 40
0.169860794
100
AcDbArc
 50
203.7648585565003
 51
205.3384642600984
  0
CIRCLE
  5
D875
330
1F
100
AcDbEntity
  8
0
  6
CONTINUOUS
100
AcDbCircle
 10
30.97578047937926
 20
21.23363139026555
 30
0.0
 40
0.157
  0
ARC
  5
D876
330
1F
100
AcDbEntity
  8
0
  6
CONTINUOUS
100
AcDbCircle
 10
31.93772547937926
 20
21.00334639026556
 30
0.0
 40
0.123
100
AcDbArc
 50
275.4734588579015
 51
0.0
  0
CIRCLE
  5
D877
330
1F
100
AcDbEntity
  8
0
  6
CONTINUOUS
100
AcDbCircle
 10
30.97578047937926
 20
21.23363139026555
 30
0.0
 40
0.105
  0
ARC
  5
D878
330
1F
100
AcDbEntity
  8
0
  6
CONTINUOUS
100
AcDbCircle
 10
31.93772547937926
 20
21.00334639026556
 30
0.0
 40
0.063
100
AcDbArc
 50
281.1910758880979
 51
311.7470540732013
  0
ARC
  5
D879
330
1F
100
AcDbEntity
  8
0
  6
CONTINUOUS
100
AcDbCircle
 10
31.93772547937926
 20
21.00334639026556
 30
0.0
 40
0.063
100
AcDbArc
 50
320.1954563443999
 51
0.0
  0
ARC
  5
D87A
330
1F
100
AcDbEntity
  8
0
  6
CONTINUOUS
100
AcDbCircle
 10
31.89077117057926
 20
26.12453580286555
 30
0.0
 40
0.169860794
100
AcDbArc
 50
293.7648585565003
 51
295.3384642601991
  0
ARC
  5
D87B
330
1F
100
AcDbEntity
  8
0
  6
CONTINUOUS
100
AcDbCircle
 10
32.08324489197926
 20
25.93206208126556
 30
0.0
 40
0.169860794
100
AcDbArc
 50
154.6615357398008
 51
156.2351414434997
  0
ARC
  5
D87C
330
1F
100
AcDbEntity
  8
0
  6
CONTINUOUS
100
AcDbCircle
 10
31.93772547937926
 20
25.94451639026556
 30
0.0
 40
0.123
100
AcDbArc
 50
0.0
 51
84.52654114209851
  0
CIRCLE
  5
D87D
330
1F
100
AcDbEntity
  8
0
  6
CONTINUOUS
100
AcDbCircle
 10
30.97578047937926
 20
25.71423139026555
 30
0.0
 40
0.102
  0
ARC
  5
D87E
330
1F
100
AcDbEntity
  8
0
  6
CONTINUOUS
100
AcDbCircle
 10
31.93772547937926
 20
25.94451639026556
 30
0.0
 40
0.063
100
AcDbArc
 50
48.25294592679871
 51
78.80892411190216
  0
ARC
  5
D87F
330
1F
100
AcDbEntity
  8
0
  6
CONTINUOUS
100
AcDbCircle
 10
31.93772547937926
 20
25.94451639026556
 30
0.0
 40
0.063
100
AcDbArc
 50
0.0
 51
39.80454365559767
  0
ARC
  5
D880
330
1F
100
AcDbEntity
  8
0
  6
CONTINUOUS
100
AcDbCircle
 10
37.30577496777926
 20
20.78909639026556
 30
0.0
 40
0.09125
100
AcDbArc
 50
90.0
 51
180.0
  0
ARC
  5
D881
330
1F
100
AcDbEntity
  8
0
  6
CONTINUOUS
100
AcDbCircle
 10
37.40952496777926
 20
20.87784639026555
 30
0.0
 40
0.079
100
AcDbArc
 50
30.00000000000223
 51
90.0
  0
ARC
  5
D882
330
1F
100
AcDbEntity
  8
0
  6
CONTINUOUS
100
AcDbCircle
 10
37.35052496777926
 20
20.99684639026555
 30
0.0
 40
0.076
100
AcDbArc
 50
180.0
 51
270.0
  0
ARC
  5
D883
330
1F
100
AcDbEntity
  8
0
  6
CONTINUOUS
100
AcDbCircle
 10
38.47452496777926
 20
20.13034639026555
 30
0.0
 40
0.075
100
AcDbArc
 50
90.0
 51
270.0
  0
ARC
  5
D884
330
1F
100
AcDbEntity
  8
0
  6
CONTINUOUS
100
AcDbCircle
 10
38.92452496777926
 20
20.13034639026555
 30
0.0
 40
0.075
100
AcDbArc
 50
270.0
 51
90.0
  0
ARC
  5
D885
330
1F
100
AcDbEntity
  8
0
  6
CONTINUOUS
100
AcDbCircle
 10
38.80452496777926
 20
22.84893139026556
 30
0.0
 40
0.075
100
AcDbArc
 50
270.0
 51
90.0
  0
ARC
  5
D886
330
1F
100
AcDbEntity
  8
0
  6
CONTINUOUS
100
AcDbCircle
 10
38.61952496777926
 20
22.84893139026556
 30
0.0
 40
0.075
100
AcDbArc
 50
90.0
 51
270.0
  0
CIRCLE
  5
D887
330
1F
100
AcDbEntity
  8
0
  6
CONTINUOUS
100
AcDbCircle
 10
38.39952496777926
 20
19.73034639026555
 30
0.0
 40
0.07
  0
CIRCLE
  5
D888
330
1F
100
AcDbEntity
  8
0
  6
CONTINUOUS
100
AcDbCircle
 10
38.39952496777926
 20
20.53034639026556
 30
0.0
 40
0.07
  0
ARC
  5
D889
330
1F
100
AcDbEntity
  8
0
  6
CONTINUOUS
100
AcDbCircle
 10
37.51734513057926
 20
20.91159639026555
 30
0.0
 40
0.06725
100
AcDbArc
 50
209.9999999999996
 51
270.0
  0
ARC
  5
D88A
330
1F
100
AcDbEntity
  8
0
  6
CONTINUOUS
100
AcDbCircle
 10
37.23652496777926
 20
21.33863139026555
 30
0.0
 40
0.052
100
AcDbArc
 50
90.0
 51
180.0
  0
ARC
  5
D88B
330
1F
100
AcDbEntity
  8
0
  6
CONTINUOUS
100
AcDbCircle
 10
37.23652496777926
 20
21.12863139026555
 30
0.0
 40
0.052
100
AcDbArc
 50
180.0
 51
270.0
  0
ARC
  5
D88C
330
1F
100
AcDbEntity
  8
0
  6
CONTINUOUS
100
AcDbCircle
 10
37.40952496777926
 20
20.87784639026555
 30
0.0
 40
0.043
100
AcDbArc
 50
30.00000000000755
 51
90.0
  0
ARC
  5
D88D
330
1F
100
AcDbEntity
  8
0
  6
CONTINUOUS
100
AcDbCircle
 10
37.35052496777926
 20
20.99684639026555
 30
0.0
 40
0.04
100
AcDbArc
 50
235.6415082179847
 51
270.0
  0
ARC
  5
D88E
330
1F
100
AcDbEntity
  8
0
  6
CONTINUOUS
100
AcDbCircle
 10
37.51734513057926
 20
20.91159639026555
 30
0.0
 40
0.03125
100
AcDbArc
 50
209.9999999999972
 51
270.0
  0
ARC
  5
D88F
330
1F
100
AcDbEntity
  8
0
  6
CONTINUOUS
100
AcDbCircle
 10
37.30577496777926
 20
20.78909639026556
 30
0.0
 40
0.03125
100
AcDbArc
 50
90.0
 51
180.0
  0
ARC
  5
D890
330
1F
100
AcDbEntity
  8
0
  6
CONTINUOUS
100
AcDbCircle
 10
37.30577496777926
 20
26.15876639026555
 30
0.0
 40
0.09125
100
AcDbArc
 50
180.0
 51
270.0
  0
ARC
  5
D891
330
1F
100
AcDbEntity
  8
0
  6
CONTINUOUS
100
AcDbCircle
 10
37.40952496777926
 20
26.07001639026555
 30
0.0
 40
0.079
100
AcDbArc
 50
270.0
 51
330.0000000000022
  0
ARC
  5
D892
330
1F
100
AcDbEntity
  8
0
  6
CONTINUOUS
100
AcDbCircle
 10
37.35052496777926
 20
25.95101639026555
 30
0.0
 40
0.076
100
AcDbArc
 50
90.0
 51
180.0
  0
ARC
  5
D893
330
1F
100
AcDbEntity
  8
0
  6
CONTINUOUS
100
AcDbCircle
 10
38.47452496777926
 20
26.81751639026555
 30
0.0
 40
0.075
100
AcDbArc
 50
90.0
 51
270.0
  0
ARC
  5
D894
330
1F
100
AcDbEntity
  8
0
  6
CONTINUOUS
100
AcDbCircle
 10
38.92452496777926
 20
26.81751639026555
 30
0.0
 40
0.075
100
AcDbArc
 50
270.0
 51
90.0
  0
ARC
  5
D895
330
1F
100
AcDbEntity
  8
0
  6
CONTINUOUS
100
AcDbCircle
 10
38.80452496777926
 20
24.09893139026556
 30
0.0
 40
0.075
100
AcDbArc
 50
270.0
 51
90.0
  0
ARC
  5
D896
330
1F
100
AcDbEntity
  8
0
  6
CONTINUOUS
100
AcDbCircle
 10
38.61952496777926
 20
24.09893139026556
 30
0.0
 40
0.075
100
AcDbArc
 50
90.0
 51
270.0
  0
CIRCLE
  5
D897
330
1F
100
AcDbEntity
  8
0
  6
CONTINUOUS
100
AcDbCircle
 10
38.39952496777926
 20
27.21751639026555
 30
0.0
 40
0.07
  0
CIRCLE
  5
D898
330
1F
100
AcDbEntity
  8
0
  6
CONTINUOUS
100
AcDbCircle
 10
38.39952496777926
 20
26.41751639026555
 30
0.0
 40
0.07
  0
ARC
  5
D899
330
1F
100
AcDbEntity
  8
0
  6
CONTINUOUS
100
AcDbCircle
 10
37.51734513057926
 20
26.03626639026555
 30
0.0
 40
0.06725
100
AcDbArc
 50
90.0
 51
149.9999999999948
  0
ARC
  5
D89A
330
1F
100
AcDbEntity
  8
0
  6
CONTINUOUS
100
AcDbCircle
 10
37.23652496777926
 20
25.81923139026556
 30
0.0
 40
0.052
100
AcDbArc
 50
90.0
 51
180.0
  0
ARC
  5
D89B
330
1F
100
AcDbEntity
  8
0
  6
CONTINUOUS
100
AcDbCircle
 10
37.23652496777926
 20
25.60923139026556
 30
0.0
 40
0.052
100
AcDbArc
 50
180.0
 51
270.0
  0
ARC
  5
D89C
330
1F
100
AcDbEntity
  8
0
  6
CONTINUOUS
100
AcDbCircle
 10
37.40952496777926
 20
26.07001639026555
 30
0.0
 40
0.043
100
AcDbArc
 50
270.0
 51
330.0000000000013
  0
ARC
  5
D89D
330
1F
100
AcDbEntity
  8
0
  6
CONTINUOUS
100
AcDbCircle
 10
37.35052496777926
 20
25.95101639026555
 30
0.0
 40
0.04
100
AcDbArc
 50
90.0
 51
124.3584917820153
  0
ARC
  5
D89E
330
1F
100
AcDbEntity
  8
0
  6
CONTINUOUS
100
AcDbCircle
 10
37.51734513057926
 20
26.03626639026555
 30
0.0
 40
0.03125
100
AcDbArc
 50
90.0
 51
149.9999999999906
  0
ARC
  5
D89F
330
1F
100
AcDbEntity
  8
0
  6
CONTINUOUS
100
AcDbCircle
 10
37.30577496777926
 20
26.15876639026555
 30
0.0
 40
0.03125
100
AcDbArc
 50
180.0
 51
270.0
  0
ARC
  5
D8A0
330
1F
100
AcDbEntity
  8
0
  6
CONTINUOUS
100
AcDbCircle
 10
40.62074496777926
 20
20.94334639026555
 30
0.0
 40
0.123
100
AcDbArc
 50
270.0
 51
0.0
  0
CIRCLE
  5
D8A1
330
1F
100
AcDbEntity
  8
0
  6
CONTINUOUS
100
AcDbCircle
 10
38.93952496777926
 20
22.34893139026556
 30
0.0
 40
0.075
  0
CIRCLE
  5
D8A2
330
1F
100
AcDbEntity
  8
0
  6
CONTINUOUS
100
AcDbCircle
 10
38.99952496777927
 20
19.73034639026555
 30
0.0
 40
0.07
  0
CIRCLE
  5
D8A3
330
1F
100
AcDbEntity
  8
0
  6
CONTINUOUS
100
AcDbCircle
 10
38.99952496777927
 20
20.53034639026556
 30
0.0
 40
0.07
  0
ARC
  5
D8A4
330
1F
100
AcDbEntity
  8
0
  6
CONTINUOUS
100
AcDbCircle
 10
40.62074496777926
 20
20.94334639026555
 30
0.0
 40
0.063
100
AcDbArc
 50
270.0
 51
303.2965817586077
  0
ARC
  5
D8A5
330
1F
100
AcDbEntity
  8
0
  6
CONTINUOUS
100
AcDbCircle
 10
40.62074496777926
 20
26.00451639026555
 30
0.0
 40
0.123
100
AcDbArc
 50
0.0
 51
90.0
  0
CIRCLE
  5
D8A6
330
1F
100
AcDbEntity
  8
0
  6
CONTINUOUS
100
AcDbCircle
 10
38.93952496777926
 20
24.59893139026556
 30
0.0
 40
0.075
  0
CIRCLE
  5
D8A7
330
1F
100
AcDbEntity
  8
0
  6
CONTINUOUS
100
AcDbCircle
 10
38.93952496777926
 20
23.47393139026556
 30
0.0
 40
0.075
  0
CIRCLE
  5
D8A8
330
1F
100
AcDbEntity
  8
0
  6
CONTINUOUS
100
AcDbCircle
 10
38.99952496777927
 20
27.21751639026555
 30
0.0
 40
0.07
  0
CIRCLE
  5
D8A9
330
1F
100
AcDbEntity
  8
0
  6
CONTINUOUS
100
AcDbCircle
 10
38.99952496777927
 20
26.41751639026555
 30
0.0
 40
0.07
  0
ARC
  5
D8AA
330
1F
100
AcDbEntity
  8
0
  6
CONTINUOUS
100
AcDbCircle
 10
40.62074496777926
 20
26.00451639026555
 30
0.0
 40
0.063
100
AcDbArc
 50
56.70341824139774
 51
90.0
  0
ARC
  5
D8AB
330
1F
100
AcDbEntity
  8
0
  6
CONTINUOUS
100
AcDbCircle
 10
14.48833432657926
 20
20.94334639026555
 30
0.0
 40
0.123
100
AcDbArc
 50
180.0
 51
270.0
  0
CIRCLE
  5
D8AC
330
1F
100
AcDbEntity
  8
0
  6
CONTINUOUS
100
AcDbCircle
 10
16.16955432657926
 20
22.34893139026556
 30
0.0
 40
0.075
  0
CIRCLE
  5
D8AD
330
1F
100
AcDbEntity
  8
0
  6
CONTINUOUS
100
AcDbCircle
 10
16.10955432657926
 20
19.73034639026555
 30
0.0
 40
0.07
  0
CIRCLE
  5
D8AE
330
1F
100
AcDbEntity
  8
0
  6
CONTINUOUS
100
AcDbCircle
 10
16.10955432657926
 20
20.53034639026556
 30
0.0
 40
0.07
  0
ARC
  5
D8AF
330
1F
100
AcDbEntity
  8
0
  6
CONTINUOUS
100
AcDbCircle
 10
14.48833432657926
 20
20.94334639026555
 30
0.0
 40
0.063
100
AcDbArc
 50
236.7034182413982
 51
270.0
  0
ARC
  5
D8B0
330
1F
100
AcDbEntity
  8
0
  6
CONTINUOUS
100
AcDbCircle
 10
14.48833432657926
 20
26.00451639026555
 30
0.0
 40
0.123
100
AcDbArc
 50
90.0
 51
180.0
  0
CIRCLE
  5
D8B1
330
1F
100
AcDbEntity
  8
0
  6
CONTINUOUS
100
AcDbCircle
 10
16.16955432657926
 20
24.59893139026556
 30
0.0
 40
0.075
  0
CIRCLE
  5
D8B2
330
1F
100
AcDbEntity
  8
0
  6
CONTINUOUS
100
AcDbCircle
 10
16.16955432657926
 20
23.47393139026556
 30
0.0
 40
0.075
  0
CIRCLE
  5
D8B3
330
1F
100
AcDbEntity
  8
0
  6
CONTINUOUS
100
AcDbCircle
 10
16.10955432657926
 20
27.21751639026555
 30
0.0
 40
0.07
  0
CIRCLE
  5
D8B4
330
1F
100
AcDbEntity
  8
0
  6
CONTINUOUS
100
AcDbCircle
 10
16.10955432657926
 20
26.41751639026555
 30
0.0
 40
0.07
  0
ARC
  5
D8B5
330
1F
100
AcDbEntity
  8
0
  6
CONTINUOUS
100
AcDbCircle
 10
14.48833432657926
 20
26.00451639026555
 30
0.0
 40
0.063
100
AcDbArc
 50
90.0
 51
123.2965817585991
  0
ARC
  5
D8B6
330
1F
100
AcDbEntity
  8
0
  6
CONTINUOUS
100
AcDbCircle
 10
17.80330432657927
 20
20.78909639026556
 30
0.0
 40
0.09125
100
AcDbArc
 50
0.0
 51
90.0
  0
ARC
  5
D8B7
330
1F
100
AcDbEntity
  8
0
  6
CONTINUOUS
100
AcDbCircle
 10
17.69955432657926
 20
20.87784639026555
 30
0.0
 40
0.079
100
AcDbArc
 50
90.0
 51
149.9999999999965
  0
ARC
  5
D8B8
330
1F
100
AcDbEntity
  8
0
  6
CONTINUOUS
100
AcDbCircle
 10
17.75855432657927
 20
20.99684639026555
 30
0.0
 40
0.076
100
AcDbArc
 50
270.0
 51
0.0
  0
ARC
  5
D8B9
330
1F
100
AcDbEntity
  8
0
  6
CONTINUOUS
100
AcDbCircle
 10
16.63455432657926
 20
20.13034639026555
 30
0.0
 40
0.075
100
AcDbArc
 50
270.0
 51
90.0
  0
ARC
  5
D8BA
330
1F
100
AcDbEntity
  8
0
  6
CONTINUOUS
100
AcDbCircle
 10
16.18455432657926
 20
20.13034639026555
 30
0.0
 40
0.075
100
AcDbArc
 50
90.0
 51
270.0
  0
ARC
  5
D8BB
330
1F
100
AcDbEntity
  8
0
  6
CONTINUOUS
100
AcDbCircle
 10
16.30455432657926
 20
22.84893139026556
 30
0.0
 40
0.075
100
AcDbArc
 50
90.0
 51
270.0
  0
ARC
  5
D8BC
330
1F
100
AcDbEntity
  8
0
  6
CONTINUOUS
100
AcDbCircle
 10
16.48955432657926
 20
22.84893139026556
 30
0.0
 40
0.075
100
AcDbArc
 50
270.0
 51
90.0
  0
CIRCLE
  5
D8BD
330
1F
100
AcDbEntity
  8
0
  6
CONTINUOUS
100
AcDbCircle
 10
16.70955432657927
 20
20.53034639026556
 30
0.0
 40
0.07
  0
CIRCLE
  5
D8BE
330
1F
100
AcDbEntity
  8
0
  6
CONTINUOUS
100
AcDbCircle
 10
16.70955432657927
 20
19.73034639026555
 30
0.0
 40
0.07
  0
ARC
  5
D8BF
330
1F
100
AcDbEntity
  8
0
  6
CONTINUOUS
100
AcDbCircle
 10
17.59173416377926
 20
20.91159639026555
 30
0.0
 40
0.06725
100
AcDbArc
 50
270.0
 51
329.9999999999989
  0
ARC
  5
D8C0
330
1F
100
AcDbEntity
  8
0
  6
CONTINUOUS
100
AcDbCircle
 10
17.87255432657926
 20
21.33863139026555
 30
0.0
 40
0.052
100
AcDbArc
 50
0.0
 51
90.0
  0
ARC
  5
D8C1
330
1F
100
AcDbEntity
  8
0
  6
CONTINUOUS
100
AcDbCircle
 10
17.87255432657926
 20
21.12863139026555
 30
0.0
 40
0.052
100
AcDbArc
 50
270.0
 51
0.0
  0
ARC
  5
D8C2
330
1F
100
AcDbEntity
  8
0
  6
CONTINUOUS
100
AcDbCircle
 10
17.69955432657926
 20
20.87784639026555
 30
0.0
 40
0.043
100
AcDbArc
 50
90.0
 51
149.9999999999948
  0
ARC
  5
D8C3
330
1F
100
AcDbEntity
  8
0
  6
CONTINUOUS
100
AcDbCircle
 10
17.75855432657927
 20
20.99684639026555
 30
0.0
 40
0.04
100
AcDbArc
 50
270.0
 51
304.358491781997
  0
ARC
  5
D8C4
330
1F
100
AcDbEntity
  8
0
  6
CONTINUOUS
100
AcDbCircle
 10
17.59173416377926
 20
20.91159639026555
 30
0.0
 40
0.03125
100
AcDbArc
 50
270.0
 51
329.9999999999995
  0
ARC
  5
D8C5
330
1F
100
AcDbEntity
  8
0
  6
CONTINUOUS
100
AcDbCircle
 10
17.80330432657927
 20
20.78909639026556
 30
0.0
 40
0.03125
100
AcDbArc
 50
0.0
 51
90.0
  0
ARC
  5
D8C6
330
1F
100
AcDbEntity
  8
0
  6
CONTINUOUS
100
AcDbCircle
 10
17.80330432657927
 20
26.15876639026555
 30
0.0
 40
0.09125
100
AcDbArc
 50
270.0
 51
0.0
  0
ARC
  5
D8C7
330
1F
100
AcDbEntity
  8
0
  6
CONTINUOUS
100
AcDbCircle
 10
17.69955432657926
 20
26.07001639026555
 30
0.0
 40
0.079
100
AcDbArc
 50
210.0
 51
270.0
  0
ARC
  5
D8C8
330
1F
100
AcDbEntity
  8
0
  6
CONTINUOUS
100
AcDbCircle
 10
17.75855432657927
 20
25.95101639026555
 30
0.0
 40
0.076
100
AcDbArc
 50
0.0
 51
90.0
  0
ARC
  5
D8C9
330
1F
100
AcDbEntity
  8
0
  6
CONTINUOUS
100
AcDbCircle
 10
16.63455432657926
 20
26.81751639026555
 30
0.0
 40
0.075
100
AcDbArc
 50
270.0
 51
90.0
  0
ARC
  5
D8CA
330
1F
100
AcDbEntity
  8
0
  6
CONTINUOUS
100
AcDbCircle
 10
16.18455432657926
 20
26.81751639026555
 30
0.0
 40
0.075
100
AcDbArc
 50
90.0
 51
270.0
  0
ARC
  5
D8CB
330
1F
100
AcDbEntity
  8
0
  6
CONTINUOUS
100
AcDbCircle
 10
16.30455432657926
 20
24.09893139026556
 30
0.0
 40
0.075
100
AcDbArc
 50
90.0
 51
270.0
  0
ARC
  5
D8CC
330
1F
100
AcDbEntity
  8
0
  6
CONTINUOUS
100
AcDbCircle
 10
16.48955432657926
 20
24.09893139026556
 30
0.0
 40
0.075
100
AcDbArc
 50
270.0
 51
90.0
  0
CIRCLE
  5
D8CD
330
1F
100
AcDbEntity
  8
0
  6
CONTINUOUS
100
AcDbCircle
 10
16.70955432657927
 20
26.41751639026555
 30
0.0
 40
0.07
  0
CIRCLE
  5
D8CE
330
1F
100
AcDbEntity
  8
0
  6
CONTINUOUS
100
AcDbCircle
 10
16.70955432657927
 20
27.21751639026555
 30
0.0
 40
0.07
  0
ARC
  5
D8CF
330
1F
100
AcDbEntity
  8
0
  6
CONTINUOUS
100
AcDbCircle
 10
17.59173416377926
 20
26.03626639026555
 30
0.0
 40
0.06725
100
AcDbArc
 50
30.00000000000107
 51
90.0
  0
ARC
  5
D8D0
330
1F
100
AcDbEntity
  8
0
  6
CONTINUOUS
100
AcDbCircle
 10
17.87255432657926
 20
25.81923139026556
 30
0.0
 40
0.052
100
AcDbArc
 50
0.0
 51
90.0
  0
ARC
  5
D8D1
330
1F
100
AcDbEntity
  8
0
  6
CONTINUOUS
100
AcDbCircle
 10
17.87255432657926
 20
25.60923139026556
 30
0.0
 40
0.052
100
AcDbArc
 50
270.0
 51
0.0
  0
ARC
  5
D8D2
330
1F
100
AcDbEntity
  8
0
  6
CONTINUOUS
100
AcDbCircle
 10
17.69955432657926
 20
26.07001639026555
 30
0.0
 40
0.043
100
AcDbArc
 50
209.9999999999987
 51
270.0
  0
ARC
  5
D8D3
330
1F
100
AcDbEntity
  8
0
  6
CONTINUOUS
100
AcDbCircle
 10
17.75855432657927
 20
25.95101639026555
 30
0.0
 40
0.04
100
AcDbArc
 50
55.64150821800305
 51
90.0
  0
ARC
  5
D8D4
330
1F
100
AcDbEntity
  8
0
  6
CONTINUOUS
100
AcDbCircle
 10
17.59173416377926
 20
26.03626639026555
 30
0.0
 40
0.03125
100
AcDbArc
 50
30.00000000000054
 51
90.0
  0
ARC
  5
D8D5
330
1F
100
AcDbEntity
  8
0
  6
CONTINUOUS
100
AcDbCircle
 10
17.80330432657927
 20
26.15876639026555
 30
0.0
 40
0.03125
100
AcDbArc
 50
270.0
 51
0.0
  0
ARC
  5
D8D6
330
1F
100
AcDbEntity
  8
0
  6
CONTINUOUS
100
AcDbCircle
 10
24.53001547937927
 20
31.66529529186555
 30
0.0
 40
0.076
100
AcDbArc
 50
180.0
 51
270.0
  0
ARC
  5
D8D7
330
1F
100
AcDbEntity
  8
0
  6
CONTINUOUS
100
AcDbCircle
 10
25.35896047937926
 20
31.55129529186556
 30
0.0
 40
0.052
100
AcDbArc
 50
180.0
 51
270.0
  0
ARC
  5
D8D8
330
1F
100
AcDbEntity
  8
0
  6
CONTINUOUS
100
AcDbCircle
 10
25.56896047937926
 20
31.55129529186556
 30
0.0
 40
0.052
100
AcDbArc
 50
270.0
 51
334.7841511960989
  0
ARC
  5
D8D9
330
1F
100
AcDbEntity
  8
0
  6
CONTINUOUS
100
AcDbCircle
 10
24.53001547937927
 20
31.66529529186555
 30
0.0
 40
0.04
100
AcDbArc
 50
180.0
 51
214.358491782004
  0
ARC
  5
D8DA
330
1F
100
AcDbEntity
  8
0
  6
CONTINUOUS
100
AcDbCircle
 10
26.24387047937926
 20
32.82429529186555
 30
0.0
 40
0.425
100
AcDbArc
 50
354.6795490010003
 51
356.6277133165999
  0
ARC
  5
D8DB
330
1F
100
AcDbEntity
  8
0
  6
CONTINUOUS
100
AcDbCircle
 10
26.24387047937926
 20
32.82429529186555
 30
0.0
 40
0.425
100
AcDbArc
 50
275.7694379738998
 51
303.3183512756002
  0
ARC
  5
D8DC
330
1F
100
AcDbEntity
  8
0
  6
CONTINUOUS
100
AcDbCircle
 10
26.24387047937926
 20
32.82429529186555
 30
0.0
 40
0.425
100
AcDbArc
 50
56.68164872439981
 51
84.23056202610017
  0
ARC
  5
D8DD
330
1F
100
AcDbEntity
  8
0
  6
CONTINUOUS
100
AcDbCircle
 10
26.24387047937926
 20
32.82429529186555
 30
0.0
 40
0.425
100
AcDbArc
 50
3.372286683400132
 51
5.320450998999692
  0
ARC
  5
D8DE
330
1F
100
AcDbEntity
  8
0
  6
CONTINUOUS
100
AcDbCircle
 10
26.33010669997926
 20
32.82429529186555
 30
0.0
 40
0.425
100
AcDbArc
 50
67.9808844947
 51
292.0191155053
  0
ARC
  5
D8DF
330
1F
100
AcDbEntity
  8
0
  6
CONTINUOUS
100
AcDbCircle
 10
26.99939769997926
 20
32.82429529186555
 30
0.0
 40
0.394
100
AcDbArc
 50
270.0
 51
90.0
  0
ARC
  5
D8E0
330
1F
100
AcDbEntity
  8
0
  6
CONTINUOUS
100
AcDbCircle
 10
26.24387047937926
 20
32.82429529186555
 30
0.0
 40
0.385
100
AcDbArc
 50
354.1251780818001
 51
356.2768752393
  0
ARC
  5
D8E1
330
1F
100
AcDbEntity
  8
0
  6
CONTINUOUS
100
AcDbCircle
 10
26.24387047937926
 20
32.82429529186555
 30
0.0
 40
0.385
100
AcDbArc
 50
247.3422042153999
 51
277.0218133661999
  0
ARC
  5
D8E2
330
1F
100
AcDbEntity
  8
0
  6
CONTINUOUS
100
AcDbCircle
 10
26.24387047937926
 20
32.82429529186555
 30
0.0
 40
0.385
100
AcDbArc
 50
82.97818663380014
 51
112.6577957846
  0
ARC
  5
D8E3
330
1F
100
AcDbEntity
  8
0
  6
CONTINUOUS
100
AcDbCircle
 10
26.24387047937926
 20
32.82429529186555
 30
0.0
 40
0.385
100
AcDbArc
 50
3.723124760700031
 51
5.874821918199872
  0
ARC
  5
D8E4
330
1F
100
AcDbEntity
  8
0
  6
CONTINUOUS
100
AcDbCircle
 10
26.33010669997926
 20
32.82429529186555
 30
0.0
 40
0.385
100
AcDbArc
 50
183.7231247607
 51
293.149744798
  0
ARC
  5
D8E5
330
1F
100
AcDbEntity
  8
0
  6
CONTINUOUS
100
AcDbCircle
 10
26.33010669997926
 20
32.82429529186555
 30
0.0
 40
0.385
100
AcDbArc
 50
66.85025520199996
 51
176.2768752393
  0
ARC
  5
D8E6
330
1F
100
AcDbEntity
  8
0
  6
CONTINUOUS
100
AcDbCircle
 10
26.99939769997926
 20
32.82429529186555
 30
0.0
 40
0.354
100
AcDbArc
 50
270.0
 51
355.9503168923998
  0
ARC
  5
D8E7
330
1F
100
AcDbEntity
  8
0
  6
CONTINUOUS
100
AcDbCircle
 10
26.99939769997926
 20
32.82429529186555
 30
0.0
 40
0.354
100
AcDbArc
 50
4.049683107600135
 51
90.0
  0
ARC
  5
D8E8
330
1F
100
AcDbEntity
  8
0
  6
CONTINUOUS
100
AcDbCircle
 10
26.46887047937926
 20
32.82429529186555
 30
0.0
 40
0.039
100
AcDbArc
 50
270.0
 51
90.0
  0
ARC
  5
D8E9
330
1F
100
AcDbEntity
  8
0
  6
CONTINUOUS
100
AcDbCircle
 10
26.93825219997926
 20
32.82429529186555
 30
0.0
 40
0.039
100
AcDbArc
 50
270.0
 51
90.0
  0
ARC
  5
D8EA
330
1F
100
AcDbEntity
  8
0
  6
CONTINUOUS
100
AcDbCircle
 10
26.39125219997926
 20
32.82429529186555
 30
0.0
 40
0.039
100
AcDbArc
 50
90.0
 51
270.0
  0
ARC
  5
D8EB
330
1F
100
AcDbEntity
  8
0
  6
CONTINUOUS
100
AcDbCircle
 10
24.50201547937926
 20
34.93551529186555
 30
0.0
 40
0.123
100
AcDbArc
 50
90.0
 51
180.0
  0
CIRCLE
  5
D8EC
330
1F
100
AcDbEntity
  8
0
  6
CONTINUOUS
100
AcDbCircle
 10
25.21987047937926
 20
34.45851529186555
 30
0.0
 40
0.075
  0
ARC
  5
D8ED
330
1F
100
AcDbEntity
  8
0
  6
CONTINUOUS
100
AcDbCircle
 10
25.46987047937926
 20
34.32351529186555
 30
0.0
 40
0.075
100
AcDbArc
 50
0.0
 51
180.0
  0
ARC
  5
D8EE
330
1F
100
AcDbEntity
  8
0
  6
CONTINUOUS
100
AcDbCircle
 10
25.46987047937926
 20
34.13851529186555
 30
0.0
 40
0.075
100
AcDbArc
 50
180.0
 51
0.0
  0
ARC
  5
D8EF
330
1F
100
AcDbEntity
  8
0
  6
CONTINUOUS
100
AcDbCircle
 10
24.50201547937926
 20
34.93551529186555
 30
0.0
 40
0.063
100
AcDbArc
 50
146.7034182413995
 51
180.0
  0
ARC
  5
D8F0
330
1F
100
AcDbEntity
  8
0
  6
CONTINUOUS
100
AcDbCircle
 10
30.87078047937926
 20
31.55129529186556
 30
0.0
 40
0.052
100
AcDbArc
 50
205.2158488039011
 51
270.0
  0
ARC
  5
D8F1
330
1F
100
AcDbEntity
  8
0
  6
CONTINUOUS
100
AcDbCircle
 10
30.10963425897926
 20
32.82429529186555
 30
0.0
 40
0.425
100
AcDbArc
 50
56.52566117479994
 51
84.1050182044002
  0
ARC
  5
D8F2
330
1F
100
AcDbEntity
  8
0
  6
CONTINUOUS
100
AcDbCircle
 10
30.10963425897926
 20
32.82429529186555
 30
0.0
 40
0.425
100
AcDbArc
 50
275.8949817955998
 51
303.4743388252
  0
CIRCLE
  5
D8F3
330
1F
100
AcDbEntity
  8
0
  6
CONTINUOUS
100
AcDbCircle
 10
30.19587047937926
 20
32.82429529186555
 30
0.0
 40
0.425
  0
ARC
  5
D8F4
330
1F
100
AcDbEntity
  8
0
  6
CONTINUOUS
100
AcDbCircle
 10
30.10963425897926
 20
32.82429529186555
 30
0.0
 40
0.385
100
AcDbArc
 50
84.13723094890052
 51
112.4418672243008
  0
ARC
  5
D8F5
330
1F
100
AcDbEntity
  8
0
  6
CONTINUOUS
100
AcDbCircle
 10
30.10963425897926
 20
32.82429529186555
 30
0.0
 40
0.385
100
AcDbArc
 50
247.5581327756992
 51
275.8627690510995
  0
ARC
  5
D8F6
330
1F
100
AcDbEntity
  8
0
  6
CONTINUOUS
100
AcDbCircle
 10
30.19587047937926
 20
32.82429529186555
 30
0.0
 40
0.385
100
AcDbArc
 50
3.723124760700031
 51
176.2768752393
  0
ARC
  5
D8F7
330
1F
100
AcDbEntity
  8
0
  6
CONTINUOUS
100
AcDbCircle
 10
30.19587047937926
 20
32.82429529186555
 30
0.0
 40
0.385
100
AcDbArc
 50
183.7231247607
 51
356.2768752393
  0
ARC
  5
D8F8
330
1F
100
AcDbEntity
  8
0
  6
CONTINUOUS
100
AcDbCircle
 10
30.04848875897926
 20
32.82429529186555
 30
0.0
 40
0.039
100
AcDbArc
 50
270.0
 51
90.0
  0
ARC
  5
D8F9
330
1F
100
AcDbEntity
  8
0
  6
CONTINUOUS
100
AcDbCircle
 10
30.38187047937926
 20
32.82429529186555
 30
0.0
 40
0.039
100
AcDbArc
 50
270.0
 51
90.0
  0
ARC
  5
D8FA
330
1F
100
AcDbEntity
  8
0
  6
CONTINUOUS
100
AcDbCircle
 10
30.00987047937926
 20
32.82429529186555
 30
0.0
 40
0.039
100
AcDbArc
 50
90.0
 51
270.0
  0
ARC
  5
D8FB
330
1F
100
AcDbEntity
  8
0
  6
CONTINUOUS
100
AcDbCircle
 10
31.90972547937926
 20
31.66529529186555
 30
0.0
 40
0.076
100
AcDbArc
 50
270.0
 51
0.0
  0
ARC
  5
D8FC
330
1F
100
AcDbEntity
  8
0
  6
CONTINUOUS
100
AcDbCircle
 10
31.08078047937926
 20
31.55129529186556
 30
0.0
 40
0.052
100
AcDbArc
 50
270.0
 51
0.0
  0
ARC
  5
D8FD
330
1F
100
AcDbEntity
  8
0
  6
CONTINUOUS
100
AcDbCircle
 10
31.90972547937926
 20
31.66529529186555
 30
0.0
 40
0.04
100
AcDbArc
 50
325.641508217996
 51
0.0
  0
ARC
  5
D8FE
330
1F
100
AcDbEntity
  8
0
  6
CONTINUOUS
100
AcDbCircle
 10
31.93772547937926
 20
34.93551529186555
 30
0.0
 40
0.123
100
AcDbArc
 50
0.0
 51
90.0
  0
CIRCLE
  5
D8FF
330
1F
100
AcDbEntity
  8
0
  6
CONTINUOUS
100
AcDbCircle
 10
31.21987047937926
 20
34.45851529186555
 30
0.0
 40
0.075
  0
ARC
  5
D900
330
1F
100
AcDbEntity
  8
0
  6
CONTINUOUS
100
AcDbCircle
 10
30.96987047937926
 20
34.32351529186555
 30
0.0
 40
0.075
100
AcDbArc
 50
0.0
 51
180.0
  0
ARC
  5
D901
330
1F
100
AcDbEntity
  8
0
  6
CONTINUOUS
100
AcDbCircle
 10
30.96987047937926
 20
34.13851529186555
 30
0.0
 40
0.075
100
AcDbArc
 50
180.0
 51
0.0
  0
ARC
  5
D902
330
1F
100
AcDbEntity
  8
0
  6
CONTINUOUS
100
AcDbCircle
 10
31.93772547937926
 20
34.93551529186555
 30
0.0
 40
0.063
100
AcDbArc
 50
0.0
 51
33.29658175860049
  0
ARC
  5
D903
330
1F
100
AcDbEntity
  8
0
  6
CONTINUOUS
100
AcDbCircle
 10
24.50201547937926
 20
10.83823425506555
 30
0.0
 40
0.123
100
AcDbArc
 50
180.0
 51
270.0
  0
CIRCLE
  5
D904
330
1F
100
AcDbEntity
  8
0
  6
CONTINUOUS
100
AcDbCircle
 10
25.21987047937926
 20
11.31523425506555
 30
0.0
 40
0.075
  0
ARC
  5
D905
330
1F
100
AcDbEntity
  8
0
  6
CONTINUOUS
100
AcDbCircle
 10
25.46987047937926
 20
11.63523425506555
 30
0.0
 40
0.075
100
AcDbArc
 50
0.0
 51
180.0
  0
ARC
  5
D906
330
1F
100
AcDbEntity
  8
0
  6
CONTINUOUS
100
AcDbCircle
 10
25.46987047937926
 20
11.45023425506555
 30
0.0
 40
0.075
100
AcDbArc
 50
180.0
 51
0.0
  0
ARC
  5
D907
330
1F
100
AcDbEntity
  8
0
  6
CONTINUOUS
100
AcDbCircle
 10
24.50201547937926
 20
10.83823425506555
 30
0.0
 40
0.063
100
AcDbArc
 50
180.0
 51
213.2965817586018
  0
ARC
  5
D908
330
1F
100
AcDbEntity
  8
0
  6
CONTINUOUS
100
AcDbCircle
 10
24.53001547937927
 20
14.10845425506555
 30
0.0
 40
0.076
100
AcDbArc
 50
90.0
 51
180.0
  0
ARC
  5
D909
330
1F
100
AcDbEntity
  8
0
  6
CONTINUOUS
100
AcDbCircle
 10
25.35896047937926
 20
14.22245425506555
 30
0.0
 40
0.052
100
AcDbArc
 50
90.0
 51
180.0
  0
ARC
  5
D90A
330
1F
100
AcDbEntity
  8
0
  6
CONTINUOUS
100
AcDbCircle
 10
24.53001547937927
 20
14.10845425506555
 30
0.0
 40
0.04
100
AcDbArc
 50
145.6415082180031
 51
180.0
  0
ARC
  5
D90B
330
1F
100
AcDbEntity
  8
0
  6
CONTINUOUS
100
AcDbCircle
 10
26.33010669997926
 20
12.94945425506555
 30
0.0
 40
0.425
100
AcDbArc
 50
95.89498179559982
 51
123.4743388252
  0
ARC
  5
D90C
330
1F
100
AcDbEntity
  8
0
  6
CONTINUOUS
100
AcDbCircle
 10
26.33010669997926
 20
12.94945425506555
 30
0.0
 40
0.425
100
AcDbArc
 50
236.5256611748
 51
264.1050182044002
  0
CIRCLE
  5
D90D
330
1F
100
AcDbEntity
  8
0
  6
CONTINUOUS
100
AcDbCircle
 10
26.24387047937926
 20
12.94945425506555
 30
0.0
 40
0.425
  0
ARC
  5
D90E
330
1F
100
AcDbEntity
  8
0
  6
CONTINUOUS
100
AcDbCircle
 10
26.33010669997926
 20
12.94945425506555
 30
0.0
 40
0.385
100
AcDbArc
 50
67.55813277579989
 51
95.86276905109948
  0
ARC
  5
D90F
330
1F
100
AcDbEntity
  8
0
  6
CONTINUOUS
100
AcDbCircle
 10
26.33010669997926
 20
12.94945425506555
 30
0.0
 40
0.385
100
AcDbArc
 50
264.1372309489005
 51
292.4418672242001
  0
ARC
  5
D910
330
1F
100
AcDbEntity
  8
0
  6
CONTINUOUS
100
AcDbCircle
 10
26.24387047937926
 20
12.94945425506555
 30
0.0
 40
0.385
100
AcDbArc
 50
3.723124760700031
 51
176.2768752393
  0
ARC
  5
D911
330
1F
100
AcDbEntity
  8
0
  6
CONTINUOUS
100
AcDbCircle
 10
26.24387047937926
 20
12.94945425506555
 30
0.0
 40
0.385
100
AcDbArc
 50
183.7231247607
 51
356.2768752393
  0
ARC
  5
D912
330
1F
100
AcDbEntity
  8
0
  6
CONTINUOUS
100
AcDbCircle
 10
26.39125219997926
 20
12.94945425506555
 30
0.0
 40
0.039
100
AcDbArc
 50
90.0
 51
270.0
  0
ARC
  5
D913
330
1F
100
AcDbEntity
  8
0
  6
CONTINUOUS
100
AcDbCircle
 10
26.01887047937926
 20
12.94945425506555
 30
0.0
 40
0.039
100
AcDbArc
 50
90.0
 51
270.0
  0
ARC
  5
D914
330
1F
100
AcDbEntity
  8
0
  6
CONTINUOUS
100
AcDbCircle
 10
26.46887047937926
 20
12.94945425506555
 30
0.0
 40
0.039
100
AcDbArc
 50
270.0
 51
90.0
  0
ARC
  5
D915
330
1F
100
AcDbEntity
  8
0
  6
CONTINUOUS
100
AcDbCircle
 10
25.56896047937926
 20
14.22245425506555
 30
0.0
 40
0.052
100
AcDbArc
 50
25.21584880390111
 51
90.0
  0
ARC
  5
D916
330
1F
100
AcDbEntity
  8
0
  6
CONTINUOUS
100
AcDbCircle
 10
31.93772547937926
 20
10.83823425506555
 30
0.0
 40
0.123
100
AcDbArc
 50
270.0
 51
0.0
  0
CIRCLE
  5
D917
330
1F
100
AcDbEntity
  8
0
  6
CONTINUOUS
100
AcDbCircle
 10
31.21987047937926
 20
11.31523425506555
 30
0.0
 40
0.075
  0
ARC
  5
D918
330
1F
100
AcDbEntity
  8
0
  6
CONTINUOUS
100
AcDbCircle
 10
30.96987047937926
 20
11.45023425506555
 30
0.0
 40
0.075
100
AcDbArc
 50
180.0
 51
0.0
  0
ARC
  5
D919
330
1F
100
AcDbEntity
  8
0
  6
CONTINUOUS
100
AcDbCircle
 10
30.96987047937926
 20
11.63523425506555
 30
0.0
 40
0.075
100
AcDbArc
 50
0.0
 51
180.0
  0
ARC
  5
D91A
330
1F
100
AcDbEntity
  8
0
  6
CONTINUOUS
100
AcDbCircle
 10
31.93772547937926
 20
10.83823425506555
 30
0.0
 40
0.063
100
AcDbArc
 50
326.7034182413981
 51
0.0
  0
ARC
  5
D91B
330
1F
100
AcDbEntity
  8
0
  6
CONTINUOUS
100
AcDbCircle
 10
30.19587047937926
 20
12.94945425506555
 30
0.0
 40
0.425
100
AcDbArc
 50
236.6816487243998
 51
264.2305620261001
  0
ARC
  5
D91C
330
1F
100
AcDbEntity
  8
0
  6
CONTINUOUS
100
AcDbCircle
 10
30.19587047937926
 20
12.94945425506555
 30
0.0
 40
0.425
100
AcDbArc
 50
183.3722866834001
 51
185.3204509989999
  0
ARC
  5
D91D
330
1F
100
AcDbEntity
  8
0
  6
CONTINUOUS
100
AcDbCircle
 10
30.19587047937926
 20
12.94945425506555
 30
0.0
 40
0.425
100
AcDbArc
 50
174.6795490010001
 51
176.6277133165999
  0
ARC
  5
D91E
330
1F
100
AcDbEntity
  8
0
  6
CONTINUOUS
100
AcDbCircle
 10
30.19587047937926
 20
12.94945425506555
 30
0.0
 40
0.425
100
AcDbArc
 50
95.76943797389985
 51
123.3183512756002
  0
ARC
  5
D91F
330
1F
100
AcDbEntity
  8
0
  6
CONTINUOUS
100
AcDbCircle
 10
30.10963425897926
 20
12.94945425506555
 30
0.0
 40
0.425
100
AcDbArc
 50
247.9808844946998
 51
112.0191155053002
  0
ARC
  5
D920
330
1F
100
AcDbEntity
  8
0
  6
CONTINUOUS
100
AcDbCircle
 10
29.44034325897926
 20
12.94945425506555
 30
0.0
 40
0.394
100
AcDbArc
 50
90.0
 51
270.0
  0
ARC
  5
D921
330
1F
100
AcDbEntity
  8
0
  6
CONTINUOUS
100
AcDbCircle
 10
30.19587047937926
 20
12.94945425506555
 30
0.0
 40
0.385
100
AcDbArc
 50
262.9781866338001
 51
292.6577957846004
  0
ARC
  5
D922
330
1F
100
AcDbEntity
  8
0
  6
CONTINUOUS
100
AcDbCircle
 10
30.19587047937926
 20
12.94945425506555
 30
0.0
 40
0.385
100
AcDbArc
 50
183.7231247607
 51
185.8748219181999
  0
ARC
  5
D923
330
1F
100
AcDbEntity
  8
0
  6
CONTINUOUS
100
AcDbCircle
 10
30.19587047937926
 20
12.94945425506555
 30
0.0
 40
0.385
100
AcDbArc
 50
174.1251780818001
 51
176.2768752393
  0
ARC
  5
D924
330
1F
100
AcDbEntity
  8
0
  6
CONTINUOUS
100
AcDbCircle
 10
30.19587047937926
 20
12.94945425506555
 30
0.0
 40
0.385
100
AcDbArc
 50
67.34220421539958
 51
97.02181336619991
  0
ARC
  5
D925
330
1F
100
AcDbEntity
  8
0
  6
CONTINUOUS
100
AcDbCircle
 10
30.10963425897926
 20
12.94945425506555
 30
0.0
 40
0.385
100
AcDbArc
 50
246.8502552019999
 51
356.2768752393
  0
ARC
  5
D926
330
1F
100
AcDbEntity
  8
0
  6
CONTINUOUS
100
AcDbCircle
 10
30.10963425897926
 20
12.94945425506555
 30
0.0
 40
0.385
100
AcDbArc
 50
3.723124760700031
 51
113.1497447980001
  0
ARC
  5
D927
330
1F
100
AcDbEntity
  8
0
  6
CONTINUOUS
100
AcDbCircle
 10
29.44034325897926
 20
12.94945425506555
 30
0.0
 40
0.354
100
AcDbArc
 50
184.0496831076001
 51
270.0
  0
ARC
  5
D928
330
1F
100
AcDbEntity
  8
0
  6
CONTINUOUS
100
AcDbCircle
 10
29.44034325897926
 20
12.94945425506555
 30
0.0
 40
0.354
100
AcDbArc
 50
90.0
 51
175.9503168923999
  0
ARC
  5
D929
330
1F
100
AcDbEntity
  8
0
  6
CONTINUOUS
100
AcDbCircle
 10
30.00987047937926
 20
12.94945425506555
 30
0.0
 40
0.039
100
AcDbArc
 50
90.0
 51
270.0
  0
ARC
  5
D92A
330
1F
100
AcDbEntity
  8
0
  6
CONTINUOUS
100
AcDbCircle
 10
29.50148875897926
 20
12.94945425506555
 30
0.0
 40
0.039
100
AcDbArc
 50
90.0
 51
270.0
  0
ARC
  5
D92B
330
1F
100
AcDbEntity
  8
0
  6
CONTINUOUS
100
AcDbCircle
 10
30.04848875897926
 20
12.94945425506555
 30
0.0
 40
0.039
100
AcDbArc
 50
270.0
 51
90.0
  0
ARC
  5
D92C
330
1F
100
AcDbEntity
  8
0
  6
CONTINUOUS
100
AcDbCircle
 10
31.90972547937926
 20
14.10845425506555
 30
0.0
 40
0.076
100
AcDbArc
 50
0.0
 51
90.0
  0
ARC
  5
D92D
330
1F
100
AcDbEntity
  8
0
  6
CONTINUOUS
100
AcDbCircle
 10
30.87078047937926
 20
14.22245425506555
 30
0.0
 40
0.052
100
AcDbArc
 50
90.0
 51
154.7841511960989
  0
ARC
  5
D92E
330
1F
100
AcDbEntity
  8
0
  6
CONTINUOUS
100
AcDbCircle
 10
31.08078047937926
 20
14.22245425506555
 30
0.0
 40
0.052
100
AcDbArc
 50
0.0
 51
90.0
  0
ARC
  5
D92F
330
1F
100
AcDbEntity
  8
0
  6
CONTINUOUS
100
AcDbCircle
 10
31.90972547937926
 20
14.10845425506555
 30
0.0
 40
0.04
100
AcDbArc
 50
0.0
 51
34.35849178200192
  0
ARC
  5
D930
330
1F
100
AcDbEntity
  8
0
  6
CONTINUOUS
100
AcDbCircle
 10
47.90600592957927
 20
20.84679795906555
 30
0.0
 40
0.123
100
AcDbArc
 50
180.0
 51
270.0
  0
ARC
  5
D931
330
1F
100
AcDbEntity
  8
0
  6
CONTINUOUS
100
AcDbCircle
 10
48.41956693557925
 20
21.46738295906555
 30
0.0
 40
0.095
100
AcDbArc
 50
119.9999999999995
 51
299.9999999999995
  0
ARC
  5
D932
330
1F
100
AcDbEntity
  8
0
  6
CONTINUOUS
100
AcDbCircle
 10
49.02578471817927
 20
21.81738295906555
 30
0.0
 40
0.095
100
AcDbArc
 50
299.9999999999995
 51
119.9999999999995
  0
ARC
  5
D933
330
1F
100
AcDbEntity
  8
0
  6
CONTINUOUS
100
AcDbCircle
 10
47.90600592957927
 20
20.84679795906555
 30
0.0
 40
0.063
100
AcDbArc
 50
180.0
 51
270.0
  0
CIRCLE
  5
D934
330
1F
100
AcDbEntity
  8
0
  6
CONTINUOUS
100
AcDbCircle
 10
48.86795541777926
 20
25.55767823466555
 30
0.0
 40
0.1405
  0
CIRCLE
  5
D935
330
1F
100
AcDbEntity
  8
0
  6
CONTINUOUS
100
AcDbCircle
 10
48.86795541777926
 20
25.55767823466555
 30
0.0
 40
0.14
  0
CIRCLE
  5
D936
330
1F
100
AcDbEntity
  8
0
  6
CONTINUOUS
100
AcDbCircle
 10
48.86795541777926
 20
25.55767823466555
 30
0.0
 40
0.135
  0
ARC
  5
D937
330
1F
100
AcDbEntity
  8
0
  6
CONTINUOUS
100
AcDbCircle
 10
47.90600592957927
 20
25.78796795906555
 30
0.0
 40
0.123
100
AcDbArc
 50
90.0
 51
180.0
  0
ARC
  5
D938
330
1F
100
AcDbEntity
  8
0
  6
CONTINUOUS
100
AcDbCircle
 10
48.41956693557925
 20
25.16738295906556
 30
0.0
 40
0.095
100
AcDbArc
 50
60.0000000000005
 51
240.0000000000004
  0
ARC
  5
D939
330
1F
100
AcDbEntity
  8
0
  6
CONTINUOUS
100
AcDbCircle
 10
49.02578471817927
 20
24.81738295906555
 30
0.0
 40
0.095
100
AcDbArc
 50
240.0000000000004
 51
60.0000000000005
  0
CIRCLE
  5
D93A
330
1F
100
AcDbEntity
  8
0
  6
CONTINUOUS
100
AcDbCircle
 10
48.86795541777926
 20
25.55767823466555
 30
0.0
 40
0.094
  0
CIRCLE
  5
D93B
330
1F
100
AcDbEntity
  8
0
  6
CONTINUOUS
100
AcDbCircle
 10
48.86795541777926
 20
25.55767823466555
 30
0.0
 40
0.082
  0
ARC
  5
D93C
330
1F
100
AcDbEntity
  8
0
  6
CONTINUOUS
100
AcDbCircle
 10
47.90600592957927
 20
25.78796795906555
 30
0.0
 40
0.063
100
AcDbArc
 50
90.0
 51
180.0
  0
CIRCLE
  5
D93D
330
1F
100
AcDbEntity
  8
0
  6
CONTINUOUS
100
AcDbCircle
 10
54.37976644137926
 20
21.07708768346556
 30
0.0
 40
0.1405
  0
CIRCLE
  5
D93E
330
1F
100
AcDbEntity
  8
0
  6
CONTINUOUS
100
AcDbCircle
 10
54.37976644137926
 20
21.07708768346556
 30
0.0
 40
0.14
  0
CIRCLE
  5
D93F
330
1F
100
AcDbEntity
  8
0
  6
CONTINUOUS
100
AcDbCircle
 10
54.37976644137926
 20
21.07708768346556
 30
0.0
 40
0.135
  0
ARC
  5
D940
330
1F
100
AcDbEntity
  8
0
  6
CONTINUOUS
100
AcDbCircle
 10
55.34171592957927
 20
20.84679795906555
 30
0.0
 40
0.123
100
AcDbArc
 50
270.0
 51
0.0
  0
ARC
  5
D941
330
1F
100
AcDbEntity
  8
0
  6
CONTINUOUS
100
AcDbCircle
 10
54.82815492357926
 20
21.46738295906555
 30
0.0
 40
0.095
100
AcDbArc
 50
240.0000000000004
 51
60.0000000000005
  0
ARC
  5
D942
330
1F
100
AcDbEntity
  8
0
  6
CONTINUOUS
100
AcDbCircle
 10
54.22193714097926
 20
21.81738295906555
 30
0.0
 40
0.095
100
AcDbArc
 50
60.0000000000005
 51
240.0000000000004
  0
CIRCLE
  5
D943
330
1F
100
AcDbEntity
  8
0
  6
CONTINUOUS
100
AcDbCircle
 10
54.37976644137926
 20
21.07708768346556
 30
0.0
 40
0.094
  0
CIRCLE
  5
D944
330
1F
100
AcDbEntity
  8
0
  6
CONTINUOUS
100
AcDbCircle
 10
54.37976644137926
 20
21.07708768346556
 30
0.0
 40
0.082
  0
ARC
  5
D945
330
1F
100
AcDbEntity
  8
0
  6
CONTINUOUS
100
AcDbCircle
 10
55.34171592957927
 20
20.84679795906555
 30
0.0
 40
0.063
100
AcDbArc
 50
270.0
 51
0.0
  0
ARC
  5
D946
330
1F
100
AcDbEntity
  8
0
  6
CONTINUOUS
100
AcDbCircle
 10
55.34171592957927
 20
25.78796795906555
 30
0.0
 40
0.123
100
AcDbArc
 50
0.0
 51
90.0
  0
ARC
  5
D947
330
1F
100
AcDbEntity
  8
0
  6
CONTINUOUS
100
AcDbCircle
 10
54.82815492357926
 20
25.16738295906556
 30
0.0
 40
0.095
100
AcDbArc
 50
299.9999999999995
 51
119.9999999999995
  0
ARC
  5
D948
330
1F
100
AcDbEntity
  8
0
  6
CONTINUOUS
100
AcDbCircle
 10
54.22193714097926
 20
24.81738295906555
 30
0.0
 40
0.095
100
AcDbArc
 50
119.9999999999995
 51
299.9999999999995
  0
ARC
  5
D949
330
1F
100
AcDbEntity
  8
0
  6
CONTINUOUS
100
AcDbCircle
 10
55.34171592957927
 20
25.78796795906555
 30
0.0
 40
0.063
100
AcDbArc
 50
0.0
 51
90.0
  0
SPLINE
  5
D94A
330
1F
100
AcDbEntity
  8
0
  6
CONTINUOUS
100
AcDbSpline
210
0.0
220
0.0
230
1.0
 70
     8
 71
     3
 72
    13
 73
     9
 74
     0
 42
0.0000001
 43
0.0000001
 40
0.0
 40
0.0
 40
0.0
 40
0.0
 40
0.0809959434
 40
0.1684937734
 40
0.2674237331
 40
0.3809666563
 40
0.6573959441
 40
1.0
 40
1.0
 40
1.0
 40
1.0
 10
24.49001547937926
 20
20.92084639026555
 30
0.0
 10
24.49085782357926
 20
20.92084639026555
 30
0.0
 10
24.49261844397926
 20
20.92111890306555
 30
0.0
 10
24.49517223217926
 20
20.92228385786555
 30
0.0
 10
24.49768927497927
 20
20.92415638706555
 30
0.0
 10
24.50124843417926
 20
20.92780863786555
 30
0.0
 10
24.50553649697926
 20
20.93416138726555
 30
0.0
 10
24.50848960897926
 20
20.93988651386555
 30
0.0
 10
24.51001547937926
 20
20.94310627486556
 30
0.0
  0
SPLINE
  5
D94B
330
1F
100
AcDbEntity
  8
0
  6
CONTINUOUS
100
AcDbSpline
210
0.0
220
0.0
230
1.0
 70
     8
 71
     3
 72
    10
 73
     6
 74
     0
 42
0.0000001
 43
0.0000001
 40
0.0
 40
0.0
 40
0.0
 40
0.0
 40
0.2247412138
 40
0.4707596732
 40
1.0
 40
1.0
 40
1.0
 40
1.0
 10
24.51195385517926
 20
20.94734950926556
 30
0.0
 10
24.51354819257926
 20
20.95096164826555
 30
0.0
 10
24.51667016817926
 20
20.95862391806556
 30
0.0
 10
24.52274458297926
 20
20.97511035146555
 30
0.0
 10
24.52706149857926
 20
20.98803019566555
 30
0.0
 10
24.53001547937927
 20
20.99684639026555
 30
0.0
  0
SPLINE
  5
D94C
330
1F
100
AcDbEntity
  8
0
  6
CONTINUOUS
100
AcDbSpline
210
0.0
220
0.0
230
1.0
 70
     8
 71
     3
 72
    13
 73
     9
 74
     0
 42
0.0000001
 43
0.0000001
 40
0.0
 40
0.0
 40
0.0
 40
0.0
 40
0.0809959434
 40
0.1684937734
 40
0.2674237331
 40
0.3809666563
 40
0.6573959441
 40
1.0
 40
1.0
 40
1.0
 40
1.0
 10
24.45401547937927
 20
25.99101639026556
 30
0.0
 10
24.45401547937927
 20
25.99017404606555
 30
0.0
 10
24.45428799237926
 20
25.98841342546555
 30
0.0
 10
24.45545294717926
 20
25.98585963746555
 30
0.0
 10
24.45732547637926
 20
25.98334259446555
 30
0.0
 10
24.46097772697926
 20
25.97978343526555
 30
0.0
 10
24.46733047637926
 20
25.97549537266556
 30
0.0
 10
24.47305560317926
 20
25.97254226066556
 30
0.0
 10
24.47627536397926
 20
25.97101639026555
 30
0.0
  0
SPLINE
  5
D94D
330
1F
100
AcDbEntity
  8
0
  6
CONTINUOUS
100
AcDbSpline
210
0.0
220
0.0
230
1.0
 70
     8
 71
     3
 72
    10
 73
     6
 74
     0
 42
0.0000001
 43
0.0000001
 40
0.0
 40
0.0
 40
0.0
 40
0.0
 40
0.2247412138
 40
0.4707596732
 40
1.0
 40
1.0
 40
1.0
 40
1.0
 10
24.48051859857926
 20
25.96907801446555
 30
0.0
 10
24.48413073737926
 20
25.96748367686556
 30
0.0
 10
24.49179300737926
 20
25.96436170126555
 30
0.0
 10
24.50827944057927
 20
25.95828728666555
 30
0.0
 10
24.52119928497926
 20
25.95397037106555
 30
0.0
 10
24.53001547937927
 20
25.95101639026555
 30
0.0
  0
SPLINE
  5
D94E
330
1F
100
AcDbEntity
  8
0
  6
CONTINUOUS
100
AcDbSpline
210
0.0
220
0.0
230
1.0
 70
     8
 71
     3
 72
    13
 73
     9
 74
     0
 42
0.0000001
 43
0.0000001
 40
0.0
 40
0.0
 40
0.0
 40
0.0
 40
0.0809959434
 40
0.1684937734
 40
0.2674237331
 40
0.3809666563
 40
0.6573959441
 40
1.0
 40
1.0
 40
1.0
 40
1.0
 10
31.98572547937926
 20
20.95684639026555
 30
0.0
 10
31.98572547937926
 20
20.95768873426555
 30
0.0
 10
31.98545296657926
 20
20.95944935486555
 30
0.0
 10
31.98428801177926
 20
20.96200314286556
 30
0.0
 10
31.98241548257926
 20
20.96452018586555
 30
0.0
 10
31.97876323177926
 20
20.96807934506555
 30
0.0
 10
31.97241048237926
 20
20.97236740766555
 30
0.0
 10
31.96668535577926
 20
20.97532051966555
 30
0.0
 10
31.96346559477926
 20
20.97684639026556
 30
0.0
  0
SPLINE
  5
D94F
330
1F
100
AcDbEntity
  8
0
  6
CONTINUOUS
100
AcDbSpline
210
0.0
220
0.0
230
1.0
 70
     8
 71
     3
 72
    10
 73
     6
 74
     0
 42
0.0000001
 43
0.0000001
 40
0.0
 40
0.0
 40
0.0
 40
0.0
 40
0.2247412138
 40
0.4707596732
 40
1.0
 40
1.0
 40
1.0
 40
1.0
 10
31.95922236037926
 20
20.97878476606555
 30
0.0
 10
31.95561022137926
 20
20.98037910346555
 30
0.0
 10
31.94794795157926
 20
20.98350107906555
 30
0.0
 10
31.93146151817926
 20
20.98957549366555
 30
0.0
 10
31.91854167397926
 20
20.99389240926556
 30
0.0
 10
31.90972547937926
 20
20.99684639026555
 30
0.0
  0
SPLINE
  5
D950
330
1F
100
AcDbEntity
  8
0
  6
CONTINUOUS
100
AcDbSpline
210
0.0
220
0.0
230
1.0
 70
     8
 71
     3
 72
    13
 73
     9
 74
     0
 42
0.0000001
 43
0.0000001
 40
0.0
 40
0.0
 40
0.0
 40
0.0
 40
0.0809959434
 40
0.1684937734
 40
0.2674237331
 40
0.3809666563
 40
0.6573959441
 40
1.0
 40
1.0
 40
1.0
 40
1.0
 10
31.98572547937926
 20
25.99101639026556
 30
0.0
 10
31.98572547937926
 20
25.99017404606555
 30
0.0
 10
31.98545296657926
 20
25.98841342546555
 30
0.0
 10
31.98428801177926
 20
25.98585963746555
 30
0.0
 10
31.98241548257926
 20
25.98334259446555
 30
0.0
 10
31.97876323177926
 20
25.97978343526555
 30
0.0
 10
31.97241048237926
 20
25.97549537266556
 30
0.0
 10
31.96668535577926
 20
25.97254226066556
 30
0.0
 10
31.96346559477926
 20
25.97101639026555
 30
0.0
  0
SPLINE
  5
D951
330
1F
100
AcDbEntity
  8
0
  6
CONTINUOUS
100
AcDbSpline
210
0.0
220
0.0
230
1.0
 70
     8
 71
     3
 72
    10
 73
     6
 74
     0
 42
0.0000001
 43
0.0000001
 40
0.0
 40
0.0
 40
0.0
 40
0.0
 40
0.2247412138
 40
0.4707596732
 40
1.0
 40
1.0
 40
1.0
 40
1.0
 10
31.95922236037926
 20
25.96907801446555
 30
0.0
 10
31.95561022137926
 20
25.96748367686556
 30
0.0
 10
31.94794795157926
 20
25.96436170126555
 30
0.0
 10
31.93146151817926
 20
25.95828728666555
 30
0.0
 10
31.91854167397926
 20
25.95397037106555
 30
0.0
 10
31.90972547937926
 20
25.95101639026555
 30
0.0
  0
SPLINE
  5
D952
330
1F
100
AcDbEntity
  8
0
  6
CONTINUOUS
100
AcDbSpline
210
0.0
220
0.0
230
1.0
 70
     8
 71
     3
 72
    13
 73
     9
 74
     0
 42
0.0000001
 43
0.0000001
 40
0.0
 40
0.0
 40
0.0
 40
0.0
 40
0.0809959434
 40
0.1684937734
 40
0.2674237331
 40
0.3809666563
 40
0.6573959441
 40
1.0
 40
1.0
 40
1.0
 40
1.0
 10
24.45401547937927
 20
20.95684639026555
 30
0.0
 10
24.45401547937927
 20
20.95768873426555
 30
0.0
 10
24.45428799237926
 20
20.95944935486555
 30
0.0
 10
24.45545294717926
 20
20.96200314286556
 30
0.0
 10
24.45732547637926
 20
20.96452018586555
 30
0.0
 10
24.46097772697926
 20
20.96807934506555
 30
0.0
 10
24.46733047637926
 20
20.97236740766555
 30
0.0
 10
24.47305560317926
 20
20.97532051966555
 30
0.0
 10
24.47627536397926
 20
20.97684639026556
 30
0.0
  0
SPLINE
  5
D953
330
1F
100
AcDbEntity
  8
0
  6
CONTINUOUS
100
AcDbSpline
210
0.0
220
0.0
230
1.0
 70
     8
 71
     3
 72
    10
 73
     6
 74
     0
 42
0.0000001
 43
0.0000001
 40
0.0
 40
0.0
 40
0.0
 40
0.0
 40
0.2247412138
 40
0.4707596732
 40
1.0
 40
1.0
 40
1.0
 40
1.0
 10
24.48051859857926
 20
20.97878476606555
 30
0.0
 10
24.48413073737926
 20
20.98037910346555
 30
0.0
 10
24.49179300737926
 20
20.98350107906555
 30
0.0
 10
24.50827944057927
 20
20.98957549366555
 30
0.0
 10
24.52119928497926
 20
20.99389240926556
 30
0.0
 10
24.53001547937927
 20
20.99684639026555
 30
0.0
  0
SPLINE
  5
D954
330
1F
100
AcDbEntity
  8
0
  6
CONTINUOUS
100
AcDbSpline
210
0.0
220
0.0
230
1.0
 70
     8
 71
     3
 72
    13
 73
     9
 74
     0
 42
0.0000001
 43
0.0000001
 40
0.0
 40
0.0
 40
0.0
 40
0.0
 40
0.0809959434
 40
0.1684937734
 40
0.2674237331
 40
0.3809666563
 40
0.6573959441
 40
1.0
 40
1.0
 40
1.0
 40
1.0
 10
31.94972547937926
 20
26.02701639026555
 30
0.0
 10
31.94888313537926
 20
26.02701639026555
 30
0.0
 10
31.94712251477926
 20
26.02674387726555
 30
0.0
 10
31.94456872657926
 20
26.02557892246556
 30
0.0
 10
31.94205168377926
 20
26.02370639326556
 30
0.0
 10
31.93849252457926
 20
26.02005414246555
 30
0.0
 10
31.93420446197926
 20
26.01370139326556
 30
0.0
 10
31.93125134997926
 20
26.00797626646555
 30
0.0
 10
31.92972547937926
 20
26.00475650546555
 30
0.0
  0
SPLINE
  5
D955
330
1F
100
AcDbEntity
  8
0
  6
CONTINUOUS
100
AcDbSpline
210
0.0
220
0.0
230
1.0
 70
     8
 71
     3
 72
    10
 73
     6
 74
     0
 42
0.0000001
 43
0.0000001
 40
0.0
 40
0.0
 40
0.0
 40
0.0
 40
0.2247412138
 40
0.4707596732
 40
1.0
 40
1.0
 40
1.0
 40
1.0
 10
31.92778710357926
 20
26.00051327106555
 30
0.0
 10
31.92619276617926
 20
25.99690113226556
 30
0.0
 10
31.92307079057926
 20
25.98923886226555
 30
0.0
 10
31.91699637597926
 20
25.97275242886555
 30
0.0
 10
31.91267946037926
 20
25.95983258466556
 30
0.0
 10
31.90972547937926
 20
25.95101639026555
 30
0.0
  0
SPLINE
  5
D956
330
1F
100
AcDbEntity
  8
0
  6
CONTINUOUS
100
AcDbSpline
210
0.0
220
0.0
230
1.0
 70
     8
 71
     3
 72
    13
 73
     9
 74
     0
 42
0.0000001
 43
0.0000001
 40
0.0
 40
0.0
 40
0.0
 40
0.0
 40
0.0809959434
 40
0.1684937734
 40
0.2674237331
 40
0.3809666563
 40
0.6573959441
 40
1.0
 40
1.0
 40
1.0
 40
1.0
 10
31.94972547937926
 20
20.92084639026555
 30
0.0
 10
31.94888313537926
 20
20.92084639026555
 30
0.0
 10
31.94712251477926
 20
20.92111890306555
 30
0.0
 10
31.94456872657926
 20
20.92228385786555
 30
0.0
 10
31.94205168377926
 20
20.92415638706555
 30
0.0
 10
31.93849252457926
 20
20.92780863786555
 30
0.0
 10
31.93420446197926
 20
20.93416138726555
 30
0.0
 10
31.93125134997926
 20
20.93988651386555
 30
0.0
 10
31.92972547937926
 20
20.94310627486556
 30
0.0
  0
SPLINE
  5
D957
330
1F
100
AcDbEntity
  8
0
  6
CONTINUOUS
100
AcDbSpline
210
0.0
220
0.0
230
1.0
 70
     8
 71
     3
 72
    10
 73
     6
 74
     0
 42
0.0000001
 43
0.0000001
 40
0.0
 40
0.0
 40
0.0
 40
0.0
 40
0.2247412138
 40
0.4707596732
 40
1.0
 40
1.0
 40
1.0
 40
1.0
 10
31.92778710357926
 20
20.94734950926556
 30
0.0
 10
31.92619276617926
 20
20.95096164826555
 30
0.0
 10
31.92307079057926
 20
20.95862391806556
 30
0.0
 10
31.91699637597926
 20
20.97511035146555
 30
0.0
 10
31.91267946037926
 20
20.98803019566555
 30
0.0
 10
31.90972547937926
 20
20.99684639026555
 30
0.0
  0
SPLINE
  5
D958
330
1F
100
AcDbEntity
  8
0
  6
CONTINUOUS
100
AcDbSpline
210
0.0
220
0.0
230
1.0
 70
     8
 71
     3
 72
    13
 73
     9
 74
     0
 42
0.0000001
 43
0.0000001
 40
0.0
 40
0.0
 40
0.0
 40
0.0
 40
0.0809959434
 40
0.1684937734
 40
0.2674237331
 40
0.3809666563
 40
0.6573959441
 40
1.0
 40
1.0
 40
1.0
 40
1.0
 10
24.49001547937926
 20
26.02701639026555
 30
0.0
 10
24.49085782357926
 20
26.02701639026555
 30
0.0
 10
24.49261844397926
 20
26.02674387726555
 30
0.0
 10
24.49517223217926
 20
26.02557892246556
 30
0.0
 10
24.49768927497927
 20
26.02370639326556
 30
0.0
 10
24.50124843417926
 20
26.02005414246555
 30
0.0
 10
24.50553649697926
 20
26.01370139326556
 30
0.0
 10
24.50848960897926
 20
26.00797626646555
 30
0.0
 10
24.51001547937926
 20
26.00475650546555
 30
0.0
  0
SPLINE
  5
D959
330
1F
100
AcDbEntity
  8
0
  6
CONTINUOUS
100
AcDbSpline
210
0.0
220
0.0
230
1.0
 70
     8
 71
     3
 72
    10
 73
     6
 74
     0
 42
0.0000001
 43
0.0000001
 40
0.0
 40
0.0
 40
0.0
 40
0.0
 40
0.2247412138
 40
0.4707596732
 40
1.0
 40
1.0
 40
1.0
 40
1.0
 10
24.51195385517926
 20
26.00051327106555
 30
0.0
 10
24.51354819257926
 20
25.99690113226556
 30
0.0
 10
24.51667016817926
 20
25.98923886226555
 30
0.0
 10
24.52274458297926
 20
25.97275242886555
 30
0.0
 10
24.52706149857926
 20
25.95983258466556
 30
0.0
 10
24.53001547937927
 20
25.95101639026555
 30
0.0
  0
SPLINE
  5
D95A
330
1F
100
AcDbEntity
  8
0
  6
CONTINUOUS
100
AcDbSpline
210
0.0
220
0.0
230
1.0
 70
     8
 71
     3
 72
    10
 73
     6
 74
     0
 42
0.0000001
 43
0.0000001
 40
0.0
 40
0.0
 40
0.0
 40
0.0
 40
0.2308947278
 40
0.4702998504
 40
1.0
 40
1.0
 40
1.0
 40
1.0
 10
32.00072547937926
 20
20.88034639026555
 30
0.0
 10
31.99904787577926
 20
20.88034639026555
 30
0.0
 10
31.99562202717926
 20
20.88069334406556
 30
0.0
 10
31.98862794557926
 20
20.88277987646556
 30
0.0
 10
31.98376568377926
 20
20.88573096466556
 30
0.0
 10
31.98069127917926
 20
20.88804611946556
 30
0.0
  0
SPLINE
  5
D95B
330
1F
100
AcDbEntity
  8
0
  6
CONTINUOUS
100
AcDbSpline
210
0.0
220
0.0
230
1.0
 70
     8
 71
     3
 72
    10
 73
     6
 74
     0
 42
0.0000001
 43
0.0000001
 40
0.0
 40
0.0
 40
0.0
 40
0.0
 40
0.2308947278
 40
0.4702998504
 40
1.0
 40
1.0
 40
1.0
 40
1.0
 10
24.43901547937926
 20
20.88034639026555
 30
0.0
 10
24.44069308317926
 20
20.88034639026555
 30
0.0
 10
24.44411893157926
 20
20.88069334406556
 30
0.0
 10
24.45111301317926
 20
20.88277987646556
 30
0.0
 10
24.45597527517926
 20
20.88573096466556
 30
0.0
 10
24.45904967977926
 20
20.88804611946556
 30
0.0
  0
SPLINE
  5
D95C
330
1F
100
AcDbEntity
  8
0
  6
CONTINUOUS
100
AcDbSpline
210
0.0
220
0.0
230
1.0
 70
     8
 71
     3
 72
    10
 73
     6
 74
     0
 42
0.0000001
 43
0.0000001
 40
0.0
 40
0.0
 40
0.0
 40
0.0
 40
0.2308947278
 40
0.4702998504
 40
1.0
 40
1.0
 40
1.0
 40
1.0
 10
24.43901547937926
 20
26.06751639026555
 30
0.0
 10
24.44069308317926
 20
26.06751639026555
 30
0.0
 10
24.44411893157926
 20
26.06716943626555
 30
0.0
 10
24.45111301317926
 20
26.06508290386555
 30
0.0
 10
24.45597527517926
 20
26.06213181566555
 30
0.0
 10
24.45904967977926
 20
26.05981666086555
 30
0.0
  0
SPLINE
  5
D95D
330
1F
100
AcDbEntity
  8
0
  6
CONTINUOUS
100
AcDbSpline
210
0.0
220
0.0
230
1.0
 70
     8
 71
     3
 72
    10
 73
     6
 74
     0
 42
0.0000001
 43
0.0000001
 40
0.0
 40
0.0
 40
0.0
 40
0.0
 40
0.2308947278
 40
0.4702998504
 40
1.0
 40
1.0
 40
1.0
 40
1.0
 10
32.00072547937926
 20
26.06751639026555
 30
0.0
 10
31.99904787577926
 20
26.06751639026555
 30
0.0
 10
31.99562202717926
 20
26.06716943626555
 30
0.0
 10
31.98862794557926
 20
26.06508290386555
 30
0.0
 10
31.98376568377926
 20
26.06213181566555
 30
0.0
 10
31.98069127917926
 20
26.05981666086555
 30
0.0
  0
SPLINE
  5
D95E
330
1F
100
AcDbEntity
  8
0
  6
CONTINUOUS
100
AcDbSpline
210
0.0
220
0.0
230
1.0
 70
     8
 71
     3
 72
     9
 73
     5
 74
     0
 42
0.0000001
 43
0.0000001
 40
0.0
 40
0.0
 40
0.0
 40
0.0
 40
0.478582578
 40
1.0
 40
1.0
 40
1.0
 40
1.0
 10
32.00072547937926
 20
26.06751639026555
 30
0.0
 10
32.00072547937926
 20
26.06479441306556
 30
0.0
 10
31.99976775997926
 20
26.05908163146555
 30
0.0
 10
31.99725119697926
 20
26.05391055326555
 30
0.0
 10
31.99569765057926
 20
26.05138442966555
 30
0.0
  0
SPLINE
  5
D95F
330
1F
100
AcDbEntity
  8
0
  6
CONTINUOUS
100
AcDbSpline
210
0.0
220
0.0
230
1.0
 70
     8
 71
     3
 72
     9
 73
     5
 74
     0
 42
0.0000001
 43
0.0000001
 40
0.0
 40
0.0
 40
0.0
 40
0.0
 40
0.478582578
 40
1.0
 40
1.0
 40
1.0
 40
1.0
 10
32.00072547937926
 20
20.88034639026555
 30
0.0
 10
32.00072547937926
 20
20.88306836746555
 30
0.0
 10
31.99976775997926
 20
20.88878114906555
 30
0.0
 10
31.99725119697926
 20
20.89395222706555
 30
0.0
 10
31.99569765057926
 20
20.89647835066555
 30
0.0
  0
SPLINE
  5
D960
330
1F
100
AcDbEntity
  8
0
  6
CONTINUOUS
100
AcDbSpline
210
0.0
220
0.0
230
1.0
 70
     8
 71
     3
 72
     9
 73
     5
 74
     0
 42
0.0000001
 43
0.0000001
 40
0.0
 40
0.0
 40
0.0
 40
0.0
 40
0.478582578
 40
1.0
 40
1.0
 40
1.0
 40
1.0
 10
24.43901547937926
 20
20.88034639026555
 30
0.0
 10
24.43901547937926
 20
20.88306836746555
 30
0.0
 10
24.43997319897926
 20
20.88878114906555
 30
0.0
 10
24.44248976197926
 20
20.89395222706555
 30
0.0
 10
24.44404330817926
 20
20.89647835066555
 30
0.0
  0
SPLINE
  5
D961
330
1F
100
AcDbEntity
  8
0
  6
CONTINUOUS
100
AcDbSpline
210
0.0
220
0.0
230
1.0
 70
     8
 71
     3
 72
     9
 73
     5
 74
     0
 42
0.0000001
 43
0.0000001
 40
0.0
 40
0.0
 40
0.0
 40
0.0
 40
0.478582578
 40
1.0
 40
1.0
 40
1.0
 40
1.0
 10
24.43901547937926
 20
26.06751639026555
 30
0.0
 10
24.43901547937926
 20
26.06479441306556
 30
0.0
 10
24.43997319897926
 20
26.05908163146555
 30
0.0
 10
24.44248976197926
 20
26.05391055326555
 30
0.0
 10
24.44404330817926
 20
26.05138442966555
 30
0.0
  0
SPLINE
  5
D962
330
1F
100
AcDbEntity
  8
0
  6
CONTINUOUS
100
AcDbSpline
210
0.0
220
0.0
230
1.0
 70
     8
 71
     3
 72
    14
 73
    10
 74
     0
 42
0.0000001
 43
0.0000001
 40
0.0
 40
0.0
 40
0.0
 40
0.0
 40
0.0864833851
 40
0.1803786981
 40
0.2866940394
 40
0.4072377406
 40
0.5415795093
 40
0.6874381512
 40
1.0
 40
1.0
 40
1.0
 40
1.0
 10
24.49001547937926
 20
20.95684639026555
 30
0.0
 10
24.49170185037926
 20
20.95684639026555
 30
0.0
 10
24.49523580097926
 20
20.95742397426555
 30
0.0
 10
24.50033335497926
 20
20.95984420506555
 30
0.0
 10
24.50532966277926
 20
20.96365806246556
 30
0.0
 10
24.51028503237927
 20
20.96868387886555
 30
0.0
 10
24.51521875057927
 20
20.97475358166555
 30
0.0
 10
24.52195065957926
 20
20.98415452286555
 30
0.0
 10
24.52674241637926
 20
20.99170507486556
 30
0.0
 10
24.53001547937927
 20
20.99684639026555
 30
0.0
  0
SPLINE
  5
D963
330
1F
100
AcDbEntity
  8
0
  6
CONTINUOUS
100
AcDbSpline
210
0.0
220
0.0
230
1.0
 70
     8
 71
     3
 72
    14
 73
    10
 74
     0
 42
0.0000001
 43
0.0000001
 40
0.0
 40
0.0
 40
0.0
 40
0.0
 40
0.0864833851
 40
0.1803786981
 40
0.2866940394
 40
0.4072377406
 40
0.5415795093
 40
0.6874381512
 40
1.0
 40
1.0
 40
1.0
 40
1.0
 10
31.94972547937926
 20
20.95684639026555
 30
0.0
 10
31.94803910837926
 20
20.95684639026555
 30
0.0
 10
31.94450515777926
 20
20.95742397426555
 30
0.0
 10
31.93940760397926
 20
20.95984420506555
 30
0.0
 10
31.93441129617926
 20
20.96365806246556
 30
0.0
 10
31.92945592637926
 20
20.96868387886555
 30
0.0
 10
31.92452220817926
 20
20.97475358166555
 30
0.0
 10
31.91779029917926
 20
20.98415452286555
 30
0.0
 10
31.91299854237926
 20
20.99170507486556
 30
0.0
 10
31.90972547937926
 20
20.99684639026555
 30
0.0
  0
SPLINE
  5
D964
330
1F
100
AcDbEntity
  8
0
  6
CONTINUOUS
100
AcDbSpline
210
0.0
220
0.0
230
1.0
 70
     8
 71
     3
 72
    14
 73
    10
 74
     0
 42
0.0000001
 43
0.0000001
 40
0.0
 40
0.0
 40
0.0
 40
0.0
 40
0.0864833851
 40
0.1803786981
 40
0.2866940394
 40
0.4072377406
 40
0.5415795093
 40
0.6874381512
 40
1.0
 40
1.0
 40
1.0
 40
1.0
 10
24.49001547937926
 20
25.99101639026556
 30
0.0
 10
24.49001547937926
 20
25.98933001926555
 30
0.0
 10
24.49059306357926
 20
25.98579606846555
 30
0.0
 10
24.49301329437926
 20
25.98069851466555
 30
0.0
 10
24.49682715177926
 20
25.97570220686556
 30
0.0
 10
24.50185296797926
 20
25.97074683726555
 30
0.0
 10
24.50792267097926
 20
25.96581311906555
 30
0.0
 10
24.51732361197926
 20
25.95908121006556
 30
0.0
 10
24.52487416417926
 20
25.95428945306556
 30
0.0
 10
24.53001547937927
 20
25.95101639026555
 30
0.0
  0
SPLINE
  5
D965
330
1F
100
AcDbEntity
  8
0
  6
CONTINUOUS
100
AcDbSpline
210
0.0
220
0.0
230
1.0
 70
     8
 71
     3
 72
    14
 73
    10
 74
     0
 42
0.0000001
 43
0.0000001
 40
0.0
 40
0.0
 40
0.0
 40
0.0
 40
0.0864833851
 40
0.1803786981
 40
0.2866940394
 40
0.4072377406
 40
0.5415795093
 40
0.6874381512
 40
1.0
 40
1.0
 40
1.0
 40
1.0
 10
24.49001547937926
 20
20.95684639026555
 30
0.0
 10
24.49001547937926
 20
20.95853276106556
 30
0.0
 10
24.49059306357926
 20
20.96206671186555
 30
0.0
 10
24.49301329437926
 20
20.96716426566555
 30
0.0
 10
24.49682715177926
 20
20.97216057346555
 30
0.0
 10
24.50185296797926
 20
20.97711594326555
 30
0.0
 10
24.50792267097926
 20
20.98204966146555
 30
0.0
 10
24.51732361197926
 20
20.98878157046556
 30
0.0
 10
24.52487416417926
 20
20.99357332726555
 30
0.0
 10
24.53001547937927
 20
20.99684639026555
 30
0.0
  0
SPLINE
  5
D966
330
1F
100
AcDbEntity
  8
0
  6
CONTINUOUS
100
AcDbSpline
210
0.0
220
0.0
230
1.0
 70
     8
 71
     3
 72
    14
 73
    10
 74
     0
 42
0.0000001
 43
0.0000001
 40
0.0
 40
0.0
 40
0.0
 40
0.0
 40
0.0864833851
 40
0.1803786981
 40
0.2866940394
 40
0.4072377406
 40
0.5415795093
 40
0.6874381512
 40
1.0
 40
1.0
 40
1.0
 40
1.0
 10
31.94972547937926
 20
20.95684639026555
 30
0.0
 10
31.94972547937926
 20
20.95853276106556
 30
0.0
 10
31.94914789517926
 20
20.96206671186555
 30
0.0
 10
31.94672766457926
 20
20.96716426566555
 30
0.0
 10
31.94291380697926
 20
20.97216057346555
 30
0.0
 10
31.93788799077926
 20
20.97711594326555
 30
0.0
 10
31.93181828797926
 20
20.98204966146555
 30
0.0
 10
31.92241734677926
 20
20.98878157046556
 30
0.0
 10
31.91486679477926
 20
20.99357332726555
 30
0.0
 10
31.90972547937926
 20
20.99684639026555
 30
0.0
  0
SPLINE
  5
D967
330
1F
100
AcDbEntity
  8
0
  6
CONTINUOUS
100
AcDbSpline
210
0.0
220
0.0
230
1.0
 70
     8
 71
     3
 72
    14
 73
    10
 74
     0
 42
0.0000001
 43
0.0000001
 40
0.0
 40
0.0
 40
0.0
 40
0.0
 40
0.0864833851
 40
0.1803786981
 40
0.2866940394
 40
0.4072377406
 40
0.5415795093
 40
0.6874381512
 40
1.0
 40
1.0
 40
1.0
 40
1.0
 10
31.94972547937926
 20
25.99101639026556
 30
0.0
 10
31.94972547937926
 20
25.98933001926555
 30
0.0
 10
31.94914789517926
 20
25.98579606846555
 30
0.0
 10
31.94672766457926
 20
25.98069851466555
 30
0.0
 10
31.94291380697926
 20
25.97570220686556
 30
0.0
 10
31.93788799077926
 20
25.97074683726555
 30
0.0
 10
31.93181828797926
 20
25.96581311906555
 30
0.0
 10
31.92241734677926
 20
25.95908121006556
 30
0.0
 10
31.91486679477926
 20
25.95428945306556
 30
0.0
 10
31.90972547937926
 20
25.95101639026555
 30
0.0
  0
SPLINE
  5
D968
330
1F
100
AcDbEntity
  8
0
  6
CONTINUOUS
100
AcDbSpline
210
0.0
220
0.0
230
1.0
 70
     8
 71
     3
 72
    14
 73
    10
 74
     0
 42
0.0000001
 43
0.0000001
 40
0.0
 40
0.0
 40
0.0
 40
0.0
 40
0.0864833851
 40
0.1803786981
 40
0.2866940394
 40
0.4072377406
 40
0.5415795093
 40
0.6874381512
 40
1.0
 40
1.0
 40
1.0
 40
1.0
 10
31.94972547937926
 20
25.99101639026556
 30
0.0
 10
31.94803910837926
 20
25.99101639026556
 30
0.0
 10
31.94450515777926
 20
25.99043880606555
 30
0.0
 10
31.93940760397926
 20
25.98801857526556
 30
0.0
 10
31.93441129617926
 20
25.98420471786555
 30
0.0
 10
31.92945592637926
 20
25.97917890166556
 30
0.0
 10
31.92452220817926
 20
25.97310919866555
 30
0.0
 10
31.91779029917926
 20
25.96370825746556
 30
0.0
 10
31.91299854237926
 20
25.95615770546556
 30
0.0
 10
31.90972547937926
 20
25.95101639026555
 30
0.0
  0
SPLINE
  5
D969
330
1F
100
AcDbEntity
  8
0
  6
CONTINUOUS
100
AcDbSpline
210
0.0
220
0.0
230
1.0
 70
     8
 71
     3
 72
    14
 73
    10
 74
     0
 42
0.0000001
 43
0.0000001
 40
0.0
 40
0.0
 40
0.0
 40
0.0
 40
0.0864833851
 40
0.1803786981
 40
0.2866940394
 40
0.4072377406
 40
0.5415795093
 40
0.6874381512
 40
1.0
 40
1.0
 40
1.0
 40
1.0
 10
24.49001547937926
 20
25.99101639026556
 30
0.0
 10
24.49170185037926
 20
25.99101639026556
 30
0.0
 10
24.49523580097926
 20
25.99043880606555
 30
0.0
 10
24.50033335497926
 20
25.98801857526556
 30
0.0
 10
24.50532966277926
 20
25.98420471786555
 30
0.0
 10
24.51028503237927
 20
25.97917890166556
 30
0.0
 10
24.51521875057927
 20
25.97310919866555
 30
0.0
 10
24.52195065957926
 20
25.96370825746556
 30
0.0
 10
24.52674241637926
 20
25.95615770546556
 30
0.0
 10
24.53001547937927
 20
25.95101639026555
 30
0.0
  0
SPLINE
  5
D96A
330
1F
100
AcDbEntity
  8
0
  6
CONTINUOUS
100
AcDbSpline
210
0.0
220
0.0
230
1.0
 70
     8
 71
     3
 72
    10
 73
     6
 74
     0
 42
0.0000001
 43
0.0000001
 40
0.0
 40
0.0
 40
0.0
 40
0.0
 40
0.5292403268
 40
0.7752587862
 40
1.0
 40
1.0
 40
1.0
 40
1.0
 10
37.35052496777926
 20
20.95684639026555
 30
0.0
 10
37.34170877337927
 20
20.95980037106555
 30
0.0
 10
37.32878892897926
 20
20.96411728666556
 30
0.0
 10
37.31230249577926
 20
20.97019170126556
 30
0.0
 10
37.30464022577927
 20
20.97331367686555
 30
0.0
 10
37.30102808697926
 20
20.97490801446556
 30
0.0
  0
SPLINE
  5
D96B
330
1F
100
AcDbEntity
  8
0
  6
CONTINUOUS
100
AcDbSpline
210
0.0
220
0.0
230
1.0
 70
     8
 71
     3
 72
    14
 73
    10
 74
     0
 42
0.0000001
 43
0.0000001
 40
0.0
 40
0.0
 40
0.0
 40
0.0
 40
0.3471722712
 40
0.4956935148
 40
0.6266629778
 40
0.7401792394
 40
0.8377283271
 40
0.922550466
 40
1.0
 40
1.0
 40
1.0
 40
1.0
 10
37.30102808697926
 20
20.97490801446556
 30
0.0
 10
37.29723083517926
 20
20.97658405746555
 30
0.0
 10
37.29186920817926
 20
20.97913691326556
 30
0.0
 10
37.28542193397926
 20
20.98296381366556
 30
0.0
 10
37.28158087377926
 20
20.98568205166556
 30
0.0
 10
37.27851940957926
 20
20.98841061966555
 30
0.0
 10
37.27626866677926
 20
20.99116604906555
 30
0.0
 10
37.27485892917926
 20
20.99397016746556
 30
0.0
 10
37.27452496777926
 20
20.99592042586556
 30
0.0
 10
37.27452496777926
 20
20.99684639026555
 30
0.0
  0
SPLINE
  5
D96C
330
1F
100
AcDbEntity
  8
0
  6
CONTINUOUS
100
AcDbSpline
210
0.0
220
0.0
230
1.0
 70
     8
 71
     3
 72
    10
 73
     6
 74
     0
 42
0.0000001
 43
0.0000001
 40
0.0
 40
0.0
 40
0.0
 40
0.0
 40
0.5292403268
 40
0.7752587862
 40
1.0
 40
1.0
 40
1.0
 40
1.0
 10
37.35052496777926
 20
25.99101639026556
 30
0.0
 10
37.34170877337927
 20
25.98806240926555
 30
0.0
 10
37.32878892897926
 20
25.98374549366555
 30
0.0
 10
37.31230249577926
 20
25.97767107906555
 30
0.0
 10
37.30464022577927
 20
25.97454910346556
 30
0.0
 10
37.30102808697926
 20
25.97295476606556
 30
0.0
  0
SPLINE
  5
D96D
330
1F
100
AcDbEntity
  8
0
  6
CONTINUOUS
100
AcDbSpline
210
0.0
220
0.0
230
1.0
 70
     8
 71
     3
 72
    14
 73
    10
 74
     0
 42
0.0000001
 43
0.0000001
 40
0.0
 40
0.0
 40
0.0
 40
0.0
 40
0.3471722712
 40
0.4956935148
 40
0.6266629778
 40
0.7401792394
 40
0.8377283271
 40
0.922550466
 40
1.0
 40
1.0
 40
1.0
 40
1.0
 10
37.30102808697926
 20
25.97295476606556
 30
0.0
 10
37.29723083517926
 20
25.97127872286556
 30
0.0
 10
37.29186920817926
 20
25.96872586706555
 30
0.0
 10
37.28542193397926
 20
25.96489896666555
 30
0.0
 10
37.28158087377926
 20
25.96218072866555
 30
0.0
 10
37.27851940957926
 20
25.95945216086555
 30
0.0
 10
37.27626866677926
 20
25.95669673146556
 30
0.0
 10
37.27485892917926
 20
25.95389261286555
 30
0.0
 10
37.27452496777926
 20
25.95194235446555
 30
0.0
 10
37.27452496777926
 20
25.95101639026555
 30
0.0
  0
SPLINE
  5
D96E
330
1F
100
AcDbEntity
  8
0
  6
CONTINUOUS
100
AcDbSpline
210
0.0
220
0.0
230
1.0
 70
     8
 71
     3
 72
    18
 73
    14
 74
     0
 42
0.0000001
 43
0.0000001
 40
0.0
 40
0.0
 40
0.0
 40
0.0
 40
0.1772787291
 40
0.3484257592
 40
0.5075744612
 40
0.6496417079
 40
0.7703715136
 40
0.821979275
 40
0.8675655891
 40
0.9072765127
 40
0.9417277039
 40
0.9720448116
 40
1.0
 40
1.0
 40
1.0
 40
1.0
 10
40.62074496777926
 20
26.06751639026555
 30
0.0
 10
40.62874849237926
 20
26.06490665246555
 30
0.0
 10
40.64447880837926
 20
26.05977737966555
 30
0.0
 10
40.66730937017925
 20
26.05204793906555
 30
0.0
 10
40.68837491317926
 20
26.04432825766555
 30
0.0
 10
40.70688471477926
 20
26.03664114166556
 30
0.0
 10
40.72026085877926
 20
26.02994702426555
 30
0.0
 10
40.72903656697926
 20
26.02444670106556
 30
0.0
 10
40.73424395937926
 20
26.02053746466555
 30
0.0
 10
40.73837957017926
 20
26.01661035786555
 30
0.0
 10
40.74141232457926
 20
26.01264854086556
 30
0.0
 10
40.74330161037926
 20
26.00862454426555
 30
0.0
 10
40.74374496777926
 20
26.00584387086555
 30
0.0
 10
40.74374496777926
 20
26.00451639026555
 30
0.0
  0
SPLINE
  5
D96F
330
1F
100
AcDbEntity
  8
0
  6
CONTINUOUS
100
AcDbSpline
210
0.0
220
0.0
230
1.0
 70
     8
 71
     3
 72
    18
 73
    14
 74
     0
 42
0.0000001
 43
0.0000001
 40
0.0
 40
0.0
 40
0.0
 40
0.0
 40
0.1772787291
 40
0.3484257592
 40
0.5075744612
 40
0.6496417079
 40
0.7703715136
 40
0.821979275
 40
0.8675655891
 40
0.9072765127
 40
0.9417277039
 40
0.9720448116
 40
1.0
 40
1.0
 40
1.0
 40
1.0
 10
40.62074496777926
 20
20.88034639026555
 30
0.0
 10
40.62874849237926
 20
20.88295612786555
 30
0.0
 10
40.64447880837926
 20
20.88808540066555
 30
0.0
 10
40.66730937017925
 20
20.89581484126555
 30
0.0
 10
40.68837491317926
 20
20.90353452266555
 30
0.0
 10
40.70688471477926
 20
20.91122163866555
 30
0.0
 10
40.72026085877926
 20
20.91791575606555
 30
0.0
 10
40.72903656697926
 20
20.92341607926556
 30
0.0
 10
40.73424395937926
 20
20.92732531566556
 30
0.0
 10
40.73837957017926
 20
20.93125242246555
 30
0.0
 10
40.74141232457926
 20
20.93521423966556
 30
0.0
 10
40.74330161037926
 20
20.93923823626555
 30
0.0
 10
40.74374496777926
 20
20.94201890946555
 30
0.0
 10
40.74374496777926
 20
20.94334639026555
 30
0.0
  0
SPLINE
  5
D970
330
1F
100
AcDbEntity
  8
0
  6
CONTINUOUS
100
AcDbSpline
210
0.0
220
0.0
230
1.0
 70
     8
 71
     3
 72
    10
 73
     6
 74
     0
 42
0.0000001
 43
0.0000001
 40
0.0
 40
0.0
 40
0.0
 40
0.0
 40
0.5292403268
 40
0.7752587862
 40
1.0
 40
1.0
 40
1.0
 40
1.0
 10
17.75855432657927
 20
25.99101639026556
 30
0.0
 10
17.76737052117926
 20
25.98806240926555
 30
0.0
 10
17.78029036537927
 20
25.98374549366555
 30
0.0
 10
17.79677679877926
 20
25.97767107906555
 30
0.0
 10
17.80443906857926
 20
25.97454910346556
 30
0.0
 10
17.80805120757926
 20
25.97295476606556
 30
0.0
  0
SPLINE
  5
D971
330
1F
100
AcDbEntity
  8
0
  6
CONTINUOUS
100
AcDbSpline
210
0.0
220
0.0
230
1.0
 70
     8
 71
     3
 72
    14
 73
    10
 74
     0
 42
0.0000001
 43
0.0000001
 40
0.0
 40
0.0
 40
0.0
 40
0.0
 40
0.3471722712
 40
0.4956935148
 40
0.6266629778
 40
0.7401792394
 40
0.8377283271
 40
0.922550466
 40
1.0
 40
1.0
 40
1.0
 40
1.0
 10
17.80805120757926
 20
25.97295476606556
 30
0.0
 10
17.81184845917926
 20
25.97127872286556
 30
0.0
 10
17.81721008617927
 20
25.96872586706555
 30
0.0
 10
17.82365736057926
 20
25.96489896666555
 30
0.0
 10
17.82749842077926
 20
25.96218072866555
 30
0.0
 10
17.83055988497926
 20
25.95945216086555
 30
0.0
 10
17.83281062777926
 20
25.95669673146556
 30
0.0
 10
17.83422036537926
 20
25.95389261286555
 30
0.0
 10
17.83455432657927
 20
25.95194235446555
 30
0.0
 10
17.83455432657927
 20
25.95101639026555
 30
0.0
  0
SPLINE
  5
D972
330
1F
100
AcDbEntity
  8
0
  6
CONTINUOUS
100
AcDbSpline
210
0.0
220
0.0
230
1.0
 70
     8
 71
     3
 72
    10
 73
     6
 74
     0
 42
0.0000001
 43
0.0000001
 40
0.0
 40
0.0
 40
0.0
 40
0.0
 40
0.5292403268
 40
0.7752587862
 40
1.0
 40
1.0
 40
1.0
 40
1.0
 10
17.75855432657927
 20
20.95684639026555
 30
0.0
 10
17.76737052117926
 20
20.95980037106555
 30
0.0
 10
17.78029036537927
 20
20.96411728666556
 30
0.0
 10
17.79677679877926
 20
20.97019170126556
 30
0.0
 10
17.80443906857926
 20
20.97331367686555
 30
0.0
 10
17.80805120757926
 20
20.97490801446556
 30
0.0
  0
SPLINE
  5
D973
330
1F
100
AcDbEntity
  8
0
  6
CONTINUOUS
100
AcDbSpline
210
0.0
220
0.0
230
1.0
 70
     8
 71
     3
 72
    14
 73
    10
 74
     0
 42
0.0000001
 43
0.0000001
 40
0.0
 40
0.0
 40
0.0
 40
0.0
 40
0.3471722712
 40
0.4956935148
 40
0.6266629778
 40
0.7401792394
 40
0.8377283271
 40
0.922550466
 40
1.0
 40
1.0
 40
1.0
 40
1.0
 10
17.80805120757926
 20
20.97490801446556
 30
0.0
 10
17.81184845917926
 20
20.97658405746555
 30
0.0
 10
17.81721008617927
 20
20.97913691326556
 30
0.0
 10
17.82365736057926
 20
20.98296381366556
 30
0.0
 10
17.82749842077926
 20
20.98568205166556
 30
0.0
 10
17.83055988497926
 20
20.98841061966555
 30
0.0
 10
17.83281062777926
 20
20.99116604906555
 30
0.0
 10
17.83422036537926
 20
20.99397016746556
 30
0.0
 10
17.83455432657927
 20
20.99592042586556
 30
0.0
 10
17.83455432657927
 20
20.99684639026555
 30
0.0
  0
SPLINE
  5
D974
330
1F
100
AcDbEntity
  8
0
  6
CONTINUOUS
100
AcDbSpline
210
0.0
220
0.0
230
1.0
 70
     8
 71
     3
 72
    18
 73
    14
 74
     0
 42
0.0000001
 43
0.0000001
 40
0.0
 40
0.0
 40
0.0
 40
0.0
 40
0.1772787291
 40
0.3484257592
 40
0.5075744612
 40
0.6496417079
 40
0.7703715136
 40
0.821979275
 40
0.8675655891
 40
0.9072765127
 40
0.9417277039
 40
0.9720448116
 40
1.0
 40
1.0
 40
1.0
 40
1.0
 10
14.48833432657926
 20
20.88034639026555
 30
0.0
 10
14.48033080197926
 20
20.88295612786555
 30
0.0
 10
14.46460048597926
 20
20.88808540066555
 30
0.0
 10
14.44176992437926
 20
20.89581484126555
 30
0.0
 10
14.42070438117926
 20
20.90353452266555
 30
0.0
 10
14.40219457957926
 20
20.91122163866555
 30
0.0
 10
14.38881843557926
 20
20.91791575606555
 30
0.0
 10
14.38004272757926
 20
20.92341607926556
 30
0.0
 10
14.37483533517926
 20
20.92732531566556
 30
0.0
 10
14.37069972417926
 20
20.93125242246555
 30
0.0
 10
14.36766696997926
 20
20.93521423966556
 30
0.0
 10
14.36577768417926
 20
20.93923823626555
 30
0.0
 10
14.36533432657926
 20
20.94201890946555
 30
0.0
 10
14.36533432657926
 20
20.94334639026555
 30
0.0
  0
SPLINE
  5
D975
330
1F
100
AcDbEntity
  8
0
  6
CONTINUOUS
100
AcDbSpline
210
0.0
220
0.0
230
1.0
 70
     8
 71
     3
 72
    18
 73
    14
 74
     0
 42
0.0000001
 43
0.0000001
 40
0.0
 40
0.0
 40
0.0
 40
0.0
 40
0.1772787291
 40
0.3484257592
 40
0.5075744612
 40
0.6496417079
 40
0.7703715136
 40
0.821979275
 40
0.8675655891
 40
0.9072765127
 40
0.9417277039
 40
0.9720448116
 40
1.0
 40
1.0
 40
1.0
 40
1.0
 10
14.48833432657926
 20
26.06751639026555
 30
0.0
 10
14.48033080197926
 20
26.06490665246555
 30
0.0
 10
14.46460048597926
 20
26.05977737966555
 30
0.0
 10
14.44176992437926
 20
26.05204793906555
 30
0.0
 10
14.42070438117926
 20
26.04432825766555
 30
0.0
 10
14.40219457957926
 20
26.03664114166556
 30
0.0
 10
14.38881843557926
 20
26.02994702426555
 30
0.0
 10
14.38004272757926
 20
26.02444670106556
 30
0.0
 10
14.37483533517926
 20
26.02053746466555
 30
0.0
 10
14.37069972417926
 20
26.01661035786555
 30
0.0
 10
14.36766696997926
 20
26.01264854086556
 30
0.0
 10
14.36577768417926
 20
26.00862454426555
 30
0.0
 10
14.36533432657926
 20
26.00584387086555
 30
0.0
 10
14.36533432657926
 20
26.00451639026555
 30
0.0
  0
SPLINE
  5
D976
330
1F
100
AcDbEntity
  8
0
  6
CONTINUOUS
100
AcDbSpline
210
0.0
220
0.0
230
1.0
 70
     8
 71
     3
 72
    10
 73
     6
 74
     0
 42
0.0000001
 43
0.0000001
 40
0.0
 40
0.0
 40
0.0
 40
0.0
 40
0.5292403268
 40
0.7752587862
 40
1.0
 40
1.0
 40
1.0
 40
1.0
 10
24.49001547937926
 20
31.66529529186555
 30
0.0
 10
24.49296946037926
 20
31.65647909746556
 30
0.0
 10
24.49728637597926
 20
31.64355925326555
 30
0.0
 10
24.50336079057926
 20
31.62707281986555
 30
0.0
 10
24.50648276617926
 20
31.61941054986556
 30
0.0
 10
24.50807710357926
 20
31.61579841106555
 30
0.0
  0
SPLINE
  5
D977
330
1F
100
AcDbEntity
  8
0
  6
CONTINUOUS
100
AcDbSpline
210
0.0
220
0.0
230
1.0
 70
     8
 71
     3
 72
    14
 73
    10
 74
     0
 42
0.0000001
 43
0.0000001
 40
0.0
 40
0.0
 40
0.0
 40
0.0
 40
0.3471722712
 40
0.4956935148
 40
0.6266629778
 40
0.7401792394
 40
0.8377283271
 40
0.922550466
 40
1.0
 40
1.0
 40
1.0
 40
1.0
 10
24.50807710357926
 20
31.61579841106555
 30
0.0
 10
24.50975314677926
 20
31.61200115926555
 30
0.0
 10
24.51230600257927
 20
31.60663953226555
 30
0.0
 10
24.51613290277926
 20
31.60019225806555
 30
0.0
 10
24.51885114097927
 20
31.59635119786555
 30
0.0
 10
24.52157970877926
 20
31.59328973366556
 30
0.0
 10
24.52433513817926
 20
31.59103899086556
 30
0.0
 10
24.52713925677926
 20
31.58962925326556
 30
0.0
 10
24.52908951517927
 20
31.58929529186555
 30
0.0
 10
24.53001547937927
 20
31.58929529186555
 30
0.0
  0
SPLINE
  5
D978
330
1F
100
AcDbEntity
  8
0
  6
CONTINUOUS
100
AcDbSpline
210
0.0
220
0.0
230
1.0
 70
     8
 71
     3
 72
    10
 73
     6
 74
     0
 42
0.0000001
 43
0.0000001
 40
0.0
 40
0.0
 40
0.0
 40
0.0
 40
0.5292403268
 40
0.7752587862
 40
1.0
 40
1.0
 40
1.0
 40
1.0
 10
31.94972547937926
 20
31.66529529186555
 30
0.0
 10
31.94677149857926
 20
31.65647909746556
 30
0.0
 10
31.94245458297926
 20
31.64355925326555
 30
0.0
 10
31.93638016817926
 20
31.62707281986555
 30
0.0
 10
31.93325819257926
 20
31.61941054986556
 30
0.0
 10
31.93166385517926
 20
31.61579841106555
 30
0.0
  0
SPLINE
  5
D979
330
1F
100
AcDbEntity
  8
0
  6
CONTINUOUS
100
AcDbSpline
210
0.0
220
0.0
230
1.0
 70
     8
 71
     3
 72
    14
 73
    10
 74
     0
 42
0.0000001
 43
0.0000001
 40
0.0
 40
0.0
 40
0.0
 40
0.0
 40
0.3471722712
 40
0.4956935148
 40
0.6266629778
 40
0.7401792394
 40
0.8377283271
 40
0.922550466
 40
1.0
 40
1.0
 40
1.0
 40
1.0
 10
31.93166385517926
 20
31.61579841106555
 30
0.0
 10
31.92998781217926
 20
31.61200115926555
 30
0.0
 10
31.92743495617926
 20
31.60663953226555
 30
0.0
 10
31.92360805597926
 20
31.60019225806555
 30
0.0
 10
31.92088981777926
 20
31.59635119786555
 30
0.0
 10
31.91816124997926
 20
31.59328973366556
 30
0.0
 10
31.91540582057926
 20
31.59103899086556
 30
0.0
 10
31.91260170217926
 20
31.58962925326556
 30
0.0
 10
31.91065144377926
 20
31.58929529186555
 30
0.0
 10
31.90972547937926
 20
31.58929529186555
 30
0.0
  0
SPLINE
  5
D97A
330
1F
100
AcDbEntity
  8
0
  6
CONTINUOUS
100
AcDbSpline
210
0.0
220
0.0
230
1.0
 70
     8
 71
     3
 72
    18
 73
    14
 74
     0
 42
0.0000001
 43
0.0000001
 40
0.0
 40
0.0
 40
0.0
 40
0.0
 40
0.1772787291
 40
0.3484257592
 40
0.5075744612
 40
0.6496417079
 40
0.7703715136
 40
0.821979275
 40
0.8675655891
 40
0.9072765127
 40
0.9417277039
 40
0.9720448116
 40
1.0
 40
1.0
 40
1.0
 40
1.0
 10
24.43901547937926
 20
34.93551529186555
 30
0.0
 10
24.44162521697926
 20
34.94351881666555
 30
0.0
 10
24.44675448997926
 20
34.95924913246555
 30
0.0
 10
24.45448393057926
 20
34.98207969426555
 30
0.0
 10
24.46220361177926
 20
35.00314523746555
 30
0.0
 10
24.46989072797926
 20
35.02165503886555
 30
0.0
 10
24.47658484537926
 20
35.03503118306555
 30
0.0
 10
24.48208516857926
 20
35.04380689106555
 30
0.0
 10
24.48599440497926
 20
35.04901428346555
 30
0.0
 10
24.48992151157926
 20
35.05314989446556
 30
0.0
 10
24.49388332877926
 20
35.05618264866555
 30
0.0
 10
24.49790732537926
 20
35.05807193446555
 30
0.0
 10
24.50068799857926
 20
35.05851529186555
 30
0.0
 10
24.50201547937926
 20
35.05851529186555
 30
0.0
  0
SPLINE
  5
D97B
330
1F
100
AcDbEntity
  8
0
  6
CONTINUOUS
100
AcDbSpline
210
0.0
220
0.0
230
1.0
 70
     8
 71
     3
 72
    18
 73
    14
 74
     0
 42
0.0000001
 43
0.0000001
 40
0.0
 40
0.0
 40
0.0
 40
0.0
 40
0.1772787291
 40
0.3484257592
 40
0.5075744612
 40
0.6496417079
 40
0.7703715136
 40
0.821979275
 40
0.8675655891
 40
0.9072765127
 40
0.9417277039
 40
0.9720448116
 40
1.0
 40
1.0
 40
1.0
 40
1.0
 10
32.00072547937926
 20
34.93551529186555
 30
0.0
 10
31.99811574177926
 20
34.94351881666555
 30
0.0
 10
31.99298646897926
 20
34.95924913246555
 30
0.0
 10
31.98525702817926
 20
34.98207969426555
 30
0.0
 10
31.97753734697926
 20
35.00314523746555
 30
0.0
 10
31.96985023077926
 20
35.02165503886555
 30
0.0
 10
31.96315611357926
 20
35.03503118306555
 30
0.0
 10
31.95765579017926
 20
35.04380689106555
 30
0.0
 10
31.95374655397926
 20
35.04901428346555
 30
0.0
 10
31.94981944717926
 20
35.05314989446556
 30
0.0
 10
31.94585762997926
 20
35.05618264866555
 30
0.0
 10
31.94183363337926
 20
35.05807193446555
 30
0.0
 10
31.93905296017926
 20
35.05851529186555
 30
0.0
 10
31.93772547937926
 20
35.05851529186555
 30
0.0
  0
SPLINE
  5
D97C
330
1F
100
AcDbEntity
  8
0
  6
CONTINUOUS
100
AcDbSpline
210
0.0
220
0.0
230
1.0
 70
     8
 71
     3
 72
    10
 73
     6
 74
     0
 42
0.0000001
 43
0.0000001
 40
0.0
 40
0.0
 40
0.0
 40
0.0
 40
0.5292403268
 40
0.7752587862
 40
1.0
 40
1.0
 40
1.0
 40
1.0
 10
31.94972547937926
 20
14.10845425506555
 30
0.0
 10
31.94677149857926
 20
14.11727044966555
 30
0.0
 10
31.94245458297926
 20
14.13019029386555
 30
0.0
 10
31.93638016817926
 20
14.14667672726555
 30
0.0
 10
31.93325819257926
 20
14.15433899706555
 30
0.0
 10
31.93166385517926
 20
14.15795113606555
 30
0.0
  0
SPLINE
  5
D97D
330
1F
100
AcDbEntity
  8
0
  6
CONTINUOUS
100
AcDbSpline
210
0.0
220
0.0
230
1.0
 70
     8
 71
     3
 72
    14
 73
    10
 74
     0
 42
0.0000001
 43
0.0000001
 40
0.0
 40
0.0
 40
0.0
 40
0.0
 40
0.3471722712
 40
0.4956935148
 40
0.6266629778
 40
0.7401792394
 40
0.8377283271
 40
0.922550466
 40
1.0
 40
1.0
 40
1.0
 40
1.0
 10
31.93166385517926
 20
14.15795113606555
 30
0.0
 10
31.92998781217926
 20
14.16174838766555
 30
0.0
 10
31.92743495617926
 20
14.16711001466555
 30
0.0
 10
31.92360805597926
 20
14.17355728906555
 30
0.0
 10
31.92088981777926
 20
14.17739834926555
 30
0.0
 10
31.91816124997926
 20
14.18045981346555
 30
0.0
 10
31.91540582057926
 20
14.18271055626555
 30
0.0
 10
31.91260170217926
 20
14.18412029386555
 30
0.0
 10
31.91065144377926
 20
14.18445425506555
 30
0.0
 10
31.90972547937926
 20
14.18445425506555
 30
0.0
  0
SPLINE
  5
D97E
330
1F
100
AcDbEntity
  8
0
  6
CONTINUOUS
100
AcDbSpline
210
0.0
220
0.0
230
1.0
 70
     8
 71
     3
 72
    10
 73
     6
 74
     0
 42
0.0000001
 43
0.0000001
 40
0.0
 40
0.0
 40
0.0
 40
0.0
 40
0.5292403268
 40
0.7752587862
 40
1.0
 40
1.0
 40
1.0
 40
1.0
 10
24.49001547937926
 20
14.10845425506555
 30
0.0
 10
24.49296946037926
 20
14.11727044966555
 30
0.0
 10
24.49728637597926
 20
14.13019029386555
 30
0.0
 10
24.50336079057926
 20
14.14667672726555
 30
0.0
 10
24.50648276617926
 20
14.15433899706555
 30
0.0
 10
24.50807710357926
 20
14.15795113606555
 30
0.0
  0
SPLINE
  5
D97F
330
1F
100
AcDbEntity
  8
0
  6
CONTINUOUS
100
AcDbSpline
210
0.0
220
0.0
230
1.0
 70
     8
 71
     3
 72
    14
 73
    10
 74
     0
 42
0.0000001
 43
0.0000001
 40
0.0
 40
0.0
 40
0.0
 40
0.0
 40
0.3471722712
 40
0.4956935148
 40
0.6266629778
 40
0.7401792394
 40
0.8377283271
 40
0.922550466
 40
1.0
 40
1.0
 40
1.0
 40
1.0
 10
24.50807710357926
 20
14.15795113606555
 30
0.0
 10
24.50975314677926
 20
14.16174838766555
 30
0.0
 10
24.51230600257927
 20
14.16711001466555
 30
0.0
 10
24.51613290277926
 20
14.17355728906555
 30
0.0
 10
24.51885114097927
 20
14.17739834926555
 30
0.0
 10
24.52157970877926
 20
14.18045981346555
 30
0.0
 10
24.52433513817926
 20
14.18271055626555
 30
0.0
 10
24.52713925677926
 20
14.18412029386555
 30
0.0
 10
24.52908951517927
 20
14.18445425506555
 30
0.0
 10
24.53001547937927
 20
14.18445425506555
 30
0.0
  0
SPLINE
  5
D980
330
1F
100
AcDbEntity
  8
0
  6
CONTINUOUS
100
AcDbSpline
210
0.0
220
0.0
230
1.0
 70
     8
 71
     3
 72
    18
 73
    14
 74
     0
 42
0.0000001
 43
0.0000001
 40
0.0
 40
0.0
 40
0.0
 40
0.0
 40
0.1772787291
 40
0.3484257592
 40
0.5075744612
 40
0.6496417079
 40
0.7703715136
 40
0.821979275
 40
0.8675655891
 40
0.9072765127
 40
0.9417277039
 40
0.9720448116
 40
1.0
 40
1.0
 40
1.0
 40
1.0
 10
32.00072547937926
 20
10.83823425506555
 30
0.0
 10
31.99811574177926
 20
10.83023073046555
 30
0.0
 10
31.99298646897926
 20
10.81450041446555
 30
0.0
 10
31.98525702817926
 20
10.79166985286555
 30
0.0
 10
31.97753734697926
 20
10.77060430966555
 30
0.0
 10
31.96985023077926
 20
10.75209450806555
 30
0.0
 10
31.96315611357926
 20
10.73871836406555
 30
0.0
 10
31.95765579017926
 20
10.72994265606555
 30
0.0
 10
31.95374655397926
 20
10.72473526366555
 30
0.0
 10
31.94981944717926
 20
10.72059965266555
 30
0.0
 10
31.94585762997926
 20
10.71756689846555
 30
0.0
 10
31.94183363337926
 20
10.71567761266555
 30
0.0
 10
31.93905296017926
 20
10.71523425506555
 30
0.0
 10
31.93772547937926
 20
10.71523425506555
 30
0.0
  0
SPLINE
  5
D981
330
1F
100
AcDbEntity
  8
0
  6
CONTINUOUS
100
AcDbSpline
210
0.0
220
0.0
230
1.0
 70
     8
 71
     3
 72
    18
 73
    14
 74
     0
 42
0.0000001
 43
0.0000001
 40
0.0
 40
0.0
 40
0.0
 40
0.0
 40
0.1772787291
 40
0.3484257592
 40
0.5075744612
 40
0.6496417079
 40
0.7703715136
 40
0.821979275
 40
0.8675655891
 40
0.9072765127
 40
0.9417277039
 40
0.9720448116
 40
1.0
 40
1.0
 40
1.0
 40
1.0
 10
24.43901547937926
 20
10.83823425506555
 30
0.0
 10
24.44162521697926
 20
10.83023073046555
 30
0.0
 10
24.44675448997926
 20
10.81450041446555
 30
0.0
 10
24.45448393057926
 20
10.79166985286555
 30
0.0
 10
24.46220361177926
 20
10.77060430966555
 30
0.0
 10
24.46989072797926
 20
10.75209450806555
 30
0.0
 10
24.47658484537926
 20
10.73871836406555
 30
0.0
 10
24.48208516857926
 20
10.72994265606555
 30
0.0
 10
24.48599440497926
 20
10.72473526366555
 30
0.0
 10
24.48992151157926
 20
10.72059965266555
 30
0.0
 10
24.49388332877926
 20
10.71756689846555
 30
0.0
 10
24.49790732537926
 20
10.71567761266555
 30
0.0
 10
24.50068799857926
 20
10.71523425506555
 30
0.0
 10
24.50201547937926
 20
10.71523425506555
 30
0.0
  0
SPLINE
  5
D982
330
1F
100
AcDbEntity
  8
0
  6
CONTINUOUS
100
AcDbSpline
210
0.0
220
0.0
230
1.0
 70
     8
 71
     3
 72
    10
 73
     6
 74
     0
 42
0.0000001
 43
0.0000001
 40
0.0
 40
0.0
 40
0.0
 40
0.0
 40
0.2308947278
 40
0.4702998504
 40
1.0
 40
1.0
 40
1.0
 40
1.0
 10
55.40471592957925
 20
20.72379795906556
 30
0.0
 10
55.40303832597927
 20
20.72379795906556
 30
0.0
 10
55.39961247737926
 20
20.72414491286555
 30
0.0
 10
55.39261839577927
 20
20.72623144526555
 30
0.0
 10
55.38775613397927
 20
20.72918253346555
 30
0.0
 10
55.38468172937927
 20
20.73149768826556
 30
0.0
  0
LINE
  5
D983
330
1F
100
AcDbEntity
  8
0
  6
CONTINUOUS
100
AcDbLine
 10
55.34307072337926
 20
20.78467029466555
 30
0.0
 11
55.34171592957927
 21
20.78679795906555
 31
0.0
  0
SPLINE
  5
D984
330
1F
100
AcDbEntity
  8
0
  6
CONTINUOUS
100
AcDbSpline
210
0.0
220
0.0
230
1.0
 70
     8
 71
     3
 72
    10
 73
     6
 74
     0
 42
0.0000001
 43
0.0000001
 40
0.0
 40
0.0
 40
0.0
 40
0.0
 40
0.2308947278
 40
0.4702998504
 40
1.0
 40
1.0
 40
1.0
 40
1.0
 10
47.84300592957926
 20
20.72379795906556
 30
0.0
 10
47.84468353337925
 20
20.72379795906556
 30
0.0
 10
47.84810938177927
 20
20.72414491286555
 30
0.0
 10
47.85510346337927
 20
20.72623144526555
 30
0.0
 10
47.85996572537925
 20
20.72918253346555
 30
0.0
 10
47.86304012997925
 20
20.73149768826556
 30
0.0
  0
LINE
  5
D985
330
1F
100
AcDbEntity
  8
0
  6
CONTINUOUS
100
AcDbLine
 10
47.90465113577926
 20
20.78467029466555
 30
0.0
 11
47.90600592957927
 21
20.78679795906555
 31
0.0
  0
SPLINE
  5
D986
330
1F
100
AcDbEntity
  8
0
  6
CONTINUOUS
100
AcDbSpline
210
0.0
220
0.0
230
1.0
 70
     8
 71
     3
 72
    10
 73
     6
 74
     0
 42
0.0000001
 43
0.0000001
 40
0.0
 40
0.0
 40
0.0
 40
0.0
 40
0.2308947278
 40
0.4702998504
 40
1.0
 40
1.0
 40
1.0
 40
1.0
 10
47.84300592957926
 20
25.91096795906555
 30
0.0
 10
47.84468353337925
 20
25.91096795906555
 30
0.0
 10
47.84810938177927
 20
25.91062100526555
 30
0.0
 10
47.85510346337927
 20
25.90853447286555
 30
0.0
 10
47.85996572537925
 20
25.90558338466555
 30
0.0
 10
47.86304012997925
 20
25.90326822986555
 30
0.0
  0
LINE
  5
D987
330
1F
100
AcDbEntity
  8
0
  6
CONTINUOUS
100
AcDbLine
 10
47.90465113577926
 20
25.85009562366555
 30
0.0
 11
47.90600592957927
 21
25.84796795906556
 31
0.0
  0
SPLINE
  5
D988
330
1F
100
AcDbEntity
  8
0
  6
CONTINUOUS
100
AcDbSpline
210
0.0
220
0.0
230
1.0
 70
     8
 71
     3
 72
    10
 73
     6
 74
     0
 42
0.0000001
 43
0.0000001
 40
0.0
 40
0.0
 40
0.0
 40
0.0
 40
0.2308947278
 40
0.4702998504
 40
1.0
 40
1.0
 40
1.0
 40
1.0
 10
55.40471592957925
 20
25.91096795906555
 30
0.0
 10
55.40303832597927
 20
25.91096795906555
 30
0.0
 10
55.39961247737926
 20
25.91062100526555
 30
0.0
 10
55.39261839577927
 20
25.90853447286555
 30
0.0
 10
55.38775613397927
 20
25.90558338466555
 30
0.0
 10
55.38468172937927
 20
25.90326822986555
 30
0.0
  0
LINE
  5
D989
330
1F
100
AcDbEntity
  8
0
  6
CONTINUOUS
100
AcDbLine
 10
55.34307072337926
 20
25.85009562366555
 30
0.0
 11
55.34171592957927
 21
25.84796795906556
 31
0.0
  0
SPLINE
  5
D98A
330
1F
100
AcDbEntity
  8
0
  6
CONTINUOUS
100
AcDbSpline
210
0.0
220
0.0
230
1.0
 70
     8
 71
     3
 72
     9
 73
     5
 74
     0
 42
0.0000001
 43
0.0000001
 40
0.0
 40
0.0
 40
0.0
 40
0.0
 40
0.478582578
 40
1.0
 40
1.0
 40
1.0
 40
1.0
 10
55.40471592957925
 20
25.91096795906555
 30
0.0
 10
55.40471592957925
 20
25.90824598186556
 30
0.0
 10
55.40375821017926
 20
25.90253320026555
 30
0.0
 10
55.40124164717926
 20
25.89736212226556
 30
0.0
 10
55.39968810077926
 20
25.89483599866556
 30
0.0
  0
LINE
  5
D98B
330
1F
100
AcDbEntity
  8
0
  6
CONTINUOUS
100
AcDbLine
 10
55.34546590017926
 20
25.85035673746555
 30
0.0
 11
55.34310396537926
 21
25.84885169186555
 31
0.0
  0
LINE
  5
D98C
330
1F
100
AcDbEntity
  8
0
  6
CONTINUOUS
100
AcDbLine
 10
55.34310396537926
 20
25.84885169186555
 30
0.0
 11
55.34171592957927
 21
25.84796795906556
 31
0.0
  0
SPLINE
  5
D98D
330
1F
100
AcDbEntity
  8
0
  6
CONTINUOUS
100
AcDbSpline
210
0.0
220
0.0
230
1.0
 70
     8
 71
     3
 72
     9
 73
     5
 74
     0
 42
0.0000001
 43
0.0000001
 40
0.0
 40
0.0
 40
0.0
 40
0.0
 40
0.478582578
 40
1.0
 40
1.0
 40
1.0
 40
1.0
 10
55.40471592957925
 20
20.72379795906556
 30
0.0
 10
55.40471592957925
 20
20.72651993626555
 30
0.0
 10
55.40375821017926
 20
20.73223271786556
 30
0.0
 10
55.40124164717926
 20
20.73740379606556
 30
0.0
 10
55.39968810077926
 20
20.73992991946555
 30
0.0
  0
LINE
  5
D98E
330
1F
100
AcDbEntity
  8
0
  6
CONTINUOUS
100
AcDbLine
 10
55.34546590017926
 20
20.78440918066556
 30
0.0
 11
55.34310396537926
 21
20.78591422626555
 31
0.0
  0
LINE
  5
D98F
330
1F
100
AcDbEntity
  8
0
  6
CONTINUOUS
100
AcDbLine
 10
55.34310396537926
 20
20.78591422626555
 30
0.0
 11
55.34171592957927
 21
20.78679795906555
 31
0.0
  0
SPLINE
  5
D990
330
1F
100
AcDbEntity
  8
0
  6
CONTINUOUS
100
AcDbSpline
210
0.0
220
0.0
230
1.0
 70
     8
 71
     3
 72
     9
 73
     5
 74
     0
 42
0.0000001
 43
0.0000001
 40
0.0
 40
0.0
 40
0.0
 40
0.0
 40
0.478582578
 40
1.0
 40
1.0
 40
1.0
 40
1.0
 10
47.84300592957926
 20
20.72379795906556
 30
0.0
 10
47.84300592957926
 20
20.72651993626555
 30
0.0
 10
47.84396364917926
 20
20.73223271786556
 30
0.0
 10
47.84648021217926
 20
20.73740379606556
 30
0.0
 10
47.84803375837926
 20
20.73992991946555
 30
0.0
  0
LINE
  5
D991
330
1F
100
AcDbEntity
  8
0
  6
CONTINUOUS
100
AcDbLine
 10
47.90225595917926
 20
20.78440918066556
 30
0.0
 11
47.90461789397926
 21
20.78591422626555
 31
0.0
  0
LINE
  5
D992
330
1F
100
AcDbEntity
  8
0
  6
CONTINUOUS
100
AcDbLine
 10
47.90461789397926
 20
20.78591422626555
 30
0.0
 11
47.90600592957927
 21
20.78679795906555
 31
0.0
  0
SPLINE
  5
D993
330
1F
100
AcDbEntity
  8
0
  6
CONTINUOUS
100
AcDbSpline
210
0.0
220
0.0
230
1.0
 70
     8
 71
     3
 72
     9
 73
     5
 74
     0
 42
0.0000001
 43
0.0000001
 40
0.0
 40
0.0
 40
0.0
 40
0.0
 40
0.478582578
 40
1.0
 40
1.0
 40
1.0
 40
1.0
 10
47.84300592957926
 20
25.91096795906555
 30
0.0
 10
47.84300592957926
 20
25.90824598186556
 30
0.0
 10
47.84396364917926
 20
25.90253320026555
 30
0.0
 10
47.84648021217926
 20
25.89736212226556
 30
0.0
 10
47.84803375837926
 20
25.89483599866556
 30
0.0
  0
LINE
  5
D994
330
1F
100
AcDbEntity
  8
0
  6
CONTINUOUS
100
AcDbLine
 10
47.90225595917926
 20
25.85035673746555
 30
0.0
 11
47.90461789397926
 21
25.84885169186555
 31
0.0
  0
LINE
  5
D995
330
1F
100
AcDbEntity
  8
0
  6
CONTINUOUS
100
AcDbLine
 10
47.90461789397926
 20
25.84885169186555
 30
0.0
 11
47.90600592957927
 21
25.84796795906556
 31
0.0
  0
DIMENSION
  5
D997
330
1F
100
AcDbEntity
  8
DIM
100
AcDbDimension
  2
*D39
 10
40.74374496777926
 20
29.45547333097462
 30
0.0
 11
39.00913496777926
 21
29.45547333097462
 31
0.0
 70
    32
  3
STANDARD
100
AcDbAlignedDimension
 13
37.27452496777926
 23
26.47751639026556
 33
0.0
 14
40.74374496777926
 24
26.00451639026555
 34
0.0
100
AcDbRotatedDimension
1001
ACAD
1000
DSTYLE
1002
{
1070
   170
1070
     1
1070
   285
1070
     4
1070
    41
1040
0.13
1070
   271
1070
     2
1070
    44
1040
0.125
1070
    42
1040
0.05
1070
   147
1040
0.06
1070
   272
1070
     2
1070
   140
1040
0.25
1070
    78
1070
     4
1002
}
  0
DIMENSION
  5
D9A5
330
1F
100
AcDbEntity
  8
DIM
100
AcDbDimension
  2
*D40
 10
43.08915727000658
 20
20.82034639026555
 30
0.0
 11
43.08915727000658
 21
23.47393139026556
 31
0.0
 70
    32
  3
STANDARD
100
AcDbAlignedDimension
 13
40.62074496777926
 23
26.12751639026555
 33
0.0
 14
40.62074496777926
 24
20.82034639026555
 34
0.0
 50
90.0
100
AcDbRotatedDimension
1001
ACAD
1000
DSTYLE
1002
{
1070
   170
1070
     1
1070
   285
1070
     4
1070
    41
1040
0.13
1070
   271
1070
     2
1070
    44
1040
0.125
1070
    42
1040
0.05
1070
   147
1040
0.06
1070
   272
1070
     2
1070
   140
1040
0.25
1070
    78
1070
     4
1002
}
  0
DIMENSION
  5
D9B3
330
1F
100
AcDbEntity
  8
DIM
100
AcDbDimension
  2
*D41
 10
32.06072547937926
 20
29.2758480325382
 30
0.0
 11
28.21987047937926
 21
29.2758480325382
 31
0.0
 70
    32
  3
STANDARD
100
AcDbAlignedDimension
 13
24.37901547937926
 23
27.56751639026555
 33
0.0
 14
32.06072547937926
 24
27.56751639026555
 34
0.0
100
AcDbRotatedDimension
1001
ACAD
1000
DSTYLE
1002
{
1070
   170
1070
     1
1070
   285
1070
     4
1070
    41
1040
0.13
1070
   271
1070
     2
1070
    44
1040
0.125
1070
    42
1040
0.05
1070
   147
1040
0.06
1070
   272
1070
     2
1070
   140
1040
0.25
1070
    78
1070
     4
1002
}
  0
DIMENSION
  5
D9C1
330
1F
100
AcDbEntity
  8
DIM
100
AcDbDimension
  2
*D42
 10
34.03775322086445
 20
19.38034639026555
 30
0.0
 11
34.03775322086445
 21
23.47393139026555
 31
0.0
 70
    32
  3
STANDARD
100
AcDbAlignedDimension
 13
32.06072547937926
 23
27.56751639026555
 33
0.0
 14
32.06072547937926
 24
19.38034639026555
 34
0.0
 50
90.0
100
AcDbRotatedDimension
1001
ACAD
1000
DSTYLE
1002
{
1070
   170
1070
     1
1070
   285
1070
     4
1070
    41
1040
0.13
1070
   271
1070
     2
1070
    44
1040
0.125
1070
    42
1040
0.05
1070
   147
1040
0.06
1070
   272
1070
     2
1070
   140
1040
0.25
1070
    78
1070
     4
1002
}
  0
DIMENSION
  5
D9D0
330
1F
100
AcDbEntity
  8
DIM
100
AcDbDimension
  2
*D43
 10
26.64716402706785
 20
13.08354122084802
 30
0.0
 11
21.54011247502991
 21
11.92749174980119
 31
0.0
 70
   163
  1
{<>\PTYP 2 PL}
  3
STANDARD
100
AcDbDiametricDimension
 15
25.84057693169067
 25
12.81536728928308
 35
0.0
 40
0.0
1001
ACAD
1000
DSTYLE
1002
{
1070
   170
1070
     1
1070
   285
1070
     4
1070
    41
1040
0.13
1070
   271
1070
     2
1070
    44
1040
0.125
1070
    42
1040
0.05
1070
   147
1040
0.06
1070
   272
1070
     2
1070
   140
1040
0.25
1070
    78
1070
     4
1002
}
1001
ACAD_DSTYLE_DIMRADIAL_EXTE
1070
   387
1070
     1
1070
   388
1040
0.0
1070
   390
1040
6.283185307179586
  0
DIMENSION
  5
D9DC
330
1F
100
AcDbEntity
  8
DIM
100
AcDbDimension
  2
*D44
 10
29.80730394788423
 20
12.65075476897095
 30
0.0
 11
33.72469373950495
 21
14.91067423513516
 31
0.0
 70
   163
  1
{<>\PTYP 2 PL}
  3
STANDARD
100
AcDbDiametricDimension
 15
30.4119645700743
 25
13.24815374116016
 35
0.0
 40
0.0
1001
ACAD
1000
DSTYLE
1002
{
1070
   170
1070
     1
1070
   285
1070
     4
1070
    41
1040
0.13
1070
   271
1070
     2
1070
    44
1040
0.125
1070
    42
1040
0.05
1070
   147
1040
0.06
1070
   272
1070
     2
1070
   140
1040
0.25
1070
    78
1070
     4
1002
}
1001
ACAD_DSTYLE_DIMRADIAL_EXTE
1070
   387
1070
     1
1070
   388
1040
4.328082916440266
1070
   390
1040
1.95510239073932
  0
DIMENSION
  5
D9E8
330
1F
100
AcDbEntity
  8
DIM
100
AcDbDimension
  2
*D45
 10
29.64625280542242
 20
12.61354167911227
 30
0.0
 11
26.50289289377253
 21
15.1503496737932
 31
0.0
 70
   163
  1
{<>\PTYP 2 PL}
  3
STANDARD
100
AcDbDiametricDimension
 15
29.2344337125361
 25
13.28536683101884
 35
0.0
 40
0.0
1001
ACAD
1000
DSTYLE
1002
{
1070
   170
1070
     1
1070
   285
1070
     4
1070
    41
1040
0.13
1070
   271
1070
     2
1070
    44
1040
0.125
1070
    42
1040
0.05
1070
   147
1040
0.06
1070
   272
1070
     2
1070
   140
1040
0.25
1070
    78
1070
     4
1002
}
1001
ACAD_DSTYLE_DIMRADIAL_EXTE
1070
   387
1070
     1
1070
   388
1040
1.570796326794897
1070
   390
1040
4.71238898038469
  0
DIMENSION
  5
D9F4
330
1F
100
AcDbEntity
  8
DIM
100
AcDbDimension
  2
*D46
 10
30.10963425897926
 20
16.21144748895156
 30
0.0
 11
32.12394106344058
 21
16.21144748895156
 31
0.0
 70
   160
  1
{<>\PTYP 2 PL}
  3
STANDARD
100
AcDbAlignedDimension
 13
29.44034325897926
 23
12.76945425506555
 33
0.0
 14
30.10963425897926
 24
12.76945425506555
 34
0.0
100
AcDbRotatedDimension
1001
ACAD
1000
DSTYLE
1002
{
1070
   170
1070
     1
1070
   285
1070
     4
1070
    41
1040
0.13
1070
   271
1070
     2
1070
    44
1040
0.125
1070
    42
1040
0.05
1070
   147
1040
0.06
1070
   272
1070
     2
1070
   140
1040
0.25
1070
    78
1070
     4
1002
}
  0
INSERT
  5
DA3F
330
1F
100
AcDbEntity
  8
TB-TXT
100
AcDbBlockReference
 66
     1
  2
REV-BLOCK
 10
67.0
 20
40.81285639069964
 30
0.0
 41
1.939393939393938
 42
1.939393939393938
 43
1.939393939393938
  0
ATTRIB
  5
DA40
330
DA3F
100
AcDbEntity
  8
TB-TXT
100
AcDbText
 10
52.56980840999175
 20
40.25695546346632
 30
0.0
 40
0.32
  1
B
  7
ARIAL
 72
     1
 11
52.71876840999175
 21
40.41695546346632
 31
0.0
100
AcDbAttribute
  2
REV
 70
     0
 74
     2
  0
ATTRIB
  5
DA41
330
DA3F
100
AcDbEntity
  8
TB-TXT
100
AcDbText
 10
53.3831453163983
 20
40.28710474900695
 30
0.0
 40
0.32
  1
22712
  7
ARIAL
100
AcDbAttribute
  2
ECN
 70
     0
  0
ATTRIB
  5
DA42
330
DA3F
100
AcDbEntity
  8
TB-TXT
100
AcDbText
 10
54.73059638806049
 20
40.29176520310737
 30
0.0
 40
0.32
  1
FIXED DIMS, CHANGED SCALE
  7
ARIAL
100
AcDbAttribute
  2
DESCRIPTION
 70
     0
  0
ATTRIB
  5
DA43
330
DA3F
100
AcDbEntity
  8
TB-TXT
100
AcDbText
 10
62.36006909815872
 20
40.25695546346632
 30
0.0
 40
0.32
  1
 08/19/14
  7
ARIAL
 72
     1
 11
63.29126909815872
 21
40.41695546346632
 31
0.0
100
AcDbAttribute
  2
REV-DATE
 70
     0
 74
     2
  0
ATTRIB
  5
DA44
330
DA3F
100
AcDbEntity
  8
TB-TXT
100
AcDbText
 10
64.4741535212649
 20
40.25695546346632
 30
0.0
 40
0.32
  1
J. PORTER
  7
ARIAL
 72
     1
 11
65.6407135212649
 21
40.41695546346632
 31
0.0
100
AcDbAttribute
  2
APPR
 70
     0
 74
     2
  0
SEQEND
  5
DA45
330
DA3F
100
AcDbEntity
  8
TB-TXT
  0
ENDSEC
  0
SECTION
  2
OBJECTS
  0
DICTIONARY
  5
C
330
0
100
AcDbDictionary
  3
ACAD_GROUP
350
D
  3
ACAD_IMAGE_VARS
350
1B87
  3
ACAD_MLINESTYLE
350
17
  3
ACAD_SCALELIST
350
DA03
  3
ACDBVARIABLEDICTIONARY
350
963
  3
APPDATA
350
1B86
  3
DWGPROPS
350
DA4C
  0
DICTIONARY
  5
1B88
330
2
100
AcDbDictionary
280
     1
  3
ACAD_LAYERSTATES
360
1B89
  0
DICTIONARY
  5
D
102
{ACAD_REACTORS
330
C
102
}
330
C
100
AcDbDictionary
  0
RASTERVARIABLES
  5
1B87
102
{ACAD_REACTORS
330
C
102
}
330
C
100
AcDbRasterVariables
 90
        0
 70
     1
 71
     1
 72
     5
  0
DICTIONARY
  5
17
102
{ACAD_REACTORS
330
C
102
}
330
C
100
AcDbDictionary
  3
STANDARD
350
18
  0
DICTIONARY
  5
DA03
102
{ACAD_REACTORS
330
C
102
}
330
C
100
AcDbDictionary
  0
DICTIONARY
  5
963
102
{ACAD_REACTORS
330
C
102
}
330
C
100
AcDbDictionary
  3
CANNOSCALE
350
DA48
  3
DIMASSOC
350
969
  0
DICTIONARY
  5
1B86
102
{ACAD_REACTORS
330
C
102
}
330
C
100
AcDbDictionary
  0
XRECORD
  5
DA4C
102
{ACAD_REACTORS
330
C
102
}
330
C
100
AcDbXrecord
  1
DWGPROPS COOKIE
  2

  3

  4

  6

  7

  8
jporter
  9

300
=
301
=
302
=
303
=
304
=
305
=
306
=
307
=
308
=
309
=
 40
0.0
 41
2456454.886919653
 42
2456889.782797951
  1

 90
        0
  0
DICTIONARY
  5
1B89
102
{ACAD_REACTORS
330
1B88
102
}
330
1B88
100
AcDbDictionary
  0
MLINESTYLE
  5
18
102
{ACAD_REACTORS
330
17
102
}
330
17
100
AcDbMlineStyle
  2
STANDARD
 70
     0
  3

 62
   256
 51
90.0
 52
90.0
 71
     2
 49
0.5
 62
   256
  6
BYLAYER
 49
-0.5
 62
   256
  6
BYLAYER
  0
DICTIONARYVAR
  5
DA48
102
{ACAD_REACTORS
330
963
102
}
330
963
100
DictionaryVariables
280
     0
  1
1:1
  0
DICTIONARYVAR
  5
969
102
{ACAD_REACTORS
330
963
102
}
330
963
100
DictionaryVariables
280
     0
  1
1
  0
ENDSEC
  0
EOF
