999
DXF file: R:\Mech\DEV\_2011\Talismon\Engineering\ProE\10 Table&Wall Data for JMP\sp5968-84_3_REV-B.dxf
999
Pro/ENGINEER 2014200 by Parametric Technology Corporation
  0
SECTION
  2
HEADER
  9
$ACADVER
  1
AC1014
  9
$DWGCODEPAGE
  3
ANSI_1252
  9
$EXTMAX
 10
34.0
 20
22.0
 30
0.0
  9
$EXTMIN
 10
0.0
 20
0.0
 30
0.0
  9
$LIMMIN
 10
0.0
 20
0.0
  9
$LIMMAX
 10
34.0
 20
22.0
  9
$VIEWCTR
 10
17.0
 20
11.0
  9
$VIEWSIZE
 40
22.0
  9
$CLAYER
  8
0
  9
$LTSCALE
 40
1.87
  9
$CELTYPE
  6
BYLAYER
  9
$DIMSCALE
 40
1.0
  9
$DIMASZ
 40
0.1875
  9
$DIMEXO
 40
0.0625
  9
$DIMDLI
 40
1.292
  9
$DIMEXE
 40
0.125
  9
$DIMCEN
 40
0.306
  9
$DIMLFAC
 40
1.0
  9
$DIMBLK
  1
_ARROW_FILLED
  9
$DIMTXT
 40
0.15
  9
$DIMTOL
 70
1
  9
$DIMLIM
 70
0
  9
$DIMTFAC
 40
1.0
  9
$DIMTP
 40
0.001
  9
$DIMTM
 40
0.001
  9
$DIMGAP
 40
0.09
  9
$AUNITS
 70
0
  9
$PDMODE
 70
3
  9
$PDSIZE
 40
0.3125
  9
$HANDSEED
  5
4F2
  9
$TILEMODE
 70
1
  9
$MEASUREMENT
 70
0
  0
ENDSEC
  0
SECTION
  2
CLASSES
  0
ENDSEC
  0
SECTION
  2
TABLES
  0
TABLE
  2
VPORT
  5
8
100
AcDbSymbolTable
 70
2
  0
VPORT
  5
1F4
100
AcDbSymbolTableRecord
100
AcDbViewportTableRecord
  2
*ACTIVE
 70
0
 10
0.0
 20
0.0
 11
1.0
 21
1.0
 12
17.0
 22
11.0
 13
0.0
 23
0.0
 14
1.0
 24
1.0
 15
0.0
 25
0.0
 16
0.0
 26
0.0
 36
1.0
 17
0.0
 27
0.0
 37
0.0
 40
22.0
 41
1.5454545455
 42
50.0
 43
0.0
 44
0.0
 50
0.0
 51
0.0
 71
0
 72
100
 73
1
 74
1
 75
0
 76
0
 77
0
 78
0
  0
ENDTAB
  0
TABLE
  2
LTYPE
  5
5
100
AcDbSymbolTable
 70
6
  0
LTYPE
  5
14
100
AcDbSymbolTableRecord
100
AcDbLinetypeTableRecord
  2
BYBLOCK
 70
0
  3

 72
65
 73
0
 40
0.0
  0
LTYPE
  5
15
100
AcDbSymbolTableRecord
100
AcDbLinetypeTableRecord
  2
BYLAYER
 70
0
  3

 72
65
 73
0
 40
0.0
  0
LTYPE
  5
16
100
AcDbSymbolTableRecord
100
AcDbLinetypeTableRecord
  2
CONTINUOUS
 70
64
  3
Solid line
 72
65
 73
0
 40
0.0
  0
LTYPE
  5
1F5
100
AcDbSymbolTableRecord
100
AcDbLinetypeTableRecord
  2
CENTER
 70
64
  3
____ _ ____ _ ____ _ ____ _ ____ _ ____ _ ____
 72
65
 73
4
 40
0.6
 49
0.375
 74
0
 49
-0.075
 74
0
 49
0.075
 74
0
 49
-0.075
 74
0
  0
LTYPE
  5
1F6
100
AcDbSymbolTableRecord
100
AcDbLinetypeTableRecord
  2
HIDDEN
 70
64
  3
- - - - - - - - - - - - - - - - - - - -
 72
65
 73
2
 40
0.2
 49
0.1
 74
0
 49
-0.1
 74
0
  0
LTYPE
  5
1F7
100
AcDbSymbolTableRecord
100
AcDbLinetypeTableRecord
  2
PHANTOM
 70
64
  3
_____ _ _ _____ _ _ _____ _ _ _____
 72
65
 73
6
 40
0.8
 49
0.45
 74
0
 49
-0.05
 74
0
 49
0.1
 74
0
 49
-0.05
 74
0
 49
0.1
 74
0
 49
-0.05
 74
0
  0
LTYPE
  5
1F8
100
AcDbSymbolTableRecord
100
AcDbLinetypeTableRecord
  2
DOT
 70
64
  3
. . . . . . . . . . . . . . . . . . . .
 72
65
 73
2
 40
0.2
 49
0.1
 74
0
 49
-0.1
 74
0
  0
LTYPE
  5
1F9
100
AcDbSymbolTableRecord
100
AcDbLinetypeTableRecord
  2
DASHED
 70
64
  3
- - - - - - - - - - - - - - - - - - - -
 72
65
 73
2
 40
0.2
 49
0.1
 74
0
 49
-0.1
 74
0
  0
ENDTAB
  0
TABLE
  2
LAYER
  5
2
100
AcDbSymbolTable
 70
36
  0
LAYER
  5
10
100
AcDbSymbolTableRecord
100
AcDbLayerTableRecord
  2
0
 70
0
 62
7
  6
CONTINUOUS
  0
LAYER
  5
1FA
100
AcDbSymbolTableRecord
100
AcDbLayerTableRecord
  2
DEFAULT_1
 70
0
 62
7
  6
CENTER
  0
LAYER
  5
1FB
100
AcDbSymbolTableRecord
100
AcDbLayerTableRecord
  2
DEFAULT_2
 70
0
 62
8
  6
HIDDEN
  0
LAYER
  5
1FC
100
AcDbSymbolTableRecord
100
AcDbLayerTableRecord
  2
DEFAULT_3
 70
0
 62
7
  6
PHANTOM
  0
LAYER
  5
1FD
100
AcDbSymbolTableRecord
100
AcDbLayerTableRecord
  2
01_ALL_DTM_PLN
 70
0
 62
7
  6
CONTINUOUS
  0
LAYER
  5
1FE
100
AcDbSymbolTableRecord
100
AcDbLayerTableRecord
  2
01__ASM_ALL_DTM_PLN
 70
0
 62
7
  6
CONTINUOUS
  0
LAYER
  5
1FF
100
AcDbSymbolTableRecord
100
AcDbLayerTableRecord
  2
01__ASM_DEF_DTM_PLN
 70
0
 62
7
  6
CONTINUOUS
  0
LAYER
  5
200
100
AcDbSymbolTableRecord
100
AcDbLayerTableRecord
  2
01___PRT_ALL_DTM_PLN
 70
0
 62
7
  6
CONTINUOUS
  0
LAYER
  5
201
100
AcDbSymbolTableRecord
100
AcDbLayerTableRecord
  2
01___PRT_DEF_DTM_PLN
 70
0
 62
7
  6
CONTINUOUS
  0
LAYER
  5
202
100
AcDbSymbolTableRecord
100
AcDbLayerTableRecord
  2
02_ALL_AXES
 70
0
 62
7
  6
CONTINUOUS
  0
LAYER
  5
203
100
AcDbSymbolTableRecord
100
AcDbLayerTableRecord
  2
02__ASM_ALL_AXES
 70
0
 62
7
  6
CONTINUOUS
  0
LAYER
  5
204
100
AcDbSymbolTableRecord
100
AcDbLayerTableRecord
  2
02___PRT_ALL_AXES
 70
0
 62
7
  6
CONTINUOUS
  0
LAYER
  5
205
100
AcDbSymbolTableRecord
100
AcDbLayerTableRecord
  2
03_ALL_CURVES
 70
0
 62
7
  6
CONTINUOUS
  0
LAYER
  5
206
100
AcDbSymbolTableRecord
100
AcDbLayerTableRecord
  2
03__ASM_ALL_CURVES
 70
0
 62
7
  6
CONTINUOUS
  0
LAYER
  5
207
100
AcDbSymbolTableRecord
100
AcDbLayerTableRecord
  2
03___PRT_ALL_CURVES
 70
0
 62
7
  6
CONTINUOUS
  0
LAYER
  5
208
100
AcDbSymbolTableRecord
100
AcDbLayerTableRecord
  2
04_ALL_DTM_PNT
 70
0
 62
7
  6
CONTINUOUS
  0
LAYER
  5
209
100
AcDbSymbolTableRecord
100
AcDbLayerTableRecord
  2
04__ASM_ALL_DTM_PNT
 70
0
 62
7
  6
CONTINUOUS
  0
LAYER
  5
20A
100
AcDbSymbolTableRecord
100
AcDbLayerTableRecord
  2
04___PRT_ALL_DTM_PNT
 70
0
 62
7
  6
CONTINUOUS
  0
LAYER
  5
20B
100
AcDbSymbolTableRecord
100
AcDbLayerTableRecord
  2
05_ALL_DTM_CSYS
 70
0
 62
7
  6
CONTINUOUS
  0
LAYER
  5
20C
100
AcDbSymbolTableRecord
100
AcDbLayerTableRecord
  2
05__ASM_ALL_DTM_CSYS
 70
0
 62
7
  6
CONTINUOUS
  0
LAYER
  5
20D
100
AcDbSymbolTableRecord
100
AcDbLayerTableRecord
  2
05__ASM_DEF_DTM_CSYS
 70
0
 62
7
  6
CONTINUOUS
  0
LAYER
  5
20E
100
AcDbSymbolTableRecord
100
AcDbLayerTableRecord
  2
05___PRT_ALL_DTM_CSYS
 70
0
 62
7
  6
CONTINUOUS
  0
LAYER
  5
20F
100
AcDbSymbolTableRecord
100
AcDbLayerTableRecord
  2
05___PRT_DEF_DTM_CSYS
 70
0
 62
7
  6
CONTINUOUS
  0
LAYER
  5
210
100
AcDbSymbolTableRecord
100
AcDbLayerTableRecord
  2
06_ALL_SURFS
 70
0
 62
7
  6
CONTINUOUS
  0
LAYER
  5
211
100
AcDbSymbolTableRecord
100
AcDbLayerTableRecord
  2
06__ASM_ALL_SURFS
 70
0
 62
7
  6
CONTINUOUS
  0
LAYER
  5
212
100
AcDbSymbolTableRecord
100
AcDbLayerTableRecord
  2
06___PRT_ALL_SURFS
 70
0
 62
7
  6
CONTINUOUS
  0
LAYER
  5
213
100
AcDbSymbolTableRecord
100
AcDbLayerTableRecord
  2
07__ASM_ALL_SKELETONS
 70
0
 62
7
  6
CONTINUOUS
  0
LAYER
  5
214
100
AcDbSymbolTableRecord
100
AcDbLayerTableRecord
  2
2
 70
0
 62
7
  6
CONTINUOUS
  0
LAYER
  5
215
100
AcDbSymbolTableRecord
100
AcDbLayerTableRecord
  2
ALL_ASM_MEM
 70
0
 62
7
  6
CONTINUOUS
  0
LAYER
  5
216
100
AcDbSymbolTableRecord
100
AcDbLayerTableRecord
  2
ALL_AXIS
 70
0
 62
7
  6
CONTINUOUS
  0
LAYER
  5
217
100
AcDbSymbolTableRecord
100
AcDbLayerTableRecord
  2
ALL_FEATURES
 70
0
 62
7
  6
CONTINUOUS
  0
LAYER
  5
218
100
AcDbSymbolTableRecord
100
AcDbLayerTableRecord
  2
ALL_GEOM_FEAT
 70
0
 62
7
  6
CONTINUOUS
  0
LAYER
  5
219
100
AcDbSymbolTableRecord
100
AcDbLayerTableRecord
  2
ALL_POINTS
 70
0
 62
7
  6
CONTINUOUS
  0
LAYER
  5
21A
100
AcDbSymbolTableRecord
100
AcDbLayerTableRecord
  2
AXIS
 70
0
 62
7
  6
CONTINUOUS
  0
LAYER
  5
21B
100
AcDbSymbolTableRecord
100
AcDbLayerTableRecord
  2
CHAMFERS
 70
0
 62
7
  6
CONTINUOUS
  0
LAYER
  5
21C
100
AcDbSymbolTableRecord
100
AcDbLayerTableRecord
  2
COORDINATES
 70
0
 62
7
  6
CONTINUOUS
  0
LAYER
  5
21D
100
AcDbSymbolTableRecord
100
AcDbLayerTableRecord
  2
COSM_SKETCH
 70
0
 62
7
  6
CONTINUOUS
  0
LAYER
  5
21E
100
AcDbSymbolTableRecord
100
AcDbLayerTableRecord
  2
CURVES
 70
0
 62
7
  6
CONTINUOUS
  0
LAYER
  5
21F
100
AcDbSymbolTableRecord
100
AcDbLayerTableRecord
  2
DETAIL
 70
0
 62
7
  6
CONTINUOUS
  0
LAYER
  5
220
100
AcDbSymbolTableRecord
100
AcDbLayerTableRecord
  2
FEATURES
 70
0
 62
7
  6
CONTINUOUS
  0
LAYER
  5
221
100
AcDbSymbolTableRecord
100
AcDbLayerTableRecord
  2
FORMAT
 70
0
 62
7
  6
CONTINUOUS
  0
LAYER
  5
222
100
AcDbSymbolTableRecord
100
AcDbLayerTableRecord
  2
PLANES
 70
0
 62
7
  6
CONTINUOUS
  0
LAYER
  5
223
100
AcDbSymbolTableRecord
100
AcDbLayerTableRecord
  2
POINTS
 70
0
 62
7
  6
CONTINUOUS
  0
LAYER
  5
224
100
AcDbSymbolTableRecord
100
AcDbLayerTableRecord
  2
QUILTS
 70
0
 62
7
  6
CONTINUOUS
  0
LAYER
  5
225
100
AcDbSymbolTableRecord
100
AcDbLayerTableRecord
  2
RIBS
 70
0
 62
7
  6
CONTINUOUS
  0
LAYER
  5
226
100
AcDbSymbolTableRecord
100
AcDbLayerTableRecord
  2
ROUNDS
 70
0
 62
7
  6
CONTINUOUS
  0
LAYER
  5
227
100
AcDbSymbolTableRecord
100
AcDbLayerTableRecord
  2
SURFACES
 70
0
 62
7
  6
CONTINUOUS
  0
LAYER
  5
228
100
AcDbSymbolTableRecord
100
AcDbLayerTableRecord
  2
THREADS
 70
0
 62
7
  6
CONTINUOUS
  0
LAYER
  5
229
100
AcDbSymbolTableRecord
100
AcDbLayerTableRecord
  2
XSEC_DATUMS
 70
0
 62
7
  6
CONTINUOUS
  0
ENDTAB
  0
TABLE
  2
STYLE
  5
3
100
AcDbSymbolTable
 70
1
  0
STYLE
  5
11
100
AcDbSymbolTableRecord
100
AcDbTextStyleTableRecord
  2
STANDARD
 70
0
 40
0.0
 41
0.8
 50
0.0
 71
0
 42
0.2
  3
txt
  4

  0
STYLE
  5
22A
100
AcDbSymbolTableRecord
100
AcDbTextStyleTableRecord
  2
TEXTSTYLE_1
 70
0
 40
0.0
 41
0.8
 50
0.0
 71
0
 42
0.2
  3
gdt
  4

  0
STYLE
  5
22B
100
AcDbSymbolTableRecord
100
AcDbTextStyleTableRecord
  2
TEXTSTYLE_2
 70
0
 40
0.0
 41
0.8
 50
0.0
 71
0
 42
0.2
  3
txt
  4

  0
STYLE
  5
22C
100
AcDbSymbolTableRecord
100
AcDbTextStyleTableRecord
  2
TEXTSTYLE_3
 70
0
 40
0.0
 41
1.4
 50
0.0
 71
0
 42
0.2
  3
txt
  4

  0
STYLE
  5
22D
100
AcDbSymbolTableRecord
100
AcDbTextStyleTableRecord
  2
TEXTSTYLE_4
 70
0
 40
0.0
 41
0.65
 50
0.0
 71
0
 42
0.2
  3
txt
  4

  0
ENDTAB
  0
TABLE
  2
VIEW
  5
6
100
AcDbSymbolTable
 70
0
  0
ENDTAB
  0
TABLE
  2
UCS
  5
7
100
AcDbSymbolTable
 70
0
  0
ENDTAB
  0
TABLE
  2
APPID
  5
9
100
AcDbSymbolTable
 70
1
  0
APPID
  5
22E
100
AcDbSymbolTableRecord
100
AcDbRegAppTableRecord
  2
ACAD
 70
0
  0
ENDTAB
  0
TABLE
  2
BLOCK_RECORD
  5
1
100
AcDbSymbolTable
 70
0
  0
BLOCK_RECORD
  5
1F
100
AcDbSymbolTableRecord
100
AcDbBlockTableRecord
  2
*MODEL_SPACE
  0
BLOCK_RECORD
  5
1B
100
AcDbSymbolTableRecord
100
AcDbBlockTableRecord
  2
*PAPER_SPACE
  0
BLOCK_RECORD
  5
22F
100
AcDbSymbolTableRecord
100
AcDbBlockTableRecord
  2
_ARROW_FILLED
  0
BLOCK_RECORD
  5
230
100
AcDbSymbolTableRecord
100
AcDbBlockTableRecord
  2
_DOT
  0
BLOCK_RECORD
  5
231
100
AcDbSymbolTableRecord
100
AcDbBlockTableRecord
  2
*D0
  0
BLOCK_RECORD
  5
232
100
AcDbSymbolTableRecord
100
AcDbBlockTableRecord
  2
*D1
  0
ENDTAB
  0
TABLE
  2
DIMSTYLE
  5
A
100
AcDbSymbolTable
 70
1
  0
DIMSTYLE
105
233
100
AcDbSymbolTableRecord
100
AcDbDimStyleTableRecord
  2
STANDARD
 70
0
  3

  4

  5
_ARROW_FILLED
  6
_ARROW_FILLED
  7
_ARROW_FILLED
 40
1.0
 41
0.1875
 42
0.0625
 43
0.38
 44
0.125
 45
0.0
 46
0.0
 47
0.001
 48
0.001
140
0.15
141
0.09
142
0.0
143
25.4
144
1.0
145
0.0
146
1.0
147
0.09
 71
1.0
 72
0.0
 73
1
 74
1
 75
0
 76
0
 77
0
 78
4
170
0
171
2
172
0
173
0
174
0
175
0
176
0
177
0
178
0
270
2
271
3
272
3
273
2
274
2
275
0
280
0
281
0
282
0
283
1
284
4
285
0
286
0
287
3
288
0
340
11
  0
DIMSTYLE
105
234
100
AcDbSymbolTableRecord
100
AcDbDimStyleTableRecord
  2
DIMSTYLE_1
 70
0
  3

  4

  5
_ARROW_FILLED
  6
_ARROW_FILLED
  7
_ARROW_FILLED
 40
1.0
 41
0.1875
 42
0.0625
 43
0.38
 44
0.125
 45
0.0
 46
0.0
 47
0.01
 48
0.01
140
0.15
141
0.09
142
0.0
143
25.4
144
1.0
145
0.0
146
1.0
147
0.075
 71
0.0
 72
0.0
 73
1
 74
1
 75
0
 76
0
 77
0
 78
4
170
0
171
2
172
0
173
0
174
0
175
0
176
0
177
0
178
0
270
2
271
3
272
3
273
2
274
2
275
0
280
0
281
0
282
0
283
1
284
4
285
0
286
0
287
3
288
0
340
11
  0
ENDTAB
  0
ENDSEC
  0
SECTION
  2
BLOCKS
  0
BLOCK
  5
20
100
AcDbEntity
  8
0
100
AcDbBlockBegin
  2
*MODEL_SPACE
 70
0
 10
0.0
 20
0.0
 30
0.0
  3
*MODEL_SPACE
  1

  0
ENDBLK
  5
21
100
AcDbEntity
  8
0
100
AcDbBlockEnd
  0
BLOCK
  5
1C
100
AcDbEntity
  8
0
100
AcDbBlockBegin
  2
*PAPER_SPACE
 70
0
 10
0.0
 20
0.0
 30
0.0
  3
*PAPER_SPACE
  1

  0
ENDBLK
  5
1D
100
AcDbEntity
  8
0
100
AcDbBlockEnd
  0
BLOCK
  5
235
100
AcDbEntity
  8
0
100
AcDbBlockBegin
  2
_ARROW_FILLED
 70
64
 10
0.0
 20
0.0
  3
_ARROW_FILLED
  1

  0
SOLID
  5
236
100
AcDbEntity
  8
0
  6
BYBLOCK
 62
0
100
AcDbTrace
 10
0.0
 20
0.0
 11
-1.0
 21
0.1666666667
 12
-1.0
 22
-0.1666666667
 13
-1.0
 23
-0.1666666667
  0
ENDBLK
  5
237
100
AcDbEntity
  8
0
  6
BYBLOCK
 62
0
100
AcDbBlockEnd
  0
BLOCK
  5
238
100
AcDbEntity
  8
0
100
AcDbBlockBegin
  2
_DOT
 70
64
 10
0.0
 20
0.0
  3
_DOT
  1

  0
LWPOLYLINE
  5
239
100
AcDbEntity
  8
0
  6
BYBLOCK
 62
0
100
AcDbPolyline
 90
2
 70
1
 43
0.1666666667
 10
-0.0833333333
 20
0.0
 42
1.0
 10
0.0833333333
 20
0.0
 42
1.0
  0
LINE
  5
23A
100
AcDbEntity
  8
0
  6
BYBLOCK
 62
0
100
AcDbLine
 10
-0.1666666667
 20
0.0
 11
-1.0
 21
0.0
  0
ENDBLK
  5
23B
100
AcDbEntity
  8
0
  6
BYBLOCK
 62
0
100
AcDbBlockEnd
  0
BLOCK
  5
23C
100
AcDbEntity
  8
0
100
AcDbBlockBegin
 62
2
  6
CONTINUOUS
  2
*D0
 70
65
 10
0.0
 20
0.0
  3
*D0
  1

  0
MTEXT
  5
23D
100
AcDbEntity
  8
0
100
AcDbMText
 62
2
  6
CONTINUOUS
  7
STANDARD
 71
2
 72
1
 10
24.7467015209
 20
19.2223663498
 30
0.0
 11
1.0
 21
0.0
 31
0.0
  1
10.401\P[264,19]
 40
0.15
 41
0.96
  0
LINE
  5
23E
100
AcDbEntity
  8
0
100
AcDbLine
 62
2
  6
CONTINUOUS
 10
19.6661015209
 20
17.4077427376
 11
19.6661015209
 21
19.2723663498
  0
LINE
  5
23F
100
AcDbEntity
  8
0
100
AcDbLine
 62
2
  6
CONTINUOUS
 10
30.0673015209
 20
17.4077427376
 11
30.0673015209
 21
19.2723663498
  0
LINE
  5
240
100
AcDbEntity
  8
0
100
AcDbLine
 62
2
  6
CONTINUOUS
 10
19.6661015209
 20
19.1473663498
 11
24.3117015209
 21
19.1473663498
  0
LINE
  5
241
100
AcDbEntity
  8
0
100
AcDbLine
 62
2
  6
CONTINUOUS
 10
30.0673015209
 20
19.1473663498
 11
25.4217015209
 21
19.1473663498
  0
INSERT
  5
242
100
AcDbEntity
  8
0
100
AcDbBlockReference
 62
2
  6
CONTINUOUS
  2
_ARROW_FILLED
 10
19.6661015209
 20
19.1473663498
 41
0.1875
 42
0.1875
 43
0.1875
 50
180.0
  0
INSERT
  5
243
100
AcDbEntity
  8
0
100
AcDbBlockReference
 62
2
  6
CONTINUOUS
  2
_ARROW_FILLED
 10
30.0673015209
 20
19.1473663498
 41
0.1875
 42
0.1875
 43
0.1875
  0
ENDBLK
  5
244
100
AcDbEntity
  8
0
  6
BYBLOCK
 62
0
100
AcDbBlockEnd
  0
BLOCK
  5
245
100
AcDbEntity
  8
0
100
AcDbBlockBegin
 62
2
  6
CONTINUOUS
  2
*D1
 70
65
 10
0.0
 20
0.0
  3
*D1
  1

  0
MTEXT
  5
246
100
AcDbEntity
  8
0
100
AcDbMText
 62
2
  6
CONTINUOUS
  7
STANDARD
 71
2
 72
1
 10
30.9114163498
 20
13.7830127376
 30
0.0
 11
1.0
 21
0.0
 31
0.0
  1
7.274\P[184,77]
 40
0.15
 41
0.96
  0
LINE
  5
247
100
AcDbEntity
  8
0
100
AcDbLine
 62
2
  6
CONTINUOUS
 10
30.1298015209
 20
17.3452427376
 11
31.2164163498
 21
17.3452427376
  0
LINE
  5
248
100
AcDbEntity
  8
0
100
AcDbLine
 62
2
  6
CONTINUOUS
 10
30.1298015209
 20
10.0707827376
 11
31.2164163498
 21
10.0707827376
  0
LINE
  5
249
100
AcDbEntity
  8
0
100
AcDbLine
 62
2
  6
CONTINUOUS
 10
31.0914163498
 20
17.3452427376
 11
31.0914163498
 21
13.8580127376
  0
LINE
  5
24A
100
AcDbEntity
  8
0
100
AcDbLine
 62
2
  6
CONTINUOUS
 10
31.0914163498
 20
10.0707827376
 11
31.0914163498
 21
13.3330127376
  0
INSERT
  5
24B
100
AcDbEntity
  8
0
100
AcDbBlockReference
 62
2
  6
CONTINUOUS
  2
_ARROW_FILLED
 10
31.0914163498
 20
17.3452427376
 41
0.1875
 42
0.1875
 43
0.1875
 50
90.0
  0
INSERT
  5
24C
100
AcDbEntity
  8
0
100
AcDbBlockReference
 62
2
  6
CONTINUOUS
  2
_ARROW_FILLED
 10
31.0914163498
 20
10.0707827376
 41
0.1875
 42
0.1875
 43
0.1875
 50
270.0
  0
ENDBLK
  5
24D
100
AcDbEntity
  8
0
  6
BYBLOCK
 62
0
100
AcDbBlockEnd
  0
ENDSEC
  0
SECTION
  2
ENTITIES
  0
MTEXT
  5
24E
100
AcDbEntity
  8
FORMAT
100
AcDbMText
 62
2
  6
CONTINUOUS
  7
TEXTSTYLE_2
 71
1
 72
1
 10
33.45
 20
2.875
 30
0.0
 11
1.0
 21
0.0
 31
0.0
  1
4
 40
0.25
 41
0.3
  0
MTEXT
  5
24F
100
AcDbEntity
  8
FORMAT
100
AcDbMText
 62
2
  6
CONTINUOUS
  7
TEXTSTYLE_2
 71
1
 72
1
 10
33.45
 20
8.375
 30
0.0
 11
1.0
 21
0.0
 31
0.0
  1
3
 40
0.25
 41
0.275
  0
MTEXT
  5
250
100
AcDbEntity
  8
FORMAT
100
AcDbMText
 62
2
  6
CONTINUOUS
  7
TEXTSTYLE_2
 71
1
 72
1
 10
33.45
 20
13.875
 30
0.0
 11
1.0
 21
0.0
 31
0.0
  1
2
 40
0.25
 41
0.275
  0
MTEXT
  5
251
100
AcDbEntity
  8
FORMAT
100
AcDbMText
 62
2
  6
CONTINUOUS
  7
TEXTSTYLE_2
 71
1
 72
1
 10
33.45
 20
19.375
 30
0.0
 11
1.0
 21
0.0
 31
0.0
  1
1
 40
0.25
 41
0.125
  0
MTEXT
  5
252
100
AcDbEntity
  8
FORMAT
100
AcDbMText
 62
2
  6
CONTINUOUS
  7
TEXTSTYLE_2
 71
3
 72
1
 10
0.55
 20
2.875
 30
0.0
 11
1.0
 21
0.0
 31
0.0
  1
4
 40
0.25
 41
0.3
  0
MTEXT
  5
253
100
AcDbEntity
  8
FORMAT
100
AcDbMText
 62
2
  6
CONTINUOUS
  7
TEXTSTYLE_2
 71
3
 72
1
 10
0.55
 20
8.375
 30
0.0
 11
1.0
 21
0.0
 31
0.0
  1
3
 40
0.25
 41
0.275
  0
MTEXT
  5
254
100
AcDbEntity
  8
FORMAT
100
AcDbMText
 62
2
  6
CONTINUOUS
  7
TEXTSTYLE_2
 71
3
 72
1
 10
0.55
 20
13.875
 30
0.0
 11
1.0
 21
0.0
 31
0.0
  1
2
 40
0.25
 41
0.275
  0
MTEXT
  5
255
100
AcDbEntity
  8
FORMAT
100
AcDbMText
 62
2
  6
CONTINUOUS
  7
TEXTSTYLE_2
 71
3
 72
1
 10
0.55
 20
19.375
 30
0.0
 11
1.0
 21
0.0
 31
0.0
  1
1
 40
0.25
 41
0.125
  0
MTEXT
  5
256
100
AcDbEntity
  8
FORMAT
100
AcDbMText
 62
2
  6
CONTINUOUS
  7
TEXTSTYLE_2
 71
2
 72
1
 10
31.875
 20
21.85
 30
0.0
 11
1.0
 21
0.0
 31
0.0
  1
H
 40
0.25
 41
0.3
  0
MTEXT
  5
257
100
AcDbEntity
  8
FORMAT
100
AcDbMText
 62
2
  6
CONTINUOUS
  7
TEXTSTYLE_2
 71
2
 72
1
 10
23.375
 20
21.85
 30
0.0
 11
1.0
 21
0.0
 31
0.0
  1
F
 40
0.25
 41
0.275
  0
MTEXT
  5
258
100
AcDbEntity
  8
FORMAT
100
AcDbMText
 62
2
  6
CONTINUOUS
  7
TEXTSTYLE_2
 71
2
 72
1
 10
19.125
 20
21.85
 30
0.0
 11
1.0
 21
0.0
 31
0.0
  1
E
 40
0.25
 41
0.275
  0
MTEXT
  5
259
100
AcDbEntity
  8
FORMAT
100
AcDbMText
 62
2
  6
CONTINUOUS
  7
TEXTSTYLE_2
 71
2
 72
1
 10
14.875
 20
21.85
 30
0.0
 11
1.0
 21
0.0
 31
0.0
  1
D
 40
0.25
 41
0.3
  0
MTEXT
  5
25A
100
AcDbEntity
  8
FORMAT
100
AcDbMText
 62
2
  6
CONTINUOUS
  7
TEXTSTYLE_2
 71
2
 72
1
 10
10.625
 20
21.85
 30
0.0
 11
1.0
 21
0.0
 31
0.0
  1
C
 40
0.25
 41
0.3
  0
MTEXT
  5
25B
100
AcDbEntity
  8
FORMAT
100
AcDbMText
 62
2
  6
CONTINUOUS
  7
TEXTSTYLE_2
 71
2
 72
1
 10
6.375
 20
21.85
 30
0.0
 11
1.0
 21
0.0
 31
0.0
  1
B
 40
0.25
 41
0.275
  0
MTEXT
  5
25C
100
AcDbEntity
  8
FORMAT
100
AcDbMText
 62
2
  6
CONTINUOUS
  7
TEXTSTYLE_2
 71
2
 72
1
 10
2.125
 20
21.85
 30
0.0
 11
1.0
 21
0.0
 31
0.0
  1
A
 40
0.25
 41
0.3
  0
MTEXT
  5
25D
100
AcDbEntity
  8
FORMAT
100
AcDbMText
 62
2
  6
CONTINUOUS
  7
TEXTSTYLE_2
 71
2
 72
1
 10
31.875
 20
0.4
 30
0.0
 11
1.0
 21
0.0
 31
0.0
  1
H
 40
0.25
 41
0.3
  0
MTEXT
  5
25E
100
AcDbEntity
  8
FORMAT
100
AcDbMText
 62
2
  6
CONTINUOUS
  7
TEXTSTYLE_2
 71
2
 72
1
 10
27.625
 20
0.4
 30
0.0
 11
1.0
 21
0.0
 31
0.0
  1
G
 40
0.25
 41
0.3
  0
MTEXT
  5
25F
100
AcDbEntity
  8
FORMAT
100
AcDbMText
 62
2
  6
CONTINUOUS
  7
TEXTSTYLE_2
 71
2
 72
1
 10
23.375
 20
0.4
 30
0.0
 11
1.0
 21
0.0
 31
0.0
  1
F
 40
0.25
 41
0.275
  0
MTEXT
  5
260
100
AcDbEntity
  8
FORMAT
100
AcDbMText
 62
2
  6
CONTINUOUS
  7
TEXTSTYLE_2
 71
2
 72
1
 10
19.125
 20
0.4
 30
0.0
 11
1.0
 21
0.0
 31
0.0
  1
E
 40
0.25
 41
0.275
  0
MTEXT
  5
261
100
AcDbEntity
  8
FORMAT
100
AcDbMText
 62
2
  6
CONTINUOUS
  7
TEXTSTYLE_2
 71
2
 72
1
 10
14.875
 20
0.4
 30
0.0
 11
1.0
 21
0.0
 31
0.0
  1
D
 40
0.25
 41
0.3
  0
MTEXT
  5
262
100
AcDbEntity
  8
FORMAT
100
AcDbMText
 62
2
  6
CONTINUOUS
  7
TEXTSTYLE_2
 71
2
 72
1
 10
10.625
 20
0.4
 30
0.0
 11
1.0
 21
0.0
 31
0.0
  1
C
 40
0.25
 41
0.3
  0
MTEXT
  5
263
100
AcDbEntity
  8
FORMAT
100
AcDbMText
 62
2
  6
CONTINUOUS
  7
TEXTSTYLE_2
 71
2
 72
1
 10
6.375
 20
0.4
 30
0.0
 11
1.0
 21
0.0
 31
0.0
  1
B
 40
0.25
 41
0.275
  0
MTEXT
  5
264
100
AcDbEntity
  8
FORMAT
100
AcDbMText
 62
2
  6
CONTINUOUS
  7
TEXTSTYLE_2
 71
2
 72
1
 10
2.125
 20
0.4
 30
0.0
 11
1.0
 21
0.0
 31
0.0
  1
A
 40
0.25
 41
0.3
  0
MTEXT
  5
265
100
AcDbEntity
  8
FORMAT
100
AcDbMText
 62
2
  6
CONTINUOUS
  7
STANDARD
 71
2
 72
1
 10
28.8966079318
 20
21.760855959
 30
0.0
 11
1.0
 21
0.0
 31
0.0
  1
3
 40
0.15
 41
0.12
  0
MTEXT
  5
266
100
AcDbEntity
  8
FORMAT
100
AcDbMText
 62
2
  6
CONTINUOUS
  7
STANDARD
 71
2
 72
1
 10
27.8977792252
 20
1.2567963012
 30
0.0
 11
1.0
 21
0.0
 31
0.0
  1
SIZE
 40
0.08
 41
0.256
  0
MTEXT
  5
267
100
AcDbEntity
  8
FORMAT
100
AcDbMText
 62
2
  6
CONTINUOUS
  7
STANDARD
 71
1
 72
1
 10
28.2727209301
 20
1.1688998698
 30
0.0
 11
1.0
 21
0.0
 31
0.0
  1
DRAWING\PNUMBER
 40
0.08
 41
0.448
  0
MTEXT
  5
268
100
AcDbEntity
  8
FORMAT
100
AcDbMText
 62
2
  6
CONTINUOUS
  7
STANDARD
 71
2
 72
1
 10
32.5053423577
 20
0.7241884424
 30
0.0
 11
1.0
 21
0.0
 31
0.0
  1
3 OF 3
 40
0.12
 41
0.576
  0
MTEXT
  5
269
100
AcDbEntity
  8
FORMAT
100
AcDbMText
 62
2
  6
CONTINUOUS
  7
TEXTSTYLE_2
 71
2
 72
1
 10
27.912054594
 20
1.108716815
 30
0.0
 11
1.0
 21
0.0
 31
0.0
  1
D
 40
0.2
 41
0.24
  0
MTEXT
  5
26A
100
AcDbEntity
  8
FORMAT
100
AcDbMText
 62
2
  6
CONTINUOUS
  7
STANDARD
 71
1
 72
1
 10
31.6275371823
 20
3.0095384485
 30
0.0
 11
1.0
 21
0.0
 31
0.0
  1
AMX LLC\P3000 RESEARCH DRIVE\PRICHARDSON, TX 75082
 40
0.08
 41
1.28
  0
MTEXT
  5
26B
100
AcDbEntity
  8
FORMAT
100
AcDbMText
 62
2
  6
CONTINUOUS
  7
TEXTSTYLE_3
 71
1
 72
1
 10
29.933082431
 20
2.7046411336
 30
0.0
 11
1.0
 21
0.0
 31
0.0
  1
®
 40
0.063
 41
0.0882
  0
MTEXT
  5
26C
100
AcDbEntity
  8
FORMAT
100
AcDbMText
 62
2
  6
CONTINUOUS
  7
STANDARD
 71
1
 72
1
 10
32.8770800261
 20
1.2602381029
 30
0.0
 11
1.0
 21
0.0
 31
0.0
  1
REV
 40
0.08
 41
0.192
  0
MTEXT
  5
26D
100
AcDbEntity
  8
FORMAT
100
AcDbMText
 62
2
  6
CONTINUOUS
  7
STANDARD
 71
2
 72
1
 10
28.4032278572
 20
0.7302717037
 30
0.0
 11
1.0
 21
0.0
 31
0.0
  1
1:1
 40
0.12
 41
0.288
  0
DIMENSION
  5
26E
100
AcDbEntity
  8
0
100
AcDbDimension
 62
2
  6
CONTINUOUS
  2
*D0
 10
30.0673015209
 20
19.1473663498
 11
24.8667015209
 21
19.0348663498
 70
160
  3
DIMSTYLE_1
100
AcDbAlignedDimension
 13
19.6661015209
 23
17.3452427376
 14
30.0673015209
 24
17.3452427376
100
AcDbRotatedDimension
  0
DIMENSION
  5
26F
100
AcDbEntity
  8
0
100
AcDbDimension
 62
2
  6
CONTINUOUS
  2
*D1
 10
31.0914163498
 20
10.0707827376
 11
31.0914163498
 21
13.5955127376
 70
160
  3
DIMSTYLE_1
100
AcDbAlignedDimension
 13
30.0673015209
 23
17.3452427376
 14
30.0673015209
 24
10.0707827376
 50
270.0
100
AcDbRotatedDimension
  0
LINE
  5
270
100
AcDbEntity
  8
FORMAT
100
AcDbLine
 62
2
  6
CONTINUOUS
 10
29.275
 20
21.5
 11
25.975
 21
21.5
  0
LINE
  5
271
100
AcDbEntity
  8
FORMAT
100
AcDbLine
 62
2
  6
CONTINUOUS
 10
29.275
 20
21.5
 11
29.275
 21
21.87
  0
LINE
  5
272
100
AcDbEntity
  8
FORMAT
100
AcDbLine
 62
2
  6
CONTINUOUS
 10
29.275
 20
21.87
 11
25.975
 21
21.87
  0
LINE
  5
273
100
AcDbEntity
  8
FORMAT
100
AcDbLine
 62
2
  6
CONTINUOUS
 10
28.525
 20
21.5
 11
28.525
 21
21.87
  0
LINE
  5
274
100
AcDbEntity
  8
FORMAT
100
AcDbLine
 62
2
  6
CONTINUOUS
 10
25.975
 20
21.5
 11
25.975
 21
21.87
  0
MTEXT
  5
275
100
AcDbEntity
  8
FORMAT
100
AcDbMText
 62
2
  6
CONTINUOUS
  7
STANDARD
 71
2
 72
1
 10
27.25
 20
21.76
 30
0.0
 11
1.0
 21
0.0
 31
0.0
  1
SP5968-84
 40
0.15
 41
1.08
  0
LINE
  5
276
100
AcDbEntity
  8
FORMAT
100
AcDbLine
 62
2
  6
CONTINUOUS
 10
33.25
 20
0.5
 11
24.69
 21
0.5
  0
LINE
  5
277
100
AcDbEntity
  8
FORMAT
100
AcDbLine
 62
2
  6
CONTINUOUS
 10
33.25
 20
0.5
 11
33.25
 21
3.205
  0
LINE
  5
278
100
AcDbEntity
  8
FORMAT
100
AcDbLine
 62
2
  6
CONTINUOUS
 10
33.25
 20
0.835
 11
27.64
 21
0.835
  0
LINE
  5
279
100
AcDbEntity
  8
FORMAT
100
AcDbLine
 62
2
  6
CONTINUOUS
 10
33.25
 20
1.3
 11
27.64
 21
1.3
  0
LINE
  5
27A
100
AcDbEntity
  8
FORMAT
100
AcDbLine
 62
2
  6
CONTINUOUS
 10
33.25
 20
2.51
 11
27.64
 21
2.51
  0
LINE
  5
27B
100
AcDbEntity
  8
FORMAT
100
AcDbLine
 62
2
  6
CONTINUOUS
 10
33.25
 20
3.205
 11
24.69
 21
3.205
  0
LINE
  5
27C
100
AcDbEntity
  8
FORMAT
100
AcDbLine
 62
2
  6
CONTINUOUS
 10
32.68
 20
0.835
 11
32.68
 21
1.3
  0
LINE
  5
27D
100
AcDbEntity
  8
FORMAT
100
AcDbLine
 62
2
  6
CONTINUOUS
 10
31.51
 20
0.5
 11
31.51
 21
0.835
  0
LINE
  5
27E
100
AcDbEntity
  8
FORMAT
100
AcDbLine
 62
2
  6
CONTINUOUS
 10
28.15
 20
0.835
 11
28.15
 21
1.3
  0
LINE
  5
27F
100
AcDbEntity
  8
FORMAT
100
AcDbLine
 62
2
  6
CONTINUOUS
 10
27.64
 20
0.5
 11
27.64
 21
3.205
  0
LINE
  5
280
100
AcDbEntity
  8
FORMAT
100
AcDbLine
 62
2
  6
CONTINUOUS
 10
24.69
 20
0.5
 11
24.69
 21
3.205
  0
MTEXT
  5
281
100
AcDbEntity
  8
FORMAT
100
AcDbMText
 62
2
  6
CONTINUOUS
  7
STANDARD
 71
1
 72
1
 10
31.56
 20
0.7075
 30
0.0
 11
1.0
 21
0.0
 31
0.0
  1
SHEET 
 40
0.08
 41
0.384
  0
MTEXT
  5
282
100
AcDbEntity
  8
FORMAT
100
AcDbMText
 62
2
  6
CONTINUOUS
  7
STANDARD
 71
1
 72
1
 10
27.69
 20
0.7075
 30
0.0
 11
1.0
 21
0.0
 31
0.0
  1
SCALE
 40
0.08
 41
0.32
  0
MTEXT
  5
283
100
AcDbEntity
  8
FORMAT
100
AcDbMText
 62
2
  6
CONTINUOUS
  7
TEXTSTYLE_4
 71
1
 72
1
 10
24.74
 20
3.0675
 30
0.0
 11
1.0
 21
0.0
 31
0.0
  3
NOTICE: This drawing is the\Pproperty of AMX LLC.\PAll information contained herein\Pthis is not generally known\Pshall be confidential except\Pto the extent the information\Phad been previously established.\PThis drawings may not be copied,\Preprodu
  1
ced, or used as the basis\Pfor manufacture or sale without\Pwritten permission.
 40
0.135
 41
2.808
  0
MTEXT
  5
284
100
AcDbEntity
  8
FORMAT
100
AcDbMText
 62
2
  6
CONTINUOUS
  7
STANDARD
 71
3
 72
1
 10
32.915
 20
1.03
 30
0.0
 11
1.0
 21
0.0
 31
0.0
  1
B
 40
0.15
 41
0.12
  0
MTEXT
  5
285
100
AcDbEntity
  8
FORMAT
100
AcDbMText
 62
2
  6
CONTINUOUS
  7
STANDARD
 71
2
 72
1
 10
30.415
 20
1.1675
 30
0.0
 11
1.0
 21
0.0
 31
0.0
  1
SP5968-84
 40
0.2
 41
1.44
  0
MTEXT
  5
286
100
AcDbEntity
  8
FORMAT
100
AcDbMText
 62
2
  6
CONTINUOUS
  7
STANDARD
 71
2
 72
1
 10
30.445
 20
2.18
 30
0.0
 11
1.0
 21
0.0
 31
0.0
  1
MOUNTING SPEC, ROUGH-IN BOX,\PMODERO X 10" FLUSH MOUNT KIT
 40
0.2
 41
4.48
  0
MTEXT
  5
287
100
AcDbEntity
  8
DETAIL
100
AcDbMText
 62
2
  6
CONTINUOUS
  7
TEXTSTYLE_2
 71
2
 72
1
 10
4.68433533
 20
1.8427709077
 30
0.0
 11
1.0
 21
0.0
 31
0.0
  1
OLD OR NEW CONSTRUCTION INSTALLATION\P(SET INTO A SOLID WALL)\PFRONT COVER REMOVED FOR CLARITY
 40
0.25
 41
10.0
  0
LEADER
  5
288
100
AcDbEntity
  8
DETAIL
100
AcDbLeader
 62
2
  6
CONTINUOUS
  3
STANDARD
 71
1
 72
0
 73
0
 75
0
 40
0.15
 41
1.68
 76
3
 10
4.0914509399
 20
9.744508049
 30
0.0
 10
3.124015145
 20
7.1564563999
 30
0.0
 10
2.974015145
 20
7.1564563999
 30
0.0
340
289
1001
ACAD
1000
DSTYLE
1002
{
1070
77
1070
0
1002
}
  0
MTEXT
  5
289
102
{ACAD_REACTORS
330
288
102
}
100
AcDbEntity
  8
DETAIL
100
AcDbMText
 62
2
  6
CONTINUOUS
  7
STANDARD
 71
3
 72
1
 10
2.974015145
 20
7.2314563999
 30
0.0
 11
1.0
 21
0.0
 31
0.0
  1
BREAK-OFF STUD\PMOUNTING TABS\P4 PLACES
 40
0.15
 41
1.68
  0
LEADER
  5
28A
100
AcDbEntity
  8
DETAIL
100
AcDbLeader
 62
2
  6
CONTINUOUS
  3
STANDARD
 71
1
 72
0
 73
0
 75
0
 40
0.15
 41
5.88
 76
3
 10
8.6931880116
 20
12.8432599335
 30
0.0
 10
12.9154785408
 20
1.8875608105
 30
0.0
 10
13.0654785408
 20
1.8875608105
 30
0.0
340
28E
1001
ACAD
1000
DSTYLE
1002
{
1070
77
1070
0
1070
173
1070
1
1070
6
1000
_DOT
1070
7
1000
_DOT
1002
}
  0
LEADER
  5
28B
100
AcDbEntity
  8
DETAIL
100
AcDbLeader
 62
2
  6
CONTINUOUS
  3
STANDARD
 71
1
 72
0
 73
0
 75
0
 40
0.15
 41
5.88
 76
3
 10
5.5118890689
 20
8.3832734055
 30
0.0
 10
12.9154785408
 20
1.8875608105
 30
0.0
 10
13.0654785408
 20
1.8875608105
 30
0.0
340
28E
1001
ACAD
1000
DSTYLE
1002
{
1070
77
1070
0
1070
173
1070
1
1070
6
1000
_DOT
1070
7
1000
_DOT
1002
}
  0
LEADER
  5
28C
100
AcDbEntity
  8
DETAIL
100
AcDbLeader
 62
2
  6
CONTINUOUS
  3
STANDARD
 71
1
 72
0
 73
0
 75
0
 40
0.15
 41
5.88
 76
3
 10
5.5099497469
 20
14.7626689376
 30
0.0
 10
12.9154785408
 20
1.8875608105
 30
0.0
 10
13.0654785408
 20
1.8875608105
 30
0.0
340
28E
1001
ACAD
1000
DSTYLE
1002
{
1070
77
1070
0
1070
173
1070
1
1070
6
1000
_DOT
1070
7
1000
_DOT
1002
}
  0
LEADER
  5
28D
100
AcDbEntity
  8
DETAIL
100
AcDbLeader
 62
2
  6
CONTINUOUS
  3
STANDARD
 71
1
 72
0
 73
0
 75
0
 40
0.15
 41
5.88
 76
3
 10
8.6931880116
 20
6.6113799881
 30
0.0
 10
12.9154785408
 20
1.8875608105
 30
0.0
 10
13.0654785408
 20
1.8875608105
 30
0.0
340
28E
1001
ACAD
1000
DSTYLE
1002
{
1070
77
1070
0
1070
173
1070
1
1070
6
1000
_DOT
1070
7
1000
_DOT
1002
}
  0
MTEXT
  5
28E
102
{ACAD_REACTORS
330
28A
330
28B
330
28C
330
28D
102
}
100
AcDbEntity
  8
DETAIL
100
AcDbMText
 62
2
  6
CONTINUOUS
  7
STANDARD
 71
1
 72
1
 10
13.0654785408
 20
1.9625608105
 30
0.0
 11
1.0
 21
0.0
 31
0.0
  1
USE TABS TO LOCATE THE DEPTH OF THE ROUGH-IN-BOX.\PBREAK OFF ONCE ROUGH-IN BOX HAS BEEN SECURELY INSTALLED.
 40
0.15
 41
6.72
  0
LEADER
  5
28F
100
AcDbEntity
  8
DETAIL
100
AcDbLeader
 62
2
  6
CONTINUOUS
  3
STANDARD
 71
1
 72
0
 73
0
 75
0
 40
0.15
 41
5.28
 76
3
 10
4.7101671507
 20
14.4698447984
 30
0.0
 10
11.4074504519
 20
20.7562168323
 30
0.0
 10
11.5574504519
 20
20.7562168323
 30
0.0
340
292
1001
ACAD
1000
DSTYLE
1002
{
1070
77
1070
0
1002
}
  0
LEADER
  5
290
100
AcDbEntity
  8
DETAIL
100
AcDbLeader
 62
2
  6
CONTINUOUS
  3
STANDARD
 71
1
 72
0
 73
0
 75
0
 40
0.15
 41
5.28
 76
3
 10
4.6147081327
 20
12.9858526076
 30
0.0
 10
11.4074504519
 20
20.7562168323
 30
0.0
 10
11.5574504519
 20
20.7562168323
 30
0.0
340
292
1001
ACAD
1000
DSTYLE
1002
{
1070
77
1070
0
1002
}
  0
LEADER
  5
291
100
AcDbEntity
  8
DETAIL
100
AcDbLeader
 62
2
  6
CONTINUOUS
  3
STANDARD
 71
1
 72
0
 73
0
 75
0
 40
0.15
 41
5.28
 76
3
 10
7.5814414049
 20
12.130716016
 30
0.0
 10
11.4074504519
 20
20.7562168323
 30
0.0
 10
11.5574504519
 20
20.7562168323
 30
0.0
340
292
1001
ACAD
1000
DSTYLE
1002
{
1070
77
1070
0
1002
}
  0
MTEXT
  5
292
102
{ACAD_REACTORS
330
28F
330
290
330
291
102
}
100
AcDbEntity
  8
DETAIL
100
AcDbMText
 62
2
  6
CONTINUOUS
  7
STANDARD
 71
1
 72
1
 10
11.5574504519
 20
20.8312168323
 30
0.0
 11
1.0
 21
0.0
 31
0.0
  1
ATTACH TO SIDES OR BACK OF SOLID WALL RECESS\PUSING APPROPRIATE ANCHORING HARDWARE (NOT INCLUDED)
 40
0.15
 41
6.12
  0
MTEXT
  5
293
100
AcDbEntity
  8
DETAIL
100
AcDbMText
 62
2
  6
CONTINUOUS
  7
TEXTSTYLE_2
 71
2
 72
1
 10
24.5358316368
 20
13.9037846474
 30
0.0
 11
1.0
 21
0.0
 31
0.0
  1
RECOMMENDED WALL CUT-OUT\PSCALE: 1/1
 40
0.25
 41
6.975
  0
LEADER
  5
294
100
AcDbEntity
  8
DETAIL
100
AcDbLeader
 62
2
  6
CONTINUOUS
  3
STANDARD
 71
1
 72
0
 73
0
 75
0
 40
0.15
 41
3.84
 76
3
 10
24.7736210804
 20
9.9901342554
 30
0.0
 10
25.895225012
 20
6.9493042568
 30
0.0
 10
26.045225012
 20
6.9493042568
 30
0.0
340
295
1001
ACAD
1000
DSTYLE
1002
{
1070
77
1070
0
1002
}
  0
MTEXT
  5
295
102
{ACAD_REACTORS
330
294
102
}
100
AcDbEntity
  8
DETAIL
100
AcDbMText
 62
2
  6
CONTINUOUS
  7
STANDARD
 71
1
 72
1
 10
26.045225012
 20
7.0243042568
 30
0.0
 11
1.0
 21
0.0
 31
0.0
  1
OUTLINE SHOWS PERIMETER OF FLUSH\PMOUNT FLANGE AFTER INSTALLATION
 40
0.15
 41
3.84
  0
LINE
  5
296
100
AcDbEntity
  8
FORMAT
100
AcDbLine
 62
9
  6
PHANTOM
 10
0.0
 20
0.0
 11
0.0
 21
22.0
  0
LINE
  5
297
100
AcDbEntity
  8
FORMAT
100
AcDbLine
 62
7
  6
CONTINUOUS
 10
0.553427
 20
11.113491
 11
0.553427
 21
10.886508
  0
LINE
  5
298
100
AcDbEntity
  8
FORMAT
100
AcDbLine
 62
7
  6
CONTINUOUS
 10
0.553427
 20
10.886508
 11
0.75
 21
11.0
  0
LINE
  5
299
100
AcDbEntity
  8
FORMAT
100
AcDbLine
 62
7
  6
CONTINUOUS
 10
0.75
 20
11.0
 11
0.553427
 21
11.113491
  0
HATCH
  5
29A
100
AcDbEntity
  8
FORMAT
100
AcDbHatch
 62
7
  6
CONTINUOUS
 10
0.0
 20
0.0
 30
0.0
210
0.0
220
0.0
230
1.0
  2
arrow_left_2
 70
1
 71
1
 91
1
 92
1
 93
3
 72
1
 10
0.553427
 20
10.886508
 11
0.75
 21
11.0
 72
1
 10
0.75
 20
11.0
 11
0.553427
 21
11.113491
 72
1
 10
0.553427
 20
11.113491
 11
0.553427
 21
10.886508
 97
3
330
297
330
298
330
299
 75
0
 76
1
 98
1
 10
0.0
 20
0.0
  0
LINE
  5
29B
100
AcDbEntity
  8
FORMAT
100
AcDbLine
 62
7
  6
CONTINUOUS
 10
0.75
 20
21.5
 11
0.75
 21
0.5
  0
LINE
  5
29C
100
AcDbEntity
  8
DETAIL
100
AcDbLine
 62
8
  6
HIDDEN
 10
4.0914509399
 20
9.2362882495
 11
4.0914509399
 21
10.2895772142
  0
LINE
  5
29D
100
AcDbEntity
  8
FORMAT
100
AcDbLine
 62
7
  6
CONTINUOUS
 10
4.25
 20
0.0
 11
4.25
 21
0.5
  0
LINE
  5
29E
100
AcDbEntity
  8
FORMAT
100
AcDbLine
 62
7
  6
CONTINUOUS
 10
4.25
 20
21.5
 11
4.25
 21
22.0
  0
LINE
  5
29F
100
AcDbEntity
  8
DETAIL
100
AcDbLine
 62
8
  6
HIDDEN
 10
4.7985547771
 20
10.6978213681
 11
4.7985547771
 21
9.6445324034
  0
LINE
  5
2A0
100
AcDbEntity
  8
FORMAT
100
AcDbLine
 62
9
  6
PHANTOM
 10
0.0
 20
0.0
 11
34.0
 21
0.0
  0
LINE
  5
2A1
100
AcDbEntity
  8
FORMAT
100
AcDbLine
 62
7
  6
CONTINUOUS
 10
16.886509
 20
0.303427
 11
17.113492
 21
0.303427
  0
LINE
  5
2A2
100
AcDbEntity
  8
FORMAT
100
AcDbLine
 62
7
  6
CONTINUOUS
 10
17.113492
 20
0.303427
 11
17.0
 21
0.5
  0
LINE
  5
2A3
100
AcDbEntity
  8
FORMAT
100
AcDbLine
 62
7
  6
CONTINUOUS
 10
17.0
 20
0.5
 11
16.886509
 21
0.303427
  0
HATCH
  5
2A4
100
AcDbEntity
  8
FORMAT
100
AcDbHatch
 62
7
  6
CONTINUOUS
 10
0.0
 20
0.0
 30
0.0
210
0.0
220
0.0
230
1.0
  2
arrow_bottom_2
 70
1
 71
1
 91
1
 92
1
 93
3
 72
1
 10
17.113492
 20
0.303427
 11
17.0
 21
0.5
 72
1
 10
17.0
 20
0.5
 11
16.886509
 21
0.303427
 72
1
 10
16.886509
 20
0.303427
 11
17.113492
 21
0.303427
 97
3
330
2A1
330
2A2
330
2A3
 75
0
 76
1
 98
1
 10
0.0
 20
0.0
  0
LINE
  5
2A5
100
AcDbEntity
  8
DETAIL
100
AcDbLine
 62
8
  6
HIDDEN
 10
4.7985547771
 20
9.6445324034
 11
4.6924892015
 21
9.4608204178
  0
LINE
  5
2A6
100
AcDbEntity
  8
FORMAT
100
AcDbLine
 62
7
  6
CONTINUOUS
 10
0.75
 20
0.5
 11
33.25
 21
0.5
  0
LINE
  5
2A7
100
AcDbEntity
  8
FORMAT
100
AcDbLine
 62
7
  6
CONTINUOUS
 10
8.5
 20
0.0
 11
8.5
 21
0.5
  0
LINE
  5
2A8
100
AcDbEntity
  8
FORMAT
100
AcDbLine
 62
7
  6
CONTINUOUS
 10
8.5
 20
21.5
 11
8.5
 21
22.0
  0
LINE
  5
2A9
100
AcDbEntity
  8
FORMAT
100
AcDbLine
 62
2
  6
CONTINUOUS
 10
28.460158694
 20
2.8055021401
 11
28.5583702485
 21
2.8056928438
  0
LINE
  5
2AA
100
AcDbEntity
  8
FORMAT
100
AcDbLine
 62
2
  6
CONTINUOUS
 10
28.6176088951
 20
2.639192017
 11
28.9142719528
 21
2.639192017
  0
LINE
  5
2AB
100
AcDbEntity
  8
FORMAT
100
AcDbLine
 62
2
  6
CONTINUOUS
 10
29.1556274613
 20
2.639192017
 11
29.4718263825
 21
2.639192017
  0
LINE
  5
2AC
100
AcDbEntity
  8
FORMAT
100
AcDbLine
 62
2
  6
CONTINUOUS
 10
29.7092819996
 20
2.639192017
 11
29.9002327784
 21
2.639192017
  0
LINE
  5
2AD
100
AcDbEntity
  8
FORMAT
100
AcDbLine
 62
2
  6
CONTINUOUS
 10
28.4653718405
 20
3.0413229061
 11
28.6200421013
 21
3.0413229061
  0
LINE
  5
2AE
100
AcDbEntity
  8
FORMAT
100
AcDbLine
 62
2
  6
CONTINUOUS
 10
28.8341694512
 20
3.0413229061
 11
28.9572808451
 21
3.0413229061
  0
LINE
  5
2AF
100
AcDbEntity
  8
FORMAT
100
AcDbLine
 62
2
  6
CONTINUOUS
 10
29.2448629379
 20
3.0413229061
 11
29.550451797
 21
3.0413229061
  0
LINE
  5
2B0
100
AcDbEntity
  8
FORMAT
100
AcDbLine
 62
2
  6
CONTINUOUS
 10
29.7594561512
 20
3.0413229061
 11
29.9503869928
 21
3.0413229061
  0
LINE
  5
2B1
100
AcDbEntity
  8
FORMAT
100
AcDbLine
 62
2
  6
CONTINUOUS
 10
28.5583702485
 20
2.8056928438
 11
28.5585670201
 21
2.8055021401
  0
LINE
  5
2B2
100
AcDbEntity
  8
FORMAT
100
AcDbLine
 62
2
  6
CONTINUOUS
 10
28.9572808451
 20
3.0413229061
 11
29.0788128654
 21
2.9083079208
  0
LINE
  5
2B3
100
AcDbEntity
  8
FORMAT
100
AcDbLine
 62
2
  6
CONTINUOUS
 10
29.4892315653
 20
2.892175252
 11
29.3679587287
 21
3.0315978827
  0
LINE
  5
2B4
100
AcDbEntity
  8
FORMAT
100
AcDbLine
 62
2
  6
CONTINUOUS
 10
29.6090125785
 20
2.754468088
 11
29.7092819996
 21
2.639192017
  0
LINE
  5
2B5
100
AcDbEntity
  8
FORMAT
100
AcDbLine
 62
2
  6
CONTINUOUS
 10
29.9002327784
 20
2.639192017
 11
29.7327290234
 21
2.8317646443
  0
LINE
  5
2B6
100
AcDbEntity
  8
FORMAT
100
AcDbLine
 62
2
  6
CONTINUOUS
 10
29.550451797
 20
3.0413229061
 11
29.6387068832
 21
2.9398581193
  0
LINE
  5
2B7
100
AcDbEntity
  8
FORMAT
100
AcDbLine
 62
2
  6
CONTINUOUS
 10
28.7698615527
 20
2.6552362685
 11
28.7277290307
 21
2.7638125708
  0
LINE
  5
2B8
100
AcDbEntity
  8
FORMAT
100
AcDbLine
 62
2
  6
CONTINUOUS
 10
28.6200421013
 20
3.0413229061
 11
28.7101504809
 21
2.8091116416
  0
LINE
  5
2B9
100
AcDbEntity
  8
FORMAT
100
AcDbLine
 62
2
  6
CONTINUOUS
 10
28.5829935675
 20
2.7367404426
 11
28.6176088951
 21
2.639192017
  0
LINE
  5
2BA
100
AcDbEntity
  8
FORMAT
100
AcDbLine
 62
2
  6
CONTINUOUS
 10
28.5585670201
 20
2.8055021401
 11
28.5235546819
 21
2.9050477538
  0
LINE
  5
2BB
100
AcDbEntity
  8
FORMAT
100
AcDbLine
 62
2
  6
CONTINUOUS
 10
28.7897138111
 20
2.7744269671
 11
28.7698615527
 21
2.6552362685
  0
LINE
  5
2BC
100
AcDbEntity
  8
FORMAT
100
AcDbLine
 62
2
  6
CONTINUOUS
 10
28.7984038334
 20
2.8265991736
 11
28.8341694512
 21
3.0413229061
  0
LINE
  5
2BD
100
AcDbEntity
  8
FORMAT
100
AcDbLine
 62
2
  6
CONTINUOUS
 10
28.9142719528
 20
2.639192017
 11
28.9402432004
 21
2.7950151685
  0
LINE
  5
2BE
100
AcDbEntity
  8
FORMAT
100
AcDbLine
 62
2
  6
CONTINUOUS
 10
29.1853356352
 20
2.817437593
 11
29.1556274613
 21
2.639192017
  0
LINE
  5
2BF
100
AcDbEntity
  8
FORMAT
100
AcDbLine
 62
2
  6
CONTINUOUS
 10
29.3679587287
 20
3.0315978827
 11
29.3436336011
 21
2.8856462497
  0
LINE
  5
2C0
100
AcDbEntity
  8
FORMAT
100
AcDbLine
 62
2
  6
CONTINUOUS
 10
29.3060857701
 20
2.6603583974
 11
29.3334248836
 21
2.824393945
  0
LINE
  5
2C1
100
AcDbEntity
  8
FORMAT
100
AcDbLine
 62
2
  6
CONTINUOUS
 10
28.5235546819
 20
2.9050477538
 11
28.460158694
 21
2.8055021401
  0
LINE
  5
2C2
100
AcDbEntity
  8
FORMAT
100
AcDbLine
 62
2
  6
CONTINUOUS
 10
28.1960825696
 20
2.639192017
 11
28.4653718405
 21
3.0413229061
  0
LINE
  5
2C3
100
AcDbEntity
  8
FORMAT
100
AcDbLine
 62
2
  6
CONTINUOUS
 10
29.6387068832
 20
2.9398581193
 11
29.7594561512
 21
3.0413229061
  0
LINE
  5
2C4
100
AcDbEntity
  8
FORMAT
100
AcDbLine
 62
2
  6
CONTINUOUS
 10
29.5082473277
 20
2.8302338134
 11
29.3060857701
 21
2.6603583974
  0
LINE
  5
2C5
100
AcDbEntity
  8
FORMAT
100
AcDbLine
 62
2
  6
CONTINUOUS
 10
29.0788128654
 20
2.9083079208
 11
29.2448629379
 21
3.0413229061
  0
LINE
  5
2C6
100
AcDbEntity
  8
FORMAT
100
AcDbLine
 62
2
  6
CONTINUOUS
 10
29.4718263825
 20
2.639192017
 11
29.6090125785
 21
2.754468088
  0
LINE
  5
2C7
100
AcDbEntity
  8
FORMAT
100
AcDbLine
 62
2
  6
CONTINUOUS
 10
29.9503869928
 20
3.0413229061
 11
29.7799290636
 21
2.8980879345
  0
ARC
  5
2C8
100
AcDbEntity
  8
FORMAT
100
AcDbCircle
 62
2
  6
CONTINUOUS
 10
30.2797845325
 20
-28.8263843935
 40
31.7284099819
100
AcDbArc
 50
90.9026860654
 51
91.4277436702
  0
ARC
  5
2C9
100
AcDbEntity
  8
FORMAT
100
AcDbCircle
 62
2
  6
CONTINUOUS
 10
29.6568493812
 20
-2.5010236059
 40
5.3333280644
100
AcDbArc
 50
89.1847998314
 51
91.5966339278
  0
ARC
  5
2CA
100
AcDbEntity
  8
FORMAT
100
AcDbCircle
 62
2
  6
CONTINUOUS
 10
29.6080693621
 20
-2.1029035083
 40
4.9955535189
100
AcDbArc
 50
93.0343259382
 51
99.327487296
  0
ARC
  5
2CB
100
AcDbEntity
  8
FORMAT
100
AcDbCircle
 62
2
  6
CONTINUOUS
 10
29.4682903386
 20
-1.6264348881
 40
4.452871657
100
AcDbArc
 50
91.7355998212
 51
93.6432760363
  0
ARC
  5
2CC
100
AcDbEntity
  8
FORMAT
100
AcDbCircle
 62
2
  6
CONTINUOUS
 10
29.4682695337
 20
-1.6262047947
 40
4.4526394163
100
AcDbArc
 50
96.8105766804
 51
98.7656904317
  0
ARC
  5
2CD
100
AcDbEntity
  8
FORMAT
100
AcDbCircle
 62
2
  6
CONTINUOUS
 10
29.117780684
 20
0.2780481215
 40
2.516180675
100
AcDbArc
 50
98.9178023333
 51
102.2711995651
  0
ARC
  5
2CE
100
AcDbEntity
  8
FORMAT
100
AcDbCircle
 62
2
  6
CONTINUOUS
 10
29.0938009085
 20
0.785851392
 40
2.0593129165
100
AcDbArc
 50
100.7369468805
 51
115.8445496536
  0
HATCH
  5
2CF
100
AcDbEntity
  8
FORMAT
100
AcDbHatch
 62
2
  6
CONTINUOUS
 10
0.0
 20
0.0
 30
0.0
210
0.0
220
0.0
230
1.0
  2
A_c0
 70
1
 71
1
 91
5
 92
1
 93
4
 72
1
 10
28.5583702485
 20
2.8056928438
 11
28.5585670201
 21
2.8055021401
 72
1
 10
28.5585670201
 20
2.8055021401
 11
28.5235546819
 21
2.9050477538
 72
1
 10
28.5235546819
 20
2.9050477538
 11
28.460158694
 21
2.8055021401
 72
1
 10
28.460158694
 20
2.8055021401
 11
28.5583702485
 21
2.8056928438
 97
38
330
2A9
330
2AA
330
2AB
330
2AC
330
2AD
330
2AE
330
2AF
330
2B0
330
2B1
330
2B2
330
2B3
330
2B4
330
2B5
330
2B6
330
2B7
330
2B8
330
2B9
330
2BA
330
2BB
330
2BC
330
2BD
330
2BE
330
2BF
330
2C0
330
2C1
330
2C2
330
2C3
330
2C4
330
2C5
330
2C6
330
2C7
330
2C8
330
2C9
330
2CA
330
2CB
330
2CC
330
2CD
330
2CE
 92
1
 93
7
 72
1
 10
28.9142719528
 20
2.639192017
 11
28.9402432004
 21
2.7950151685
 72
2
 10
29.4682695337
 20
-1.6262047947
 40
4.4526394163
 50
96.8105766804
 51
98.7656904317
 73
1
 72
1
 10
28.7897138111
 20
2.7744269671
 11
28.7698615527
 21
2.6552362685
 72
1
 10
28.7698615527
 20
2.6552362685
 11
28.7277290307
 21
2.7638125708
 72
2
 10
29.117780684
 20
0.2780481215
 40
2.516180675
 50
98.9178023333
 51
102.2711995651
 73
1
 72
1
 10
28.5829935675
 20
2.7367404426
 11
28.6176088951
 21
2.639192017
 72
1
 10
28.6176088951
 20
2.639192017
 11
28.9142719528
 21
2.639192017
 97
38
330
2A9
330
2AA
330
2AB
330
2AC
330
2AD
330
2AE
330
2AF
330
2B0
330
2B1
330
2B2
330
2B3
330
2B4
330
2B5
330
2B6
330
2B7
330
2B8
330
2B9
330
2BA
330
2BB
330
2BC
330
2BD
330
2BE
330
2BF
330
2C0
330
2C1
330
2C2
330
2C3
330
2C4
330
2C5
330
2C6
330
2C7
330
2C8
330
2C9
330
2CA
330
2CB
330
2CC
330
2CD
330
2CE
 92
1
 93
10
 72
1
 10
29.4718263825
 20
2.639192017
 11
29.6090125785
 21
2.754468088
 72
1
 10
29.6090125785
 20
2.754468088
 11
29.7092819996
 21
2.639192017
 72
1
 10
29.7092819996
 20
2.639192017
 11
29.9002327784
 21
2.639192017
 72
1
 10
29.9002327784
 20
2.639192017
 11
29.7327290234
 21
2.8317646443
 72
2
 10
29.6568493812
 20
-2.5010236059
 40
5.3333280644
 50
89.1847998314
 51
91.5966339278
 73
1
 72
1
 10
29.5082473277
 20
2.8302338134
 11
29.3060857701
 21
2.6603583974
 72
1
 10
29.3060857701
 20
2.6603583974
 11
29.3334248836
 21
2.824393945
 72
2
 10
29.4682903386
 20
-1.6264348881
 40
4.452871657
 50
91.7355998212
 51
93.6432760363
 73
1
 72
1
 10
29.1853356352
 20
2.817437593
 11
29.1556274613
 21
2.639192017
 72
1
 10
29.1556274613
 20
2.639192017
 11
29.4718263825
 21
2.639192017
 97
38
330
2A9
330
2AA
330
2AB
330
2AC
330
2AD
330
2AE
330
2AF
330
2B0
330
2B1
330
2B2
330
2B3
330
2B4
330
2B5
330
2B6
330
2B7
330
2B8
330
2B9
330
2BA
330
2BB
330
2BC
330
2BD
330
2BE
330
2BF
330
2C0
330
2C1
330
2C2
330
2C3
330
2C4
330
2C5
330
2C6
330
2C7
330
2C8
330
2C9
330
2CA
330
2CB
330
2CC
330
2CD
330
2CE
 92
1
 93
4
 72
1
 10
28.6200421013
 20
3.0413229061
 11
28.7101504809
 21
2.8091116416
 72
2
 10
29.0938009085
 20
0.785851392
 40
2.0593129165
 50
100.7369468805
 51
115.8445496536
 73
1
 72
1
 10
28.1960825696
 20
2.639192017
 11
28.4653718405
 21
3.0413229061
 72
1
 10
28.4653718405
 20
3.0413229061
 11
28.6200421013
 21
3.0413229061
 97
38
330
2A9
330
2AA
330
2AB
330
2AC
330
2AD
330
2AE
330
2AF
330
2B0
330
2B1
330
2B2
330
2B3
330
2B4
330
2B5
330
2B6
330
2B7
330
2B8
330
2B9
330
2BA
330
2BB
330
2BC
330
2BD
330
2BE
330
2BF
330
2C0
330
2C1
330
2C2
330
2C3
330
2C4
330
2C5
330
2C6
330
2C7
330
2C8
330
2C9
330
2CA
330
2CB
330
2CC
330
2CD
330
2CE
 92
1
 93
13
 72
1
 10
28.9572808451
 20
3.0413229061
 11
29.0788128654
 21
2.9083079208
 72
1
 10
29.0788128654
 20
2.9083079208
 11
29.2448629379
 21
3.0413229061
 72
1
 10
29.2448629379
 20
3.0413229061
 11
29.550451797
 21
3.0413229061
 72
1
 10
29.550451797
 20
3.0413229061
 11
29.6387068832
 21
2.9398581193
 72
1
 10
29.6387068832
 20
2.9398581193
 11
29.7594561512
 21
3.0413229061
 72
1
 10
29.7594561512
 20
3.0413229061
 11
29.9503869928
 21
3.0413229061
 72
1
 10
29.9503869928
 20
3.0413229061
 11
29.7799290636
 21
2.8980879345
 72
2
 10
30.2797845325
 20
-28.8263843935
 40
31.7284099819
 50
90.9026860654
 51
91.4277436702
 73
1
 72
1
 10
29.4892315653
 20
2.892175252
 11
29.3679587287
 21
3.0315978827
 72
1
 10
29.3679587287
 20
3.0315978827
 11
29.3436336011
 21
2.8856462497
 72
2
 10
29.6080693621
 20
-2.1029035083
 40
4.9955535189
 50
93.0343259382
 51
99.327487296
 73
1
 72
1
 10
28.7984038334
 20
2.8265991736
 11
28.8341694512
 21
3.0413229061
 72
1
 10
28.8341694512
 20
3.0413229061
 11
28.9572808451
 21
3.0413229061
 97
38
330
2A9
330
2AA
330
2AB
330
2AC
330
2AD
330
2AE
330
2AF
330
2B0
330
2B1
330
2B2
330
2B3
330
2B4
330
2B5
330
2B6
330
2B7
330
2B8
330
2B9
330
2BA
330
2BB
330
2BC
330
2BD
330
2BE
330
2BF
330
2C0
330
2C1
330
2C2
330
2C3
330
2C4
330
2C5
330
2C6
330
2C7
330
2C8
330
2C9
330
2CA
330
2CB
330
2CC
330
2CD
330
2CE
 75
0
 76
1
 98
1
 10
0.0
 20
0.0
  0
LINE
  5
2D0
100
AcDbEntity
  8
DETAIL
100
AcDbLine
 62
8
  6
HIDDEN
 10
4.1975165155
 20
9.1750495101
 11
4.0914509399
 21
9.2362882495
  0
LINE
  5
2D1
100
AcDbEntity
  8
DETAIL
100
AcDbLine
 62
8
  6
HIDDEN
 10
4.7985547771
 20
10.6978213681
 11
4.0914509399
 21
10.2895772142
  0
LINE
  5
2D2
100
AcDbEntity
  8
FORMAT
100
AcDbLine
 62
7
  6
CONTINUOUS
 10
17.0
 20
21.5
 11
17.113491
 21
21.696573
  0
LINE
  5
2D3
100
AcDbEntity
  8
FORMAT
100
AcDbLine
 62
7
  6
CONTINUOUS
 10
16.886508
 20
21.696573
 11
17.0
 21
21.5
  0
LINE
  5
2D4
100
AcDbEntity
  8
FORMAT
100
AcDbLine
 62
7
  6
CONTINUOUS
 10
17.113491
 20
21.696573
 11
16.886508
 21
21.696573
  0
HATCH
  5
2D5
100
AcDbEntity
  8
FORMAT
100
AcDbHatch
 62
7
  6
CONTINUOUS
 10
0.0
 20
0.0
 30
0.0
210
0.0
220
0.0
230
1.0
  2
arrow_top_2
 70
1
 71
1
 91
1
 92
1
 93
3
 72
1
 10
17.113491
 20
21.696573
 11
16.886508
 21
21.696573
 72
1
 10
16.886508
 20
21.696573
 11
17.0
 21
21.5
 72
1
 10
17.0
 20
21.5
 11
17.113491
 21
21.696573
 97
3
330
2D2
330
2D3
330
2D4
 75
0
 76
1
 98
1
 10
0.0
 20
0.0
  0
LINE
  5
2D6
100
AcDbEntity
  8
DETAIL
100
AcDbLine
 62
8
  6
HIDDEN
 10
4.6041012219
 20
10.0834043927
 11
4.2859044951
 21
9.8996945234
  0
LINE
  5
2D7
100
AcDbEntity
  8
DETAIL
100
AcDbLine
 62
8
  6
HIDDEN
 10
4.2859044951
 20
9.7772191609
 11
4.6041012219
 21
9.9609290301
  0
LINE
  5
2D8
100
AcDbEntity
  8
DETAIL
100
AcDbLine
 62
8
  6
HIDDEN
 10
4.6924892015
 20
9.4608204178
 11
4.1975165155
 21
9.1750495101
  0
LINE
  5
2D9
100
AcDbEntity
  8
FORMAT
100
AcDbLine
 62
7
  6
CONTINUOUS
 10
0.25
 20
5.5
 11
0.75
 21
5.5
  0
LINE
  5
2DA
100
AcDbEntity
  8
FORMAT
100
AcDbLine
 62
7
  6
CONTINUOUS
 10
33.25
 20
5.5
 11
33.75
 21
5.5
  0
LINE
  5
2DB
100
AcDbEntity
  8
FORMAT
100
AcDbLine
 62
7
  6
CONTINUOUS
 10
12.75
 20
0.0
 11
12.75
 21
0.5
  0
LINE
  5
2DC
100
AcDbEntity
  8
FORMAT
100
AcDbLine
 62
7
  6
CONTINUOUS
 10
12.75
 20
21.5
 11
12.75
 21
22.0
  0
LINE
  5
2DD
100
AcDbEntity
  8
FORMAT
100
AcDbLine
 62
7
  6
CONTINUOUS
 10
17.0
 20
0.0
 11
17.0
 21
0.5
  0
LINE
  5
2DE
100
AcDbEntity
  8
FORMAT
100
AcDbLine
 62
7
  6
CONTINUOUS
 10
17.0
 20
21.5
 11
17.0
 21
22.0
  0
LINE
  5
2DF
100
AcDbEntity
  8
DETAIL
100
AcDbLine
 62
8
  6
PHANTOM
 10
19.6301121508
 20
9.9901342554
 11
30.103290891
 21
9.9901342554
  0
LINE
  5
2E0
100
AcDbEntity
  8
FORMAT
100
AcDbLine
 62
7
  6
CONTINUOUS
 10
0.25
 20
11.0
 11
0.75
 21
11.0
  0
LINE
  5
2E1
100
AcDbEntity
  8
FORMAT
100
AcDbLine
 62
7
  6
CONTINUOUS
 10
33.25
 20
11.0
 11
33.75
 21
11.0
  0
LINE
  5
2E2
100
AcDbEntity
  8
DETAIL
100
AcDbLine
 62
8
  6
PHANTOM
 10
19.5472317788
 20
17.3430108479
 11
19.5472317788
 21
10.0730146274
  0
LINE
  5
2E3
100
AcDbEntity
  8
FORMAT
100
AcDbLine
 62
7
  6
CONTINUOUS
 10
21.25
 20
0.0
 11
21.25
 21
0.5
  0
LINE
  5
2E4
100
AcDbEntity
  8
FORMAT
100
AcDbLine
 62
7
  6
CONTINUOUS
 10
21.25
 20
21.5
 11
21.25
 21
22.0
  0
LINE
  5
2E5
100
AcDbEntity
  8
FORMAT
100
AcDbLine
 62
7
  6
CONTINUOUS
 10
0.25
 20
16.5
 11
0.75
 21
16.5
  0
LINE
  5
2E6
100
AcDbEntity
  8
FORMAT
100
AcDbLine
 62
7
  6
CONTINUOUS
 10
33.25
 20
16.5
 11
33.75
 21
16.5
  0
LINE
  5
2E7
100
AcDbEntity
  8
DETAIL
100
AcDbLine
 62
8
  6
PHANTOM
 10
30.103290891
 20
17.4258912199
 11
19.6301121508
 21
17.4258912199
  0
LINE
  5
2E8
100
AcDbEntity
  8
FORMAT
100
AcDbLine
 62
7
  6
CONTINUOUS
 10
33.446573
 20
11.113492
 11
33.25
 21
11.0
  0
LINE
  5
2E9
100
AcDbEntity
  8
FORMAT
100
AcDbLine
 62
7
  6
CONTINUOUS
 10
33.25
 20
11.0
 11
33.446573
 21
10.886509
  0
LINE
  5
2EA
100
AcDbEntity
  8
FORMAT
100
AcDbLine
 62
7
  6
CONTINUOUS
 10
33.446573
 20
10.886509
 11
33.446573
 21
11.113492
  0
HATCH
  5
2EB
100
AcDbEntity
  8
FORMAT
100
AcDbHatch
 62
7
  6
CONTINUOUS
 10
0.0
 20
0.0
 30
0.0
210
0.0
220
0.0
230
1.0
  2
arrow_right_2
 70
1
 71
1
 91
1
 92
1
 93
3
 72
1
 10
33.25
 20
11.0
 11
33.446573
 21
10.886509
 72
1
 10
33.446573
 20
10.886509
 11
33.446573
 21
11.113492
 72
1
 10
33.446573
 20
11.113492
 11
33.25
 21
11.0
 97
3
330
2E8
330
2E9
330
2EA
 75
0
 76
1
 98
1
 10
0.0
 20
0.0
  0
LINE
  5
2EC
100
AcDbEntity
  8
FORMAT
100
AcDbLine
 62
7
  6
CONTINUOUS
 10
25.5
 20
0.0
 11
25.5
 21
0.5
  0
LINE
  5
2ED
100
AcDbEntity
  8
FORMAT
100
AcDbLine
 62
7
  6
CONTINUOUS
 10
25.5
 20
21.5
 11
25.5
 21
22.0
  0
LINE
  5
2EE
100
AcDbEntity
  8
FORMAT
100
AcDbLine
 62
7
  6
CONTINUOUS
 10
33.25
 20
21.5
 11
0.75
 21
21.5
  0
LINE
  5
2EF
100
AcDbEntity
  8
FORMAT
100
AcDbLine
 62
9
  6
PHANTOM
 10
0.0
 20
22.0
 11
34.0
 21
22.0
  0
LINE
  5
2F0
100
AcDbEntity
  8
FORMAT
100
AcDbLine
 62
7
  6
CONTINUOUS
 10
29.75
 20
0.0
 11
29.75
 21
0.5
  0
LINE
  5
2F1
100
AcDbEntity
  8
FORMAT
100
AcDbLine
 62
7
  6
CONTINUOUS
 10
29.75
 20
21.5
 11
29.75
 21
22.0
  0
LINE
  5
2F2
100
AcDbEntity
  8
DETAIL
100
AcDbLine
 62
8
  6
PHANTOM
 10
30.186171263
 20
10.0730146274
 11
30.186171263
 21
17.3430108479
  0
LINE
  5
2F3
100
AcDbEntity
  8
FORMAT
100
AcDbLine
 62
7
  6
CONTINUOUS
 10
33.25
 20
0.5
 11
33.25
 21
21.5
  0
LINE
  5
2F4
100
AcDbEntity
  8
FORMAT
100
AcDbLine
 62
9
  6
PHANTOM
 10
34.0
 20
0.0
 11
34.0
 21
22.0
  0
LINE
  5
2F5
100
AcDbEntity
  8
ALL_FEATURES
100
AcDbLine
 62
7
  6
CONTINUOUS
 10
4.8816206321
 20
20.6129807635
 11
1.6996533647
 21
18.775882071
  0
LINE
  5
2F6
100
AcDbEntity
  8
ALL_FEATURES
100
AcDbLine
 62
7
  6
CONTINUOUS
 10
1.6996533647
 20
18.775882071
 11
1.6996533647
 21
8.9614846838
  0
LINE
  5
2F7
100
AcDbEntity
  8
ALL_FEATURES
100
AcDbLine
 62
7
  6
CONTINUOUS
 10
3.4045053305
 20
15.85421599
 11
3.4045053305
 21
9.9146018166
  0
LINE
  5
2F8
100
AcDbEntity
  8
ALL_FEATURES
100
AcDbLine
 62
7
  6
CONTINUOUS
 10
1.6996533647
 20
8.9614846838
 11
12.4641469695
 21
2.7467419996
  0
LINE
  5
2F9
100
AcDbEntity
  8
ALL_FEATURES
100
AcDbLine
 62
3
  6
CONTINUOUS
 10
3.695472791
 20
10.2103795838
 11
3.695472791
 21
15.6862296486
  0
LINE
  5
2FA
100
AcDbEntity
  8
ALL_FEATURES
100
AcDbLine
 62
7
  6
CONTINUOUS
 10
3.7378993746
 20
15.6617352034
 11
3.7378993746
 21
10.1858851385
  0
LINE
  5
2FB
100
AcDbEntity
  8
ALL_FEATURES
100
AcDbLine
 62
7
  6
CONTINUOUS
 10
3.7378993746
 20
10.0854553412
 11
3.7378993746
 21
10.0364651962
  0
LINE
  5
2FC
100
AcDbEntity
  8
ALL_FEATURES
100
AcDbLine
 62
9
  6
CONTINUOUS
 10
3.7824472872
 20
10.0597361737
 11
3.7824472872
 21
10.1087263187
  0
LINE
  5
2FD
100
AcDbEntity
  8
ALL_FEATURES
100
AcDbLine
 62
7
  6
CONTINUOUS
 10
4.0490276536
 20
9.9058294092
 11
4.0490276536
 21
9.9548195543
  0
LINE
  5
2FE
100
AcDbEntity
  8
ALL_FEATURES
100
AcDbLine
 62
3
  6
CONTINUOUS
 10
4.0914509399
 20
9.2362882495
 11
4.0914509399
 21
9.8323467226
  0
LINE
  5
2FF
100
AcDbEntity
  8
ALL_FEATURES
100
AcDbLine
 62
7
  6
CONTINUOUS
 10
4.1338775234
 20
9.2117938043
 11
4.1338775234
 21
9.8078522773
  0
LINE
  5
300
100
AcDbEntity
  8
ALL_AXIS
100
AcDbLine
 62
7
  6
CONTINUOUS
 10
4.1338775234
 20
10.3140720674
 11
4.1338775234
 21
10.4145018647
  0
LINE
  5
301
100
AcDbEntity
  8
ALL_FEATURES
100
AcDbLine
 62
7
  6
CONTINUOUS
 10
5.0065334771
 20
15.0477012705
 11
5.1373484229
 21
15.1232286276
  0
LINE
  5
302
100
AcDbEntity
  8
ALL_FEATURES
100
AcDbLine
 62
7
  6
CONTINUOUS
 10
5.0065334771
 20
8.7733178402
 11
5.0949221927
 21
8.6202249437
  0
LINE
  5
303
100
AcDbEntity
  8
ALL_FEATURES
100
AcDbLine
 62
7
  6
CONTINUOUS
 10
4.4025795722
 20
10.1099514862
 11
4.4025795722
 21
10.1589416312
  0
LINE
  5
304
100
AcDbEntity
  8
ALL_FEATURES
100
AcDbLine
 62
9
  6
CONTINUOUS
 10
5.2553447128
 20
14.7780017075
 11
5.2275052662
 21
14.7619286914
  0
LINE
  5
305
100
AcDbEntity
  8
ALL_FEATURES
100
AcDbLine
 62
7
  6
CONTINUOUS
 10
5.2920284913
 20
14.7246751249
 11
5.3198672251
 21
14.7407477294
  0
LINE
  5
306
100
AcDbEntity
  8
ALL_FEATURES
100
AcDbLine
 62
7
  6
CONTINUOUS
 10
4.430861135
 20
13.9615748303
 11
4.5616753449
 21
14.0370999988
  0
LINE
  5
307
100
AcDbEntity
  8
ALL_FEATURES
100
AcDbLine
 62
7
  6
CONTINUOUS
 10
5.8020319179
 20
14.6904932238
 11
5.8444581481
 21
14.7149878731
  0
LINE
  5
308
100
AcDbEntity
  8
ALL_FEATURES
100
AcDbLine
 62
3
  6
CONTINUOUS
 10
4.5192487614
 20
13.9391190815
 11
4.3884345515
 21
13.863593913
  0
LINE
  5
309
100
AcDbEntity
  8
ALL_FEATURES
100
AcDbLine
 62
7
  6
CONTINUOUS
 10
4.5616753449
 20
13.9146246362
 11
4.430861135
 21
13.8390994677
  0
LINE
  5
30A
100
AcDbEntity
  8
ALL_FEATURES
100
AcDbLine
 62
7
  6
CONTINUOUS
 10
5.8904206335
 20
14.5374003274
 11
5.9328468637
 21
14.5618949766
  0
LINE
  5
30B
100
AcDbEntity
  8
ALL_FEATURES
100
AcDbLine
 62
9
  6
CONTINUOUS
 10
5.9328468637
 20
14.4036976333
 11
5.8904206335
 21
14.3792029841
  0
LINE
  5
30C
100
AcDbEntity
  8
ALL_FEATURES
100
AcDbLine
 62
7
  6
CONTINUOUS
 10
5.8020319179
 20
8.2119841892
 11
5.0949221927
 21
8.6202249437
  0
LINE
  5
30D
100
AcDbEntity
  8
ALL_FEATURES
100
AcDbLine
 62
7
  6
CONTINUOUS
 10
8.2769159559
 20
6.7831415484
 11
8.984025681
 21
6.3749007939
  0
LINE
  5
30E
100
AcDbEntity
  8
ALL_FEATURES
100
AcDbLine
 62
7
  6
CONTINUOUS
 10
8.8514426075
 20
6.6795603163
 11
8.4094990293
 21
6.9347107879
  0
LINE
  5
30F
100
AcDbEntity
  8
ALL_FEATURES
100
AcDbLine
 62
7
  6
CONTINUOUS
 10
5.6694488444
 20
8.5166437117
 11
5.2275052662
 21
8.7717941833
  0
LINE
  5
310
100
AcDbEntity
  8
ALL_FEATURES
100
AcDbLine
 62
9
  6
CONTINUOUS
 10
5.8904206335
 20
8.4212142403
 11
5.6694488444
 21
8.5487894761
  0
LINE
  5
311
100
AcDbEntity
  8
ALL_FEATURES
100
AcDbLine
 62
9
  6
CONTINUOUS
 10
5.2275052662
 20
8.8039399477
 11
5.0065334771
 21
8.9315151835
  0
LINE
  5
312
100
AcDbEntity
  8
ALL_FEATURES
100
AcDbLine
 62
9
  6
CONTINUOUS
 10
8.1885272402
 20
7.0944317882
 11
8.4094990293
 21
6.9668565524
  0
LINE
  5
313
100
AcDbEntity
  8
ALL_FEATURES
100
AcDbLine
 62
9
  6
CONTINUOUS
 10
8.8514426075
 20
6.7117060808
 11
9.0724143967
 21
6.584130845
  0
LINE
  5
314
100
AcDbEntity
  8
ALL_FEATURES
100
AcDbLine
 62
3
  6
CONTINUOUS
 10
8.8528350959
 20
6.7277452715
 11
8.4519252596
 21
6.9592054371
  0
LINE
  5
315
100
AcDbEntity
  8
ALL_FEATURES
100
AcDbLine
 62
3
  6
CONTINUOUS
 10
5.6708413328
 20
8.5648286669
 11
5.2699314964
 21
8.7962888325
  0
LINE
  5
316
100
AcDbEntity
  8
ALL_FEATURES
100
AcDbLine
 62
7
  6
CONTINUOUS
 10
3.4045053305
 20
9.9146018166
 11
5.0189174976
 21
8.9825416034
  0
LINE
  5
317
100
AcDbEntity
  8
ALL_FEATURES
100
AcDbLine
 62
7
  6
CONTINUOUS
 10
5.2710622398
 20
8.8369690619
 11
5.6818328649
 21
8.599815896
  0
LINE
  5
318
100
AcDbEntity
  8
ALL_FEATURES
100
AcDbLine
 62
7
  6
CONTINUOUS
 10
5.9339776072
 20
8.4542433545
 11
8.2009112608
 21
7.1454582081
  0
LINE
  5
319
100
AcDbEntity
  8
ALL_FEATURES
100
AcDbLine
 62
7
  6
CONTINUOUS
 10
8.453056003
 20
6.9998856665
 11
8.8638266281
 21
6.7627325007
  0
LINE
  5
31A
100
AcDbEntity
  8
ALL_FEATURES
100
AcDbLine
 62
7
  6
CONTINUOUS
 10
9.1159713703
 20
6.6171599592
 11
10.7592950037
 21
5.6684080807
  0
LINE
  5
31B
100
AcDbEntity
  8
ALL_FEATURES
100
AcDbLine
 62
3
  6
CONTINUOUS
 10
5.3198672251
 20
8.8827805318
 11
5.7207762982
 21
8.6513208068
  0
LINE
  5
31C
100
AcDbEntity
  8
ALL_FEATURES
100
AcDbLine
 62
3
  6
CONTINUOUS
 10
8.5018609882
 20
7.0456971364
 11
8.9027700614
 21
6.8142374114
  0
LINE
  5
31D
100
AcDbEntity
  8
ALL_FEATURES
100
AcDbLine
 62
9
  6
CONTINUOUS
 10
5.9549438586
 20
8.532972365
 11
5.7339720695
 21
8.6605476007
  0
LINE
  5
31E
100
AcDbEntity
  8
ALL_FEATURES
100
AcDbLine
 62
9
  6
CONTINUOUS
 10
5.2920284913
 20
8.9156980723
 11
5.0710567022
 21
9.0432733081
  0
LINE
  5
31F
100
AcDbEntity
  8
ALL_FEATURES
100
AcDbLine
 62
9
  6
CONTINUOUS
 10
8.2530504654
 20
7.2061899128
 11
8.4740222545
 21
7.078614677
  0
LINE
  5
320
100
AcDbEntity
  8
ALL_FEATURES
100
AcDbLine
 62
9
  6
CONTINUOUS
 10
8.9159658327
 20
6.8234642054
 11
9.1369376218
 21
6.6958889696
  0
LINE
  5
321
100
AcDbEntity
  8
ALL_FEATURES
100
AcDbLine
 62
7
  6
CONTINUOUS
 10
5.3198672251
 20
8.9317706768
 11
5.7618108033
 21
8.6766202052
  0
LINE
  5
322
100
AcDbEntity
  8
ALL_FEATURES
100
AcDbLine
 62
7
  6
CONTINUOUS
 10
8.5018609882
 20
7.0946872815
 11
8.9438045664
 21
6.8395368099
  0
LINE
  5
323
100
AcDbEntity
  8
ALL_FEATURES
100
AcDbLine
 62
3
  6
CONTINUOUS
 10
10.7592950037
 20
5.9827522469
 11
9.4012179165
 21
6.7668206808
  0
LINE
  5
324
100
AcDbEntity
  8
ALL_FEATURES
100
AcDbLine
 62
3
  6
CONTINUOUS
 10
8.4466190544
 20
7.3179461226
 11
6.2192241533
 21
8.6039040761
  0
LINE
  5
325
100
AcDbEntity
  8
ALL_FEATURES
100
AcDbLine
 62
3
  6
CONTINUOUS
 10
5.2646252912
 20
9.155029518
 11
3.7378993746
 21
10.0364651962
  0
LINE
  5
326
100
AcDbEntity
  8
ALL_FEATURES
100
AcDbLine
 62
3
  6
CONTINUOUS
 10
10.7592950037
 20
6.0317423919
 11
10.6309584817
 21
6.1058358412
  0
LINE
  5
327
100
AcDbEntity
  8
ALL_FEATURES
100
AcDbLine
 62
7
  6
CONTINUOUS
 10
3.7378993746
 20
10.0854553412
 11
3.7824472872
 21
10.0597361737
  0
LINE
  5
328
100
AcDbEntity
  8
ALL_FEATURES
100
AcDbLine
 62
7
  6
CONTINUOUS
 10
4.0490276536
 20
9.9058294092
 11
5.2787682189
 21
9.1958544246
  0
LINE
  5
329
100
AcDbEntity
  8
ALL_FEATURES
100
AcDbLine
 62
7
  6
CONTINUOUS
 10
6.2192241533
 20
8.6528942211
 11
8.460761982
 21
7.3587710293
  0
LINE
  5
32A
100
AcDbEntity
  8
ALL_FEATURES
100
AcDbLine
 62
9
  6
CONTINUOUS
 10
6.1909397643
 20
8.6692238513
 11
5.3070526079
 21
9.1795247945
  0
LINE
  5
32B
100
AcDbEntity
  8
ALL_FEATURES
100
AcDbLine
 62
9
  6
CONTINUOUS
 10
8.489046371
 20
7.3424413991
 11
9.3729335275
 21
6.832140456
  0
LINE
  5
32C
100
AcDbEntity
  8
ALL_FEATURES
100
AcDbLine
 62
3
  6
CONTINUOUS
 10
4.0490276536
 20
9.9058294092
 11
3.7824472872
 21
10.0597361737
  0
LINE
  5
32D
100
AcDbEntity
  8
ALL_FEATURES
100
AcDbLine
 62
7
  6
CONTINUOUS
 10
9.4012179165
 20
6.8158108258
 11
10.6309584817
 21
6.1058358412
  0
LINE
  5
32E
100
AcDbEntity
  8
ALL_FEATURES
100
AcDbLine
 62
7
  6
CONTINUOUS
 10
10.7592950037
 20
6.0807325369
 11
10.6309584817
 21
6.1548259862
  0
LINE
  5
32F
100
AcDbEntity
  8
ALL_FEATURES
100
AcDbLine
 62
7
  6
CONTINUOUS
 10
4.0490276536
 20
9.9548195543
 11
3.7824472872
 21
10.1087263187
  0
LINE
  5
330
100
AcDbEntity
  8
ALL_FEATURES
100
AcDbLine
 62
7
  6
CONTINUOUS
 10
5.441402808
 20
9.191772391
 11
5.611109142
 21
9.0937946099
  0
LINE
  5
331
100
AcDbEntity
  8
ALL_FEATURES
100
AcDbLine
 62
7
  6
CONTINUOUS
 10
5.66767792
 20
9.0611353496
 11
5.7984932192
 21
8.98561081
  0
LINE
  5
332
100
AcDbEntity
  8
ALL_FEATURES
100
AcDbLine
 62
7
  6
CONTINUOUS
 10
5.8550619972
 20
8.9529515496
 11
5.9858772963
 21
8.87742701
  0
LINE
  5
333
100
AcDbEntity
  8
ALL_FEATURES
100
AcDbLine
 62
7
  6
CONTINUOUS
 10
6.0424460744
 20
8.8447677497
 11
6.2121524084
 21
8.7467899686
  0
LINE
  5
334
100
AcDbEntity
  8
ALL_FEATURES
100
AcDbLine
 62
7
  6
CONTINUOUS
 10
8.6233965711
 20
7.3546889957
 11
8.7931029052
 21
7.2567112146
  0
LINE
  5
335
100
AcDbEntity
  8
ALL_FEATURES
100
AcDbLine
 62
7
  6
CONTINUOUS
 10
8.8496716832
 20
7.2240519542
 11
8.9804869823
 21
7.1485274146
  0
LINE
  5
336
100
AcDbEntity
  8
ALL_FEATURES
100
AcDbLine
 62
7
  6
CONTINUOUS
 10
9.0370557604
 20
7.1158681543
 11
9.1678710595
 21
7.0403436147
  0
LINE
  5
337
100
AcDbEntity
  8
ALL_FEATURES
100
AcDbLine
 62
7
  6
CONTINUOUS
 10
9.2244398375
 20
7.0076843543
 11
9.3941461716
 21
6.9097065733
  0
LINE
  5
338
100
AcDbEntity
  8
ALL_FEATURES
100
AcDbLine
 62
9
  6
CONTINUOUS
 10
3.695472791
 20
10.2103795838
 11
3.7378993746
 21
10.1858851385
  0
LINE
  5
339
100
AcDbEntity
  8
ALL_FEATURES
100
AcDbLine
 62
7
  6
CONTINUOUS
 10
9.422430325
 20
6.9260363394
 11
9.252723991
 21
7.0240141205
  0
LINE
  5
33A
100
AcDbEntity
  8
ALL_FEATURES
100
AcDbLine
 62
7
  6
CONTINUOUS
 10
9.196155213
 20
7.0566733809
 11
9.0653399138
 21
7.1321979204
  0
LINE
  5
33B
100
AcDbEntity
  8
ALL_FEATURES
100
AcDbLine
 62
7
  6
CONTINUOUS
 10
9.0087711358
 20
7.1648571808
 11
8.8779558367
 21
7.2403817204
  0
LINE
  5
33C
100
AcDbEntity
  8
ALL_FEATURES
100
AcDbLine
 62
7
  6
CONTINUOUS
 10
8.8213870587
 20
7.2730409808
 11
8.6516807246
 21
7.3710187618
  0
LINE
  5
33D
100
AcDbEntity
  8
ALL_FEATURES
100
AcDbLine
 62
7
  6
CONTINUOUS
 10
5.3848337945
 20
9.2570910477
 11
5.4131181835
 21
9.2407614175
  0
LINE
  5
33E
100
AcDbEntity
  8
ALL_FEATURES
100
AcDbLine
 62
7
  6
CONTINUOUS
 10
6.2970053399
 20
8.7304604744
 11
6.3252897289
 21
8.7141308442
  0
LINE
  5
33F
100
AcDbEntity
  8
ALL_FEATURES
100
AcDbLine
 62
7
  6
CONTINUOUS
 10
6.2404365619
 20
8.7631197348
 11
6.0707302278
 21
8.8610975158
  0
LINE
  5
340
100
AcDbEntity
  8
ALL_FEATURES
100
AcDbLine
 62
7
  6
CONTINUOUS
 10
6.0141614498
 20
8.8937567762
 11
5.8833461507
 21
8.9692813158
  0
LINE
  5
341
100
AcDbEntity
  8
ALL_FEATURES
100
AcDbLine
 62
7
  6
CONTINUOUS
 10
5.8267773727
 20
9.0019405761
 11
5.6959620735
 21
9.0774651157
  0
LINE
  5
342
100
AcDbEntity
  8
ALL_FEATURES
100
AcDbLine
 62
7
  6
CONTINUOUS
 10
5.6393932955
 20
9.1101243761
 11
5.4696869615
 21
9.2081021572
  0
LINE
  5
343
100
AcDbEntity
  8
ALL_FEATURES
100
AcDbLine
 62
7
  6
CONTINUOUS
 10
8.5668275576
 20
7.4200076524
 11
8.5951119466
 21
7.4036780222
  0
LINE
  5
344
100
AcDbEntity
  8
ALL_FEATURES
100
AcDbLine
 62
7
  6
CONTINUOUS
 10
9.4789991031
 20
6.893377079
 11
9.5072834921
 21
6.8770474489
  0
LINE
  5
345
100
AcDbEntity
  8
ALL_FEATURES
100
AcDbLine
 62
7
  6
CONTINUOUS
 10
5.0065334771
 20
8.9315151835
 11
5.0065334771
 21
8.7733178402
  0
LINE
  5
346
100
AcDbEntity
  8
ALL_FEATURES
100
AcDbLine
 62
7
  6
CONTINUOUS
 10
5.0065334771
 20
14.8895039272
 11
5.0065334771
 21
15.0477012705
  0
LINE
  5
347
100
AcDbEntity
  8
ALL_FEATURES
100
AcDbLine
 62
7
  6
CONTINUOUS
 10
5.2275052662
 20
8.8039399477
 11
5.2275052662
 21
8.7717941833
  0
LINE
  5
348
100
AcDbEntity
  8
ALL_FEATURES
100
AcDbLine
 62
7
  6
CONTINUOUS
 10
5.2275052662
 20
14.7619286914
 11
5.2275052662
 21
14.7940744559
  0
LINE
  5
349
100
AcDbEntity
  8
ALL_FEATURES
100
AcDbLine
 62
3
  6
CONTINUOUS
 10
5.2699314964
 20
8.8284345969
 11
5.2699314964
 21
8.7962888325
  0
LINE
  5
34A
100
AcDbEntity
  8
ALL_FEATURES
100
AcDbLine
 62
7
  6
CONTINUOUS
 10
5.2787682189
 20
9.1631948923
 11
5.2787682189
 21
9.1958544246
  0
LINE
  5
34B
100
AcDbEntity
  8
ALL_FEATURES
100
AcDbLine
 62
9
  6
CONTINUOUS
 10
5.2920284913
 20
14.7568227972
 11
5.2920284913
 21
14.7246751249
  0
LINE
  5
34C
100
AcDbEntity
  8
ALL_FEATURES
100
AcDbLine
 62
9
  6
CONTINUOUS
 10
5.2920284913
 20
8.8667079273
 11
5.2920284913
 21
8.9156980723
  0
LINE
  5
34D
100
AcDbEntity
  8
ALL_FEATURES
100
AcDbLine
 62
7
  6
CONTINUOUS
 10
5.3198672251
 20
8.8827805318
 11
5.3198672251
 21
8.9317706768
  0
LINE
  5
34E
100
AcDbEntity
  8
ALL_FEATURES
100
AcDbLine
 62
7
  6
CONTINUOUS
 10
5.3848337945
 20
9.2244315154
 11
5.3848337945
 21
9.2570910477
  0
LINE
  5
34F
100
AcDbEntity
  8
ALL_FEATURES
100
AcDbLine
 62
7
  6
CONTINUOUS
 10
5.4696869615
 20
9.1754428968
 11
5.4696869615
 21
9.2081021572
  0
LINE
  5
350
100
AcDbEntity
  8
ALL_FEATURES
100
AcDbLine
 62
7
  6
CONTINUOUS
 10
5.6694488444
 20
8.5487894761
 11
5.6694488444
 21
8.5166437117
  0
LINE
  5
351
100
AcDbEntity
  8
ALL_FEATURES
100
AcDbLine
 62
7
  6
CONTINUOUS
 10
5.6694488444
 20
14.5067782198
 11
5.6694488444
 21
14.5389239843
  0
LINE
  5
352
100
AcDbEntity
  8
ALL_FEATURES
100
AcDbLine
 62
7
  6
CONTINUOUS
 10
5.6959620735
 20
9.0448058554
 11
5.6959620735
 21
9.0774651157
  0
LINE
  5
353
100
AcDbEntity
  8
ALL_FEATURES
100
AcDbLine
 62
7
  6
CONTINUOUS
 10
5.989415205
 20
14.3618513399
 11
5.9549438586
 21
14.3419494175
  0
LINE
  5
354
100
AcDbEntity
  8
ALL_FEATURES
100
AcDbLine
 62
7
  6
CONTINUOUS
 10
4.430861135
 20
12.9409468089
 11
4.5616753449
 21
13.0164719774
  0
LINE
  5
355
100
AcDbEntity
  8
ALL_FEATURES
100
AcDbLine
 62
3
  6
CONTINUOUS
 10
4.5192487614
 20
12.9184910601
 11
4.3884345515
 21
12.8429658916
  0
LINE
  5
356
100
AcDbEntity
  8
ALL_FEATURES
100
AcDbLine
 62
7
  6
CONTINUOUS
 10
4.5616753449
 20
12.8939966148
 11
4.430861135
 21
12.8184714463
  0
LINE
  5
357
100
AcDbEntity
  8
ALL_FEATURES
100
AcDbLine
 62
7
  6
CONTINUOUS
 10
4.1359992058
 20
10.3128483957
 11
4.4025795722
 21
10.1589416312
  0
LINE
  5
358
100
AcDbEntity
  8
ALL_FEATURES
100
AcDbLine
 62
7
  6
CONTINUOUS
 10
5.8833461507
 20
8.9366220554
 11
5.8833461507
 21
8.9692813158
  0
LINE
  5
359
100
AcDbEntity
  8
ALL_FEATURES
100
AcDbLine
 62
7
  6
CONTINUOUS
 10
5.8904206335
 20
8.4212142403
 11
5.8904206335
 21
8.263016897
  0
LINE
  5
35A
100
AcDbEntity
  8
ALL_FEATURES
100
AcDbLine
 62
7
  6
CONTINUOUS
 10
5.8904206335
 20
14.3792029841
 11
5.8904206335
 21
14.5374003274
  0
LINE
  5
35B
100
AcDbEntity
  8
ALL_FEATURES
100
AcDbLine
 62
3
  6
CONTINUOUS
 10
5.9328468637
 20
8.4457088896
 11
5.9328468637
 21
8.2875115463
  0
LINE
  5
35C
100
AcDbEntity
  8
ALL_FEATURES
100
AcDbLine
 62
3
  6
CONTINUOUS
 10
5.9328468637
 20
14.4036976333
 11
5.9328468637
 21
14.5618949766
  0
LINE
  5
35D
100
AcDbEntity
  8
ALL_FEATURES
100
AcDbLine
 62
9
  6
CONTINUOUS
 10
5.9549438586
 20
14.3817529307
 11
5.9549438586
 21
14.3419494175
  0
LINE
  5
35E
100
AcDbEntity
  8
ALL_FEATURES
100
AcDbLine
 62
9
  6
CONTINUOUS
 10
5.9549438586
 20
8.4839822199
 11
5.9549438586
 21
8.532972365
  0
LINE
  5
35F
100
AcDbEntity
  8
ALL_FEATURES
100
AcDbLine
 62
9
  6
CONTINUOUS
 10
5.9663507858
 20
14.3485351707
 11
5.9663507858
 21
12.9615204703
  0
LINE
  5
360
100
AcDbEntity
  8
ALL_FEATURES
100
AcDbLine
 62
9
  6
CONTINUOUS
 10
5.9663507858
 20
12.6382048021
 11
5.9663507858
 21
11.3720446835
  0
LINE
  5
361
100
AcDbEntity
  8
ALL_FEATURES
100
AcDbLine
 62
9
  6
CONTINUOUS
 10
6.0554462403
 20
14.3237291663
 11
6.0554462403
 21
13.0129594479
  0
LINE
  5
362
100
AcDbEntity
  8
ALL_FEATURES
100
AcDbLine
 62
9
  6
CONTINUOUS
 10
6.0554462403
 20
12.6896437796
 11
6.0554462403
 21
11.42348455
  0
LINE
  5
363
100
AcDbEntity
  8
ALL_FEATURES
100
AcDbLine
 62
7
  6
CONTINUOUS
 10
6.0707302278
 20
8.8284382555
 11
6.0707302278
 21
8.8610975158
  0
LINE
  5
364
100
AcDbEntity
  8
ALL_FEATURES
100
AcDbLine
 62
9
  6
CONTINUOUS
 10
6.1909397643
 20
8.6202337063
 11
6.1909397643
 21
8.6692238513
  0
LINE
  5
365
100
AcDbEntity
  8
ALL_FEATURES
100
AcDbLine
 62
7
  6
CONTINUOUS
 10
6.2192241533
 20
8.6039040761
 11
6.2192241533
 21
8.6528942211
  0
LINE
  5
366
100
AcDbEntity
  8
ALL_FEATURES
100
AcDbLine
 62
7
  6
CONTINUOUS
 10
6.2970053399
 20
8.6978009421
 11
6.2970053399
 21
8.7304604744
  0
LINE
  5
367
100
AcDbEntity
  8
ALL_FEATURES
100
AcDbLine
 62
7
  6
CONTINUOUS
 10
4.734915785
 20
9.4363259725
 11
4.7455352438
 21
9.4547195167
  0
LINE
  5
368
100
AcDbEntity
  8
0
100
AcDbLine
 62
7
  6
CONTINUOUS
 10
5.6009385328
 20
12.7505508669
 11
6.2175330838
 21
13.106539772
  0
LINE
  5
369
100
AcDbEntity
  8
0
100
AcDbLine
 62
7
  6
CONTINUOUS
 10
5.740937906
 20
12.508063392
 11
6.357532447
 21
12.8640522913
  0
LINE
  5
36A
100
AcDbEntity
  8
ALL_FEATURES
100
AcDbLine
 62
7
  6
CONTINUOUS
 10
8.1885272402
 20
6.9362344448
 11
8.2769159559
 21
6.7831415484
  0
LINE
  5
36B
100
AcDbEntity
  8
ALL_FEATURES
100
AcDbLine
 62
7
  6
CONTINUOUS
 10
6.5400534568
 20
8.9944991744
 11
6.5400534568
 21
8.9455090293
  0
LINE
  5
36C
100
AcDbEntity
  8
ALL_FEATURES
100
AcDbLine
 62
9
  6
CONTINUOUS
 10
6.6362474346
 20
9.1497232829
 11
6.6362474346
 21
9.1843311252
  0
LINE
  5
36D
100
AcDbEntity
  8
ALL_FEATURES
100
AcDbLine
 62
7
  6
CONTINUOUS
 10
6.682732449
 20
8.7813037207
 11
6.682732449
 21
8.8110898298
  0
LINE
  5
36E
100
AcDbEntity
  8
ALL_FEATURES
100
AcDbLine
 62
9
  6
CONTINUOUS
 10
7.0072977472
 20
10.0713413634
 11
7.0072977472
 21
10.1203315084
  0
LINE
  5
36F
100
AcDbEntity
  8
ALL_FEATURES
100
AcDbLine
 62
9
  6
CONTINUOUS
 10
7.0244888961
 20
9.0289013551
 11
7.0244888961
 21
9.0529004415
  0
LINE
  5
370
100
AcDbEntity
  8
ALL_FEATURES
100
AcDbLine
 62
9
  6
CONTINUOUS
 10
7.0733153874
 20
9.4040113869
 11
7.0733153874
 21
9.4366709192
  0
LINE
  5
371
100
AcDbEntity
  8
ALL_FEATURES
100
AcDbLine
 62
9
  6
CONTINUOUS
 10
7.1381119571
 20
10.1468665318
 11
7.1381119571
 21
10.1958566768
  0
LINE
  5
372
100
AcDbEntity
  8
ALL_FEATURES
100
AcDbLine
 62
9
  6
CONTINUOUS
 10
7.162859561
 20
10.3040399362
 11
7.162859561
 21
10.3530300812
  0
LINE
  5
373
100
AcDbEntity
  8
ALL_FEATURES
100
AcDbLine
 62
7
  6
CONTINUOUS
 10
8.3193421861
 20
13.2861452322
 11
8.1885272402
 21
13.2106178752
  0
LINE
  5
374
100
AcDbEntity
  8
ALL_FEATURES
100
AcDbLine
 62
9
  6
CONTINUOUS
 10
5.9663507858
 20
11.3720446835
 11
10.7592950037
 21
8.6048996503
  0
LINE
  5
375
100
AcDbEntity
  8
ALL_FEATURES
100
AcDbLine
 62
9
  6
CONTINUOUS
 10
6.0554462403
 20
11.42348455
 11
10.7592950037
 21
8.7077776377
  0
LINE
  5
376
100
AcDbEntity
  8
ALL_FEATURES
100
AcDbLine
 62
9
  6
CONTINUOUS
 10
7.26557509
 20
8.7897174909
 11
7.26557509
 21
8.8209968537
  0
LINE
  5
377
100
AcDbEntity
  8
ALL_FEATURES
100
AcDbLine
 62
9
  6
CONTINUOUS
 10
7.3009664965
 20
9.1635337607
 11
7.3009664965
 21
9.2125239057
  0
LINE
  5
378
100
AcDbEntity
  8
ALL_FEATURES
100
AcDbLine
 62
9
  6
CONTINUOUS
 10
7.7026430428
 20
9.0406771153
 11
7.7026430428
 21
9.0733366476
  0
LINE
  5
379
100
AcDbEntity
  8
ALL_FEATURES
100
AcDbLine
 62
7
  6
CONTINUOUS
 10
7.748126889
 20
9.3889808797
 11
7.748126889
 21
9.4261919248
  0
LINE
  5
37A
100
AcDbEntity
  8
ALL_FEATURES
100
AcDbLine
 62
7
  6
CONTINUOUS
 10
7.8271214096
 20
9.2468389683
 11
7.8271214096
 21
9.1978488233
  0
LINE
  5
37B
100
AcDbEntity
  8
ALL_FEATURES
100
AcDbLine
 62
9
  6
CONTINUOUS
 10
8.437338476
 20
12.9409183121
 11
8.4094990293
 21
12.9248452961
  0
LINE
  5
37C
100
AcDbEntity
  8
ALL_FEATURES
100
AcDbLine
 62
9
  6
CONTINUOUS
 10
3.7378993746
 20
10.1858851385
 11
4.0914512932
 21
10.3900072155
  0
LINE
  5
37D
100
AcDbEntity
  8
ALL_FEATURES
100
AcDbLine
 62
7
  6
CONTINUOUS
 10
4.0914512932
 20
10.3900072155
 11
4.1338775234
 21
10.4145018647
  0
LINE
  5
37E
100
AcDbEntity
  8
ALL_FEATURES
100
AcDbLine
 62
7
  6
CONTINUOUS
 10
8.4740222545
 20
12.8875917296
 11
8.5018609882
 21
12.903664334
  0
LINE
  5
37F
100
AcDbEntity
  8
ALL_FEATURES
100
AcDbLine
 62
7
  6
CONTINUOUS
 10
3.4045053305
 20
9.9146018166
 11
3.7340279617
 21
10.1048506608
  0
LINE
  5
380
100
AcDbEntity
  8
ALL_AXIS
100
AcDbLine
 62
7
  6
CONTINUOUS
 10
5.9663507858
 20
11.3720446835
 11
4.6995605932
 21
10.6406673905
  0
LINE
  5
381
100
AcDbEntity
  8
ALL_AXIS
100
AcDbLine
 62
7
  6
CONTINUOUS
 10
4.6500633246
 20
10.6120902997
 11
4.5298556722
 21
10.5426887936
  0
LINE
  5
382
100
AcDbEntity
  8
ALL_AXIS
100
AcDbLine
 62
7
  6
CONTINUOUS
 10
4.4450032118
 20
10.4936994951
 11
4.3247955594
 21
10.4242979889
  0
LINE
  5
383
100
AcDbEntity
  8
ALL_AXIS
100
AcDbLine
 62
7
  6
CONTINUOUS
 10
4.2752982908
 20
10.3957208982
 11
4.1338775234
 21
10.3140720674
  0
LINE
  5
384
100
AcDbEntity
  8
ALL_FEATURES
100
AcDbLine
 62
7
  6
CONTINUOUS
 10
5.9663507858
 20
11.3720446835
 11
4.1349389262
 21
10.3146848649
  0
LINE
  5
385
100
AcDbEntity
  8
ALL_FEATURES
100
AcDbLine
 62
7
  6
CONTINUOUS
 10
3.7459895668
 20
10.090126188
 11
3.7378993746
 21
10.0854553412
  0
LINE
  5
386
100
AcDbEntity
  8
ALL_FEATURES
100
AcDbLine
 62
9
  6
CONTINUOUS
 10
3.7824472872
 20
10.1087263187
 11
4.1359992058
 21
10.3128483957
  0
LINE
  5
387
100
AcDbEntity
  8
ALL_FEATURES
100
AcDbLine
 62
9
  6
CONTINUOUS
 10
7.4232185175
 20
11.9581513906
 11
7.3807922873
 21
11.9336567414
  0
LINE
  5
388
100
AcDbEntity
  8
ALL_FEATURES
100
AcDbLine
 62
7
  6
CONTINUOUS
 10
8.984025681
 20
12.8534098285
 11
9.0264519112
 21
12.8779044777
  0
LINE
  5
389
100
AcDbEntity
  8
ALL_FEATURES
100
AcDbLine
 62
7
  6
CONTINUOUS
 10
4.4025795722
 20
10.1589416312
 11
4.0490276536
 21
9.9548195543
  0
LINE
  5
38A
100
AcDbEntity
  8
ALL_FEATURES
100
AcDbLine
 62
3
  6
CONTINUOUS
 10
4.4025795722
 20
10.1099514862
 11
4.0490276536
 21
9.9058294092
  0
LINE
  5
38B
100
AcDbEntity
  8
ALL_FEATURES
100
AcDbLine
 62
9
  6
CONTINUOUS
 10
7.8336761265
 20
11.9859339016
 11
7.8094547769
 21
11.9719497824
  0
LINE
  5
38C
100
AcDbEntity
  8
ALL_FEATURES
100
AcDbLine
 62
7
  6
CONTINUOUS
 10
9.0724143967
 20
12.700316932
 11
9.1148406269
 21
12.7248115813
  0
LINE
  5
38D
100
AcDbEntity
  8
ALL_FEATURES
100
AcDbLine
 62
9
  6
CONTINUOUS
 10
4.6677405672
 20
12.6572088051
 11
4.7101671507
 21
12.6327143598
  0
LINE
  5
38E
100
AcDbEntity
  8
ALL_FEATURES
100
AcDbLine
 62
9
  6
CONTINUOUS
 10
4.3884345515
 20
12.8429658916
 11
4.430861135
 21
12.8184714463
  0
LINE
  5
38F
100
AcDbEntity
  8
ALL_FEATURES
100
AcDbLine
 62
9
  6
CONTINUOUS
 10
4.5192487614
 20
12.9184910601
 11
4.5616753449
 21
12.8939966148
  0
LINE
  5
390
100
AcDbEntity
  8
ALL_FEATURES
100
AcDbLine
 62
7
  6
CONTINUOUS
 10
5.8904206335
 20
14.5374003274
 11
5.8020319179
 21
14.6904932238
  0
LINE
  5
391
100
AcDbEntity
  8
ALL_FEATURES
100
AcDbLine
 62
3
  6
CONTINUOUS
 10
5.8444581481
 20
14.7149878731
 11
5.9328468637
 21
14.5618949766
  0
LINE
  5
392
100
AcDbEntity
  8
ALL_FEATURES
100
AcDbLine
 62
7
  6
CONTINUOUS
 10
8.1885272402
 20
7.0944317882
 11
8.1885272402
 21
6.9362344448
  0
LINE
  5
393
100
AcDbEntity
  8
ALL_FEATURES
100
AcDbLine
 62
7
  6
CONTINUOUS
 10
8.1885272402
 20
13.0524205319
 11
8.1885272402
 21
13.2106178752
  0
LINE
  5
394
100
AcDbEntity
  8
ALL_FEATURES
100
AcDbLine
 62
7
  6
CONTINUOUS
 10
8.4094990293
 20
6.9668565524
 11
8.4094990293
 21
6.9347107879
  0
LINE
  5
395
100
AcDbEntity
  8
ALL_FEATURES
100
AcDbLine
 62
7
  6
CONTINUOUS
 10
8.4094990293
 20
12.9248452961
 11
8.4094990293
 21
12.9569910605
  0
LINE
  5
396
100
AcDbEntity
  8
ALL_FEATURES
100
AcDbLine
 62
3
  6
CONTINUOUS
 10
8.4519252596
 20
6.9913512016
 11
8.4519252596
 21
6.9592054371
  0
LINE
  5
397
100
AcDbEntity
  8
ALL_FEATURES
100
AcDbLine
 62
7
  6
CONTINUOUS
 10
8.460761982
 20
7.326111497
 11
8.460761982
 21
7.3587710293
  0
LINE
  5
398
100
AcDbEntity
  8
ALL_FEATURES
100
AcDbLine
 62
9
  6
CONTINUOUS
 10
8.4740222545
 20
12.9197394019
 11
8.4740222545
 21
12.8875917296
  0
LINE
  5
399
100
AcDbEntity
  8
ALL_FEATURES
100
AcDbLine
 62
9
  6
CONTINUOUS
 10
8.4740222545
 20
7.0296245319
 11
8.4740222545
 21
7.078614677
  0
LINE
  5
39A
100
AcDbEntity
  8
ALL_FEATURES
100
AcDbLine
 62
7
  6
CONTINUOUS
 10
8.5018609882
 20
7.0456971364
 11
8.5018609882
 21
7.0946872815
  0
LINE
  5
39B
100
AcDbEntity
  8
ALL_FEATURES
100
AcDbLine
 62
7
  6
CONTINUOUS
 10
8.5668275576
 20
7.3873481201
 11
8.5668275576
 21
7.4200076524
  0
LINE
  5
39C
100
AcDbEntity
  8
ALL_FEATURES
100
AcDbLine
 62
7
  6
CONTINUOUS
 10
8.6274413654
 20
7.789372467
 11
8.6274413654
 21
7.740382322
  0
LINE
  5
39D
100
AcDbEntity
  8
ALL_FEATURES
100
AcDbLine
 62
7
  6
CONTINUOUS
 10
8.6516807246
 20
7.3383595015
 11
8.6516807246
 21
7.3710187618
  0
LINE
  5
39E
100
AcDbEntity
  8
ALL_FEATURES
100
AcDbLine
 62
9
  6
CONTINUOUS
 10
8.7236353432
 20
7.9445965756
 11
8.7236353432
 21
7.9792044179
  0
LINE
  5
39F
100
AcDbEntity
  8
ALL_FEATURES
100
AcDbLine
 62
7
  6
CONTINUOUS
 10
8.7701203576
 20
7.5761770134
 11
8.7701203576
 21
7.6059631224
  0
LINE
  5
3A0
100
AcDbEntity
  8
ALL_FEATURES
100
AcDbLine
 62
9
  6
CONTINUOUS
 10
9.1148406269
 20
12.5666142379
 11
9.0724143967
 21
12.5421195887
  0
LINE
  5
3A1
100
AcDbEntity
  8
ALL_FEATURES
100
AcDbLine
 62
7
  6
CONTINUOUS
 10
9.1714089682
 20
12.5247679445
 11
9.1369376218
 21
12.5048660222
  0
LINE
  5
3A2
100
AcDbEntity
  8
ALL_FEATURES
100
AcDbLine
 62
7
  6
CONTINUOUS
 10
4.734915785
 20
9.4363259725
 11
4.239943099
 21
9.1505550648
  0
LINE
  5
3A3
100
AcDbEntity
  8
ALL_FEATURES
100
AcDbLine
 62
9
  6
CONTINUOUS
 10
4.6677405672
 20
13.5757740244
 11
4.7101671507
 21
13.5512795791
  0
LINE
  5
3A4
100
AcDbEntity
  8
ALL_FEATURES
100
AcDbLine
 62
9
  6
CONTINUOUS
 10
4.3884345515
 20
13.863593913
 11
4.430861135
 21
13.8390994677
  0
LINE
  5
3A5
100
AcDbEntity
  8
ALL_FEATURES
100
AcDbLine
 62
9
  6
CONTINUOUS
 10
4.5192487614
 20
13.9391190815
 11
4.5616753449
 21
13.9146246362
  0
LINE
  5
3A6
100
AcDbEntity
  8
ALL_FEATURES
100
AcDbLine
 62
7
  6
CONTINUOUS
 10
8.8514426075
 20
6.7117060808
 11
8.8514426075
 21
6.6795603163
  0
LINE
  5
3A7
100
AcDbEntity
  8
ALL_FEATURES
100
AcDbLine
 62
7
  6
CONTINUOUS
 10
8.8514426075
 20
12.6696948245
 11
8.8514426075
 21
12.701840589
  0
LINE
  5
3A8
100
AcDbEntity
  8
ALL_FEATURES
100
AcDbLine
 62
7
  6
CONTINUOUS
 10
8.8779558367
 20
7.20772246
 11
8.8779558367
 21
7.2403817204
  0
LINE
  5
3A9
100
AcDbEntity
  8
ALL_FEATURES
100
AcDbLine
 62
7
  6
CONTINUOUS
 10
9.0653399138
 20
7.0995386601
 11
9.0653399138
 21
7.1321979204
  0
LINE
  5
3AA
100
AcDbEntity
  8
ALL_FEATURES
100
AcDbLine
 62
7
  6
CONTINUOUS
 10
9.0724143967
 20
6.584130845
 11
9.0724143967
 21
6.4259335017
  0
LINE
  5
3AB
100
AcDbEntity
  8
ALL_FEATURES
100
AcDbLine
 62
7
  6
CONTINUOUS
 10
9.0724143967
 20
12.5421195887
 11
9.0724143967
 21
12.700316932
  0
LINE
  5
3AC
100
AcDbEntity
  8
ALL_FEATURES
100
AcDbLine
 62
9
  6
CONTINUOUS
 10
9.1118768048
 20
7.8237746477
 11
9.1118768048
 21
7.8477737342
  0
LINE
  5
3AD
100
AcDbEntity
  8
ALL_FEATURES
100
AcDbLine
 62
3
  6
CONTINUOUS
 10
9.1148406269
 20
6.6086254942
 11
9.1148406269
 21
6.4504281509
  0
LINE
  5
3AE
100
AcDbEntity
  8
ALL_FEATURES
100
AcDbLine
 62
3
  6
CONTINUOUS
 10
9.1148406269
 20
12.5666142379
 11
9.1148406269
 21
12.7248115813
  0
LINE
  5
3AF
100
AcDbEntity
  8
ALL_FEATURES
100
AcDbLine
 62
9
  6
CONTINUOUS
 10
9.1369376218
 20
12.5446695354
 11
9.1369376218
 21
12.5048660222
  0
LINE
  5
3B0
100
AcDbEntity
  8
ALL_FEATURES
100
AcDbLine
 62
9
  6
CONTINUOUS
 10
9.1369376218
 20
6.6468988246
 11
9.1369376218
 21
6.6958889696
  0
LINE
  5
3B1
100
AcDbEntity
  8
ALL_FEATURES
100
AcDbLine
 62
9
  6
CONTINUOUS
 10
9.1607032961
 20
8.1988846795
 11
9.1607032961
 21
8.2315442118
  0
LINE
  5
3B2
100
AcDbEntity
  8
ALL_FEATURES
100
AcDbLine
 62
7
  6
CONTINUOUS
 10
9.252723991
 20
6.9913548601
 11
9.252723991
 21
7.0240141205
  0
LINE
  5
3B3
100
AcDbEntity
  8
ALL_FEATURES
100
AcDbLine
 62
9
  6
CONTINUOUS
 10
9.3529629986
 20
7.5845907836
 11
9.3529629986
 21
7.6158701464
  0
LINE
  5
3B4
100
AcDbEntity
  8
ALL_FEATURES
100
AcDbLine
 62
9
  6
CONTINUOUS
 10
9.3729335275
 20
6.7831503109
 11
9.3729335275
 21
6.832140456
  0
LINE
  5
3B5
100
AcDbEntity
  8
ALL_FEATURES
100
AcDbLine
 62
9
  6
CONTINUOUS
 10
9.3883544051
 20
7.9584070533
 11
9.3883544051
 21
8.0073971983
  0
LINE
  5
3B6
100
AcDbEntity
  8
ALL_FEATURES
100
AcDbLine
 62
7
  6
CONTINUOUS
 10
9.4012179165
 20
6.7668206808
 11
9.4012179165
 21
6.8158108258
  0
LINE
  5
3B7
100
AcDbEntity
  8
ALL_FEATURES
100
AcDbLine
 62
7
  6
CONTINUOUS
 10
9.4789991031
 20
6.8607175467
 11
9.4789991031
 21
6.893377079
  0
LINE
  5
3B8
100
AcDbEntity
  8
ALL_FEATURES
100
AcDbLine
 62
7
  6
CONTINUOUS
 10
5.2787682189
 20
9.1958544246
 11
5.3848337945
 21
9.2570910477
  0
LINE
  5
3B9
100
AcDbEntity
  8
ALL_FEATURES
100
AcDbLine
 62
7
  6
CONTINUOUS
 10
5.0710567022
 20
9.0432733081
 11
5.4131181835
 21
9.2407614175
  0
LINE
  5
3BA
100
AcDbEntity
  8
ALL_FEATURES
100
AcDbLine
 62
7
  6
CONTINUOUS
 10
7.0072977472
 20
10.1203315084
 11
7.1381119571
 21
10.1958566768
  0
LINE
  5
3BB
100
AcDbEntity
  8
ALL_FEATURES
100
AcDbLine
 62
7
  6
CONTINUOUS
 10
5.4696869615
 20
9.2081021572
 11
5.441402808
 21
9.191772391
  0
LINE
  5
3BC
100
AcDbEntity
  8
ALL_FEATURES
100
AcDbLine
 62
3
  6
CONTINUOUS
 10
7.0072977472
 20
10.0713413634
 11
7.1381119571
 21
10.1468665318
  0
LINE
  5
3BD
100
AcDbEntity
  8
ALL_FEATURES
100
AcDbLine
 62
7
  6
CONTINUOUS
 10
7.2441784158
 20
10.1346205637
 11
7.1133642059
 21
10.0590953952
  0
LINE
  5
3BE
100
AcDbEntity
  8
ALL_FEATURES
100
AcDbLine
 62
7
  6
CONTINUOUS
 10
5.2920284913
 20
8.9156980723
 11
5.3198672251
 21
8.9317706768
  0
LINE
  5
3BF
100
AcDbEntity
  8
ALL_FEATURES
100
AcDbLine
 62
7
  6
CONTINUOUS
 10
5.611109142
 20
9.0937946099
 11
5.6393932955
 21
9.1101243761
  0
LINE
  5
3C0
100
AcDbEntity
  8
ALL_FEATURES
100
AcDbLine
 62
3
  6
CONTINUOUS
 10
5.2920284913
 20
8.8667079273
 11
5.3198672251
 21
8.8827805318
  0
LINE
  5
3C1
100
AcDbEntity
  8
ALL_FEATURES
100
AcDbLine
 62
7
  6
CONTINUOUS
 10
5.6959620735
 20
9.0774651157
 11
5.66767792
 21
9.0611353496
  0
LINE
  5
3C2
100
AcDbEntity
  8
ALL_FEATURES
100
AcDbLine
 62
9
  6
CONTINUOUS
 10
5.2699314964
 20
8.8284345969
 11
5.2275052662
 21
8.8039399477
  0
LINE
  5
3C3
100
AcDbEntity
  8
ALL_FEATURES
100
AcDbLine
 62
7
  6
CONTINUOUS
 10
5.2699314964
 20
8.7962888325
 11
5.2275052662
 21
8.7717941833
  0
LINE
  5
3C4
100
AcDbEntity
  8
ALL_FEATURES
100
AcDbLine
 62
7
  6
CONTINUOUS
 10
7.8094547769
 20
11.9719497824
 11
7.3807922873
 21
11.9336567414
  0
LINE
  5
3C5
100
AcDbEntity
  8
ALL_FEATURES
100
AcDbLine
 62
3
  6
CONTINUOUS
 10
7.8388659211
 20
11.9952817751
 11
7.4232185175
 21
11.9581513906
  0
LINE
  5
3C6
100
AcDbEntity
  8
ALL_FEATURES
100
AcDbLine
 62
7
  6
CONTINUOUS
 10
7.3136168634
 20
12.1067908618
 11
7.7422793531
 21
12.1450839028
  0
LINE
  5
3C7
100
AcDbEntity
  8
ALL_FEATURES
100
AcDbLine
 62
9
  6
CONTINUOUS
 10
4.6677405672
 20
14.4943392436
 11
4.7101671507
 21
14.4698447984
  0
LINE
  5
3C8
100
AcDbEntity
  8
ALL_FEATURES
100
AcDbLine
 62
7
  6
CONTINUOUS
 10
9.0724143967
 20
12.700316932
 11
8.984025681
 21
12.8534098285
  0
LINE
  5
3C9
100
AcDbEntity
  8
ALL_FEATURES
100
AcDbLine
 62
9
  6
CONTINUOUS
 10
9.7900309514
 20
7.835550408
 11
9.7900309514
 21
7.8682099403
  0
LINE
  5
3CA
100
AcDbEntity
  8
ALL_FEATURES
100
AcDbLine
 62
7
  6
CONTINUOUS
 10
9.8355147976
 20
8.1838541724
 11
9.8355147976
 21
8.2210652175
  0
LINE
  5
3CB
100
AcDbEntity
  8
ALL_FEATURES
100
AcDbLine
 62
7
  6
CONTINUOUS
 10
9.9145093183
 20
8.041712261
 11
9.9145093183
 21
7.9927221159
  0
LINE
  5
3CC
100
AcDbEntity
  8
ALL_FEATURES
100
AcDbLine
 62
7
  6
CONTINUOUS
 10
5.7984932192
 20
8.98561081
 11
5.8267773727
 21
9.0019405761
  0
LINE
  5
3CD
100
AcDbEntity
  8
ALL_FEATURES
100
AcDbLine
 62
7
  6
CONTINUOUS
 10
5.8833461507
 20
8.9692813158
 11
5.8550619972
 21
8.9529515496
  0
LINE
  5
3CE
100
AcDbEntity
  8
ALL_FEATURES
100
AcDbLine
 62
7
  6
CONTINUOUS
 10
5.9858772963
 20
8.87742701
 11
6.0141614498
 21
8.8937567762
  0
LINE
  5
3CF
100
AcDbEntity
  8
ALL_FEATURES
100
AcDbLine
 62
7
  6
CONTINUOUS
 10
15.646114237
 20
14.3982380793
 11
12.4641469695
 21
12.5611393868
  0
LINE
  5
3D0
100
AcDbEntity
  8
ALL_FEATURES
100
AcDbLine
 62
7
  6
CONTINUOUS
 10
6.0707302278
 20
8.8610975158
 11
6.0424460744
 21
8.8447677497
  0
LINE
  5
3D1
100
AcDbEntity
  8
ALL_FEATURES
100
AcDbLine
 62
7
  6
CONTINUOUS
 10
7.0733153874
 20
9.4366709192
 11
6.6362474346
 21
9.1843311252
  0
LINE
  5
3D2
100
AcDbEntity
  8
ALL_FEATURES
100
AcDbLine
 62
7
  6
CONTINUOUS
 10
5.7339720695
 20
8.6605476007
 11
5.7618108033
 21
8.6766202052
  0
LINE
  5
3D3
100
AcDbEntity
  8
ALL_FEATURES
100
AcDbLine
 62
7
  6
CONTINUOUS
 10
6.6645318236
 20
9.168001495
 11
7.1015997764
 21
9.420341289
  0
LINE
  5
3D4
100
AcDbEntity
  8
ALL_FEATURES
100
AcDbLine
 62
7
  6
CONTINUOUS
 10
6.2121524084
 20
8.7467899686
 11
6.2404365619
 21
8.7631197348
  0
LINE
  5
3D5
100
AcDbEntity
  8
ALL_FEATURES
100
AcDbLine
 62
7
  6
CONTINUOUS
 10
5.9549438586
 20
8.532972365
 11
6.2970053399
 21
8.7304604744
  0
LINE
  5
3D6
100
AcDbEntity
  8
ALL_FEATURES
100
AcDbLine
 62
7
  6
CONTINUOUS
 10
6.2192241533
 20
8.6528942211
 11
6.3252897289
 21
8.7141308442
  0
LINE
  5
3D7
100
AcDbEntity
  8
ALL_FEATURES
100
AcDbLine
 62
3
  6
CONTINUOUS
 10
5.9549438586
 20
8.4839822199
 11
6.2192241533
 21
8.6365636084
  0
LINE
  5
3D8
100
AcDbEntity
  8
ALL_FEATURES
100
AcDbLine
 62
9
  6
CONTINUOUS
 10
5.9328468637
 20
8.4457088896
 11
5.8904206335
 21
8.4212142403
  0
LINE
  5
3D9
100
AcDbEntity
  8
ALL_FEATURES
100
AcDbLine
 62
7
  6
CONTINUOUS
 10
7.3009664965
 20
9.2125239057
 11
7.0244888961
 21
9.0529004415
  0
LINE
  5
3DA
100
AcDbEntity
  8
ALL_FEATURES
100
AcDbLine
 62
7
  6
CONTINUOUS
 10
6.6190479775
 20
8.8151462179
 11
6.6473769627
 21
8.8315018675
  0
LINE
  5
3DB
100
AcDbEntity
  8
ALL_FEATURES
100
AcDbLine
 62
7
  6
CONTINUOUS
 10
7.6844424175
 20
9.4302483129
 11
7.7127714027
 21
9.4466039626
  0
LINE
  5
3DC
100
AcDbEntity
  8
ALL_FEATURES
100
AcDbLine
 62
7
  6
CONTINUOUS
 10
7.748126889
 20
9.4261919248
 11
7.7197979037
 21
9.4098362752
  0
LINE
  5
3DD
100
AcDbEntity
  8
ALL_FEATURES
100
AcDbLine
 62
7
  6
CONTINUOUS
 10
6.682732449
 20
8.8110898298
 11
6.6544034637
 21
8.7947341801
  0
LINE
  5
3DE
100
AcDbEntity
  8
ALL_FEATURES
100
AcDbLine
 62
7
  6
CONTINUOUS
 10
7.0662083699
 20
9.028814237
 11
7.3426859703
 21
9.1884377012
  0
LINE
  5
3DF
100
AcDbEntity
  8
ALL_FEATURES
100
AcDbLine
 62
7
  6
CONTINUOUS
 10
5.8020319179
 20
8.2119841892
 11
5.9328468637
 21
8.2875115463
  0
LINE
  5
3E0
100
AcDbEntity
  8
ALL_FEATURES
100
AcDbLine
 62
7
  6
CONTINUOUS
 10
8.2074262395
 20
13.0106475459
 11
8.4283980286
 21
12.8830723101
  0
LINE
  5
3E1
100
AcDbEntity
  8
ALL_FEATURES
100
AcDbLine
 62
7
  6
CONTINUOUS
 10
8.8703416068
 20
12.6279218385
 11
9.0913133959
 21
12.5003466027
  0
LINE
  5
3E2
100
AcDbEntity
  8
ALL_FEATURES
100
AcDbLine
 62
7
  6
CONTINUOUS
 10
5.9093196328
 20
14.3374299981
 11
5.6883478437
 21
14.4650052339
  0
LINE
  5
3E3
100
AcDbEntity
  8
ALL_FEATURES
100
AcDbLine
 62
7
  6
CONTINUOUS
 10
5.2464042654
 20
14.7201557054
 11
5.0254324763
 21
14.8477309412
  0
LINE
  5
3E4
100
AcDbEntity
  8
ALL_FEATURES
100
AcDbLine
 62
9
  6
CONTINUOUS
 10
8.1885272402
 20
13.0524205319
 11
8.4094990293
 21
12.9248452961
  0
LINE
  5
3E5
100
AcDbEntity
  8
ALL_FEATURES
100
AcDbLine
 62
9
  6
CONTINUOUS
 10
8.8514426075
 20
12.6696948245
 11
9.0724143967
 21
12.5421195887
  0
LINE
  5
3E6
100
AcDbEntity
  8
ALL_FEATURES
100
AcDbLine
 62
9
  6
CONTINUOUS
 10
5.8904206335
 20
14.3792029841
 11
5.6694488444
 21
14.5067782198
  0
LINE
  5
3E7
100
AcDbEntity
  8
ALL_FEATURES
100
AcDbLine
 62
9
  6
CONTINUOUS
 10
5.2275052662
 20
14.7619286914
 11
5.0065334771
 21
14.8895039272
  0
LINE
  5
3E8
100
AcDbEntity
  8
ALL_FEATURES
100
AcDbLine
 62
7
  6
CONTINUOUS
 10
8.8514426075
 20
12.701840589
 11
8.4094990293
 21
12.9569910605
  0
LINE
  5
3E9
100
AcDbEntity
  8
ALL_FEATURES
100
AcDbLine
 62
7
  6
CONTINUOUS
 10
5.6694488444
 20
14.5389239843
 11
5.2275052662
 21
14.7940744559
  0
LINE
  5
3EA
100
AcDbEntity
  8
ALL_FEATURES
100
AcDbLine
 62
7
  6
CONTINUOUS
 10
10.7592950037
 20
11.608022254
 11
9.1108624607
 21
12.5597236961
  0
LINE
  5
3EB
100
AcDbEntity
  8
ALL_FEATURES
100
AcDbLine
 62
7
  6
CONTINUOUS
 10
8.1885272402
 20
13.0922221372
 11
5.9288686975
 21
14.3968070915
  0
LINE
  5
3EC
100
AcDbEntity
  8
ALL_FEATURES
100
AcDbLine
 62
7
  6
CONTINUOUS
 10
5.0065334771
 20
14.9293055326
 11
3.4045053305
 21
15.85421599
  0
LINE
  5
3ED
100
AcDbEntity
  8
ALL_FEATURES
100
AcDbLine
 62
7
  6
CONTINUOUS
 10
8.2769159559
 20
13.261650583
 11
8.984025681
 21
12.8534098285
  0
LINE
  5
3EE
100
AcDbEntity
  8
ALL_FEATURES
100
AcDbLine
 62
7
  6
CONTINUOUS
 10
5.8020319179
 20
14.6904932238
 11
5.0949221927
 21
15.0987339784
  0
LINE
  5
3EF
100
AcDbEntity
  8
ALL_FEATURES
100
AcDbLine
 62
3
  6
CONTINUOUS
 10
8.3193421861
 20
13.2861452322
 11
9.0264519112
 21
12.8779044777
  0
LINE
  5
3F0
100
AcDbEntity
  8
ALL_FEATURES
100
AcDbLine
 62
3
  6
CONTINUOUS
 10
5.8444581481
 20
14.7149878731
 11
5.1373484229
 21
15.1232286276
  0
LINE
  5
3F1
100
AcDbEntity
  8
ALL_FEATURES
100
AcDbLine
 62
3
  6
CONTINUOUS
 10
9.0264519112
 20
12.8779044777
 11
9.1148406269
 21
12.7248115813
  0
LINE
  5
3F2
100
AcDbEntity
  8
ALL_FEATURES
100
AcDbLine
 62
7
  6
CONTINUOUS
 10
10.6309584817
 20
6.1058358412
 11
10.6309584817
 21
6.1548259862
  0
LINE
  5
3F3
100
AcDbEntity
  8
ALL_FEATURES
100
AcDbLine
 62
7
  6
CONTINUOUS
 10
10.7592950037
 20
5.6684080807
 11
10.7592950037
 21
11.608022254
  0
LINE
  5
3F4
100
AcDbEntity
  8
ALL_FEATURES
100
AcDbLine
 62
7
  6
CONTINUOUS
 10
7.7026430428
 20
9.0733366476
 11
7.26557509
 21
8.8209968537
  0
LINE
  5
3F5
100
AcDbEntity
  8
ALL_FEATURES
100
AcDbLine
 62
7
  6
CONTINUOUS
 10
7.293859479
 20
8.8046672235
 11
7.7309274318
 21
9.0570070175
  0
LINE
  5
3F6
100
AcDbEntity
  8
ALL_FEATURES
100
AcDbLine
 62
7
  6
CONTINUOUS
 10
12.4641469695
 20
12.5611393868
 11
1.6996533647
 21
18.775882071
  0
LINE
  5
3F7
100
AcDbEntity
  8
ALL_FEATURES
100
AcDbLine
 62
7
  6
CONTINUOUS
 10
12.4641469695
 20
2.7467419996
 11
12.4641469695
 21
12.5611393868
  0
LINE
  5
3F8
100
AcDbEntity
  8
ALL_FEATURES
100
AcDbLine
 62
7
  6
CONTINUOUS
 10
9.1607032961
 20
8.2315442118
 11
8.7236353432
 21
7.9792044179
  0
LINE
  5
3F9
100
AcDbEntity
  8
ALL_FEATURES
100
AcDbLine
 62
7
  6
CONTINUOUS
 10
8.7519197323
 20
7.9628747877
 11
9.1889876851
 21
8.2152145816
  0
LINE
  5
3FA
100
AcDbEntity
  8
ALL_FEATURES
100
AcDbLine
 62
7
  6
CONTINUOUS
 10
9.3883544051
 20
8.0073971983
 11
9.1118768048
 21
7.8477737342
  0
LINE
  5
3FB
100
AcDbEntity
  8
ALL_FEATURES
100
AcDbLine
 62
7
  6
CONTINUOUS
 10
8.7064358861
 20
7.6100195105
 11
8.7347648713
 21
7.6263751601
  0
LINE
  5
3FC
100
AcDbEntity
  8
ALL_FEATURES
100
AcDbLine
 62
7
  6
CONTINUOUS
 10
9.7718303261
 20
8.2251216056
 11
9.8001593113
 21
8.2414772552
  0
LINE
  5
3FD
100
AcDbEntity
  8
ALL_FEATURES
100
AcDbLine
 62
7
  6
CONTINUOUS
 10
9.8355147976
 20
8.2210652175
 11
9.8071858124
 21
8.2047095679
  0
LINE
  5
3FE
100
AcDbEntity
  8
ALL_FEATURES
100
AcDbLine
 62
7
  6
CONTINUOUS
 10
8.7701203576
 20
7.6059631224
 11
8.7417913723
 21
7.5896074728
  0
LINE
  5
3FF
100
AcDbEntity
  8
ALL_FEATURES
100
AcDbLine
 62
7
  6
CONTINUOUS
 10
9.1535962786
 20
7.8236875297
 11
9.4300738789
 21
7.9833109938
  0
LINE
  5
400
100
AcDbEntity
  8
ALL_FEATURES
100
AcDbLine
 62
7
  6
CONTINUOUS
 10
8.460761982
 20
7.3587710293
 11
8.5668275576
 21
7.4200076524
  0
LINE
  5
401
100
AcDbEntity
  8
ALL_FEATURES
100
AcDbLine
 62
7
  6
CONTINUOUS
 10
8.2530504654
 20
7.2061899128
 11
8.5951119466
 21
7.4036780222
  0
LINE
  5
402
100
AcDbEntity
  8
ALL_FEATURES
100
AcDbLine
 62
7
  6
CONTINUOUS
 10
8.6516807246
 20
7.3710187618
 11
8.6233965711
 21
7.3546889957
  0
LINE
  5
403
100
AcDbEntity
  8
ALL_FEATURES
100
AcDbLine
 62
7
  6
CONTINUOUS
 10
9.7900309514
 20
7.8682099403
 11
9.3529629986
 21
7.6158701464
  0
LINE
  5
404
100
AcDbEntity
  8
ALL_FEATURES
100
AcDbLine
 62
7
  6
CONTINUOUS
 10
8.4740222545
 20
7.078614677
 11
8.5018609882
 21
7.0946872815
  0
LINE
  5
405
100
AcDbEntity
  8
ALL_FEATURES
100
AcDbLine
 62
7
  6
CONTINUOUS
 10
9.3812473876
 20
7.5995405162
 11
9.8183153405
 21
7.8518803101
  0
LINE
  5
406
100
AcDbEntity
  8
ALL_FEATURES
100
AcDbLine
 62
7
  6
CONTINUOUS
 10
8.7931029052
 20
7.2567112146
 11
8.8213870587
 21
7.2730409808
  0
LINE
  5
407
100
AcDbEntity
  8
ALL_FEATURES
100
AcDbLine
 62
3
  6
CONTINUOUS
 10
8.4740222545
 20
7.0296245319
 11
8.5018609882
 21
7.0456971364
  0
LINE
  5
408
100
AcDbEntity
  8
ALL_FEATURES
100
AcDbLine
 62
7
  6
CONTINUOUS
 10
8.8779558367
 20
7.2403817204
 11
8.8496716832
 21
7.2240519542
  0
LINE
  5
409
100
AcDbEntity
  8
ALL_FEATURES
100
AcDbLine
 62
9
  6
CONTINUOUS
 10
8.4519252596
 20
6.9913512016
 11
8.4094990293
 21
6.9668565524
  0
LINE
  5
40A
100
AcDbEntity
  8
ALL_FEATURES
100
AcDbLine
 62
7
  6
CONTINUOUS
 10
8.4519252596
 20
6.9592054371
 11
8.4094990293
 21
6.9347107879
  0
LINE
  5
40B
100
AcDbEntity
  8
ALL_FEATURES
100
AcDbLine
 62
7
  6
CONTINUOUS
 10
8.9804869823
 20
7.1485274146
 11
9.0087711358
 21
7.1648571808
  0
LINE
  5
40C
100
AcDbEntity
  8
ALL_FEATURES
100
AcDbLine
 62
7
  6
CONTINUOUS
 10
9.0653399138
 20
7.1321979204
 11
9.0370557604
 21
7.1158681543
  0
LINE
  5
40D
100
AcDbEntity
  8
ALL_FEATURES
100
AcDbLine
 62
7
  6
CONTINUOUS
 10
9.1678710595
 20
7.0403436147
 11
9.196155213
 21
7.0566733809
  0
LINE
  5
40E
100
AcDbEntity
  8
ALL_FEATURES
100
AcDbLine
 62
7
  6
CONTINUOUS
 10
9.252723991
 20
7.0240141205
 11
9.2244398375
 21
7.0076843543
  0
LINE
  5
40F
100
AcDbEntity
  8
ALL_FEATURES
100
AcDbLine
 62
7
  6
CONTINUOUS
 10
8.9159658327
 20
6.8234642054
 11
8.9438045664
 21
6.8395368099
  0
LINE
  5
410
100
AcDbEntity
  8
ALL_FEATURES
100
AcDbLine
 62
7
  6
CONTINUOUS
 10
9.3941461716
 20
6.9097065733
 11
9.422430325
 21
6.9260363394
  0
LINE
  5
411
100
AcDbEntity
  8
ALL_FEATURES
100
AcDbLine
 62
7
  6
CONTINUOUS
 10
9.1369376218
 20
6.6958889696
 11
9.4789991031
 21
6.893377079
  0
LINE
  5
412
100
AcDbEntity
  8
ALL_FEATURES
100
AcDbLine
 62
7
  6
CONTINUOUS
 10
9.4012179165
 20
6.8158108258
 11
9.5072834921
 21
6.8770474489
  0
LINE
  5
413
100
AcDbEntity
  8
ALL_FEATURES
100
AcDbLine
 62
3
  6
CONTINUOUS
 10
9.1369376218
 20
6.6468988246
 11
9.4012179165
 21
6.7994802131
  0
LINE
  5
414
100
AcDbEntity
  8
ALL_FEATURES
100
AcDbLine
 62
9
  6
CONTINUOUS
 10
9.1148406269
 20
6.6086254942
 11
9.0724143967
 21
6.584130845
  0
LINE
  5
415
100
AcDbEntity
  8
ALL_FEATURES
100
AcDbLine
 62
7
  6
CONTINUOUS
 10
8.984025681
 20
6.3749007939
 11
9.1148406269
 21
6.4504281509
  0
LINE
  5
416
100
AcDbEntity
  8
ALL_FEATURES
100
AcDbLine
 62
7
  6
CONTINUOUS
 10
10.6309584817
 20
6.1548259862
 11
10.7592950037
 21
6.2289206694
  0
LINE
  5
417
100
AcDbEntity
  8
ALL_FEATURES
100
AcDbLine
 62
7
  6
CONTINUOUS
 10
15.646114237
 20
14.3982380793
 11
4.8816206321
 21
20.6129807635
  0
LINE
  5
418
100
AcDbEntity
  8
ALL_FEATURES
100
AcDbLine
 62
7
  6
CONTINUOUS
 10
15.646114237
 20
4.5838406921
 11
15.646114237
 21
14.3982380793
  0
LINE
  5
419
100
AcDbEntity
  8
ALL_FEATURES
100
AcDbLine
 62
7
  6
CONTINUOUS
 10
15.646114237
 20
4.5838406921
 11
12.4641469695
 21
2.7467419996
  0
LINE
  5
41A
100
AcDbEntity
  8
ALL_FEATURES
100
AcDbLine
 62
7
  6
CONTINUOUS
 10
17.255086787
 20
19.7180362117
 11
17.255086787
 21
7.6979892635
  0
LINE
  5
41B
100
AcDbEntity
  8
ALL_FEATURES
100
AcDbLine
 62
7
  6
CONTINUOUS
 10
17.255086787
 20
7.6979892635
 11
32.4783162548
 21
7.6979892635
  0
LINE
  5
41C
100
AcDbEntity
  8
ALL_FEATURES
100
AcDbLine
 62
7
  6
CONTINUOUS
 10
19.6661015209
 20
17.3452427376
 11
19.6661015209
 21
10.0707827376
  0
LINE
  5
41D
100
AcDbEntity
  8
ALL_FEATURES
100
AcDbLine
 62
7
  6
CONTINUOUS
 10
19.6661015209
 20
10.0707827376
 11
30.0673015209
 21
10.0707827376
  0
LINE
  5
41E
100
AcDbEntity
  8
ALL_FEATURES
100
AcDbLine
 62
7
  6
CONTINUOUS
 10
30.0673015209
 20
17.3452427376
 11
19.6661015209
 21
17.3452427376
  0
LINE
  5
41F
100
AcDbEntity
  8
ALL_FEATURES
100
AcDbLine
 62
7
  6
CONTINUOUS
 10
30.0673015209
 20
10.0707827376
 11
30.0673015209
 21
17.3452427376
  0
LINE
  5
420
100
AcDbEntity
  8
ALL_FEATURES
100
AcDbLine
 62
7
  6
CONTINUOUS
 10
32.4783162548
 20
19.7180362117
 11
17.255086787
 21
19.7180362117
  0
LINE
  5
421
100
AcDbEntity
  8
ALL_FEATURES
100
AcDbLine
 62
7
  6
CONTINUOUS
 10
32.4783162548
 20
7.6979892635
 11
32.4783162548
 21
19.7180362117
  0
ARC
  5
422
100
AcDbEntity
  8
DETAIL
100
AcDbCircle
 62
8
  6
PHANTOM
 10
19.6301121508
 20
17.3430108479
 40
0.082880372
100
AcDbArc
 50
90.0
 51
180.0
  0
ARC
  5
423
100
AcDbEntity
  8
DETAIL
100
AcDbCircle
 62
8
  6
PHANTOM
 10
19.6301121508
 20
10.0730146274
 40
0.082880372
100
AcDbArc
 50
180.0
 51
270.0
  0
ARC
  5
424
100
AcDbEntity
  8
DETAIL
100
AcDbCircle
 62
8
  6
PHANTOM
 10
30.103290891
 20
10.0730146274
 40
0.082880372
100
AcDbArc
 50
270.0
 51
360.0
  0
ARC
  5
425
100
AcDbEntity
  8
DETAIL
100
AcDbCircle
 62
8
  6
PHANTOM
 10
30.103290891
 20
17.3430108479
 40
0.082880372
100
AcDbArc
 50
0.0
 51
90.0
  0
ARC
  5
426
100
AcDbEntity
  8
ALL_FEATURES
100
AcDbCircle
 62
7
  6
CONTINUOUS
 10
8.9995562434
 20
8.0983671883
 40
0.5704866294
100
AcDbArc
 50
246.9878471339
 51
250.0127324557
  0
ARC
  5
427
100
AcDbEntity
  8
ALL_FEATURES
100
AcDbCircle
 62
7
  6
CONTINUOUS
 10
6.9121683348
 20
9.3034938957
 40
0.5704866294
100
AcDbArc
 50
246.9878471339
 51
250.0127324558
  0
ARC
  5
428
100
AcDbEntity
  8
ALL_FEATURES
100
AcDbCircle
 62
7
  6
CONTINUOUS
 10
6.8995760027
 20
9.2730592434
 40
0.5375513205
100
AcDbArc
 50
246.4739145953
 51
246.9550771789
  0
ARC
  5
429
100
AcDbEntity
  8
ALL_FEATURES
100
AcDbCircle
 62
7
  6
CONTINUOUS
 10
8.9869639111
 20
8.0679325357
 40
0.5375513202
100
AcDbArc
 50
246.4739145951
 51
246.9550771791
  0
ARC
  5
42A
100
AcDbEntity
  8
ALL_FEATURES
100
AcDbCircle
 62
7
  6
CONTINUOUS
 10
9.1216694472
 20
8.0588346597
 40
0.5277123755
100
AcDbArc
 50
292.2070542118
 51
295.2257732331
  0
ARC
  5
42B
100
AcDbEntity
  8
ALL_FEATURES
100
AcDbCircle
 62
7
  6
CONTINUOUS
 10
7.0342815386
 20
9.263961367
 40
0.5277123755
100
AcDbArc
 50
292.2070542118
 51
295.2257732331
  0
ARC
  5
42C
100
AcDbEntity
  8
ALL_FEATURES
100
AcDbCircle
 62
7
  6
CONTINUOUS
 10
8.9746300371
 20
8.0400238549
 40
0.5070392105
100
AcDbArc
 50
242.6637067822
 51
246.4929497336
  0
ARC
  5
42D
100
AcDbEntity
  8
ALL_FEATURES
100
AcDbCircle
 62
7
  6
CONTINUOUS
 10
6.8872421284
 20
9.2451505622
 40
0.5070392105
100
AcDbArc
 50
242.6637067822
 51
246.4929497337
  0
ARC
  5
42E
100
AcDbEntity
  8
ALL_FEATURES
100
AcDbCircle
 62
7
  6
CONTINUOUS
 10
8.9826025983
 20
8.0212025728
 40
0.4664466784
100
AcDbArc
 50
242.9007131187
 51
246.700465709
  0
ARC
  5
42F
100
AcDbEntity
  8
ALL_FEATURES
100
AcDbCircle
 62
7
  6
CONTINUOUS
 10
6.8952146896
 20
9.2263292802
 40
0.4664466784
100
AcDbArc
 50
242.9007131187
 51
246.700465709
  0
ARC
  5
430
100
AcDbEntity
  8
ALL_FEATURES
100
AcDbCircle
 62
7
  6
CONTINUOUS
 10
6.8385429817
 20
8.8330197785
 40
0.4053925884
100
AcDbArc
 50
119.9346201977
 51
124.4106909882
  0
ARC
  5
431
100
AcDbEntity
  8
ALL_FEATURES
100
AcDbCircle
 62
7
  6
CONTINUOUS
 10
8.9259308904
 20
7.6278930712
 40
0.4053925884
100
AcDbArc
 50
119.9346201977
 51
124.4106909882
  0
ARC
  5
432
100
AcDbEntity
  8
ALL_FEATURES
100
AcDbCircle
 62
7
  6
CONTINUOUS
 10
9.6305399474
 20
7.9020058683
 40
0.3792275801
100
AcDbArc
 50
52.516301661
 51
57.2818967195
  0
ARC
  5
433
100
AcDbEntity
  8
ALL_FEATURES
100
AcDbCircle
 62
7
  6
CONTINUOUS
 10
7.5431520387
 20
9.1071325757
 40
0.3792275801
100
AcDbArc
 50
52.516301661
 51
57.2818967195
  0
ARC
  5
434
100
AcDbEntity
  8
ALL_FEATURES
100
AcDbCircle
 62
7
  6
CONTINUOUS
 10
6.8494798521
 20
8.846821951
 40
0.3706238966
100
AcDbArc
 50
119.9350585043
 51
124.3949304329
  0
ARC
  5
435
100
AcDbEntity
  8
ALL_FEATURES
100
AcDbCircle
 62
7
  6
CONTINUOUS
 10
8.9368677608
 20
7.6416952437
 40
0.3706238966
100
AcDbArc
 50
119.9350585043
 51
124.3949304329
  0
ARC
  5
436
100
AcDbEntity
  8
ALL_FEATURES
100
AcDbCircle
 62
7
  6
CONTINUOUS
 10
6.823715856
 20
8.8838827659
 40
0.3254889002
100
AcDbArc
 50
124.3378831764
 51
129.1248544219
  0
ARC
  5
437
100
AcDbEntity
  8
ALL_FEATURES
100
AcDbCircle
 62
7
  6
CONTINUOUS
 10
8.9111037647
 20
7.6787560585
 40
0.3254889002
100
AcDbArc
 50
124.3378831764
 51
129.1248544219
  0
ARC
  5
438
100
AcDbEntity
  8
ALL_FEATURES
100
AcDbCircle
 62
3
  6
CONTINUOUS
 10
3.899276493
 20
10.2270741442
 40
0.2056325217
100
AcDbArc
 50
211.676190346
 51
218.7606762386
  0
ARC
  5
439
100
AcDbEntity
  8
ALL_FEATURES
100
AcDbCircle
 62
3
  6
CONTINUOUS
 10
3.8895686836
 20
10.2192793026
 40
0.1931825772
100
AcDbArc
 50
218.7605545381
 51
221.9790998943
  0
ARC
  5
43A
100
AcDbEntity
  8
ALL_FEATURES
100
AcDbCircle
 62
3
  6
CONTINUOUS
 10
4.5594211297
 20
12.6531671224
 40
0.103998159
100
AcDbArc
 50
311.6026657461
 51
316.6152296279
  0
ARC
  5
43B
100
AcDbEntity
  8
ALL_FEATURES
100
AcDbCircle
 62
3
  6
CONTINUOUS
 10
4.5594211297
 20
13.5717323416
 40
0.103998159
100
AcDbArc
 50
311.6026657461
 51
316.6152296278
  0
ARC
  5
43C
100
AcDbEntity
  8
ALL_FEATURES
100
AcDbCircle
 62
3
  6
CONTINUOUS
 10
4.5594211297
 20
14.4902975609
 40
0.103998159
100
AcDbArc
 50
311.602665746
 51
316.6152296279
  0
ARC
  5
43D
100
AcDbEntity
  8
ALL_AXIS
100
AcDbCircle
 62
7
  6
CONTINUOUS
 10
6.2414703879
 20
13.064634565
 40
0.0487701043
100
AcDbArc
 50
104.6485677721
 51
112.8601502778
  0
ARC
  5
43E
100
AcDbEntity
  8
ALL_AXIS
100
AcDbCircle
 62
7
  6
CONTINUOUS
 10
6.3334110941
 20
12.9055110061
 40
0.0484696417
100
AcDbArc
 50
307.111041465
 51
315.3747286473
  0
ARC
  5
43F
100
AcDbEntity
  8
ALL_AXIS
100
AcDbCircle
 62
7
  6
CONTINUOUS
 10
6.2409329314
 20
13.0659969144
 40
0.0473059789
100
AcDbArc
 50
112.901339074
 51
127.1014206918
  0
ARC
  5
440
100
AcDbEntity
  8
ALL_AXIS
100
AcDbCircle
 62
7
  6
CONTINUOUS
 10
6.3341325995
 20
12.904595149
 40
0.0473059789
100
AcDbArc
 50
292.9013390739
 51
307.1014206919
  0
SPLINE
  5
441
100
AcDbEntity
  8
DETAIL
100
AcDbSpline
 62
8
  6
HIDDEN
 70
0
 71
3
 72
15
 73
11
 74
0
 42
0.0000001
 43
0.0000001
 44
0.0000000001
 40
0.0
 40
0.0
 40
0.0
 40
0.0
 40
0.1387474318
 40
0.2924460414
 40
0.4461441358
 40
0.58489019
 40
0.6992002234
 40
0.7924438344
 40
0.8856882944
 40
1.0
 40
1.0
 40
1.0
 40
1.0
 10
4.607636741
 20
10.350808899
 30
0.0
 10
4.607636741
 20
10.3589225697
 30
0.0
 10
4.6106813053
 20
10.3760374623
 30
0.0
 10
4.6212823515
 20
10.4000737923
 30
0.0
 10
4.6368283679
 20
10.4213230011
 30
0.0
 10
4.6552459877
 20
10.4367652809
 30
0.0
 10
4.6744841811
 20
10.4446690052
 30
0.0
 10
4.6932075142
 20
10.4418668639
 30
0.0
 10
4.7050041642
 20
10.4270704218
 30
0.0
 10
4.7066312783
 20
10.4146477991
 30
0.0
 10
4.7066312783
 20
10.4079630805
 30
0.0
  0
SPLINE
  5
442
100
AcDbEntity
  8
DETAIL
100
AcDbSpline
 62
8
  6
HIDDEN
 70
0
 71
3
 72
15
 73
11
 74
0
 42
0.0000001
 43
0.0000001
 44
0.0000000001
 40
0.0
 40
0.0
 40
0.0
 40
0.0
 40
0.1387474318
 40
0.2924460414
 40
0.4461441358
 40
0.58489019
 40
0.6992002234
 40
0.7924438344
 40
0.8856882944
 40
1.0
 40
1.0
 40
1.0
 40
1.0
 10
4.7066312783
 20
10.4079630805
 30
0.0
 10
4.7066312783
 20
10.3998494099
 30
0.0
 10
4.703586714
 20
10.3827345172
 30
0.0
 10
4.6929856678
 20
10.3586981872
 30
0.0
 10
4.6774396514
 20
10.3374489785
 30
0.0
 10
4.6590220316
 20
10.3220066986
 30
0.0
 10
4.6397838382
 20
10.3141029744
 30
0.0
 10
4.6210605052
 20
10.3169051157
 30
0.0
 10
4.6092638551
 20
10.3317015577
 30
0.0
 10
4.607636741
 20
10.3441241804
 30
0.0
 10
4.607636741
 20
10.350808899
 30
0.0
  0
SPLINE
  5
443
100
AcDbEntity
  8
DETAIL
100
AcDbSpline
 62
8
  6
HIDDEN
 70
0
 71
3
 72
15
 73
11
 74
0
 42
0.0000001
 43
0.0000001
 44
0.0000000001
 40
0.0
 40
0.0
 40
0.0
 40
0.0
 40
0.1387474318
 40
0.2924460414
 40
0.4461441358
 40
0.58489019
 40
0.6992002234
 40
0.7924438344
 40
0.8856882944
 40
1.0
 40
1.0
 40
1.0
 40
1.0
 10
4.1833744387
 20
10.1058624067
 30
0.0
 10
4.1833744387
 20
10.1139760773
 30
0.0
 10
4.186419003
 20
10.13109097
 30
0.0
 10
4.1970200491
 20
10.1551273
 30
0.0
 10
4.2125660656
 20
10.1763765087
 30
0.0
 10
4.2309836853
 20
10.1918187886
 30
0.0
 10
4.2502218788
 20
10.1997225128
 30
0.0
 10
4.2689452118
 20
10.1969203715
 30
0.0
 10
4.2807418619
 20
10.1821239295
 30
0.0
 10
4.2823689759
 20
10.1697013068
 30
0.0
 10
4.2823689759
 20
10.1630165882
 30
0.0
  0
SPLINE
  5
444
100
AcDbEntity
  8
DETAIL
100
AcDbSpline
 62
8
  6
HIDDEN
 70
0
 71
3
 72
15
 73
11
 74
0
 42
0.0000001
 43
0.0000001
 44
0.0000000001
 40
0.0
 40
0.0
 40
0.0
 40
0.0
 40
0.1387474318
 40
0.2924460414
 40
0.4461441358
 40
0.58489019
 40
0.6992002234
 40
0.7924438344
 40
0.8856882944
 40
1.0
 40
1.0
 40
1.0
 40
1.0
 10
4.2823689759
 20
10.1630165882
 30
0.0
 10
4.2823689759
 20
10.1549029176
 30
0.0
 10
4.2793244117
 20
10.1377880249
 30
0.0
 10
4.2687233655
 20
10.1137516949
 30
0.0
 10
4.253177349
 20
10.0925024862
 30
0.0
 10
4.2347597293
 20
10.0770602063
 30
0.0
 10
4.2155215359
 20
10.0691564821
 30
0.0
 10
4.1967982028
 20
10.0719586234
 30
0.0
 10
4.1850015528
 20
10.0867550654
 30
0.0
 10
4.1833744387
 20
10.0991776881
 30
0.0
 10
4.1833744387
 20
10.1058624067
 30
0.0
  0
SPLINE
  5
445
100
AcDbEntity
  8
DETAIL
100
AcDbSpline
 62
8
  6
HIDDEN
 70
0
 71
3
 72
15
 73
11
 74
0
 42
0.0000001
 43
0.0000001
 44
0.0000000001
 40
0.0
 40
0.0
 40
0.0
 40
0.0
 40
0.1143100335
 40
0.2075536444
 40
0.3007981045
 40
0.41510981
 40
0.5538572418
 40
0.7075558514
 40
0.8612539459
 40
1.0
 40
1.0
 40
1.0
 40
1.0
 10
4.6041012219
 20
10.0834043927
 30
0.0
 10
4.6103037862
 20
10.0869854235
 30
0.0
 10
4.6227021318
 20
10.0921305176
 30
0.0
 10
4.6427509972
 20
10.0891107399
 30
0.0
 10
4.6553810492
 20
10.07323841
 30
0.0
 10
4.6583533888
 20
10.0511532514
 30
0.0
 10
4.6538913404
 20
10.0257909466
 30
0.0
 10
4.6425028549
 20
9.9999824034
 30
0.0
 10
4.6258792218
 20
9.9772692345
 30
0.0
 10
4.6116297065
 20
9.9652755768
 30
0.0
 10
4.6041012219
 20
9.9609290301
 30
0.0
  0
SPLINE
  5
446
100
AcDbEntity
  8
DETAIL
100
AcDbSpline
 62
8
  6
HIDDEN
 70
0
 71
3
 72
15
 73
11
 74
0
 42
0.0000001
 43
0.0000001
 44
0.0000000001
 40
0.0
 40
0.0
 40
0.0
 40
0.0
 40
0.1143100335
 40
0.2075536444
 40
0.3007981045
 40
0.41510981
 40
0.5538572418
 40
0.7075558514
 40
0.8612539459
 40
1.0
 40
1.0
 40
1.0
 40
1.0
 10
4.2859044951
 20
9.7772191609
 30
0.0
 10
4.2797019308
 20
9.77363813
 30
0.0
 10
4.2673035852
 20
9.7684930359
 30
0.0
 10
4.2472547198
 20
9.7715128136
 30
0.0
 10
4.2346246678
 20
9.7873851435
 30
0.0
 10
4.2316523282
 20
9.8094703021
 30
0.0
 10
4.2361143766
 20
9.8348326069
 30
0.0
 10
4.2475028621
 20
9.8606411501
 30
0.0
 10
4.2641264952
 20
9.883354319
 30
0.0
 10
4.2783760105
 20
9.8953479768
 30
0.0
 10
4.2859044951
 20
9.8996945234
 30
0.0
  0
SPLINE
  5
447
100
AcDbEntity
  8
DETAIL
100
AcDbSpline
 62
8
  6
HIDDEN
 70
0
 71
3
 72
15
 73
11
 74
0
 42
0.0000001
 43
0.0000001
 44
0.0000000001
 40
0.0
 40
0.0
 40
0.0
 40
0.0
 40
0.1387474318
 40
0.2924460414
 40
0.4461441358
 40
0.58489019
 40
0.6992002234
 40
0.7924438344
 40
0.8856882944
 40
1.0
 40
1.0
 40
1.0
 40
1.0
 10
4.607636741
 20
9.6976069653
 30
0.0
 10
4.607636741
 20
9.705720636
 30
0.0
 10
4.6106813053
 20
9.7228355286
 30
0.0
 10
4.6212823515
 20
9.7468718586
 30
0.0
 10
4.6368283679
 20
9.7681210674
 30
0.0
 10
4.6552459877
 20
9.7835633472
 30
0.0
 10
4.6744841811
 20
9.7914670715
 30
0.0
 10
4.6932075142
 20
9.7886649302
 30
0.0
 10
4.7050041642
 20
9.7738684881
 30
0.0
 10
4.7066312783
 20
9.7614458654
 30
0.0
 10
4.7066312783
 20
9.7547611468
 30
0.0
  0
SPLINE
  5
448
100
AcDbEntity
  8
DETAIL
100
AcDbSpline
 62
8
  6
HIDDEN
 70
0
 71
3
 72
15
 73
11
 74
0
 42
0.0000001
 43
0.0000001
 44
0.0000000001
 40
0.0
 40
0.0
 40
0.0
 40
0.0
 40
0.1387474318
 40
0.2924460414
 40
0.4461441358
 40
0.58489019
 40
0.6992002234
 40
0.7924438344
 40
0.8856882944
 40
1.0
 40
1.0
 40
1.0
 40
1.0
 10
4.7066312783
 20
9.7547611468
 30
0.0
 10
4.7066312783
 20
9.7466474762
 30
0.0
 10
4.703586714
 20
9.7295325835
 30
0.0
 10
4.6929856678
 20
9.7054962535
 30
0.0
 10
4.6774396514
 20
9.6842470448
 30
0.0
 10
4.6590220316
 20
9.6688047649
 30
0.0
 10
4.6397838382
 20
9.6609010407
 30
0.0
 10
4.6210605052
 20
9.663703182
 30
0.0
 10
4.6092638551
 20
9.678499624
 30
0.0
 10
4.607636741
 20
9.6909222467
 30
0.0
 10
4.607636741
 20
9.6976069653
 30
0.0
  0
SPLINE
  5
449
100
AcDbEntity
  8
DETAIL
100
AcDbSpline
 62
8
  6
HIDDEN
 70
0
 71
3
 72
15
 73
11
 74
0
 42
0.0000001
 43
0.0000001
 44
0.0000000001
 40
0.0
 40
0.0
 40
0.0
 40
0.0
 40
0.1387474318
 40
0.2924460414
 40
0.4461441358
 40
0.58489019
 40
0.6992002234
 40
0.7924438344
 40
0.8856882944
 40
1.0
 40
1.0
 40
1.0
 40
1.0
 10
4.1833744387
 20
9.452660473
 30
0.0
 10
4.1833744387
 20
9.4607741436
 30
0.0
 10
4.186419003
 20
9.4778890363
 30
0.0
 10
4.1970200491
 20
9.5019253663
 30
0.0
 10
4.2125660656
 20
9.523174575
 30
0.0
 10
4.2309836853
 20
9.5386168549
 30
0.0
 10
4.2502218788
 20
9.5465205791
 30
0.0
 10
4.2689452118
 20
9.5437184378
 30
0.0
 10
4.2807418619
 20
9.5289219958
 30
0.0
 10
4.2823689759
 20
9.5164993731
 30
0.0
 10
4.2823689759
 20
9.5098146545
 30
0.0
  0
SPLINE
  5
44A
100
AcDbEntity
  8
DETAIL
100
AcDbSpline
 62
8
  6
HIDDEN
 70
0
 71
3
 72
15
 73
11
 74
0
 42
0.0000001
 43
0.0000001
 44
0.0000000001
 40
0.0
 40
0.0
 40
0.0
 40
0.0
 40
0.1387474318
 40
0.2924460414
 40
0.4461441358
 40
0.58489019
 40
0.6992002234
 40
0.7924438344
 40
0.8856882944
 40
1.0
 40
1.0
 40
1.0
 40
1.0
 10
4.2823689759
 20
9.5098146545
 30
0.0
 10
4.2823689759
 20
9.5017009839
 30
0.0
 10
4.2793244117
 20
9.4845860912
 30
0.0
 10
4.2687233655
 20
9.4605497612
 30
0.0
 10
4.253177349
 20
9.4393005525
 30
0.0
 10
4.2347597293
 20
9.4238582726
 30
0.0
 10
4.2155215359
 20
9.4159545484
 30
0.0
 10
4.1967982028
 20
9.4187566897
 30
0.0
 10
4.1850015528
 20
9.4335531317
 30
0.0
 10
4.1833744387
 20
9.4459757544
 30
0.0
 10
4.1833744387
 20
9.452660473
 30
0.0
  0
SPLINE
  5
44B
100
AcDbEntity
  8
ALL_FEATURES
100
AcDbSpline
 62
7
  6
CONTINUOUS
 70
0
 71
3
 72
16
 73
12
 74
0
 42
0.0000001
 43
0.0000001
 44
0.0000000001
 40
0.0
 40
0.0
 40
0.0
 40
0.0
 40
0.1485242523
 40
0.2894729459
 40
0.4226895121
 40
0.5485829474
 40
0.6679298883
 40
0.7818623558
 40
0.8919019264
 40
0.9460804822
 40
1.0
 40
1.0
 40
1.0
 40
1.0
 10
5.6674027002
 20
12.7040171359
 30
0.0
 10
5.6652835514
 20
12.7052405994
 30
0.0
 10
5.6610515638
 20
12.7074553079
 30
0.0
 10
5.6545969083
 20
12.7100984034
 30
0.0
 10
5.6482561384
 20
12.7119467291
 30
0.0
 10
5.6420912391
 20
12.712981364
 30
0.0
 10
5.6361582977
 20
12.7131875626
 30
0.0
 10
5.6305155534
 20
12.7125598537
 30
0.0
 10
5.6260771438
 20
12.71133179
 30
0.0
 10
5.6227582688
 20
12.709944135
 30
0.0
 10
5.621177002
 20
12.7091190503
 30
0.0
 10
5.6204076433
 20
12.7086749479
 30
0.0
  0
SPLINE
  5
44C
100
AcDbEntity
  8
0
100
AcDbSpline
 62
7
  6
CONTINUOUS
 70
0
 71
3
 72
18
 73
14
 74
0
 42
0.0000001
 43
0.0000001
 44
0.0000000001
 40
0.0
 40
0.0
 40
0.0
 40
0.0
 40
0.1450062687
 40
0.2833108213
 40
0.4149080002
 40
0.4783746273
 40
0.5403862269
 40
0.6604086192
 40
0.7760936469
 40
0.8327364631
 40
0.8887957125
 40
0.9444776444
 40
1.0
 40
1.0
 40
1.0
 40
1.0
 10
5.5704784065
 20
12.6844196313
 30
0.0
 10
5.5704784065
 20
12.6881046055
 30
0.0
 10
5.5707794415
 20
12.6953093643
 30
0.0
 10
5.5722108441
 20
12.7057718388
 30
0.0
 10
5.5742414083
 20
12.7140168877
 30
0.0
 10
5.5763656692
 20
12.7201988194
 30
0.0
 10
5.5787580633
 20
12.7259643212
 30
0.0
 10
5.5823365004
 20
12.7326587773
 30
0.0
 10
5.5867735935
 20
12.738656511
 30
0.0
 10
5.59075862
 20
12.7428835312
 30
0.0
 10
5.5939413928
 20
12.7457512221
 30
0.0
 10
5.5973280647
 20
12.7483275903
 30
0.0
 10
5.5997166013
 20
12.7498453887
 30
0.0
 10
5.6009385328
 20
12.7505508669
 30
0.0
  0
SPLINE
  5
44D
100
AcDbEntity
  8
0
100
AcDbSpline
 62
7
  6
CONTINUOUS
 70
0
 71
3
 72
34
 73
30
 74
0
 42
0.0000001
 43
0.0000001
 44
0.0000000001
 40
0.0
 40
0.0
 40
0.0
 40
0.0
 40
0.0225443481
 40
0.0452489643
 40
0.068302497
 40
0.0918721334
 40
0.116094717
 40
0.1410932841
 40
0.1669718423
 40
0.1938051173
 40
0.2504691419
 40
0.2803598435
 40
0.3112554753
 40
0.3431132482
 40
0.3758735616
 40
0.4094625712
 40
0.4437913505
 40
0.4787625245
 40
0.5142671544
 40
0.5501907732
 40
0.5864125778
 40
0.6592336193
 40
0.731733105
 40
0.8029157565
 40
0.8718474602
 40
0.9052237186
 40
0.9377613497
 40
0.9693825143
 40
1.0
 40
1.0
 40
1.0
 40
1.0
 10
5.740937906
 20
12.508063392
 30
0.0
 10
5.7391164828
 20
12.5070117991
 30
0.0
 10
5.7353224335
 20
12.5051312222
 30
0.0
 10
5.7292905387
 20
12.5030298092
 30
0.0
 10
5.7229546499
 20
12.5016558936
 30
0.0
 10
5.7163634127
 20
12.5010073597
 30
0.0
 10
5.7095605279
 20
12.5010792086
 30
0.0
 10
5.7025871618
 20
12.5018613205
 30
0.0
 10
5.6954793288
 20
12.5033382169
 30
0.0
 10
5.6856941154
 20
12.5062660651
 30
0.0
 10
5.6759548129
 20
12.5105087329
 30
0.0
 10
5.666385818
 20
12.5158552378
 30
0.0
 10
5.6591137502
 20
12.5205371329
 30
0.0
 10
5.6519116628
 20
12.5257916139
 30
0.0
 10
5.6448136168
 20
12.5315914704
 30
0.0
 10
5.6378553566
 20
12.537906104
 30
0.0
 10
5.6310709861
 20
12.544701565
 30
0.0
 10
5.6244961954
 20
12.5519429809
 30
0.0
 10
5.6181635773
 20
12.5595910077
 30
0.0
 10
5.6121070743
 20
12.5676063159
 30
0.0
 10
5.6044286938
 20
12.5787435797
 30
0.0
 10
5.5957213279
 20
12.5932962578
 30
0.0
 10
5.5868494904
 20
12.6114685558
 30
0.0
 10
5.5797215873
 20
12.6300058283
 30
0.0
 10
5.5753120659
 20
12.6456071717
 30
0.0
 10
5.5728126298
 20
12.6579411798
 30
0.0
 10
5.5714762377
 20
12.6669464084
 30
0.0
 10
5.5706669582
 20
12.6757556363
 30
0.0
 10
5.5704784065
 20
12.6815632813
 30
0.0
 10
5.5704784065
 20
12.6844196313
 30
0.0
  0
SPLINE
  5
44E
100
AcDbEntity
  8
ALL_FEATURES
100
AcDbSpline
 62
7
  6
CONTINUOUS
 70
0
 71
3
 72
30
 73
26
 74
0
 42
0.0000001
 43
0.0000001
 44
0.0000000001
 40
0.0
 40
0.0
 40
0.0
 40
0.0
 40
0.0213286291
 40
0.0428850669
 40
0.064886561
 40
0.0875265982
 40
0.1109713943
 40
0.1353535359
 40
0.1872436475
 40
0.2149016218
 40
0.2437066976
 40
0.2736429559
 40
0.3046718956
 40
0.3367395414
 40
0.3697718869
 40
0.4383569377
 40
0.50963073
 40
0.5826423956
 40
0.6563616191
 40
0.7297263999
 40
0.8016922491
 40
0.8712680352
 40
0.9376065046
 40
0.969346505
 40
1.0
 40
1.0
 40
1.0
 40
1.0
 10
5.7143977571
 20
12.5458568696
 30
0.0
 10
5.7155527292
 20
12.5465235624
 30
0.0
 10
5.7177917091
 20
12.5480145122
 30
0.0
 10
5.7208651977
 20
12.5506781977
 30
0.0
 10
5.7236436949
 20
12.5537596229
 30
0.0
 10
5.7261132781
 20
12.5572382164
 30
0.0
 10
5.7282602431
 20
12.5610953122
 30
0.0
 10
5.7307296921
 20
12.5668296729
 30
0.0
 10
5.7324363258
 20
12.5731397575
 30
0.0
 10
5.7334420933
 20
12.5798429524
 30
0.0
 10
5.7338551278
 20
12.5852343264
 30
0.0
 10
5.7339085795
 20
12.5908506855
 30
0.0
 10
5.7336032602
 20
12.5966631058
 30
0.0
 10
5.7329395003
 20
12.6026401017
 30
0.0
 10
5.7315662993
 20
12.6108887144
 30
0.0
 10
5.7289604396
 20
12.6213999126
 30
0.0
 10
5.7245598603
 20
12.6339796344
 30
0.0
 10
5.7189393952
 20
12.6464165345
 30
0.0
 10
5.7122192822
 20
12.6584445132
 30
0.0
 10
5.7045427113
 20
12.6698072278
 30
0.0
 10
5.6960730717
 20
12.6802619744
 30
0.0
 10
5.6869917889
 20
12.6895869609
 30
0.0
 10
5.6789546637
 20
12.6963504431
 30
0.0
 10
5.6723784221
 20
12.7009978499
 30
0.0
 10
5.6690625536
 20
12.7030588408
 30
0.0
 10
5.6674027002
 20
12.7040171359
 30
0.0
  0
SPLINE
  5
44F
100
AcDbEntity
  8
0
100
AcDbSpline
 62
9
  6
CONTINUOUS
 70
0
 71
3
 72
33
 73
29
 74
0
 42
0.0000001
 43
0.0000001
 44
0.0000000001
 40
0.0
 40
0.0
 40
0.0
 40
0.0
 40
0.0213273319
 40
0.0428827357
 40
0.0648834014
 40
0.0875227501
 40
0.1109669372
 40
0.1353484839
 40
0.1872372744
 40
0.2148944272
 40
0.2436985467
 40
0.2736336902
 40
0.304661351
 40
0.3367275478
 40
0.3697582743
 40
0.4036684328
 40
0.4383603314
 40
0.5096298498
 40
0.5826368104
 40
0.6194802156
 40
0.6563677103
 40
0.6931662204
 40
0.7297443162
 40
0.8017051766
 40
0.8712762233
 40
0.9376103516
 40
0.9693483603
 40
1.0
 40
1.0
 40
1.0
 40
1.0
 10
5.6009386635
 20
12.7505506404
 30
0.0
 10
5.6026587688
 20
12.751543534
 30
0.0
 10
5.6062493368
 20
12.7533204591
 30
0.0
 10
5.6119739438
 20
12.7553001264
 30
0.0
 10
5.6180176083
 20
12.7565882834
 30
0.0
 10
5.6243434356
 20
12.7571822974
 30
0.0
 10
5.6309171482
 20
12.7570783908
 30
0.0
 10
5.6401522386
 20
12.7559922819
 30
0.0
 10
5.6495617305
 20
12.7534937199
 30
0.0
 10
5.6589562852
 20
12.7497985812
 30
0.0
 10
5.6662174563
 20
12.7463160422
 30
0.0
 10
5.6735009977
 20
12.7422022482
 30
0.0
 10
5.6807702623
 20
12.737479764
 30
0.0
 10
5.687984684
 20
12.7321725231
 30
0.0
 10
5.6951071969
 20
12.7263110427
 30
0.0
 10
5.7020985492
 20
12.7199254346
 30
0.0
 10
5.7112769933
 20
12.7106769977
 30
0.0
 10
5.7221649504
 20
12.6980259855
 30
0.0
 10
5.7320156351
 20
12.6843076006
 30
0.0
 10
5.7392641352
 20
12.6727195768
 30
0.0
 10
5.7443495227
 20
12.6637668778
 30
0.0
 10
5.7490376287
 20
12.6546275594
 30
0.0
 10
5.7546954559
 20
12.6423287747
 30
0.0
 10
5.7606443845
 20
12.6268201966
 30
0.0
 10
5.7659088615
 20
12.6081642755
 30
0.0
 10
5.7686473546
 20
12.5927617483
 30
0.0
 10
5.7697444905
 20
12.5808192707
 30
0.0
 10
5.7699335809
 20
12.5750078489
 30
0.0
 10
5.7699335809
 20
12.5721534239
 30
0.0
  0
SPLINE
  5
450
100
AcDbEntity
  8
0
100
AcDbSpline
 62
9
  6
CONTINUOUS
 70
0
 71
3
 72
18
 73
14
 74
0
 42
0.0000001
 43
0.0000001
 44
0.0000000001
 40
0.0
 40
0.0
 40
0.0
 40
0.0
 40
0.0539105867
 40
0.1080797271
 40
0.1627597893
 40
0.2181903985
 40
0.2745968553
 40
0.3321840806
 40
0.4515088465
 40
0.5773796158
 40
0.7105732445
 40
0.8514988761
 40
1.0
 40
1.0
 40
1.0
 40
1.0
 10
5.7409377752
 20
12.5080636186
 30
0.0
 10
5.742083797
 20
12.5087251349
 30
0.0
 10
5.7443260201
 20
12.5101499457
 30
0.0
 10
5.7475073007
 20
12.5125738241
 30
0.0
 10
5.7505031597
 20
12.5152796546
 30
0.0
 10
5.7533061809
 20
12.518260218
 30
0.0
 10
5.7559092822
 20
12.5215088018
 30
0.0
 10
5.7591420925
 20
12.5262415584
 30
0.0
 10
5.7626457031
 20
12.5328257327
 30
0.0
 10
5.7659023163
 20
12.5415481755
 30
0.0
 10
5.7682408931
 20
12.5511045217
 30
0.0
 10
5.7696386637
 20
12.5613995916
 30
0.0
 10
5.7699335809
 20
12.5685084449
 30
0.0
 10
5.7699335809
 20
12.5721534239
 30
0.0
  0
SPLINE
  5
451
100
AcDbEntity
  8
0
100
AcDbSpline
 62
9
  6
CONTINUOUS
 70
0
 71
3
 72
45
 73
41
 74
0
 42
0.0000001
 43
0.0000001
 44
0.0000000001
 40
0.0
 40
0.0
 40
0.0
 40
0.0
 40
0.0309742559
 40
0.0603684405
 40
0.0881499075
 40
0.1014656212
 40
0.1144167358
 40
0.1393054659
 40
0.1513169956
 40
0.1630822393
 40
0.1746439377
 40
0.1860490821
 40
0.1973476519
 40
0.2085922841
 40
0.2198370518
 40
0.2311356344
 40
0.2425406074
 40
0.2541024647
 40
0.2778609691
 40
0.3027499202
 40
0.3290066365
 40
0.3567868192
 40
0.3861657869
 40
0.4171536204
 40
0.4496982193
 40
0.48370233
 40
0.519024482
 40
0.5554935996
 40
0.5929092649
 40
0.6310531084
 40
0.6696899031
 40
0.7085760792
 40
0.7474617564
 40
0.7860988624
 40
0.8242432588
 40
0.8616595205
 40
0.8981245658
 40
0.9334495332
 40
0.9674670388
 40
1.0
 40
1.0
 40
1.0
 40
1.0
 10
5.5719428873
 20
12.6823784106
 30
0.0
 10
5.5719428873
 20
12.6858931726
 30
0.0
 10
5.5722273058
 20
12.6927481965
 30
0.0
 10
5.5735749554
 20
12.7026749233
 30
0.0
 10
5.575480737
 20
12.7104624154
 30
0.0
 10
5.5774651506
 20
12.7162694504
 30
0.0
 10
5.5796814362
 20
12.7216373494
 30
0.0
 10
5.5823488117
 20
12.7266503517
 30
0.0
 10
5.5854660032
 20
12.7312138545
 30
0.0
 10
5.5879760963
 20
12.734346454
 30
0.0
 10
5.5906789616
 20
12.7372205707
 30
0.0
 10
5.5935677124
 20
12.7398297476
 30
0.0
 10
5.5966355074
 20
12.7421671914
 30
0.0
 10
5.5998753563
 20
12.7442260457
 30
0.0
 10
5.6032785498
 20
12.7460018917
 30
0.0
 10
5.6068363485
 20
12.7474907186
 30
0.0
 10
5.610540341
 20
12.7486883928
 30
0.0
 10
5.6157065127
 20
12.749903188
 30
0.0
 10
5.6225255286
 20
12.750665131
 30
0.0
 10
5.631046302
 20
12.7503677668
 30
0.0
 10
5.639901976
 20
12.7488831229
 30
0.0
 10
5.6490074916
 20
12.7462277038
 30
0.0
 10
5.6582801154
 20
12.7424339261
 30
0.0
 10
5.6676324288
 20
12.737536717
 30
0.0
 10
5.6769790377
 20
12.7315866479
 30
0.0
 10
5.6862303161
 20
12.72463802
 30
0.0
 10
5.6953008407
 20
12.7167595144
 30
0.0
 10
5.7041026972
 20
12.7080243031
 30
0.0
 10
5.7125537766
 20
12.6985173077
 30
0.0
 10
5.7205720394
 20
12.6883281754
 30
0.0
 10
5.7280819153
 20
12.6775550696
 30
0.0
 10
5.7350108952
 20
12.6663006442
 30
0.0
 10
5.7412929966
 20
12.6546727234
 30
0.0
 10
5.746868316
 20
12.642782582
 30
0.0
 10
5.7516825831
 20
12.6307435782
 30
0.0
 10
5.7556911206
 20
12.6186718135
 30
0.0
 10
5.7588545362
 20
12.6066815873
 30
0.0
 10
5.7611438616
 20
12.5948856822
 30
0.0
 10
5.7625335506
 20
12.583399459
 30
0.0
 10
5.7628625131
 20
12.5758450409
 30
0.0
 10
5.7628625131
 20
12.5721534069
 30
0.0
  0
SPLINE
  5
452
100
AcDbEntity
  8
ALL_FEATURES
100
AcDbSpline
 62
7
  6
CONTINUOUS
 70
0
 71
3
 72
16
 73
12
 74
0
 42
0.0000001
 43
0.0000001
 44
0.0000000001
 40
0.0
 40
0.0
 40
0.0
 40
0.0
 40
0.1485242523
 40
0.2894729459
 40
0.4226895121
 40
0.5485829474
 40
0.6679298883
 40
0.7818623558
 40
0.8919019264
 40
0.9460804822
 40
1.0
 40
1.0
 40
1.0
 40
1.0
 10
5.6674027002
 20
12.5505146815
 30
0.0
 10
5.669521849
 20
12.5492912181
 30
0.0
 10
5.6737538366
 20
12.5470765096
 30
0.0
 10
5.6802084921
 20
12.544433414
 30
0.0
 10
5.6865492619
 20
12.5425850883
 30
0.0
 10
5.6927141613
 20
12.5415504534
 30
0.0
 10
5.6986471027
 20
12.5413442548
 30
0.0
 10
5.704289847
 20
12.5419719638
 30
0.0
 10
5.7087282565
 20
12.5432000275
 30
0.0
 10
5.7120471316
 20
12.5445876824
 30
0.0
 10
5.7136283984
 20
12.5454127671
 30
0.0
 10
5.7143977571
 20
12.5458568696
 30
0.0
  0
SPLINE
  5
453
100
AcDbEntity
  8
0
100
AcDbSpline
 62
9
  6
CONTINUOUS
 70
0
 71
3
 72
45
 73
41
 74
0
 42
0.0000001
 43
0.0000001
 44
0.0000000001
 40
0.0
 40
0.0
 40
0.0
 40
0.0
 40
0.0325329612
 40
0.0665504668
 40
0.1018754342
 40
0.1383404795
 40
0.1757567412
 40
0.2139011376
 40
0.2525382436
 40
0.2914239208
 40
0.3303100969
 40
0.3689468916
 40
0.4070907351
 40
0.4445064004
 40
0.480975518
 40
0.51629767
 40
0.5503017807
 40
0.5828463796
 40
0.6138342131
 40
0.6432131808
 40
0.6709933635
 40
0.6972500798
 40
0.7221390309
 40
0.7458975353
 40
0.7574593926
 40
0.7688643656
 40
0.7801629482
 40
0.7914077159
 40
0.8026523481
 40
0.8139509179
 40
0.8253560623
 40
0.8369177607
 40
0.8486830044
 40
0.8606945341
 40
0.8855832642
 40
0.8985343788
 40
0.9118500925
 40
0.9396315595
 40
0.9690257441
 40
1.0
 40
1.0
 40
1.0
 40
1.0
 10
5.5719428873
 20
12.6823784106
 30
0.0
 10
5.5719428873
 20
12.6786867765
 30
0.0
 10
5.5722718498
 20
12.6711323584
 30
0.0
 10
5.5736615387
 20
12.6596461353
 30
0.0
 10
5.5759508642
 20
12.6478502301
 30
0.0
 10
5.5791142798
 20
12.6358600039
 30
0.0
 10
5.5831228173
 20
12.6237882392
 30
0.0
 10
5.5879370843
 20
12.6117492354
 30
0.0
 10
5.5935124038
 20
12.599859094
 30
0.0
 10
5.5997945052
 20
12.5882311732
 30
0.0
 10
5.6067234851
 20
12.5769767478
 30
0.0
 10
5.614233361
 20
12.5662036421
 30
0.0
 10
5.6222516237
 20
12.5560145097
 30
0.0
 10
5.6307027031
 20
12.5465075143
 30
0.0
 10
5.6395045597
 20
12.5377723031
 30
0.0
 10
5.6485750843
 20
12.5298937974
 30
0.0
 10
5.6578263627
 20
12.5229451696
 30
0.0
 10
5.6671729716
 20
12.5169951004
 30
0.0
 10
5.676525285
 20
12.5120978914
 30
0.0
 10
5.6857979088
 20
12.5083041137
 30
0.0
 10
5.6949034243
 20
12.5056486945
 30
0.0
 10
5.7037590983
 20
12.5041640506
 30
0.0
 10
5.7122798718
 20
12.5038666865
 30
0.0
 10
5.7190988876
 20
12.5046286294
 30
0.0
 10
5.7242650594
 20
12.5058434247
 30
0.0
 10
5.7279690518
 20
12.5070410988
 30
0.0
 10
5.7315268505
 20
12.5085299258
 30
0.0
 10
5.7349300441
 20
12.5103057718
 30
0.0
 10
5.738169893
 20
12.5123646261
 30
0.0
 10
5.741237688
 20
12.5147020699
 30
0.0
 10
5.7441264388
 20
12.5173112467
 30
0.0
 10
5.746829304
 20
12.5201853635
 30
0.0
 10
5.7493393971
 20
12.5233179629
 30
0.0
 10
5.7524565887
 20
12.5278814657
 30
0.0
 10
5.7551239642
 20
12.532894468
 30
0.0
 10
5.7573402498
 20
12.538262367
 30
0.0
 10
5.7593246634
 20
12.544069402
 30
0.0
 10
5.761230445
 20
12.5518568942
 30
0.0
 10
5.7625780946
 20
12.5617836209
 30
0.0
 10
5.7628625131
 20
12.5686386448
 30
0.0
 10
5.7628625131
 20
12.5721534069
 30
0.0
  0
SPLINE
  5
454
100
AcDbEntity
  8
ALL_FEATURES
100
AcDbSpline
 62
7
  6
CONTINUOUS
 70
0
 71
3
 72
30
 73
26
 74
0
 42
0.0000001
 43
0.0000001
 44
0.0000000001
 40
0.0
 40
0.0
 40
0.0
 40
0.0
 40
0.0213286291
 40
0.0428850669
 40
0.064886561
 40
0.0875265982
 40
0.1109713943
 40
0.1353535359
 40
0.1872436475
 40
0.2149016218
 40
0.2437066976
 40
0.2736429559
 40
0.3046718956
 40
0.3367395414
 40
0.3697718869
 40
0.4383569377
 40
0.50963073
 40
0.5826423956
 40
0.6563616191
 40
0.7297263999
 40
0.8016922491
 40
0.8712680352
 40
0.9376065046
 40
0.969346505
 40
1.0
 40
1.0
 40
1.0
 40
1.0
 10
5.6204076433
 20
12.7086749479
 30
0.0
 10
5.6192526712
 20
12.7080082551
 30
0.0
 10
5.6170136913
 20
12.7065173053
 30
0.0
 10
5.6139402027
 20
12.7038536197
 30
0.0
 10
5.6111617055
 20
12.7007721945
 30
0.0
 10
5.6086921223
 20
12.697293601
 30
0.0
 10
5.6065451573
 20
12.6934365053
 30
0.0
 10
5.6040757083
 20
12.6877021446
 30
0.0
 10
5.6023690746
 20
12.68139206
 30
0.0
 10
5.601363307
 20
12.674688865
 30
0.0
 10
5.6009502726
 20
12.669297491
 30
0.0
 10
5.6008968208
 20
12.663681132
 30
0.0
 10
5.6012021402
 20
12.6578687116
 30
0.0
 10
5.6018659001
 20
12.6518917157
 30
0.0
 10
5.603239101
 20
12.643643103
 30
0.0
 10
5.6058449608
 20
12.6331319048
 30
0.0
 10
5.61024554
 20
12.620552183
 30
0.0
 10
5.6158660052
 20
12.6081152829
 30
0.0
 10
5.6225861182
 20
12.5960873042
 30
0.0
 10
5.6302626891
 20
12.5847245897
 30
0.0
 10
5.6387323286
 20
12.574269843
 30
0.0
 10
5.6478136115
 20
12.5649448566
 30
0.0
 10
5.6558507366
 20
12.5581813744
 30
0.0
 10
5.6624269782
 20
12.5535339676
 30
0.0
 10
5.6657428468
 20
12.5514729766
 30
0.0
 10
5.6674027002
 20
12.5505146815
 30
0.0
  0
SPLINE
  5
455
100
AcDbEntity
  8
ALL_FEATURES
100
AcDbSpline
 62
7
  6
CONTINUOUS
 70
0
 71
3
 72
11
 73
7
 74
0
 42
0.0000001
 43
0.0000001
 44
0.0000000001
 40
0.0
 40
0.0
 40
0.0
 40
0.0
 40
0.2311247739
 40
0.4704856122
 40
0.7251181527
 40
1.0
 40
1.0
 40
1.0
 40
1.0
 10
7.8234422433
 20
11.976294481
 30
0.0
 10
7.8256305272
 20
11.9775627913
 30
0.0
 10
7.8297869068
 20
11.9806989686
 30
0.0
 10
7.8348757362
 20
11.9868683486
 30
0.0
 10
7.8388058869
 20
11.9943664862
 30
0.0
 10
7.8405376101
 20
11.999928754
 30
0.0
 10
7.8412204939
 20
12.0028583318
 30
0.0
  0
SPLINE
  5
456
100
AcDbEntity
  8
ALL_FEATURES
100
AcDbSpline
 62
7
  6
CONTINUOUS
 70
0
 71
3
 72
9
 73
5
 74
0
 42
0.0000001
 43
0.0000001
 44
0.0000000001
 40
0.0
 40
0.0
 40
0.0
 40
0.0
 40
0.2438614147
 40
1.0
 40
1.0
 40
1.0
 40
1.0
 10
7.8412204939
 20
12.0028583318
 30
0.0
 10
7.8413734742
 20
12.0035146185
 30
0.0
 10
7.8419565105
 20
12.0062160725
 30
0.0
 10
7.8423665449
 20
12.0089540941
 30
0.0
 10
7.8425895471
 20
12.0110316551
 30
0.0
  0
SPLINE
  5
457
100
AcDbEntity
  8
ALL_FEATURES
100
AcDbSpline
 62
7
  6
CONTINUOUS
 70
0
 71
3
 72
19
 73
15
 74
0
 42
0.0000001
 43
0.0000001
 44
0.0000000001
 40
0.0
 40
0.0
 40
0.0
 40
0.0
 40
0.1177502734
 40
0.2495635662
 40
0.390105665
 40
0.4615914266
 40
0.5326500865
 40
0.6023814849
 40
0.6699591316
 40
0.7346256505
 40
0.7957475328
 40
0.8529428246
 40
0.9060237218
 40
1.0
 40
1.0
 40
1.0
 40
1.0
 10
7.8425895471
 20
12.0110316551
 30
0.0
 10
7.843357911
 20
12.0181899825
 30
0.0
 10
7.8428241613
 20
12.0336088816
 30
0.0
 10
7.8372367718
 20
12.0569107807
 30
0.0
 10
7.828938564
 20
12.0763402174
 30
0.0
 10
7.8203026177
 20
12.0913558632
 30
0.0
 10
7.8129550993
 20
12.1020726748
 30
0.0
 10
7.8049060174
 20
12.1119668945
 30
0.0
 10
7.7963093889
 20
12.120854511
 30
0.0
 10
7.7873323788
 20
12.1285773763
 30
0.0
 10
7.7781320522
 20
12.1349774012
 30
0.0
 10
7.7688687099
 20
12.1399511254
 30
0.0
 10
7.7571703827
 20
12.1443459083
 30
0.0
 10
7.7480024284
 20
12.1455951534
 30
0.0
 10
7.7422793531
 20
12.1450839028
 30
0.0
  0
SPLINE
  5
458
100
AcDbEntity
  8
ALL_AXIS
100
AcDbSpline
 62
7
  6
CONTINUOUS
 70
0
 71
3
 72
11
 73
7
 74
0
 42
0.0000001
 43
0.0000001
 44
0.0000000001
 40
0.0
 40
0.0
 40
0.0
 40
0.0
 40
0.2197268029
 40
0.4571154703
 40
0.7170193007
 40
1.0
 40
1.0
 40
1.0
 40
1.0
 10
6.3679077271
 20
12.8714626805
 30
0.0
 10
6.3710483121
 20
12.8746390841
 30
0.0
 10
6.3767029726
 20
12.8821540042
 30
0.0
 10
6.3826298418
 20
12.895581332
 30
0.0
 10
6.3861564295
 20
12.9111282748
 30
0.0
 10
6.3868816818
 20
12.922185451
 30
0.0
 10
6.3868816818
 20
12.9279382057
 30
0.0
  0
SPLINE
  5
459
100
AcDbEntity
  8
ALL_FEATURES
100
AcDbSpline
 62
7
  6
CONTINUOUS
 70
0
 71
3
 72
14
 73
10
 74
0
 42
0.0000001
 43
0.0000001
 44
0.0000000001
 40
0.0
 40
0.0
 40
0.0
 40
0.0
 40
0.2770940654
 40
0.4156011142
 40
0.5508013672
 40
0.6798217869
 40
0.7996967168
 40
0.9073399271
 40
1.0
 40
1.0
 40
1.0
 40
1.0
 10
5.9663507858
 20
11.3720446835
 30
0.0
 10
5.9722338993
 20
11.3797660366
 30
0.0
 10
5.9826841813
 20
11.3901745657
 30
0.0
 10
5.9983838704
 20
11.4014164991
 30
0.0
 10
6.0106115933
 20
11.4085024888
 30
0.0
 10
6.0228244148
 20
11.4141872532
 30
0.0
 10
6.0345515667
 20
11.4185261186
 30
0.0
 10
6.0453546034
 20
11.4215819703
 30
0.0
 10
6.0522398099
 20
11.4229786709
 30
0.0
 10
6.0554462403
 20
11.42348455
 30
0.0
  0
SPLINE
  5
45A
100
AcDbEntity
  8
ALL_FEATURES
100
AcDbSpline
 62
7
  6
CONTINUOUS
 70
0
 71
3
 72
11
 73
7
 74
0
 42
0.0000001
 43
0.0000001
 44
0.0000000001
 40
0.0
 40
0.0
 40
0.0
 40
0.0
 40
0.2177214544
 40
0.451192982
 40
0.7112034624
 40
1.0
 40
1.0
 40
1.0
 40
1.0
 10
7.3513261201
 20
9.200505163
 30
0.0
 10
7.3513284357
 20
9.1993802292
 30
0.0
 10
7.3509197167
 20
9.1970319513
 30
0.0
 10
7.349139535
 20
9.1937582958
 30
0.0
 10
7.346324489
 20
9.1908087122
 30
0.0
 10
7.3439782303
 20
9.1891837834
 30
0.0
 10
7.3426859703
 20
9.1884377012
 30
0.0
  0
SPLINE
  5
45B
100
AcDbEntity
  8
ALL_FEATURES
100
AcDbSpline
 62
7
  6
CONTINUOUS
 70
0
 71
3
 72
11
 73
7
 74
0
 42
0.0000001
 43
0.0000001
 44
0.0000000001
 40
0.0
 40
0.0
 40
0.0
 40
0.0
 40
0.2177214544
 40
0.451192982
 40
0.7112034624
 40
1.0
 40
1.0
 40
1.0
 40
1.0
 10
9.4387140288
 20
7.9953784556
 30
0.0
 10
9.4387163444
 20
7.9942535219
 30
0.0
 10
9.4383076253
 20
7.9919052439
 30
0.0
 10
9.4365274436
 20
7.9886315884
 30
0.0
 10
9.4337123976
 20
7.9856820048
 30
0.0
 10
9.4313661389
 20
7.984057076
 30
0.0
 10
9.4300738789
 20
7.9833109938
 30
0.0
  0
SPLINE
  5
45C
100
AcDbEntity
  8
ALL_FEATURES
100
AcDbSpline
 62
7
  6
CONTINUOUS
 70
0
 71
3
 72
19
 73
15
 74
0
 42
0.0000001
 43
0.0000001
 44
0.0000000001
 40
0.0
 40
0.0
 40
0.0
 40
0.0
 40
0.0428397885
 40
0.0874540128
 40
0.1352610859
 40
0.1872182651
 40
0.3044289456
 40
0.3695798523
 40
0.4382276473
 40
0.5825382215
 40
0.7295851652
 40
0.8712440497
 40
0.9377257622
 40
1.0
 40
1.0
 40
1.0
 40
1.0
 10
6.9853309765
 20
10.0897134472
 30
0.0
 10
6.9853321498
 20
10.0875786381
 30
0.0
 10
6.9859104156
 20
10.083203246
 30
0.0
 10
6.9884146728
 20
10.0768832365
 30
0.0
 10
6.992485025
 20
10.0708884933
 30
0.0
 10
7.0001572255
 20
10.0632008477
 30
0.0
 10
7.0102730399
 20
10.057033571
 30
0.0
 10
7.0218831076
 20
10.0523579937
 30
0.0
 10
7.0352218234
 20
10.0485088689
 30
0.0
 10
7.0530902629
 20
10.0460115365
 30
0.0
 10
7.0747503809
 20
10.0466008868
 30
0.0
 10
7.0922166941
 20
10.0501011995
 30
0.0
 10
7.1049020764
 20
10.0547050558
 30
0.0
 10
7.1106766872
 20
10.0575437648
 30
0.0
 10
7.1133642059
 20
10.0590953952
 30
0.0
  0
SPLINE
  5
45D
100
AcDbEntity
  8
ALL_FEATURES
100
AcDbSpline
 62
7
  6
CONTINUOUS
 70
0
 71
3
 72
11
 73
7
 74
0
 42
0.0000001
 43
0.0000001
 44
0.0000000001
 40
0.0
 40
0.0
 40
0.0
 40
0.0
 40
0.2176841439
 40
0.4509677578
 40
0.7108516107
 40
1.0
 40
1.0
 40
1.0
 40
1.0
 10
7.0348267733
 20
10.3224117651
 30
0.0
 10
7.0348252046
 20
10.3195565004
 30
0.0
 10
7.0358828319
 20
10.3136022321
 30
0.0
 10
7.0403969114
 20
10.3052972349
 30
0.0
 10
7.047547454
 20
10.2978107834
 30
0.0
 10
7.0535094533
 20
10.2936897407
 30
0.0
 10
7.0567939854
 20
10.2917934581
 30
0.0
  0
SPLINE
  5
45E
100
AcDbEntity
  8
ALL_FEATURES
100
AcDbSpline
 62
7
  6
CONTINUOUS
 70
0
 71
3
 72
10
 73
6
 74
0
 42
0.0000001
 43
0.0000001
 44
0.0000000001
 40
0.0
 40
0.0
 40
0.0
 40
0.0
 40
0.2444652686
 40
0.4913051392
 40
1.0
 40
1.0
 40
1.0
 40
1.0
 10
7.8671205679
 20
9.2467848315
 30
0.0
 10
7.8671196752
 20
9.2405245917
 30
0.0
 10
7.8663461759
 20
9.2279281996
 30
0.0
 10
7.8617138667
 20
9.2026991453
 30
0.0
 10
7.8548489059
 20
9.1843818201
 30
0.0
 10
7.8490475084
 20
9.1727183663
 30
0.0
  0
SPLINE
  5
45F
100
AcDbEntity
  8
ALL_FEATURES
100
AcDbSpline
 62
7
  6
CONTINUOUS
 70
0
 71
3
 72
11
 73
7
 74
0
 42
0.0000001
 43
0.0000001
 44
0.0000000001
 40
0.0
 40
0.0
 40
0.0
 40
0.0
 40
0.2241077396
 40
0.4644605214
 40
0.7231391345
 40
1.0
 40
1.0
 40
1.0
 40
1.0
 10
7.8490475084
 20
9.1727183663
 30
0.0
 10
7.8434735902
 20
9.1615122492
 30
0.0
 10
7.8296131437
 20
9.1393917886
 30
0.0
 10
7.8026903963
 20
9.1090874599
 30
0.0
 10
7.7694540248
 20
9.0810871167
 30
0.0
 10
7.7443178805
 20
9.0647379505
 30
0.0
 10
7.7309274318
 20
9.0570070175
 30
0.0
  0
SPLINE
  5
460
100
AcDbEntity
  8
ALL_FEATURES
100
AcDbSpline
 62
7
  6
CONTINUOUS
 70
0
 71
3
 72
14
 73
10
 74
0
 42
0.0000001
 43
0.0000001
 44
0.0000000001
 40
0.0
 40
0.0
 40
0.0
 40
0.0
 40
0.113072231
 40
0.2274748243
 40
0.3444389363
 40
0.4650678374
 40
0.5903095784
 40
0.7209116047
 40
1.0
 40
1.0
 40
1.0
 40
1.0
 10
6.5400543521
 20
8.9945509389
 30
0.0
 10
6.5400552894
 20
9.0008603657
 30
0.0
 10
6.5409151261
 20
9.0135693135
 30
0.0
 10
6.5447483663
 20
9.0324554898
 30
0.0
 10
6.5510843522
 20
9.0511011055
 30
0.0
 10
6.5598855118
 20
9.0693851411
 30
0.0
 10
6.5710982409
 20
9.0872001833
 30
0.0
 10
6.5895525515
 20
9.1107121117
 30
0.0
 10
6.6062519696
 20
9.1265553954
 30
0.0
 10
6.6183283271
 20
9.1363881858
 30
0.0
  0
SPLINE
  5
461
100
AcDbEntity
  8
ALL_FEATURES
100
AcDbSpline
 62
7
  6
CONTINUOUS
 70
0
 71
3
 72
14
 73
10
 74
0
 42
0.0000001
 43
0.0000001
 44
0.0000000001
 40
0.0
 40
0.0
 40
0.0
 40
0.0
 40
0.113072231
 40
0.2274748243
 40
0.3444389363
 40
0.4650678374
 40
0.5903095784
 40
0.7209116047
 40
1.0
 40
1.0
 40
1.0
 40
1.0
 10
8.6274422607
 20
7.7894242316
 30
0.0
 10
8.627443198
 20
7.7957336584
 30
0.0
 10
8.6283030347
 20
7.8084426061
 30
0.0
 10
8.632136275
 20
7.8273287825
 30
0.0
 10
8.6384722608
 20
7.8459743981
 30
0.0
 10
8.6472734205
 20
7.8642584337
 30
0.0
 10
8.6584861496
 20
7.8820734759
 30
0.0
 10
8.6769404602
 20
7.9055854043
 30
0.0
 10
8.6936398783
 20
7.9214286881
 30
0.0
 10
8.7057162357
 20
7.9312614785
 30
0.0
  0
SPLINE
  5
462
100
AcDbEntity
  8
ALL_FEATURES
100
AcDbSpline
 62
7
  6
CONTINUOUS
 70
0
 71
3
 72
10
 73
6
 74
0
 42
0.0000001
 43
0.0000001
 44
0.0000000001
 40
0.0
 40
0.0
 40
0.0
 40
0.0
 40
0.2444652686
 40
0.4913051392
 40
1.0
 40
1.0
 40
1.0
 40
1.0
 10
9.9545084765
 20
8.0416581242
 30
0.0
 10
9.9545075838
 20
8.0353978844
 30
0.0
 10
9.9537340845
 20
8.0228014923
 30
0.0
 10
9.9491017754
 20
7.997572438
 30
0.0
 10
9.9422368145
 20
7.9792551128
 30
0.0
 10
9.9364354171
 20
7.9675916589
 30
0.0
  0
SPLINE
  5
463
100
AcDbEntity
  8
ALL_FEATURES
100
AcDbSpline
 62
7
  6
CONTINUOUS
 70
0
 71
3
 72
11
 73
7
 74
0
 42
0.0000001
 43
0.0000001
 44
0.0000000001
 40
0.0
 40
0.0
 40
0.0
 40
0.0
 40
0.2241077396
 40
0.4644605214
 40
0.7231391345
 40
1.0
 40
1.0
 40
1.0
 40
1.0
 10
9.9364354171
 20
7.9675916589
 30
0.0
 10
9.9308614988
 20
7.9563855419
 30
0.0
 10
9.9170010524
 20
7.9342650813
 30
0.0
 10
9.8900783049
 20
7.9039607525
 30
0.0
 10
9.8568419334
 20
7.8759604093
 30
0.0
 10
9.8317057892
 20
7.8596112431
 30
0.0
 10
9.8183153405
 20
7.8518803101
 30
0.0
  0
SPLINE
  5
464
100
AcDbEntity
  8
ALL_FEATURES
100
AcDbSpline
 62
7
  6
CONTINUOUS
 70
0
 71
3
 72
12
 73
8
 74
0
 42
0.0000001
 43
0.0000001
 44
0.0000000001
 40
0.0
 40
0.0
 40
0.0
 40
0.0
 40
0.1081718621
 40
0.2183458385
 40
0.4513055793
 40
0.7106805298
 40
1.0
 40
1.0
 40
1.0
 40
1.0
 10
5.0254347026
 20
14.8477347839
 30
0.0
 10
5.0239385101
 20
14.8485985913
 30
0.0
 10
5.0210610116
 20
14.8506038195
 30
0.0
 10
5.0158991213
 20
14.855675934
 30
0.0
 10
5.010786115
 20
14.8640111329
 30
0.0
 10
5.0072412082
 20
14.8760895486
 30
0.0
 10
5.0065334771
 20
14.8848831215
 30
0.0
 10
5.0065334771
 20
14.8895039272
 30
0.0
  0
SPLINE
  5
465
100
AcDbEntity
  8
ALL_FEATURES
100
AcDbSpline
 62
7
  6
CONTINUOUS
 70
0
 71
3
 72
12
 73
8
 74
0
 42
0.0000001
 43
0.0000001
 44
0.0000000001
 40
0.0
 40
0.0
 40
0.0
 40
0.0
 40
0.1081718621
 40
0.2183458385
 40
0.4513055793
 40
0.7106805298
 40
1.0
 40
1.0
 40
1.0
 40
1.0
 10
5.6883500699
 20
14.4650090766
 30
0.0
 10
5.6868538775
 20
14.465872884
 30
0.0
 10
5.6839763789
 20
14.4678781121
 30
0.0
 10
5.6788144886
 20
14.4729502266
 30
0.0
 10
5.6737014823
 20
14.4812854255
 30
0.0
 10
5.6701565755
 20
14.4933638412
 30
0.0
 10
5.6694488444
 20
14.5021574142
 30
0.0
 10
5.6694488444
 20
14.5067782198
 30
0.0
  0
SPLINE
  5
466
100
AcDbEntity
  8
ALL_FEATURES
100
AcDbSpline
 62
7
  6
CONTINUOUS
 70
0
 71
3
 72
12
 73
8
 74
0
 42
0.0000001
 43
0.0000001
 44
0.0000000001
 40
0.0
 40
0.0
 40
0.0
 40
0.0
 40
0.1081718621
 40
0.2183458385
 40
0.4513055793
 40
0.7106805298
 40
1.0
 40
1.0
 40
1.0
 40
1.0
 10
8.8703438331
 20
12.6279256812
 30
0.0
 10
8.8688476406
 20
12.6287894886
 30
0.0
 10
8.8659701421
 20
12.6307947168
 30
0.0
 10
8.8608082518
 20
12.6358668313
 30
0.0
 10
8.8556952454
 20
12.6442020302
 30
0.0
 10
8.8521503387
 20
12.6562804459
 30
0.0
 10
8.8514426075
 20
12.6650740188
 30
0.0
 10
8.8514426075
 20
12.6696948245
 30
0.0
  0
SPLINE
  5
467
100
AcDbEntity
  8
ALL_FEATURES
100
AcDbSpline
 62
7
  6
CONTINUOUS
 70
0
 71
3
 72
12
 73
8
 74
0
 42
0.0000001
 43
0.0000001
 44
0.0000000001
 40
0.0
 40
0.0
 40
0.0
 40
0.0
 40
0.1081718621
 40
0.2183458385
 40
0.4513055793
 40
0.7106805298
 40
1.0
 40
1.0
 40
1.0
 40
1.0
 10
8.2074284658
 20
13.0106513886
 30
0.0
 10
8.2059322733
 20
13.011515196
 30
0.0
 10
8.2030547748
 20
13.0135204241
 30
0.0
 10
8.1978928844
 20
13.0185925387
 30
0.0
 10
8.1927798781
 20
13.0269277375
 30
0.0
 10
8.1892349713
 20
13.0390061532
 30
0.0
 10
8.1885272402
 20
13.0477997262
 30
0.0
 10
8.1885272402
 20
13.0524205319
 30
0.0
  0
SPLINE
  5
468
100
AcDbEntity
  8
ALL_FEATURES
100
AcDbSpline
 62
7
  6
CONTINUOUS
 70
0
 71
3
 72
9
 73
5
 74
0
 42
0.0000001
 43
0.0000001
 44
0.0000000001
 40
0.0
 40
0.0
 40
0.0
 40
0.0
 40
0.4801645219
 40
1.0
 40
1.0
 40
1.0
 40
1.0
 10
4.1359992058
 20
10.3128483957
 30
0.0
 10
4.1329572948
 20
10.3146046041
 30
0.0
 10
4.1269444522
 20
10.3188298594
 30
0.0
 10
4.1215795676
 20
10.3238348796
 30
0.0
 10
4.1189629556
 20
10.3265941699
 30
0.0
  0
SPLINE
  5
469
100
AcDbEntity
  8
ALL_FEATURES
100
AcDbSpline
 62
7
  6
CONTINUOUS
 70
0
 71
3
 72
12
 73
8
 74
0
 42
0.0000001
 43
0.0000001
 44
0.0000000001
 40
0.0
 40
0.0
 40
0.0
 40
0.0
 40
0.2569096745
 40
0.5186147004
 40
0.7708032392
 40
0.8891471888
 40
1.0
 40
1.0
 40
1.0
 40
1.0
 10
4.1189629556
 20
10.3265941699
 30
0.0
 10
4.1148049435
 20
10.3309789098
 30
0.0
 10
4.1072510444
 20
10.3406546031
 30
0.0
 10
4.0985853621
 20
10.3566622766
 30
0.0
 10
4.0937908478
 20
10.3708404506
 30
0.0
 10
4.0918115687
 20
10.3820054752
 30
0.0
 10
4.0914512932
 20
10.3873998497
 30
0.0
 10
4.0914512932
 20
10.3900072155
 30
0.0
  0
SPLINE
  5
46A
100
AcDbEntity
  8
ALL_FEATURES
100
AcDbSpline
 62
7
  6
CONTINUOUS
 70
0
 71
3
 72
11
 73
7
 74
0
 42
0.0000001
 43
0.0000001
 44
0.0000000001
 40
0.0
 40
0.0
 40
0.0
 40
0.0
 40
0.2176863724
 40
0.4509710101
 40
0.7108540812
 40
1.0
 40
1.0
 40
1.0
 40
1.0
 10
4.599174721
 20
14.0408145833
 30
0.0
 10
4.5967027718
 20
14.0422435444
 30
0.0
 10
4.59101746
 20
14.0443047178
 30
0.0
 10
4.5815681976
 20
14.044547987
 30
0.0
 10
4.571509618
 20
14.0420988323
 30
0.0
 10
4.5649597863
 20
14.0389962606
 30
0.0
 10
4.5616753449
 20
14.0370999988
 30
0.0
  0
SPLINE
  5
46B
100
AcDbEntity
  8
ALL_FEATURES
100
AcDbSpline
 62
7
  6
CONTINUOUS
 70
0
 71
3
 72
11
 73
7
 74
0
 42
0.0000001
 43
0.0000001
 44
0.0000000001
 40
0.0
 40
0.0
 40
0.0
 40
0.0
 40
0.2176863724
 40
0.4509710101
 40
0.7108540812
 40
1.0
 40
1.0
 40
1.0
 40
1.0
 10
4.599174721
 20
13.0201865619
 30
0.0
 10
4.5967027718
 20
13.0216155229
 30
0.0
 10
4.59101746
 20
13.0236766964
 30
0.0
 10
4.5815681976
 20
13.0239199656
 30
0.0
 10
4.571509618
 20
13.0214708108
 30
0.0
 10
4.5649597863
 20
13.0183682392
 30
0.0
 10
4.5616753449
 20
13.0164719774
 30
0.0
  0
SPLINE
  5
46C
100
AcDbEntity
  8
ALL_FEATURES
100
AcDbSpline
 62
7
  6
CONTINUOUS
 70
0
 71
3
 72
19
 73
15
 74
0
 42
0.0000001
 43
0.0000001
 44
0.0000000001
 40
0.0
 40
0.0
 40
0.0
 40
0.0
 40
0.0428403429
 40
0.0874550236
 40
0.1352624031
 40
0.1872197113
 40
0.3044301719
 40
0.3695807905
 40
0.4382282311
 40
0.5825380586
 40
0.7295844813
 40
0.8712433611
 40
0.937725326
 40
1.0
 40
1.0
 40
1.0
 40
1.0
 10
4.6946337388
 20
12.6670483136
 30
0.0
 10
4.6927843249
 20
12.6681146953
 30
0.0
 10
4.6887059497
 20
12.6698015888
 30
0.0
 10
4.6819804891
 20
12.6707928496
 30
0.0
 10
4.6747536899
 20
12.6702652095
 30
0.0
 10
4.6642599038
 20
12.66746476
 30
0.0
 10
4.6538610049
 20
12.661787908
 30
0.0
 10
4.6440068534
 20
12.6540711483
 30
0.0
 10
4.634004133
 20
12.6444441235
 30
0.0
 10
4.6229072645
 20
12.6302183547
 30
0.0
 10
4.6125877284
 20
12.611165541
 30
0.0
 10
4.606886037
 20
12.5942891492
 30
0.0
 10
4.6045304638
 20
12.581001354
 30
0.0
 10
4.6041015751
 20
12.5745810237
 30
0.0
 10
4.6041015751
 20
12.5714777367
 30
0.0
  0
SPLINE
  5
46D
100
AcDbEntity
  8
ALL_FEATURES
100
AcDbSpline
 62
7
  6
CONTINUOUS
 70
0
 71
3
 72
19
 73
15
 74
0
 42
0.0000001
 43
0.0000001
 44
0.0000000001
 40
0.0
 40
0.0
 40
0.0
 40
0.0
 40
0.0428403429
 40
0.0874550236
 40
0.1352624031
 40
0.1872197113
 40
0.3044301719
 40
0.3695807905
 40
0.4382282311
 40
0.5825380586
 40
0.7295844813
 40
0.8712433611
 40
0.937725326
 40
1.0
 40
1.0
 40
1.0
 40
1.0
 10
4.6946337388
 20
13.5856135329
 30
0.0
 10
4.6927843249
 20
13.5866799145
 30
0.0
 10
4.6887059497
 20
13.5883668081
 30
0.0
 10
4.6819804891
 20
13.5893580688
 30
0.0
 10
4.6747536899
 20
13.5888304288
 30
0.0
 10
4.6642599038
 20
13.5860299792
 30
0.0
 10
4.6538610049
 20
13.5803531273
 30
0.0
 10
4.6440068534
 20
13.5726363676
 30
0.0
 10
4.634004133
 20
13.5630093428
 30
0.0
 10
4.6229072645
 20
13.5487835739
 30
0.0
 10
4.6125877284
 20
13.5297307603
 30
0.0
 10
4.606886037
 20
13.5128543685
 30
0.0
 10
4.6045304638
 20
13.4995665732
 30
0.0
 10
4.6041015751
 20
13.493146243
 30
0.0
 10
4.6041015751
 20
13.490042956
 30
0.0
  0
SPLINE
  5
46E
100
AcDbEntity
  8
ALL_FEATURES
100
AcDbSpline
 62
7
  6
CONTINUOUS
 70
0
 71
3
 72
19
 73
15
 74
0
 42
0.0000001
 43
0.0000001
 44
0.0000000001
 40
0.0
 40
0.0
 40
0.0
 40
0.0
 40
0.0428403429
 40
0.0874550236
 40
0.1352624031
 40
0.1872197113
 40
0.3044301719
 40
0.3695807905
 40
0.4382282311
 40
0.5825380586
 40
0.7295844813
 40
0.8712433611
 40
0.937725326
 40
1.0
 40
1.0
 40
1.0
 40
1.0
 10
4.6946337388
 20
14.5041787521
 30
0.0
 10
4.6927843249
 20
14.5052451338
 30
0.0
 10
4.6887059497
 20
14.5069320274
 30
0.0
 10
4.6819804891
 20
14.5079232881
 30
0.0
 10
4.6747536899
 20
14.507395648
 30
0.0
 10
4.6642599038
 20
14.5045951985
 30
0.0
 10
4.6538610049
 20
14.4989183466
 30
0.0
 10
4.6440068534
 20
14.4912015869
 30
0.0
 10
4.634004133
 20
14.4815745621
 30
0.0
 10
4.6229072645
 20
14.4673487932
 30
0.0
 10
4.6125877284
 20
14.4482959796
 30
0.0
 10
4.606886037
 20
14.4314195878
 30
0.0
 10
4.6045304638
 20
14.4181317925
 30
0.0
 10
4.6041015751
 20
14.4117114623
 30
0.0
 10
4.6041015751
 20
14.4086081753
 30
0.0
  0
SPLINE
  5
46F
100
AcDbEntity
  8
ALL_FEATURES
100
AcDbSpline
 62
7
  6
CONTINUOUS
 70
0
 71
3
 72
9
 73
5
 74
0
 42
0.0000001
 43
0.0000001
 44
0.0000000001
 40
0.0
 40
0.0
 40
0.0
 40
0.0
 40
0.5072000136
 40
1.0
 40
1.0
 40
1.0
 40
1.0
 10
7.3136168634
 20
12.1067908618
 30
0.0
 10
7.3111355474
 20
12.1065692023
 30
0.0
 10
7.3062706032
 20
12.1056392421
 30
0.0
 10
7.3017235494
 20
12.1036599158
 30
0.0
 10
7.2996293971
 20
12.1024461632
 30
0.0
  0
SPLINE
  5
470
100
AcDbEntity
  8
ALL_AXIS
100
AcDbSpline
 62
7
  6
CONTINUOUS
 70
0
 71
3
 72
19
 73
15
 74
0
 42
0.0000001
 43
0.0000001
 44
0.0000000001
 40
0.0
 40
0.0
 40
0.0
 40
0.0
 40
0.0608316922
 40
0.1254660374
 40
0.2629901048
 40
0.4065258404
 40
0.5490510987
 40
0.6836087245
 40
0.746155071
 40
0.8047944626
 40
0.8592832026
 40
0.9096518346
 40
0.9562860066
 40
1.0
 40
1.0
 40
1.0
 40
1.0
 10
6.3868816818
 20
12.9279382057
 30
0.0
 10
6.3868816818
 20
12.9333590162
 30
0.0
 10
6.3861903317
 20
12.9445462544
 30
0.0
 10
6.3823426263
 20
12.9676953403
 30
0.0
 10
6.3729702725
 20
12.997223874
 30
0.0
 10
6.3558650058
 20
13.0310378785
 30
0.0
 10
6.3338862708
 20
13.061585402
 30
0.0
 10
6.3122717905
 20
13.0830338439
 30
0.0
 10
6.2938399553
 20
13.0965016266
 30
0.0
 10
6.2802147578
 20
13.1042870511
 30
0.0
 10
6.2667028232
 20
13.1098563719
 30
0.0
 10
6.2535369824
 20
13.1131035458
 30
0.0
 10
6.2409542181
 20
13.113926711
 30
0.0
 10
6.2329054383
 20
13.1128056778
 30
0.0
 10
6.2291369375
 20
13.1118194045
 30
0.0
  0
SPLINE
  5
471
100
AcDbEntity
  8
ALL_FEATURES
100
AcDbSpline
 62
7
  6
CONTINUOUS
 70
0
 71
3
 72
19
 73
15
 74
0
 42
0.0000001
 43
0.0000001
 44
0.0000000001
 40
0.0
 40
0.0
 40
0.0
 40
0.0
 40
0.0622739838
 40
0.1287553948
 40
0.270413628
 40
0.4174600042
 40
0.5617702154
 40
0.6304179403
 40
0.6955688643
 40
0.8127798731
 40
0.8647373812
 40
0.9125448891
 40
0.9571596382
 40
1.0
 40
1.0
 40
1.0
 40
1.0
 10
4.430861135
 20
13.9615748303
 30
0.0
 10
4.4281736079
 20
13.960023195
 30
0.0
 10
4.4228278785
 20
13.9564415992
 30
0.0
 10
4.4124980899
 20
13.9477576533
 30
0.0
 10
4.400733564
 20
13.9343814703
 30
0.0
 10
4.38939318
 20
13.9159177963
 30
0.0
 10
4.3826218376
 20
13.8991944665
 30
0.0
 10
4.3792860581
 20
13.8857181205
 30
0.0
 10
4.3775303405
 20
13.8733255915
 30
0.0
 10
4.3778136377
 20
13.8614812832
 30
0.0
 10
4.3806354385
 20
13.8509930569
 30
0.0
 10
4.3837920184
 20
13.8444706029
 30
0.0
 10
4.3880133321
 20
13.8391418101
 30
0.0
 10
4.3915134983
 20
13.8364533082
 30
0.0
 10
4.3933617589
 20
13.8353848832
 30
0.0
  0
SPLINE
  5
472
100
AcDbEntity
  8
ALL_FEATURES
100
AcDbSpline
 62
7
  6
CONTINUOUS
 70
0
 71
3
 72
19
 73
15
 74
0
 42
0.0000001
 43
0.0000001
 44
0.0000000001
 40
0.0
 40
0.0
 40
0.0
 40
0.0
 40
0.0622739838
 40
0.1287553948
 40
0.270413628
 40
0.4174600042
 40
0.5617702154
 40
0.6304179403
 40
0.6955688643
 40
0.8127798731
 40
0.8647373812
 40
0.9125448891
 40
0.9571596382
 40
1.0
 40
1.0
 40
1.0
 40
1.0
 10
4.430861135
 20
12.9409468089
 30
0.0
 10
4.4281736079
 20
12.9393951736
 30
0.0
 10
4.4228278785
 20
12.9358135778
 30
0.0
 10
4.4124980899
 20
12.9271296319
 30
0.0
 10
4.400733564
 20
12.9137534489
 30
0.0
 10
4.38939318
 20
12.8952897749
 30
0.0
 10
4.3826218376
 20
12.8785664451
 30
0.0
 10
4.3792860581
 20
12.8650900991
 30
0.0
 10
4.3775303405
 20
12.8526975701
 30
0.0
 10
4.3778136377
 20
12.8408532618
 30
0.0
 10
4.3806354385
 20
12.8303650355
 30
0.0
 10
4.3837920184
 20
12.8238425815
 30
0.0
 10
4.3880133321
 20
12.8185137887
 30
0.0
 10
4.3915134983
 20
12.8158252868
 30
0.0
 10
4.3933617589
 20
12.8147568618
 30
0.0
  0
SPLINE
  5
473
100
AcDbEntity
  8
ALL_FEATURES
100
AcDbSpline
 62
7
  6
CONTINUOUS
 70
0
 71
3
 72
11
 73
7
 74
0
 42
0.0000001
 43
0.0000001
 44
0.0000000001
 40
0.0
 40
0.0
 40
0.0
 40
0.0
 40
0.2891473975
 40
0.5490310215
 40
0.7823150502
 40
1.0
 40
1.0
 40
1.0
 40
1.0
 10
4.6041015751
 20
12.5714777367
 30
0.0
 10
4.6041015751
 20
12.5676850292
 30
0.0
 10
4.6046895939
 20
12.5604611131
 30
0.0
 10
4.6075979672
 20
12.5505251419
 30
0.0
 10
4.6125334909
 20
12.5424631927
 30
0.0
 10
4.6171613888
 20
12.5385700726
 30
0.0
 10
4.6196349871
 20
12.537143783
 30
0.0
  0
SPLINE
  5
474
100
AcDbEntity
  8
ALL_FEATURES
100
AcDbSpline
 62
7
  6
CONTINUOUS
 70
0
 71
3
 72
11
 73
7
 74
0
 42
0.0000001
 43
0.0000001
 44
0.0000000001
 40
0.0
 40
0.0
 40
0.0
 40
0.0
 40
0.2891473975
 40
0.5490310215
 40
0.7823150502
 40
1.0
 40
1.0
 40
1.0
 40
1.0
 10
4.6041015751
 20
13.490042956
 30
0.0
 10
4.6041015751
 20
13.4862502485
 30
0.0
 10
4.6046895939
 20
13.4790263324
 30
0.0
 10
4.6075979672
 20
13.4690903611
 30
0.0
 10
4.6125334909
 20
13.461028412
 30
0.0
 10
4.6171613888
 20
13.4571352919
 30
0.0
 10
4.6196349871
 20
13.4557090023
 30
0.0
  0
SPLINE
  5
475
100
AcDbEntity
  8
ALL_FEATURES
100
AcDbSpline
 62
7
  6
CONTINUOUS
 70
0
 71
3
 72
11
 73
7
 74
0
 42
0.0000001
 43
0.0000001
 44
0.0000000001
 40
0.0
 40
0.0
 40
0.0
 40
0.0
 40
0.2891473975
 40
0.5490310215
 40
0.7823150502
 40
1.0
 40
1.0
 40
1.0
 40
1.0
 10
4.6041015751
 20
14.4086081753
 30
0.0
 10
4.6041015751
 20
14.4048154677
 30
0.0
 10
4.6046895939
 20
14.3975915516
 30
0.0
 10
4.6075979672
 20
14.3876555804
 30
0.0
 10
4.6125334909
 20
14.3795936313
 30
0.0
 10
4.6171613888
 20
14.3757005112
 30
0.0
 10
4.6196349871
 20
14.3742742215
 30
0.0
  0
SPLINE
  5
476
100
AcDbEntity
  8
ALL_FEATURES
100
AcDbSpline
 62
7
  6
CONTINUOUS
 70
0
 71
3
 72
14
 73
10
 74
0
 42
0.0000001
 43
0.0000001
 44
0.0000000001
 40
0.0
 40
0.0
 40
0.0
 40
0.0
 40
0.277093844
 40
0.4156007238
 40
0.5508008318
 40
0.6798211792
 40
0.7996961512
 40
0.9073395547
 40
1.0
 40
1.0
 40
1.0
 40
1.0
 10
5.9663507858
 20
11.3720446835
 30
0.0
 10
5.97597923
 20
11.3732789568
 30
0.0
 10
5.990218414
 20
11.3771249552
 30
0.0
 10
6.0078040102
 20
11.3851004309
 30
0.0
 10
6.0200544626
 20
11.3921470574
 30
0.0
 10
6.0310839499
 20
11.3998814098
 30
0.0
 10
6.0407050055
 20
11.4078681259
 30
0.0
 10
6.0487528691
 20
11.4156960559
 30
0.0
 10
6.0534049666
 20
11.4209605812
 30
0.0
 10
6.0554462403
 20
11.42348455
 30
0.0
  0
SPLINE
  5
477
100
AcDbEntity
  8
ALL_FEATURES
100
AcDbSpline
 62
7
  6
CONTINUOUS
 70
0
 71
3
 72
12
 73
8
 74
0
 42
0.0000001
 43
0.0000001
 44
0.0000000001
 40
0.0
 40
0.0
 40
0.0
 40
0.0
 40
0.2893179885
 40
0.548692429
 40
0.7816527908
 40
0.8918273967
 40
1.0
 40
1.0
 40
1.0
 40
1.0
 10
8.4740222545
 20
12.8875917296
 30
0.0
 10
8.4700206937
 20
12.8852814411
 30
0.0
 10
8.4620517104
 20
12.8814977505
 30
0.0
 10
8.449819554
 20
12.8785286474
 30
0.0
 10
8.4400449417
 20
12.8787889875
 30
0.0
 10
8.4330716428
 20
12.8807231055
 30
0.0
 10
8.4298963978
 20
12.882212374
 30
0.0
 10
8.4284002549
 20
12.8830761528
 30
0.0
  0
SPLINE
  5
478
100
AcDbEntity
  8
ALL_FEATURES
100
AcDbSpline
 62
7
  6
CONTINUOUS
 70
0
 71
3
 72
12
 73
8
 74
0
 42
0.0000001
 43
0.0000001
 44
0.0000000001
 40
0.0
 40
0.0
 40
0.0
 40
0.0
 40
0.2893179885
 40
0.548692429
 40
0.7816527908
 40
0.8918273967
 40
1.0
 40
1.0
 40
1.0
 40
1.0
 10
9.1369376218
 20
12.5048660222
 30
0.0
 10
9.132936061
 20
12.5025557338
 30
0.0
 10
9.1249670777
 20
12.4987720432
 30
0.0
 10
9.1127349213
 20
12.4958029401
 30
0.0
 10
9.102960309
 20
12.4960632802
 30
0.0
 10
9.0959870102
 20
12.4979973981
 30
0.0
 10
9.0928117651
 20
12.4994866666
 30
0.0
 10
9.0913156222
 20
12.5003504454
 30
0.0
  0
SPLINE
  5
479
100
AcDbEntity
  8
ALL_FEATURES
100
AcDbSpline
 62
7
  6
CONTINUOUS
 70
0
 71
3
 72
12
 73
8
 74
0
 42
0.0000001
 43
0.0000001
 44
0.0000000001
 40
0.0
 40
0.0
 40
0.0
 40
0.0
 40
0.2893179885
 40
0.548692429
 40
0.7816527908
 40
0.8918273967
 40
1.0
 40
1.0
 40
1.0
 40
1.0
 10
5.2920284913
 20
14.7246751249
 30
0.0
 10
5.2880269305
 20
14.7223648365
 30
0.0
 10
5.2800579472
 20
14.7185811459
 30
0.0
 10
5.2678257908
 20
14.7156120428
 30
0.0
 10
5.2580511785
 20
14.7158723829
 30
0.0
 10
5.2510778797
 20
14.7178065008
 30
0.0
 10
5.2479026347
 20
14.7192957693
 30
0.0
 10
5.2464064917
 20
14.7201595481
 30
0.0
  0
SPLINE
  5
47A
100
AcDbEntity
  8
ALL_FEATURES
100
AcDbSpline
 62
7
  6
CONTINUOUS
 70
0
 71
3
 72
12
 73
8
 74
0
 42
0.0000001
 43
0.0000001
 44
0.0000000001
 40
0.0
 40
0.0
 40
0.0
 40
0.0
 40
0.2893179885
 40
0.548692429
 40
0.7816527908
 40
0.8918273967
 40
1.0
 40
1.0
 40
1.0
 40
1.0
 10
5.9549438586
 20
14.3419494175
 30
0.0
 10
5.9509422979
 20
14.3396391291
 30
0.0
 10
5.9429733145
 20
14.3358554385
 30
0.0
 10
5.9307411581
 20
14.3328863354
 30
0.0
 10
5.9209665459
 20
14.3331466755
 30
0.0
 10
5.913993247
 20
14.3350807934
 30
0.0
 10
5.910818002
 20
14.3365700619
 30
0.0
 10
5.909321859
 20
14.3374338408
 30
0.0
  0
SPLINE
  5
47B
100
AcDbEntity
  8
ALL_FEATURES
100
AcDbSpline
 62
7
  6
CONTINUOUS
 70
0
 71
3
 72
17
 73
13
 74
0
 42
0.0000001
 43
0.0000001
 44
0.0000000001
 40
0.0
 40
0.0
 40
0.0
 40
0.0
 40
0.1285025079
 40
0.2702762812
 40
0.4173597831
 40
0.5616785122
 40
0.6953675717
 40
0.812692083
 40
0.8646575986
 40
0.9125113716
 40
0.9571635429
 40
1.0
 40
1.0
 40
1.0
 40
1.0
 10
9.1535962786
 20
7.8236875297
 30
0.0
 10
9.1514167277
 20
7.8224291729
 30
0.0
 10
9.1464727262
 20
7.8203959614
 30
0.0
 10
9.1384224216
 20
7.818773683
 30
0.0
 10
9.129900875
 20
7.8185377098
 30
0.0
 10
9.1216144262
 20
7.8197028366
 30
0.0
 10
9.1142262659
 20
7.8221643928
 30
0.0
 10
9.1090839793
 20
7.8252855198
 30
0.0
 10
9.1060665791
 20
7.8283108772
 30
0.0
 10
9.1044641421
 20
7.8306661249
 30
0.0
 10
9.1034670573
 20
7.8331467768
 30
0.0
 10
9.1032383818
 20
7.8348673211
 30
0.0
 10
9.1032366549
 20
7.8357062724
 30
0.0
  0
SPLINE
  5
47C
100
AcDbEntity
  8
ALL_FEATURES
100
AcDbSpline
 62
7
  6
CONTINUOUS
 70
0
 71
3
 72
15
 73
11
 74
0
 42
0.0000001
 43
0.0000001
 44
0.0000000001
 40
0.0
 40
0.0
 40
0.0
 40
0.0
 40
0.1140720892
 40
0.237351165
 40
0.3669781115
 40
0.4999983969
 40
0.6330189046
 40
0.7626465023
 40
0.885926606
 40
1.0
 40
1.0
 40
1.0
 40
1.0
 10
5.7339720695
 20
8.6605476007
 30
0.0
 10
5.729558151
 20
8.6579992389
 30
0.0
 10
5.7208360162
 20
8.6518782637
 30
0.0
 10
5.7088255599
 20
8.6406536256
 30
0.0
 10
5.697761149
 20
8.6273732859
 30
0.0
 10
5.6880619648
 20
8.6125487072
 30
0.0
 10
5.6800731597
 20
8.5967366129
 30
0.0
 10
5.6741042917
 20
8.5805142782
 30
0.0
 10
5.6703887085
 20
8.5645004606
 30
0.0
 10
5.6694488444
 20
8.5538862809
 30
0.0
 10
5.6694488444
 20
8.5487894761
 30
0.0
  0
SPLINE
  5
47D
100
AcDbEntity
  8
ALL_FEATURES
100
AcDbSpline
 62
7
  6
CONTINUOUS
 70
0
 71
3
 72
15
 73
11
 74
0
 42
0.0000001
 43
0.0000001
 44
0.0000000001
 40
0.0
 40
0.0
 40
0.0
 40
0.0
 40
0.1140720892
 40
0.237351165
 40
0.3669781115
 40
0.4999983969
 40
0.6330189046
 40
0.7626465023
 40
0.885926606
 40
1.0
 40
1.0
 40
1.0
 40
1.0
 10
5.0710567022
 20
9.0432733081
 30
0.0
 10
5.0666427837
 20
9.0407249463
 30
0.0
 10
5.0579206489
 20
9.034603971
 30
0.0
 10
5.0459101926
 20
9.023379333
 30
0.0
 10
5.0348457817
 20
9.0100989932
 30
0.0
 10
5.0251465974
 20
8.9952744145
 30
0.0
 10
5.0171577923
 20
8.9794623202
 30
0.0
 10
5.0111889244
 20
8.9632399855
 30
0.0
 10
5.0074733412
 20
8.947226168
 30
0.0
 10
5.0065334771
 20
8.9366119883
 30
0.0
 10
5.0065334771
 20
8.9315151835
 30
0.0
  0
SPLINE
  5
47E
100
AcDbEntity
  8
ALL_FEATURES
100
AcDbSpline
 62
7
  6
CONTINUOUS
 70
0
 71
3
 72
17
 73
13
 74
0
 42
0.0000001
 43
0.0000001
 44
0.0000000001
 40
0.0
 40
0.0
 40
0.0
 40
0.0
 40
0.1285025079
 40
0.2702762812
 40
0.4173597831
 40
0.5616785122
 40
0.6953675717
 40
0.812692083
 40
0.8646575986
 40
0.9125113716
 40
0.9571635429
 40
1.0
 40
1.0
 40
1.0
 40
1.0
 10
7.0662083699
 20
9.028814237
 30
0.0
 10
7.0640288191
 20
9.0275558802
 30
0.0
 10
7.0590848176
 20
9.0255226687
 30
0.0
 10
7.0510345129
 20
9.0239003904
 30
0.0
 10
7.0425129663
 20
9.0236644172
 30
0.0
 10
7.0342265175
 20
9.0248295439
 30
0.0
 10
7.0268383573
 20
9.0272911001
 30
0.0
 10
7.0216960706
 20
9.0304122271
 30
0.0
 10
7.0186786704
 20
9.0334375846
 30
0.0
 10
7.0170762335
 20
9.0357928322
 30
0.0
 10
7.0160791487
 20
9.0382734842
 30
0.0
 10
7.0158504732
 20
9.0399940284
 30
0.0
 10
7.0158487463
 20
9.0408329797
 30
0.0
  0
SPLINE
  5
47F
100
AcDbEntity
  8
ALL_FEATURES
100
AcDbSpline
 62
7
  6
CONTINUOUS
 70
0
 71
3
 72
15
 73
11
 74
0
 42
0.0000001
 43
0.0000001
 44
0.0000000001
 40
0.0
 40
0.0
 40
0.0
 40
0.0
 40
0.1140720892
 40
0.237351165
 40
0.3669781115
 40
0.4999983969
 40
0.6330189046
 40
0.7626465023
 40
0.885926606
 40
1.0
 40
1.0
 40
1.0
 40
1.0
 10
8.9159658327
 20
6.8234642054
 30
0.0
 10
8.9115519142
 20
6.8209158436
 30
0.0
 10
8.9028297794
 20
6.8147948683
 30
0.0
 10
8.8908193231
 20
6.8035702303
 30
0.0
 10
8.8797549122
 20
6.7902898905
 30
0.0
 10
8.8700557279
 20
6.7754653118
 30
0.0
 10
8.8620669228
 20
6.7596532175
 30
0.0
 10
8.8560980549
 20
6.7434308828
 30
0.0
 10
8.8523824717
 20
6.7274170653
 30
0.0
 10
8.8514426075
 20
6.7168028856
 30
0.0
 10
8.8514426075
 20
6.7117060808
 30
0.0
  0
SPLINE
  5
480
100
AcDbEntity
  8
ALL_FEATURES
100
AcDbSpline
 62
7
  6
CONTINUOUS
 70
0
 71
3
 72
19
 73
15
 74
0
 42
0.0000001
 43
0.0000001
 44
0.0000000001
 40
0.0
 40
0.0
 40
0.0
 40
0.0
 40
0.0622744622
 40
0.1287563549
 40
0.2704154496
 40
0.4174624084
 40
0.5617728579
 40
0.6304205604
 40
0.6955713678
 40
0.81278187
 40
0.8647389842
 40
0.9125460157
 40
0.9571602176
 40
1.0
 40
1.0
 40
1.0
 40
1.0
 10
7.0567939854
 20
10.2917934581
 30
0.0
 10
7.059481516
 20
10.2902418467
 30
0.0
 10
7.0652561436
 20
10.2874031754
 30
0.0
 10
7.0779415366
 20
10.2827993918
 30
0.0
 10
7.0954078242
 20
10.2792991581
 30
0.0
 10
7.1170678762
 20
10.2787098798
 30
0.0
 10
7.1349362387
 20
10.2812072529
 30
0.0
 10
7.1482748846
 20
10.2850563958
 30
0.0
 10
7.1598848841
 20
10.2897319811
 30
0.0
 10
7.1700006345
 20
10.2958992533
 30
0.0
 10
7.1776727807
 20
10.3035868815
 30
0.0
 10
7.1817431039
 20
10.3095816072
 30
0.0
 10
7.1842473404
 20
10.3159015965
 30
0.0
 10
7.1848256002
 20
10.3202769726
 30
0.0
 10
7.1848267731
 20
10.3224117743
 30
0.0
  0
SPLINE
  5
481
100
AcDbEntity
  8
ALL_FEATURES
100
AcDbSpline
 62
7
  6
CONTINUOUS
 70
0
 71
3
 72
15
 73
11
 74
0
 42
0.0000001
 43
0.0000001
 44
0.0000000001
 40
0.0
 40
0.0
 40
0.0
 40
0.0
 40
0.1140720892
 40
0.237351165
 40
0.3669781115
 40
0.4999983969
 40
0.6330189046
 40
0.7626465023
 40
0.885926606
 40
1.0
 40
1.0
 40
1.0
 40
1.0
 10
8.2530504654
 20
7.2061899128
 30
0.0
 10
8.2486365468
 20
7.2036415509
 30
0.0
 10
8.2399144121
 20
7.1975205757
 30
0.0
 10
8.2279039558
 20
7.1862959376
 30
0.0
 10
8.2168395449
 20
7.1730155979
 30
0.0
 10
8.2071403606
 20
7.1581910192
 30
0.0
 10
8.1991515555
 20
7.1423789249
 30
0.0
 10
8.1931826876
 20
7.1261565902
 30
0.0
 10
8.1894671044
 20
7.1101427726
 30
0.0
 10
8.1885272402
 20
7.0995285929
 30
0.0
 10
8.1885272402
 20
7.0944317882
 30
0.0
  0
SPLINE
  5
482
100
AcDbEntity
  8
ALL_FEATURES
100
AcDbSpline
 62
7
  6
CONTINUOUS
 70
0
 71
3
 72
11
 73
7
 74
0
 42
0.0000001
 43
0.0000001
 44
0.0000000001
 40
0.0
 40
0.0
 40
0.0
 40
0.0
 40
0.2891479085
 40
0.5490315816
 40
0.7823153935
 40
1.0
 40
1.0
 40
1.0
 40
1.0
 10
7.2441784158
 20
10.1346205637
 30
0.0
 10
7.2474628872
 20
10.1365168428
 30
0.0
 10
7.2534247745
 20
10.1406378706
 30
0.0
 10
7.2605751729
 20
10.1481242693
 30
0.0
 10
7.2650891549
 20
10.1564291887
 30
0.0
 10
7.2661467558
 20
10.1623833903
 30
0.0
 10
7.2661451865
 20
10.1652386249
 30
0.0
  0
SPLINE
  5
483
100
AcDbEntity
  8
ALL_FEATURES
100
AcDbSpline
 62
7
  6
CONTINUOUS
 70
0
 71
3
 72
9
 73
5
 74
0
 42
0.0000001
 43
0.0000001
 44
0.0000000001
 40
0.0
 40
0.0
 40
0.0
 40
0.0
 40
0.2585531198
 40
1.0
 40
1.0
 40
1.0
 40
1.0
 10
9.8071858124
 20
8.2047095679
 30
0.0
 10
9.8111058951
 20
8.2021629357
 30
0.0
 10
9.826073892
 20
8.1920216182
 30
0.0
 10
9.8402483999
 20
8.1806854356
 30
0.0
 10
9.8500888017
 20
8.171582076
 30
0.0
  0
SPLINE
  5
484
100
AcDbEntity
  8
ALL_FEATURES
100
AcDbSpline
 62
7
  6
CONTINUOUS
 70
0
 71
3
 72
9
 73
5
 74
0
 42
0.0000001
 43
0.0000001
 44
0.0000000001
 40
0.0
 40
0.0
 40
0.0
 40
0.0
 40
0.2545626176
 40
1.0
 40
1.0
 40
1.0
 40
1.0
 10
9.8500888017
 20
8.171582076
 30
0.0
 10
9.8516398223
 20
8.1701472263
 30
0.0
 10
9.8576680075
 20
8.1644413739
 30
0.0
 10
9.8634312818
 20
8.1584539749
 30
0.0
 10
9.8675451783
 20
8.1538324498
 30
0.0
  0
SPLINE
  5
485
100
AcDbEntity
  8
ALL_FEATURES
100
AcDbSpline
 62
7
  6
CONTINUOUS
 70
0
 71
3
 72
11
 73
7
 74
0
 42
0.0000001
 43
0.0000001
 44
0.0000000001
 40
0.0
 40
0.0
 40
0.0
 40
0.0
 40
0.26983417
 40
0.5233278864
 40
0.7648424125
 40
1.0
 40
1.0
 40
1.0
 40
1.0
 10
9.8675451783
 20
8.1538324498
 30
0.0
 10
9.8749735654
 20
8.145487447
 30
0.0
 10
9.8882706361
 20
8.1282524734
 30
0.0
 10
9.903302864
 20
8.1001972773
 30
0.0
 10
9.9124472676
 20
8.0711892386
 30
0.0
 10
9.9145098694
 20
8.0513970251
 30
0.0
 10
9.914508423
 20
8.0416604964
 30
0.0
  0
SPLINE
  5
486
100
AcDbEntity
  8
ALL_FEATURES
100
AcDbSpline
 62
7
  6
CONTINUOUS
 70
0
 71
3
 72
9
 73
5
 74
0
 42
0.0000001
 43
0.0000001
 44
0.0000000001
 40
0.0
 40
0.0
 40
0.0
 40
0.0
 40
0.2452568856
 40
1.0
 40
1.0
 40
1.0
 40
1.0
 10
9.3812473876
 20
7.5995405162
 30
0.0
 10
9.3784778963
 20
7.5979415591
 30
0.0
 10
9.3671137795
 20
7.59154707
 30
0.0
 10
9.355475047
 20
7.5856432921
 30
0.0
 10
9.3465732134
 20
7.5814473461
 30
0.0
  0
SPLINE
  5
487
100
AcDbEntity
  8
ALL_FEATURES
100
AcDbSpline
 62
7
  6
CONTINUOUS
 70
0
 71
3
 72
15
 73
11
 74
0
 42
0.0000001
 43
0.0000001
 44
0.0000000001
 40
0.0
 40
0.0
 40
0.0
 40
0.0
 40
0.1177561417
 40
0.2409428398
 40
0.3680730585
 40
0.4974152816
 40
0.6270999866
 40
0.7552407728
 40
0.8800618714
 40
1.0
 40
1.0
 40
1.0
 40
1.0
 10
9.3211208601
 20
7.5702658466
 30
0.0
 10
9.3019659423
 20
7.5624335444
 30
0.0
 10
9.2618534571
 20
7.5485922699
 30
0.0
 10
9.198851607
 20
7.5335480752
 30
0.0
 10
9.1327331984
 20
7.5239699951
 30
0.0
 10
9.0649024491
 20
7.5200382973
 30
0.0
 10
8.9968055559
 20
7.5218737264
 30
0.0
 10
8.9298960856
 20
7.5294001051
 30
0.0
 10
8.8655947606
 20
7.5424806886
 30
0.0
 10
8.8243644131
 20
7.5550335504
 30
0.0
 10
8.8045574594
 20
7.5622417659
 30
0.0
  0
SPLINE
  5
488
100
AcDbEntity
  8
ALL_FEATURES
100
AcDbSpline
 62
7
  6
CONTINUOUS
 70
0
 71
3
 72
17
 73
13
 74
0
 42
0.0000001
 43
0.0000001
 44
0.0000000001
 40
0.0
 40
0.0
 40
0.0
 40
0.0
 40
0.0554979404
 40
0.1134966597
 40
0.2357105455
 40
0.3642694169
 40
0.4964411649
 40
0.6291042383
 40
0.7591001955
 40
0.8835902707
 40
0.9429824478
 40
1.0
 40
1.0
 40
1.0
 40
1.0
 10
9.1889876851
 20
8.2152145816
 30
0.0
 10
9.1986598811
 20
8.2207987933
 30
0.0
 10
9.2189277791
 20
8.2313904834
 30
0.0
 10
9.2625097972
 20
8.2502007532
 30
0.0
 10
9.3220045548
 20
8.2687909998
 30
0.0
 10
9.3979506142
 20
8.2827926214
 30
0.0
 10
9.4770770723
 20
8.2884226772
 30
0.0
 10
9.5566355598
 20
8.2854581908
 30
0.0
 10
9.6338620798
 20
8.2740296779
 30
0.0
 10
9.6950150453
 20
8.2574988408
 30
0.0
 10
9.7403470145
 20
8.2402300054
 30
0.0
 10
9.7616214001
 20
8.2303596372
 30
0.0
 10
9.7718303261
 20
8.2251216056
 30
0.0
  0
SPLINE
  5
489
100
AcDbEntity
  8
ALL_FEATURES
100
AcDbSpline
 62
7
  6
CONTINUOUS
 70
0
 71
3
 72
11
 73
7
 74
0
 42
0.0000001
 43
0.0000001
 44
0.0000000001
 40
0.0
 40
0.0
 40
0.0
 40
0.0
 40
0.2724486033
 40
0.5297381183
 40
0.7718292818
 40
1.0
 40
1.0
 40
1.0
 40
1.0
 10
8.7064358861
 20
7.6100195105
 30
0.0
 10
8.6958436312
 20
7.6168307977
 30
0.0
 10
8.675855054
 20
7.631057305
 30
0.0
 10
8.6491089867
 20
7.6547817453
 30
0.0
 10
8.6267878673
 20
7.6800534271
 30
0.0
 10
8.6147270363
 20
7.6982478758
 30
0.0
 10
8.6096096293
 20
7.7074697491
 30
0.0
  0
SPLINE
  5
48A
100
AcDbEntity
  8
ALL_FEATURES
100
AcDbSpline
 62
7
  6
CONTINUOUS
 70
0
 71
3
 72
11
 73
7
 74
0
 42
0.0000001
 43
0.0000001
 44
0.0000000001
 40
0.0
 40
0.0
 40
0.0
 40
0.0
 40
0.2594845632
 40
0.5109771987
 40
0.7569196878
 40
1.0
 40
1.0
 40
1.0
 40
1.0
 10
8.6096096293
 20
7.7074697491
 30
0.0
 10
8.6060098783
 20
7.7139567153
 30
0.0
 10
8.5996233063
 20
7.7271397645
 30
0.0
 10
8.5926157054
 20
7.7476732623
 30
0.0
 10
8.5883874719
 20
7.7684777068
 30
0.0
 10
8.5874412162
 20
7.7824767883
 30
0.0
 10
8.5874422072
 20
7.7894266038
 30
0.0
  0
SPLINE
  5
48B
100
AcDbEntity
  8
ALL_FEATURES
100
AcDbSpline
 62
7
  6
CONTINUOUS
 70
0
 71
3
 72
11
 73
7
 74
0
 42
0.0000001
 43
0.0000001
 44
0.0000000001
 40
0.0
 40
0.0
 40
0.0
 40
0.0
 40
0.2724486033
 40
0.5297381183
 40
0.7718292818
 40
1.0
 40
1.0
 40
1.0
 40
1.0
 10
6.6190479775
 20
8.8151462179
 30
0.0
 10
6.6084557225
 20
8.821957505
 30
0.0
 10
6.5884671454
 20
8.8361840123
 30
0.0
 10
6.561721078
 20
8.8599084527
 30
0.0
 10
6.5393999587
 20
8.8851801344
 30
0.0
 10
6.5273391277
 20
8.9033745831
 30
0.0
 10
6.5222217206
 20
8.9125964564
 30
0.0
  0
SPLINE
  5
48C
100
AcDbEntity
  8
ALL_FEATURES
100
AcDbSpline
 62
7
  6
CONTINUOUS
 70
0
 71
3
 72
11
 73
7
 74
0
 42
0.0000001
 43
0.0000001
 44
0.0000000001
 40
0.0
 40
0.0
 40
0.0
 40
0.0
 40
0.2594845632
 40
0.5109771987
 40
0.7569196878
 40
1.0
 40
1.0
 40
1.0
 40
1.0
 10
6.5222217206
 20
8.9125964564
 30
0.0
 10
6.5186219697
 20
8.9190834227
 30
0.0
 10
6.5122353976
 20
8.9322664719
 30
0.0
 10
6.5052277968
 20
8.9527999696
 30
0.0
 10
6.5009995633
 20
8.9736044141
 30
0.0
 10
6.5000533075
 20
8.9876034957
 30
0.0
 10
6.5000542986
 20
8.9945533112
 30
0.0
  0
SPLINE
  5
48D
100
AcDbEntity
  8
ALL_FEATURES
100
AcDbSpline
 62
7
  6
CONTINUOUS
 70
0
 71
3
 72
17
 73
13
 74
0
 42
0.0000001
 43
0.0000001
 44
0.0000000001
 40
0.0
 40
0.0
 40
0.0
 40
0.0
 40
0.0554979404
 40
0.1134966597
 40
0.2357105455
 40
0.3642694169
 40
0.4964411649
 40
0.6291042383
 40
0.7591001955
 40
0.8835902707
 40
0.9429824478
 40
1.0
 40
1.0
 40
1.0
 40
1.0
 10
7.1015997764
 20
9.420341289
 30
0.0
 10
7.1112719725
 20
9.4259255007
 30
0.0
 10
7.1315398704
 20
9.4365171908
 30
0.0
 10
7.1751218886
 20
9.4553274606
 30
0.0
 10
7.2346166462
 20
9.4739177071
 30
0.0
 10
7.3105627056
 20
9.4879193288
 30
0.0
 10
7.3896891637
 20
9.4935493845
 30
0.0
 10
7.4692476512
 20
9.4905848982
 30
0.0
 10
7.5464741712
 20
9.4791563853
 30
0.0
 10
7.6076271366
 20
9.4626255482
 30
0.0
 10
7.6529591059
 20
9.4453567128
 30
0.0
 10
7.6742334915
 20
9.4354863446
 30
0.0
 10
7.6844424175
 20
9.4302483129
 30
0.0
  0
SPLINE
  5
48E
100
AcDbEntity
  8
ALL_FEATURES
100
AcDbSpline
 62
7
  6
CONTINUOUS
 70
0
 71
3
 72
9
 73
5
 74
0
 42
0.0000001
 43
0.0000001
 44
0.0000000001
 40
0.0
 40
0.0
 40
0.0
 40
0.0
 40
0.2452568856
 40
1.0
 40
1.0
 40
1.0
 40
1.0
 10
7.293859479
 20
8.8046672235
 30
0.0
 10
7.2910899877
 20
8.8030682665
 30
0.0
 10
7.2797258709
 20
8.7966737774
 30
0.0
 10
7.2680871384
 20
8.7907699995
 30
0.0
 10
7.2591853048
 20
8.7865740534
 30
0.0
  0
SPLINE
  5
48F
100
AcDbEntity
  8
ALL_FEATURES
100
AcDbSpline
 62
7
  6
CONTINUOUS
 70
0
 71
3
 72
15
 73
11
 74
0
 42
0.0000001
 43
0.0000001
 44
0.0000000001
 40
0.0
 40
0.0
 40
0.0
 40
0.0
 40
0.1177561417
 40
0.2409428398
 40
0.3680730585
 40
0.4974152816
 40
0.6270999866
 40
0.7552407728
 40
0.8800618714
 40
1.0
 40
1.0
 40
1.0
 40
1.0
 10
7.2337329515
 20
8.7753925539
 30
0.0
 10
7.2145780337
 20
8.7675602517
 30
0.0
 10
7.1744655484
 20
8.7537189772
 30
0.0
 10
7.1114636984
 20
8.7386747825
 30
0.0
 10
7.0453452898
 20
8.7290967025
 30
0.0
 10
6.9775145404
 20
8.7251650047
 30
0.0
 10
6.9094176473
 20
8.7270004338
 30
0.0
 10
6.842508177
 20
8.7345268124
 30
0.0
 10
6.778206852
 20
8.7476073959
 30
0.0
 10
6.7369765044
 20
8.7601602577
 30
0.0
 10
6.7171695508
 20
8.7673684732
 30
0.0
  0
SPLINE
  5
490
100
AcDbEntity
  8
ALL_FEATURES
100
AcDbSpline
 62
7
  6
CONTINUOUS
 70
0
 71
3
 72
9
 73
5
 74
0
 42
0.0000001
 43
0.0000001
 44
0.0000000001
 40
0.0
 40
0.0
 40
0.0
 40
0.0
 40
0.2585531198
 40
1.0
 40
1.0
 40
1.0
 40
1.0
 10
7.7197979037
 20
9.4098362752
 30
0.0
 10
7.7237179865
 20
9.4072896431
 30
0.0
 10
7.7386859834
 20
9.3971483255
 30
0.0
 10
7.7528604913
 20
9.3858121429
 30
0.0
 10
7.7627008931
 20
9.3767087833
 30
0.0
  0
SPLINE
  5
491
100
AcDbEntity
  8
ALL_FEATURES
100
AcDbSpline
 62
7
  6
CONTINUOUS
 70
0
 71
3
 72
9
 73
5
 74
0
 42
0.0000001
 43
0.0000001
 44
0.0000000001
 40
0.0
 40
0.0
 40
0.0
 40
0.0
 40
0.2545626176
 40
1.0
 40
1.0
 40
1.0
 40
1.0
 10
7.7627008931
 20
9.3767087833
 30
0.0
 10
7.7642519136
 20
9.3752739336
 30
0.0
 10
7.7702800989
 20
9.3695680812
 30
0.0
 10
7.7760433732
 20
9.3635806822
 30
0.0
 10
7.7801572696
 20
9.3589591572
 30
0.0
  0
SPLINE
  5
492
100
AcDbEntity
  8
ALL_FEATURES
100
AcDbSpline
 62
7
  6
CONTINUOUS
 70
0
 71
3
 72
11
 73
7
 74
0
 42
0.0000001
 43
0.0000001
 44
0.0000000001
 40
0.0
 40
0.0
 40
0.0
 40
0.0
 40
0.26983417
 40
0.5233278864
 40
0.7648424125
 40
1.0
 40
1.0
 40
1.0
 40
1.0
 10
7.7801572696
 20
9.3589591572
 30
0.0
 10
7.7875856568
 20
9.3506141543
 30
0.0
 10
7.8008827275
 20
9.3333791808
 30
0.0
 10
7.8159149553
 20
9.3053239846
 30
0.0
 10
7.8250593589
 20
9.2763159459
 30
0.0
 10
7.8271219608
 20
9.2565237325
 30
0.0
 10
7.8271205144
 20
9.2467872038
 30
0.0
  0
SPLINE
  5
493
100
AcDbEntity
  8
ALL_FEATURES
100
AcDbSpline
 62
7
  6
CONTINUOUS
 70
0
 71
3
 72
12
 73
8
 74
0
 42
0.0000001
 43
0.0000001
 44
0.0000000001
 40
0.0
 40
0.0
 40
0.0
 40
0.0
 40
0.1081718621
 40
0.2183458385
 40
0.4513055793
 40
0.7106805298
 40
1.0
 40
1.0
 40
1.0
 40
1.0
 10
5.2464064917
 20
14.7201595481
 30
0.0
 10
5.2449102993
 20
14.7210233555
 30
0.0
 10
5.2420328007
 20
14.7230285837
 30
0.0
 10
5.2368709104
 20
14.7281006982
 30
0.0
 10
5.2317579041
 20
14.7364358971
 30
0.0
 10
5.2282129973
 20
14.7485143128
 30
0.0
 10
5.2275052662
 20
14.7573078857
 30
0.0
 10
5.2275052662
 20
14.7619286914
 30
0.0
  0
SPLINE
  5
494
100
AcDbEntity
  8
ALL_FEATURES
100
AcDbSpline
 62
7
  6
CONTINUOUS
 70
0
 71
3
 72
12
 73
8
 74
0
 42
0.0000001
 43
0.0000001
 44
0.0000000001
 40
0.0
 40
0.0
 40
0.0
 40
0.0
 40
0.1081718621
 40
0.2183458385
 40
0.4513055793
 40
0.7106805298
 40
1.0
 40
1.0
 40
1.0
 40
1.0
 10
8.4284002549
 20
12.8830761528
 30
0.0
 10
8.4269040624
 20
12.8839399602
 30
0.0
 10
8.4240265639
 20
12.8859451884
 30
0.0
 10
8.4188646735
 20
12.8910173029
 30
0.0
 10
8.4137516672
 20
12.8993525017
 30
0.0
 10
8.4102067604
 20
12.9114309175
 30
0.0
 10
8.4094990293
 20
12.9202244904
 30
0.0
 10
8.4094990293
 20
12.9248452961
 30
0.0
  0
SPLINE
  5
495
100
AcDbEntity
  8
ALL_FEATURES
100
AcDbSpline
 62
7
  6
CONTINUOUS
 70
0
 71
3
 72
9
 73
5
 74
0
 42
0.0000001
 43
0.0000001
 44
0.0000000001
 40
0.0
 40
0.0
 40
0.0
 40
0.0
 40
0.5072000136
 40
1.0
 40
1.0
 40
1.0
 40
1.0
 10
7.8094547769
 20
11.9719497824
 30
0.0
 10
7.811936093
 20
11.972171442
 30
0.0
 10
7.8168010371
 20
11.9731014022
 30
0.0
 10
7.8213480909
 20
11.9750807285
 30
0.0
 10
7.8234422433
 20
11.976294481
 30
0.0
  0
SPLINE
  5
496
100
AcDbEntity
  8
ALL_FEATURES
100
AcDbSpline
 62
7
  6
CONTINUOUS
 70
0
 71
3
 72
11
 73
7
 74
0
 42
0.0000001
 43
0.0000001
 44
0.0000000001
 40
0.0
 40
0.0
 40
0.0
 40
0.0
 40
0.2176841439
 40
0.4509677578
 40
0.7108516107
 40
1.0
 40
1.0
 40
1.0
 40
1.0
 10
7.1848267731
 20
10.3224117743
 30
0.0
 10
7.1848283418
 20
10.3252670389
 30
0.0
 10
7.1837707144
 20
10.3312213073
 30
0.0
 10
7.1792566349
 20
10.3395263044
 30
0.0
 10
7.1721060923
 20
10.347012756
 30
0.0
 10
7.166144093
 20
10.3511337986
 30
0.0
 10
7.162859561
 20
10.3530300812
 30
0.0
  0
SPLINE
  5
497
100
AcDbEntity
  8
ALL_FEATURES
100
AcDbSpline
 62
7
  6
CONTINUOUS
 70
0
 71
3
 72
11
 73
7
 74
0
 42
0.0000001
 43
0.0000001
 44
0.0000000001
 40
0.0
 40
0.0
 40
0.0
 40
0.0
 40
0.2177214544
 40
0.451192982
 40
0.7112034624
 40
1.0
 40
1.0
 40
1.0
 40
1.0
 10
7.0158487463
 20
9.0408329797
 30
0.0
 10
7.0158464307
 20
9.0419579135
 30
0.0
 10
7.0162551497
 20
9.0443061914
 30
0.0
 10
7.0180353314
 20
9.0475798469
 30
0.0
 10
7.0208503775
 20
9.0505294305
 30
0.0
 10
7.0231966362
 20
9.0521543593
 30
0.0
 10
7.0244888961
 20
9.0529004415
 30
0.0
  0
SPLINE
  5
498
100
AcDbEntity
  8
ALL_FEATURES
100
AcDbSpline
 62
7
  6
CONTINUOUS
 70
0
 71
3
 72
12
 73
8
 74
0
 42
0.0000001
 43
0.0000001
 44
0.0000000001
 40
0.0
 40
0.0
 40
0.0
 40
0.0
 40
0.1081718621
 40
0.2183458385
 40
0.4513055793
 40
0.7106805298
 40
1.0
 40
1.0
 40
1.0
 40
1.0
 10
5.909321859
 20
14.3374338408
 30
0.0
 10
5.9078256666
 20
14.3382976482
 30
0.0
 10
5.904948168
 20
14.3403028763
 30
0.0
 10
5.8997862777
 20
14.3453749908
 30
0.0
 10
5.8946732714
 20
14.3537101897
 30
0.0
 10
5.8911283646
 20
14.3657886054
 30
0.0
 10
5.8904206335
 20
14.3745821784
 30
0.0
 10
5.8904206335
 20
14.3792029841
 30
0.0
  0
SPLINE
  5
499
100
AcDbEntity
  8
ALL_FEATURES
100
AcDbSpline
 62
7
  6
CONTINUOUS
 70
0
 71
3
 72
10
 73
6
 74
0
 42
0.0000001
 43
0.0000001
 44
0.0000000001
 40
0.0
 40
0.0
 40
0.0
 40
0.0
 40
0.2444014037
 40
0.4912055203
 40
1.0
 40
1.0
 40
1.0
 40
1.0
 10
7.8271205144
 20
9.2467872038
 30
0.0
 10
7.8271196592
 20
9.2410310215
 30
0.0
 10
7.8264042309
 20
9.2294480133
 30
0.0
 10
7.8221181
 20
9.2062484584
 30
0.0
 10
7.8157673819
 20
9.1894116837
 30
0.0
 10
7.8104034403
 20
9.1786960178
 30
0.0
  0
SPLINE
  5
49A
100
AcDbEntity
  8
ALL_FEATURES
100
AcDbSpline
 62
7
  6
CONTINUOUS
 70
0
 71
3
 72
11
 73
7
 74
0
 42
0.0000001
 43
0.0000001
 44
0.0000000001
 40
0.0
 40
0.0
 40
0.0
 40
0.0
 40
0.2241804986
 40
0.4645723274
 40
0.723228528
 40
1.0
 40
1.0
 40
1.0
 40
1.0
 10
7.8104034403
 20
9.1786960178
 30
0.0
 10
7.8052961916
 20
9.1684931529
 30
0.0
 10
7.7926211682
 20
9.1483564257
 30
0.0
 10
7.768048823
 20
9.1207674597
 30
0.0
 10
7.7377469531
 20
9.0952719944
 30
0.0
 10
7.7148422324
 20
9.080379811
 30
0.0
 10
7.7026430428
 20
9.0733366476
 30
0.0
  0
SPLINE
  5
49B
100
AcDbEntity
  8
ALL_FEATURES
100
AcDbSpline
 62
7
  6
CONTINUOUS
 70
0
 71
3
 72
12
 73
8
 74
0
 42
0.0000001
 43
0.0000001
 44
0.0000000001
 40
0.0
 40
0.0
 40
0.0
 40
0.0
 40
0.1081718621
 40
0.2183458385
 40
0.4513055793
 40
0.7106805298
 40
1.0
 40
1.0
 40
1.0
 40
1.0
 10
9.0913156222
 20
12.5003504454
 30
0.0
 10
9.0898194297
 20
12.5012142528
 30
0.0
 10
9.0869419312
 20
12.503219481
 30
0.0
 10
9.0817800409
 20
12.5082915955
 30
0.0
 10
9.0766670346
 20
12.5166267944
 30
0.0
 10
9.0731221278
 20
12.5287052101
 30
0.0
 10
9.0724143967
 20
12.537498783
 30
0.0
 10
9.0724143967
 20
12.5421195887
 30
0.0
  0
SPLINE
  5
49C
100
AcDbEntity
  8
ALL_FEATURES
100
AcDbSpline
 62
7
  6
CONTINUOUS
 70
0
 71
3
 72
11
 73
7
 74
0
 42
0.0000001
 43
0.0000001
 44
0.0000000001
 40
0.0
 40
0.0
 40
0.0
 40
0.0
 40
0.2177214544
 40
0.451192982
 40
0.7112034624
 40
1.0
 40
1.0
 40
1.0
 40
1.0
 10
9.1032366549
 20
7.8357062724
 30
0.0
 10
9.1032343393
 20
7.8368312061
 30
0.0
 10
9.1036430584
 20
7.8391794841
 30
0.0
 10
9.1054232401
 20
7.8424531396
 30
0.0
 10
9.1082382861
 20
7.8454027232
 30
0.0
 10
9.1105845448
 20
7.847027652
 30
0.0
 10
9.1118768048
 20
7.8477737342
 30
0.0
  0
SPLINE
  5
49D
100
AcDbEntity
  8
ALL_FEATURES
100
AcDbSpline
 62
7
  6
CONTINUOUS
 70
0
 71
3
 72
19
 73
15
 74
0
 42
0.0000001
 43
0.0000001
 44
0.0000000001
 40
0.0
 40
0.0
 40
0.0
 40
0.0
 40
0.0622739838
 40
0.1287553948
 40
0.270413628
 40
0.4174600042
 40
0.5617702154
 40
0.6304179403
 40
0.6955688643
 40
0.8127798731
 40
0.8647373812
 40
0.9125448891
 40
0.9571596382
 40
1.0
 40
1.0
 40
1.0
 40
1.0
 10
4.5616753449
 20
13.9146246362
 30
0.0
 10
4.5643628721
 20
13.9161762715
 30
0.0
 10
4.5697086014
 20
13.9197578673
 30
0.0
 10
4.5800383901
 20
13.9284418132
 30
0.0
 10
4.5918029159
 20
13.9418179962
 30
0.0
 10
4.6031433
 20
13.9602816702
 30
0.0
 10
4.6099146424
 20
13.977005
 30
0.0
 10
4.6132504218
 20
13.990481346
 30
0.0
 10
4.6150061394
 20
14.002873875
 30
0.0
 10
4.6147228422
 20
14.0147181833
 30
0.0
 10
4.6119010415
 20
14.0252064096
 30
0.0
 10
4.6087444616
 20
14.0317288636
 30
0.0
 10
4.6045231479
 20
14.0370576564
 30
0.0
 10
4.6010229816
 20
14.0397461583
 30
0.0
 10
4.599174721
 20
14.0408145833
 30
0.0
  0
SPLINE
  5
49E
100
AcDbEntity
  8
ALL_FEATURES
100
AcDbSpline
 62
7
  6
CONTINUOUS
 70
0
 71
3
 72
19
 73
15
 74
0
 42
0.0000001
 43
0.0000001
 44
0.0000000001
 40
0.0
 40
0.0
 40
0.0
 40
0.0
 40
0.0622739838
 40
0.1287553948
 40
0.270413628
 40
0.4174600042
 40
0.5617702154
 40
0.6304179403
 40
0.6955688643
 40
0.8127798731
 40
0.8647373812
 40
0.9125448891
 40
0.9571596382
 40
1.0
 40
1.0
 40
1.0
 40
1.0
 10
4.5616753449
 20
12.8939966148
 30
0.0
 10
4.5643628721
 20
12.8955482501
 30
0.0
 10
4.5697086014
 20
12.8991298459
 30
0.0
 10
4.5800383901
 20
12.9078137918
 30
0.0
 10
4.5918029159
 20
12.9211899748
 30
0.0
 10
4.6031433
 20
12.9396536488
 30
0.0
 10
4.6099146424
 20
12.9563769786
 30
0.0
 10
4.6132504218
 20
12.9698533246
 30
0.0
 10
4.6150061394
 20
12.9822458536
 30
0.0
 10
4.6147228422
 20
12.9940901619
 30
0.0
 10
4.6119010415
 20
13.0045783882
 30
0.0
 10
4.6087444616
 20
13.0111008422
 30
0.0
 10
4.6045231479
 20
13.016429635
 30
0.0
 10
4.6010229816
 20
13.0191181369
 30
0.0
 10
4.599174721
 20
13.0201865619
 30
0.0
  0
SPLINE
  5
49F
100
AcDbEntity
  8
ALL_FEATURES
100
AcDbSpline
 62
7
  6
CONTINUOUS
 70
0
 71
3
 72
13
 73
9
 74
0
 42
0.0000001
 43
0.0000001
 44
0.0000000001
 40
0.0
 40
0.0
 40
0.0
 40
0.0
 40
0.1141732089
 40
0.2375638708
 40
0.4999989157
 40
0.7624345537
 40
0.8858259098
 40
1.0
 40
1.0
 40
1.0
 40
1.0
 10
3.7824472872
 20
10.1087263187
 30
0.0
 10
3.77939988
 20
10.1104857003
 30
0.0
 10
3.7733772172
 20
10.1147114797
 30
0.0
 10
3.7620942372
 20
10.1252614807
 30
0.0
 10
3.7501868121
 20
10.1415398765
 30
0.0
 10
3.7420429291
 20
10.1599911876
 30
0.0
 10
3.7385477398
 20
10.1750375777
 30
0.0
 10
3.7378993746
 20
10.1823662885
 30
0.0
 10
3.7378993746
 20
10.1858851385
 30
0.0
  0
SPLINE
  5
4A0
100
AcDbEntity
  8
ALL_FEATURES
100
AcDbSpline
 62
7
  6
CONTINUOUS
 70
0
 71
3
 72
11
 73
7
 74
0
 42
0.0000001
 43
0.0000001
 44
0.0000000001
 40
0.0
 40
0.0
 40
0.0
 40
0.0
 40
0.2891473975
 40
0.5490310215
 40
0.7823150502
 40
1.0
 40
1.0
 40
1.0
 40
1.0
 10
4.7101671507
 20
12.6327143598
 30
0.0
 10
4.7101671507
 20
12.6365070674
 30
0.0
 10
4.709579132
 20
12.6437309835
 30
0.0
 10
4.7066707587
 20
12.6536669547
 30
0.0
 10
4.7017352349
 20
12.6617289039
 30
0.0
 10
4.697107337
 20
12.6656220239
 30
0.0
 10
4.6946337388
 20
12.6670483136
 30
0.0
  0
SPLINE
  5
4A1
100
AcDbEntity
  8
ALL_FEATURES
100
AcDbSpline
 62
7
  6
CONTINUOUS
 70
0
 71
3
 72
11
 73
7
 74
0
 42
0.0000001
 43
0.0000001
 44
0.0000000001
 40
0.0
 40
0.0
 40
0.0
 40
0.0
 40
0.2891473975
 40
0.5490310215
 40
0.7823150502
 40
1.0
 40
1.0
 40
1.0
 40
1.0
 10
4.7101671507
 20
13.5512795791
 30
0.0
 10
4.7101671507
 20
13.5550722866
 30
0.0
 10
4.709579132
 20
13.5622962027
 30
0.0
 10
4.7066707587
 20
13.572232174
 30
0.0
 10
4.7017352349
 20
13.5802941231
 30
0.0
 10
4.697107337
 20
13.5841872432
 30
0.0
 10
4.6946337388
 20
13.5856135329
 30
0.0
  0
SPLINE
  5
4A2
100
AcDbEntity
  8
ALL_FEATURES
100
AcDbSpline
 62
7
  6
CONTINUOUS
 70
0
 71
3
 72
11
 73
7
 74
0
 42
0.0000001
 43
0.0000001
 44
0.0000000001
 40
0.0
 40
0.0
 40
0.0
 40
0.0
 40
0.2891473975
 40
0.5490310215
 40
0.7823150502
 40
1.0
 40
1.0
 40
1.0
 40
1.0
 10
4.7101671507
 20
14.4698447984
 30
0.0
 10
4.7101671507
 20
14.4736375059
 30
0.0
 10
4.709579132
 20
14.480861422
 30
0.0
 10
4.7066707587
 20
14.4907973932
 30
0.0
 10
4.7017352349
 20
14.4988593424
 30
0.0
 10
4.697107337
 20
14.5027524625
 30
0.0
 10
4.6946337388
 20
14.5041787521
 30
0.0
  0
SPLINE
  5
4A3
100
AcDbEntity
  8
ALL_FEATURES
100
AcDbSpline
 62
7
  6
CONTINUOUS
 70
0
 71
3
 72
23
 73
19
 74
0
 42
0.0000001
 43
0.0000001
 44
0.0000000001
 40
0.0
 40
0.0
 40
0.0
 40
0.0
 40
0.0220489484
 40
0.0444363345
 40
0.0913762835
 40
0.142944494
 40
0.2001191935
 40
0.2629886245
 40
0.3309844893
 40
0.4030659868
 40
0.477874288
 40
0.5538541894
 40
0.629387496
 40
0.7028638183
 40
0.7728348493
 40
0.8380680794
 40
0.8978316142
 40
1.0
 40
1.0
 40
1.0
 40
1.0
 10
7.2996293971
 20
12.1024461632
 30
0.0
 10
7.2982020452
 20
12.1016188825
 30
0.0
 10
7.295450848
 20
12.099722865
 30
0.0
 10
7.2904753868
 20
12.0949999177
 30
0.0
 10
7.2853945565
 20
12.0873634035
 30
0.0
 10
7.2815240092
 20
12.076277974
 30
0.0
 10
7.2797736318
 20
12.0634862947
 30
0.0
 10
7.2801818293
 20
12.0493700809
 30
0.0
 10
7.2827035614
 20
12.03435379
 30
0.0
 10
7.2872695557
 20
12.0189008608
 30
0.0
 10
7.2937195377
 20
12.0034889586
 30
0.0
 10
7.3018669866
 20
11.9886094457
 30
0.0
 10
7.3114375292
 20
11.9747233801
 30
0.0
 10
7.3221506265
 20
11.9622807417
 30
0.0
 10
7.3336401422
 20
11.9516590504
 30
0.0
 10
7.3456025967
 20
11.9431960023
 30
0.0
 10
7.3607786025
 20
11.9355494763
 30
0.0
 10
7.3731780758
 20
11.9329765529
 30
0.0
 10
7.3807922873
 20
11.9336567414
 30
0.0
  0
SPLINE
  5
4A4
100
AcDbEntity
  8
ALL_FEATURES
100
AcDbSpline
 62
7
  6
CONTINUOUS
 70
0
 71
3
 72
11
 73
7
 74
0
 42
0.0000001
 43
0.0000001
 44
0.0000000001
 40
0.0
 40
0.0
 40
0.0
 40
0.0
 40
0.2176863724
 40
0.4509710101
 40
0.7108540812
 40
1.0
 40
1.0
 40
1.0
 40
1.0
 10
4.3933617589
 20
13.8353848832
 30
0.0
 10
4.3958337081
 20
13.8339559222
 30
0.0
 10
4.4015190199
 20
13.8318947487
 30
0.0
 10
4.4109682823
 20
13.8316514795
 30
0.0
 10
4.4210268619
 20
13.8341006343
 30
0.0
 10
4.4275766936
 20
13.8372032059
 30
0.0
 10
4.430861135
 20
13.8390994677
 30
0.0
  0
SPLINE
  5
4A5
100
AcDbEntity
  8
ALL_FEATURES
100
AcDbSpline
 62
7
  6
CONTINUOUS
 70
0
 71
3
 72
14
 73
10
 74
0
 42
0.0000001
 43
0.0000001
 44
0.0000000001
 40
0.0
 40
0.0
 40
0.0
 40
0.0
 40
0.1105657807
 40
0.2227987109
 40
0.3382186035
 40
0.458155937
 40
0.5836869294
 40
0.7156148904
 40
1.0
 40
1.0
 40
1.0
 40
1.0
 10
6.5000542986
 20
8.9945533112
 30
0.0
 10
6.5000554167
 20
9.0023944622
 30
0.0
 10
6.5012735083
 20
9.0182201702
 30
0.0
 10
6.5066893584
 20
9.0416704917
 30
0.0
 10
6.5156273072
 20
9.064729871
 30
0.0
 10
6.5280220401
 20
9.0872015945
 30
0.0
 10
6.5437547452
 20
9.1089314632
 30
0.0
 10
6.5696483178
 20
9.1374049223
 30
0.0
 10
6.5928128599
 20
9.1560677709
 30
0.0
 10
6.6094471355
 20
9.1674719334
 30
0.0
  0
SPLINE
  5
4A6
100
AcDbEntity
  8
ALL_FEATURES
100
AcDbSpline
 62
7
  6
CONTINUOUS
 70
0
 71
3
 72
11
 73
7
 74
0
 42
0.0000001
 43
0.0000001
 44
0.0000000001
 40
0.0
 40
0.0
 40
0.0
 40
0.0
 40
0.2176863724
 40
0.4509710101
 40
0.7108540812
 40
1.0
 40
1.0
 40
1.0
 40
1.0
 10
4.3933617589
 20
12.8147568618
 30
0.0
 10
4.3958337081
 20
12.8133279007
 30
0.0
 10
4.4015190199
 20
12.8112667273
 30
0.0
 10
4.4109682823
 20
12.8110234581
 30
0.0
 10
4.4210268619
 20
12.8134726128
 30
0.0
 10
4.4275766936
 20
12.8165751845
 30
0.0
 10
4.430861135
 20
12.8184714463
 30
0.0
  0
SPLINE
  5
4A7
100
AcDbEntity
  8
ALL_FEATURES
100
AcDbSpline
 62
7
  6
CONTINUOUS
 70
0
 71
3
 72
19
 73
15
 74
0
 42
0.0000001
 43
0.0000001
 44
0.0000000001
 40
0.0
 40
0.0
 40
0.0
 40
0.0
 40
0.0428403429
 40
0.0874550236
 40
0.1352624031
 40
0.1872197113
 40
0.3044301719
 40
0.3695807905
 40
0.4382282311
 40
0.5825380586
 40
0.7295844813
 40
0.8712433611
 40
0.937725326
 40
1.0
 40
1.0
 40
1.0
 40
1.0
 10
4.6196349871
 20
12.537143783
 30
0.0
 10
4.621484401
 20
12.5360774013
 30
0.0
 10
4.6255627762
 20
12.5343905077
 30
0.0
 10
4.6322882368
 20
12.533399247
 30
0.0
 10
4.6395150359
 20
12.5339268871
 30
0.0
 10
4.6500088221
 20
12.5367273366
 30
0.0
 10
4.660407721
 20
12.5424041885
 30
0.0
 10
4.6702618725
 20
12.5501209482
 30
0.0
 10
4.6802645929
 20
12.559747973
 30
0.0
 10
4.6913614613
 20
12.5739737419
 30
0.0
 10
4.7016809974
 20
12.5930265555
 30
0.0
 10
4.7073826888
 20
12.6099029473
 30
0.0
 10
4.7097382621
 20
12.6231907426
 30
0.0
 10
4.7101671507
 20
12.6296110728
 30
0.0
 10
4.7101671507
 20
12.6327143598
 30
0.0
  0
SPLINE
  5
4A8
100
AcDbEntity
  8
ALL_FEATURES
100
AcDbSpline
 62
7
  6
CONTINUOUS
 70
0
 71
3
 72
19
 73
15
 74
0
 42
0.0000001
 43
0.0000001
 44
0.0000000001
 40
0.0
 40
0.0
 40
0.0
 40
0.0
 40
0.0428403429
 40
0.0874550236
 40
0.1352624031
 40
0.1872197113
 40
0.3044301719
 40
0.3695807905
 40
0.4382282311
 40
0.5825380586
 40
0.7295844813
 40
0.8712433611
 40
0.937725326
 40
1.0
 40
1.0
 40
1.0
 40
1.0
 10
4.6196349871
 20
13.4557090023
 30
0.0
 10
4.621484401
 20
13.4546426206
 30
0.0
 10
4.6255627762
 20
13.452955727
 30
0.0
 10
4.6322882368
 20
13.4519644663
 30
0.0
 10
4.6395150359
 20
13.4524921064
 30
0.0
 10
4.6500088221
 20
13.4552925559
 30
0.0
 10
4.660407721
 20
13.4609694078
 30
0.0
 10
4.6702618725
 20
13.4686861675
 30
0.0
 10
4.6802645929
 20
13.4783131923
 30
0.0
 10
4.6913614613
 20
13.4925389612
 30
0.0
 10
4.7016809974
 20
13.5115917748
 30
0.0
 10
4.7073826888
 20
13.5284681666
 30
0.0
 10
4.7097382621
 20
13.5417559619
 30
0.0
 10
4.7101671507
 20
13.5481762921
 30
0.0
 10
4.7101671507
 20
13.5512795791
 30
0.0
  0
SPLINE
  5
4A9
100
AcDbEntity
  8
ALL_FEATURES
100
AcDbSpline
 62
7
  6
CONTINUOUS
 70
0
 71
3
 72
19
 73
15
 74
0
 42
0.0000001
 43
0.0000001
 44
0.0000000001
 40
0.0
 40
0.0
 40
0.0
 40
0.0
 40
0.0428397885
 40
0.0874540128
 40
0.1352610859
 40
0.1872182651
 40
0.3044289456
 40
0.3695798523
 40
0.4382276473
 40
0.5825382215
 40
0.7295851652
 40
0.8712440497
 40
0.9377257622
 40
1.0
 40
1.0
 40
1.0
 40
1.0
 10
7.2661451865
 20
10.1652386249
 30
0.0
 10
7.2661440132
 20
10.167373434
 30
0.0
 10
7.2655657474
 20
10.1717488261
 30
0.0
 10
7.2630614902
 20
10.1780688356
 30
0.0
 10
7.258991138
 20
10.1840635788
 30
0.0
 10
7.2513189375
 20
10.1917512243
 30
0.0
 10
7.2412031231
 20
10.197918501
 30
0.0
 10
7.2295930555
 20
10.2025940783
 30
0.0
 10
7.2162543396
 20
10.2064432032
 30
0.0
 10
7.1983859001
 20
10.2089405356
 30
0.0
 10
7.1767257821
 20
10.2083511852
 30
0.0
 10
7.1592594689
 20
10.2048508726
 30
0.0
 10
7.1465740866
 20
10.2002470163
 30
0.0
 10
7.1407994758
 20
10.1974083072
 30
0.0
 10
7.1381119571
 20
10.1958566768
 30
0.0
  0
SPLINE
  5
4AA
100
AcDbEntity
  8
ALL_FEATURES
100
AcDbSpline
 62
7
  6
CONTINUOUS
 70
0
 71
3
 72
19
 73
15
 74
0
 42
0.0000001
 43
0.0000001
 44
0.0000000001
 40
0.0
 40
0.0
 40
0.0
 40
0.0
 40
0.0428403429
 40
0.0874550236
 40
0.1352624031
 40
0.1872197113
 40
0.3044301719
 40
0.3695807905
 40
0.4382282311
 40
0.5825380586
 40
0.7295844813
 40
0.8712433611
 40
0.937725326
 40
1.0
 40
1.0
 40
1.0
 40
1.0
 10
4.6196349871
 20
14.3742742215
 30
0.0
 10
4.621484401
 20
14.3732078398
 30
0.0
 10
4.6255627762
 20
14.3715209463
 30
0.0
 10
4.6322882368
 20
14.3705296855
 30
0.0
 10
4.6395150359
 20
14.3710573256
 30
0.0
 10
4.6500088221
 20
14.3738577751
 30
0.0
 10
4.660407721
 20
14.3795346271
 30
0.0
 10
4.6702618725
 20
14.3872513868
 30
0.0
 10
4.6802645929
 20
14.3968784116
 30
0.0
 10
4.6913614613
 20
14.4111041804
 30
0.0
 10
4.7016809974
 20
14.4301569941
 30
0.0
 10
4.7073826888
 20
14.4470333859
 30
0.0
 10
4.7097382621
 20
14.4603211811
 30
0.0
 10
4.7101671507
 20
14.4667415114
 30
0.0
 10
4.7101671507
 20
14.4698447984
 30
0.0
  0
SPLINE
  5
4AB
100
AcDbEntity
  8
ALL_FEATURES
100
AcDbSpline
 62
7
  6
CONTINUOUS
 70
0
 71
3
 72
14
 73
10
 74
0
 42
0.0000001
 43
0.0000001
 44
0.0000000001
 40
0.0
 40
0.0
 40
0.0
 40
0.0
 40
0.1105657807
 40
0.2227987109
 40
0.3382186035
 40
0.458155937
 40
0.5836869294
 40
0.7156148904
 40
1.0
 40
1.0
 40
1.0
 40
1.0
 10
8.5874422072
 20
7.7894266038
 30
0.0
 10
8.5874433253
 20
7.7972677549
 30
0.0
 10
8.588661417
 20
7.8130934628
 30
0.0
 10
8.594077267
 20
7.8365437843
 30
0.0
 10
8.6030152158
 20
7.8596031636
 30
0.0
 10
8.6154099488
 20
7.8820748871
 30
0.0
 10
8.6311426539
 20
7.9038047559
 30
0.0
 10
8.6570362265
 20
7.932278215
 30
0.0
 10
8.6802007685
 20
7.9509410635
 30
0.0
 10
8.6968350441
 20
7.9623452261
 30
0.0
  0
SPLINE
  5
4AC
100
AcDbEntity
  8
ALL_FEATURES
100
AcDbSpline
 62
7
  6
CONTINUOUS
 70
0
 71
3
 72
17
 73
13
 74
0
 42
0.0000001
 43
0.0000001
 44
0.0000000001
 40
0.0
 40
0.0
 40
0.0
 40
0.0
 40
0.1285025079
 40
0.2702762812
 40
0.4173597831
 40
0.5616785122
 40
0.6953675717
 40
0.812692083
 40
0.8646575986
 40
0.9125113716
 40
0.9571635429
 40
1.0
 40
1.0
 40
1.0
 40
1.0
 10
9.3883544051
 20
8.0073971983
 30
0.0
 10
9.390533956
 20
8.0086555551
 30
0.0
 10
9.3954779575
 20
8.0106887666
 30
0.0
 10
9.4035282621
 20
8.012311045
 30
0.0
 10
9.4120498087
 20
8.0125470182
 30
0.0
 10
9.4203362575
 20
8.0113818914
 30
0.0
 10
9.4277244178
 20
8.0089203352
 30
0.0
 10
9.4328667044
 20
8.0057992082
 30
0.0
 10
9.4358841046
 20
8.0027738508
 30
0.0
 10
9.4374865416
 20
8.0004186031
 30
0.0
 10
9.4384836264
 20
7.9979379512
 30
0.0
 10
9.4387123019
 20
7.9962174069
 30
0.0
 10
9.4387140288
 20
7.9953784556
 30
0.0
  0
SPLINE
  5
4AD
100
AcDbEntity
  8
ALL_FEATURES
100
AcDbSpline
 62
7
  6
CONTINUOUS
 70
0
 71
3
 72
15
 73
11
 74
0
 42
0.0000001
 43
0.0000001
 44
0.0000000001
 40
0.0
 40
0.0
 40
0.0
 40
0.0
 40
0.1140720892
 40
0.237351165
 40
0.3669781115
 40
0.4999983969
 40
0.6330189046
 40
0.7626465023
 40
0.885926606
 40
1.0
 40
1.0
 40
1.0
 40
1.0
 10
5.2920284913
 20
8.9156980723
 30
0.0
 10
5.2876145728
 20
8.9131497105
 30
0.0
 10
5.278892438
 20
8.9070287352
 30
0.0
 10
5.2668819817
 20
8.8958040972
 30
0.0
 10
5.2558175708
 20
8.8825237574
 30
0.0
 10
5.2461183865
 20
8.8676991788
 30
0.0
 10
5.2381295814
 20
8.8518870845
 30
0.0
 10
5.2321607135
 20
8.8356647498
 30
0.0
 10
5.2284451303
 20
8.8196509322
 30
0.0
 10
5.2275052662
 20
8.8090367525
 30
0.0
 10
5.2275052662
 20
8.8039399477
 30
0.0
  0
SPLINE
  5
4AE
100
AcDbEntity
  8
ALL_FEATURES
100
AcDbSpline
 62
7
  6
CONTINUOUS
 70
0
 71
3
 72
15
 73
11
 74
0
 42
0.0000001
 43
0.0000001
 44
0.0000000001
 40
0.0
 40
0.0
 40
0.0
 40
0.0
 40
0.1140720892
 40
0.237351165
 40
0.3669781115
 40
0.4999983969
 40
0.6330189046
 40
0.7626465023
 40
0.885926606
 40
1.0
 40
1.0
 40
1.0
 40
1.0
 10
5.9549438586
 20
8.532972365
 30
0.0
 10
5.9505299401
 20
8.5304240031
 30
0.0
 10
5.9418078053
 20
8.5243030279
 30
0.0
 10
5.9297973491
 20
8.5130783898
 30
0.0
 10
5.9187329381
 20
8.4997980501
 30
0.0
 10
5.9090337539
 20
8.4849734714
 30
0.0
 10
5.9010449488
 20
8.4691613771
 30
0.0
 10
5.8950760808
 20
8.4529390424
 30
0.0
 10
5.8913604976
 20
8.4369252248
 30
0.0
 10
5.8904206335
 20
8.4263110451
 30
0.0
 10
5.8904206335
 20
8.4212142403
 30
0.0
  0
SPLINE
  5
4AF
100
AcDbEntity
  8
ALL_FEATURES
100
AcDbSpline
 62
7
  6
CONTINUOUS
 70
0
 71
3
 72
17
 73
13
 74
0
 42
0.0000001
 43
0.0000001
 44
0.0000000001
 40
0.0
 40
0.0
 40
0.0
 40
0.0
 40
0.1285025079
 40
0.2702762812
 40
0.4173597831
 40
0.5616785122
 40
0.6953675717
 40
0.812692083
 40
0.8646575986
 40
0.9125113716
 40
0.9571635429
 40
1.0
 40
1.0
 40
1.0
 40
1.0
 10
7.3009664965
 20
9.2125239057
 30
0.0
 10
7.3031460474
 20
9.2137822625
 30
0.0
 10
7.3080900488
 20
9.215815474
 30
0.0
 10
7.3161403535
 20
9.2174377523
 30
0.0
 10
7.3246619001
 20
9.2176737255
 30
0.0
 10
7.3329483489
 20
9.2165085988
 30
0.0
 10
7.3403365091
 20
9.2140470426
 30
0.0
 10
7.3454787958
 20
9.2109259156
 30
0.0
 10
7.348496196
 20
9.2079005581
 30
0.0
 10
7.3500986329
 20
9.2055453105
 30
0.0
 10
7.3510957178
 20
9.2030646585
 30
0.0
 10
7.3513243932
 20
9.2013441143
 30
0.0
 10
7.3513261201
 20
9.200505163
 30
0.0
  0
SPLINE
  5
4B0
100
AcDbEntity
  8
ALL_FEATURES
100
AcDbSpline
 62
7
  6
CONTINUOUS
 70
0
 71
3
 72
19
 73
15
 74
0
 42
0.0000001
 43
0.0000001
 44
0.0000000001
 40
0.0
 40
0.0
 40
0.0
 40
0.0
 40
0.0622744622
 40
0.1287563549
 40
0.2704154496
 40
0.4174624084
 40
0.5617728579
 40
0.6304205604
 40
0.6955713678
 40
0.81278187
 40
0.8647389842
 40
0.9125460157
 40
0.9571602176
 40
1.0
 40
1.0
 40
1.0
 40
1.0
 10
7.162859561
 20
10.3530300812
 30
0.0
 10
7.1601720304
 20
10.3545816926
 30
0.0
 10
7.1543974028
 20
10.3574203639
 30
0.0
 10
7.1417120097
 20
10.3620241475
 30
0.0
 10
7.1242457222
 20
10.3655243813
 30
0.0
 10
7.1025856701
 20
10.3661136596
 30
0.0
 10
7.0847173077
 20
10.3636162865
 30
0.0
 10
7.0713786617
 20
10.3597671435
 30
0.0
 10
7.0597686623
 20
10.3550915582
 30
0.0
 10
7.0496529118
 20
10.348924286
 30
0.0
 10
7.0419807657
 20
10.3412366578
 30
0.0
 10
7.0379104425
 20
10.3352419321
 30
0.0
 10
7.0354062059
 20
10.3289219429
 30
0.0
 10
7.0348279462
 20
10.3245465668
 30
0.0
 10
7.0348267733
 20
10.3224117651
 30
0.0
  0
SPLINE
  5
4B1
100
AcDbEntity
  8
ALL_FEATURES
100
AcDbSpline
 62
7
  6
CONTINUOUS
 70
0
 71
3
 72
15
 73
11
 74
0
 42
0.0000001
 43
0.0000001
 44
0.0000000001
 40
0.0
 40
0.0
 40
0.0
 40
0.0
 40
0.1140720892
 40
0.237351165
 40
0.3669781115
 40
0.4999983969
 40
0.6330189046
 40
0.7626465023
 40
0.885926606
 40
1.0
 40
1.0
 40
1.0
 40
1.0
 10
8.4740222545
 20
7.078614677
 30
0.0
 10
8.469608336
 20
7.0760663151
 30
0.0
 10
8.4608862012
 20
7.0699453399
 30
0.0
 10
8.4488757449
 20
7.0587207019
 30
0.0
 10
8.437811334
 20
7.0454403621
 30
0.0
 10
8.4281121497
 20
7.0306157834
 30
0.0
 10
8.4201233446
 20
7.0148036891
 30
0.0
 10
8.4141544767
 20
6.9985813544
 30
0.0
 10
8.4104388935
 20
6.9825675368
 30
0.0
 10
8.4094990293
 20
6.9719533572
 30
0.0
 10
8.4094990293
 20
6.9668565524
 30
0.0
  0
SPLINE
  5
4B2
100
AcDbEntity
  8
ALL_FEATURES
100
AcDbSpline
 62
7
  6
CONTINUOUS
 70
0
 71
3
 72
15
 73
11
 74
0
 42
0.0000001
 43
0.0000001
 44
0.0000000001
 40
0.0
 40
0.0
 40
0.0
 40
0.0
 40
0.1140720892
 40
0.237351165
 40
0.3669781115
 40
0.4999983969
 40
0.6330189046
 40
0.7626465023
 40
0.885926606
 40
1.0
 40
1.0
 40
1.0
 40
1.0
 10
9.1369376218
 20
6.6958889696
 30
0.0
 10
9.1325237033
 20
6.6933406078
 30
0.0
 10
9.1238015685
 20
6.6872196325
 30
0.0
 10
9.1117911122
 20
6.6759949945
 30
0.0
 10
9.1007267013
 20
6.6627146547
 30
0.0
 10
9.091027517
 20
6.6478900761
 30
0.0
 10
9.0830387119
 20
6.6320779818
 30
0.0
 10
9.077069844
 20
6.615855647
 30
0.0
 10
9.0733542608
 20
6.5998418295
 30
0.0
 10
9.0724143967
 20
6.5892276498
 30
0.0
 10
9.0724143967
 20
6.584130845
 30
0.0
  0
SPLINE
  5
4B3
100
AcDbEntity
  8
ALL_FEATURES
100
AcDbSpline
 62
7
  6
CONTINUOUS
 70
0
 71
3
 72
11
 73
7
 74
0
 42
0.0000001
 43
0.0000001
 44
0.0000000001
 40
0.0
 40
0.0
 40
0.0
 40
0.0
 40
0.2891479085
 40
0.5490315816
 40
0.7823153935
 40
1.0
 40
1.0
 40
1.0
 40
1.0
 10
7.0072977472
 20
10.1203315084
 30
0.0
 10
7.0040132758
 20
10.1184352293
 30
0.0
 10
6.9980513885
 20
10.1143142014
 30
0.0
 10
6.9909009901
 20
10.1068278027
 30
0.0
 10
6.9863870081
 20
10.0985228834
 30
0.0
 10
6.9853294072
 20
10.0925686818
 30
0.0
 10
6.9853309765
 20
10.0897134472
 30
0.0
  0
SPLINE
  5
4B4
100
AcDbEntity
  8
ALL_FEATURES
100
AcDbSpline
 62
7
  6
CONTINUOUS
 70
0
 71
3
 72
16
 73
12
 74
0
 42
0.0000001
 43
0.0000001
 44
0.0000000001
 40
0.0
 40
0.0
 40
0.0
 40
0.0
 40
0.0551304797
 40
0.112623682
 40
0.2335615091
 40
0.3607178681
 40
0.491738591
 40
0.6238902587
 40
0.7543590644
 40
0.8805092035
 40
1.0
 40
1.0
 40
1.0
 40
1.0
 10
9.3529629986
 20
7.6158701464
 30
0.0
 10
9.3438468919
 20
7.6106069911
 30
0.0
 10
9.3247912425
 20
7.6005906358
 30
0.0
 10
9.2839309749
 20
7.5826548848
 30
0.0
 10
9.2282813447
 20
7.564574548
 30
0.0
 10
9.1571853679
 20
7.5502465728
 30
0.0
 10
9.0828414095
 20
7.5433408509
 30
0.0
 10
9.0075554783
 20
7.5440862044
 30
0.0
 10
8.9336578336
 20
7.5524421033
 30
0.0
 10
8.8634430722
 20
7.5681577871
 30
0.0
 10
8.8190565984
 20
7.5837635468
 30
0.0
 10
8.7981051946
 20
7.5927948093
 30
0.0
  0
SPLINE
  5
4B5
100
AcDbEntity
  8
ALL_FEATURES
100
AcDbSpline
 62
7
  6
CONTINUOUS
 70
0
 71
3
 72
14
 73
10
 74
0
 42
0.0000001
 43
0.0000001
 44
0.0000000001
 40
0.0
 40
0.0
 40
0.0
 40
0.0
 40
0.1437987187
 40
0.281174334
 40
0.5372360097
 40
0.6576267001
 40
0.7740623458
 40
0.8877427593
 40
1.0
 40
1.0
 40
1.0
 40
1.0
 10
9.8613134612
 20
8.202933007
 30
0.0
 10
9.8686415759
 20
8.197297252
 30
0.0
 10
9.8825472453
 20
8.1857025058
 30
0.0
 10
9.9070451951
 20
8.1613223882
 30
0.0
 10
9.9270725206
 20
8.1346714305
 30
0.0
 10
9.941367561
 20
8.1063157725
 30
0.0
 10
9.9489274313
 20
8.085018282
 30
0.0
 10
9.953487986
 20
8.0634200727
 30
0.0
 10
9.9545095056
 20
8.0488749863
 30
0.0
 10
9.9545084765
 20
8.0416581242
 30
0.0
  0
SPLINE
  5
4B6
100
AcDbEntity
  8
ALL_FEATURES
100
AcDbSpline
 62
7
  6
CONTINUOUS
 70
0
 71
3
 72
17
 73
13
 74
0
 42
0.0000001
 43
0.0000001
 44
0.0000000001
 40
0.0
 40
0.0
 40
0.0
 40
0.0
 40
0.0555216994
 40
0.1135531162
 40
0.2358489738
 40
0.3644953885
 40
0.4967377767
 40
0.6294308673
 40
0.7593953227
 40
0.8837780455
 40
0.9430864127
 40
1.0
 40
1.0
 40
1.0
 40
1.0
 10
9.1607032961
 20
8.2315442118
 30
0.0
 10
9.171321985
 20
8.2376748782
 30
0.0
 10
9.1935766472
 20
8.2493007061
 30
0.0
 10
9.2414388733
 20
8.2699374718
 30
0.0
 10
9.3067850965
 20
8.2903084346
 30
0.0
 10
9.390195519
 20
8.305601823
 30
0.0
 10
9.4770783078
 20
8.3116718065
 30
0.0
 10
9.5643959035
 20
8.3082757493
 30
0.0
 10
9.6490949076
 20
8.2955629303
 30
0.0
 10
9.7161098176
 20
8.2772567928
 30
0.0
 10
9.7657330745
 20
8.2581647252
 30
0.0
 10
9.789000533
 20
8.2472613439
 30
0.0
 10
9.8001593113
 20
8.2414772552
 30
0.0
  0
SPLINE
  5
4B7
100
AcDbEntity
  8
ALL_FEATURES
100
AcDbSpline
 62
7
  6
CONTINUOUS
 70
0
 71
3
 72
11
 73
7
 74
0
 42
0.0000001
 43
0.0000001
 44
0.0000000001
 40
0.0
 40
0.0
 40
0.0
 40
0.0
 40
0.2723867056
 40
0.5296327406
 40
0.771734474
 40
1.0
 40
1.0
 40
1.0
 40
1.0
 10
8.7347648713
 20
7.6263751601
 30
0.0
 10
8.7251707269
 20
7.6326078746
 30
0.0
 10
8.7070720091
 20
7.6456190477
 30
0.0
 10
8.6828778754
 20
7.667295415
 30
0.0
 10
8.662711943
 20
7.6903667827
 30
0.0
 10
8.6518382573
 20
7.7069622862
 30
0.0
 10
8.6472310559
 20
7.7153704883
 30
0.0
  0
SPLINE
  5
4B8
100
AcDbEntity
  8
ALL_FEATURES
100
AcDbSpline
 62
7
  6
CONTINUOUS
 70
0
 71
3
 72
11
 73
7
 74
0
 42
0.0000001
 43
0.0000001
 44
0.0000000001
 40
0.0
 40
0.0
 40
0.0
 40
0.0
 40
0.2592825392
 40
0.5107394935
 40
0.7567680223
 40
1.0
 40
1.0
 40
1.0
 40
1.0
 10
8.6472310559
 20
7.7153704883
 30
0.0
 10
8.6440156732
 20
7.7212386031
 30
0.0
 10
8.6383124211
 20
7.7331602115
 30
0.0
 10
8.6320580827
 20
7.7517133804
 30
0.0
 10
8.6282853294
 20
7.7705052641
 30
0.0
 10
8.6274413282
 20
7.7831471509
 30
0.0
 10
8.6274422607
 20
7.7894242316
 30
0.0
  0
SPLINE
  5
4B9
100
AcDbEntity
  8
ALL_FEATURES
100
AcDbSpline
 62
7
  6
CONTINUOUS
 70
0
 71
3
 72
17
 73
13
 74
0
 42
0.0000001
 43
0.0000001
 44
0.0000000001
 40
0.0
 40
0.0
 40
0.0
 40
0.0
 40
0.0555216994
 40
0.1135531162
 40
0.2358489738
 40
0.3644953885
 40
0.4967377767
 40
0.6294308673
 40
0.7593953227
 40
0.8837780455
 40
0.9430864127
 40
1.0
 40
1.0
 40
1.0
 40
1.0
 10
7.0733153874
 20
9.4366709192
 30
0.0
 10
7.0839340764
 20
9.4428015855
 30
0.0
 10
7.1061887385
 20
9.4544274134
 30
0.0
 10
7.1540509646
 20
9.4750641791
 30
0.0
 10
7.2193971878
 20
9.4954351419
 30
0.0
 10
7.3028076103
 20
9.5107285304
 30
0.0
 10
7.3896903992
 20
9.5167985139
 30
0.0
 10
7.4770079948
 20
9.5134024566
 30
0.0
 10
7.561706999
 20
9.5006896377
 30
0.0
 10
7.628721909
 20
9.4823835002
 30
0.0
 10
7.6783451658
 20
9.4632914325
 30
0.0
 10
7.7016126244
 20
9.4523880512
 30
0.0
 10
7.7127714027
 20
9.4466039626
 30
0.0
  0
SPLINE
  5
4BA
100
AcDbEntity
  8
ALL_FEATURES
100
AcDbSpline
 62
7
  6
CONTINUOUS
 70
0
 71
3
 72
11
 73
7
 74
0
 42
0.0000001
 43
0.0000001
 44
0.0000000001
 40
0.0
 40
0.0
 40
0.0
 40
0.0
 40
0.2723867056
 40
0.5296327406
 40
0.771734474
 40
1.0
 40
1.0
 40
1.0
 40
1.0
 10
6.6473769627
 20
8.8315018675
 30
0.0
 10
6.6377828182
 20
8.837734582
 30
0.0
 10
6.6196841005
 20
8.850745755
 30
0.0
 10
6.5954899667
 20
8.8724221223
 30
0.0
 10
6.5753240344
 20
8.8954934901
 30
0.0
 10
6.5644503486
 20
8.9120889936
 30
0.0
 10
6.5598431472
 20
8.9204971956
 30
0.0
  0
SPLINE
  5
4BB
100
AcDbEntity
  8
ALL_FEATURES
100
AcDbSpline
 62
7
  6
CONTINUOUS
 70
0
 71
3
 72
11
 73
7
 74
0
 42
0.0000001
 43
0.0000001
 44
0.0000000001
 40
0.0
 40
0.0
 40
0.0
 40
0.0
 40
0.2592825392
 40
0.5107394935
 40
0.7567680223
 40
1.0
 40
1.0
 40
1.0
 40
1.0
 10
6.5598431472
 20
8.9204971956
 30
0.0
 10
6.5566277646
 20
8.9263653104
 30
0.0
 10
6.5509245124
 20
8.9382869188
 30
0.0
 10
6.5446701741
 20
8.9568400878
 30
0.0
 10
6.5408974207
 20
8.9756319715
 30
0.0
 10
6.5400534196
 20
8.9882738582
 30
0.0
 10
6.5400543521
 20
8.9945509389
 30
0.0
  0
SPLINE
  5
4BC
100
AcDbEntity
  8
ALL_FEATURES
100
AcDbSpline
 62
7
  6
CONTINUOUS
 70
0
 71
3
 72
10
 73
6
 74
0
 42
0.0000001
 43
0.0000001
 44
0.0000000001
 40
0.0
 40
0.0
 40
0.0
 40
0.0
 40
0.2444014037
 40
0.4912055203
 40
1.0
 40
1.0
 40
1.0
 40
1.0
 10
9.914508423
 20
8.0416604964
 30
0.0
 10
9.9145075679
 20
8.0359043142
 30
0.0
 10
9.9137921396
 20
8.024321306
 30
0.0
 10
9.9095060086
 20
8.0011217511
 30
0.0
 10
9.9031552905
 20
7.9842849764
 30
0.0
 10
9.897791349
 20
7.9735693105
 30
0.0
  0
SPLINE
  5
4BD
100
AcDbEntity
  8
ALL_FEATURES
100
AcDbSpline
 62
7
  6
CONTINUOUS
 70
0
 71
3
 72
11
 73
7
 74
0
 42
0.0000001
 43
0.0000001
 44
0.0000000001
 40
0.0
 40
0.0
 40
0.0
 40
0.0
 40
0.2241804986
 40
0.4645723274
 40
0.723228528
 40
1.0
 40
1.0
 40
1.0
 40
1.0
 10
9.897791349
 20
7.9735693105
 30
0.0
 10
9.8926841002
 20
7.9633664455
 30
0.0
 10
9.8800090768
 20
7.9432297184
 30
0.0
 10
9.8554367317
 20
7.9156407524
 30
0.0
 10
9.8251348617
 20
7.890145287
 30
0.0
 10
9.802230141
 20
7.8752531036
 30
0.0
 10
9.7900309514
 20
7.8682099403
 30
0.0
  0
SPLINE
  5
4BE
100
AcDbEntity
  8
ALL_FEATURES
100
AcDbSpline
 62
7
  6
CONTINUOUS
 70
0
 71
3
 72
16
 73
12
 74
0
 42
0.0000001
 43
0.0000001
 44
0.0000000001
 40
0.0
 40
0.0
 40
0.0
 40
0.0
 40
0.0551304797
 40
0.112623682
 40
0.2335615091
 40
0.3607178681
 40
0.491738591
 40
0.6238902587
 40
0.7543590644
 40
0.8805092035
 40
1.0
 40
1.0
 40
1.0
 40
1.0
 10
7.26557509
 20
8.8209968537
 30
0.0
 10
7.2564589832
 20
8.8157336984
 30
0.0
 10
7.2374033339
 20
8.8057173431
 30
0.0
 10
7.1965430663
 20
8.7877815921
 30
0.0
 10
7.140893436
 20
8.7697012554
 30
0.0
 10
7.0697974593
 20
8.7553732802
 30
0.0
 10
6.9954535009
 20
8.7484675582
 30
0.0
 10
6.9201675697
 20
8.7492129118
 30
0.0
 10
6.846269925
 20
8.7575688106
 30
0.0
 10
6.7760551635
 20
8.7732844944
 30
0.0
 10
6.7316686898
 20
8.7888902541
 30
0.0
 10
6.710717286
 20
8.7979215167
 30
0.0
  0
SPLINE
  5
4BF
100
AcDbEntity
  8
ALL_FEATURES
100
AcDbSpline
 62
7
  6
CONTINUOUS
 70
0
 71
3
 72
14
 73
10
 74
0
 42
0.0000001
 43
0.0000001
 44
0.0000000001
 40
0.0
 40
0.0
 40
0.0
 40
0.0
 40
0.1437987187
 40
0.281174334
 40
0.5372360097
 40
0.6576267001
 40
0.7740623458
 40
0.8877427593
 40
1.0
 40
1.0
 40
1.0
 40
1.0
 10
7.7739255526
 20
9.4080597144
 30
0.0
 10
7.7812536673
 20
9.4024239593
 30
0.0
 10
7.7951593367
 20
9.3908292132
 30
0.0
 10
7.8196572865
 20
9.3664490955
 30
0.0
 10
7.839684612
 20
9.3397981379
 30
0.0
 10
7.8539796523
 20
9.3114424799
 30
0.0
 10
7.8615395227
 20
9.2901449893
 30
0.0
 10
7.8661000773
 20
9.26854678
 30
0.0
 10
7.867121597
 20
9.2540016936
 30
0.0
 10
7.8671205679
 20
9.2467848315
 30
0.0
  0
SPLINE
  5
4C0
100
AcDbEntity
  8
ALL_FEATURES
100
AcDbSpline
 62
3
  6
CONTINUOUS
 70
0
 71
3
 72
9
 73
5
 74
0
 42
0.0000001
 43
0.0000001
 44
0.0000000001
 40
0.0
 40
0.0
 40
0.0
 40
0.0
 40
0.237569123
 40
1.0
 40
1.0
 40
1.0
 40
1.0
 10
7.326614778
 20
12.1079707499
 30
0.0
 10
7.3261459246
 20
12.106774522
 30
0.0
 10
7.3243696885
 20
12.1016622317
 30
0.0
 10
7.3233483952
 20
12.0963034897
 30
0.0
 10
7.3229083234
 20
12.0922036384
 30
0.0
  0
SPLINE
  5
4C1
100
AcDbEntity
  8
ALL_FEATURES
100
AcDbSpline
 62
3
  6
CONTINUOUS
 70
0
 71
3
 72
19
 73
15
 74
0
 42
0.0000001
 43
0.0000001
 44
0.0000000001
 40
0.0
 40
0.0
 40
0.0
 40
0.0
 40
0.1177502734
 40
0.2495635662
 40
0.390105665
 40
0.4615914266
 40
0.5326500865
 40
0.6023814849
 40
0.6699591316
 40
0.7346256505
 40
0.7957475328
 40
0.8529428246
 40
0.9060237218
 40
1.0
 40
1.0
 40
1.0
 40
1.0
 10
7.3229083234
 20
12.0922036384
 30
0.0
 10
7.3221399595
 20
12.085045311
 30
0.0
 10
7.3226737093
 20
12.0696264119
 30
0.0
 10
7.3282610987
 20
12.0463245127
 30
0.0
 10
7.3365593066
 20
12.0268950761
 30
0.0
 10
7.3451952529
 20
12.0118794303
 30
0.0
 10
7.3525427713
 20
12.0011626186
 30
0.0
 10
7.3605918531
 20
11.9912683989
 30
0.0
 10
7.3691884816
 20
11.9823807825
 30
0.0
 10
7.3781654917
 20
11.9746579172
 30
0.0
 10
7.3873658184
 20
11.9682578923
 30
0.0
 10
7.3966291606
 20
11.963284168
 30
0.0
 10
7.4083274878
 20
11.9588893851
 30
0.0
 10
7.4174954421
 20
11.95764014
 30
0.0
 10
7.4232185175
 20
11.9581513906
 30
0.0
  0
SPLINE
  5
4C2
100
AcDbEntity
  8
ALL_FEATURES
100
AcDbSpline
 62
3
  6
CONTINUOUS
 70
0
 71
3
 72
9
 73
5
 74
0
 42
0.0000001
 43
0.0000001
 44
0.0000000001
 40
0.0
 40
0.0
 40
0.0
 40
0.0
 40
0.2586092924
 40
1.0
 40
1.0
 40
1.0
 40
1.0
 10
4.6677405672
 20
14.4943392436
 30
0.0
 10
4.6677405672
 20
14.4952563989
 30
0.0
 10
4.6676697637
 20
14.4988021948
 30
0.0
 10
4.6673101565
 20
14.5023448574
 30
0.0
 10
4.6668535476
 20
14.5049342415
 30
0.0
  0
SPLINE
  5
4C3
100
AcDbEntity
  8
ALL_FEATURES
100
AcDbSpline
 62
3
  6
CONTINUOUS
 70
0
 71
3
 72
9
 73
5
 74
0
 42
0.0000001
 43
0.0000001
 44
0.0000000001
 40
0.0
 40
0.0
 40
0.0
 40
0.0
 40
0.2586092924
 40
1.0
 40
1.0
 40
1.0
 40
1.0
 10
4.6677405672
 20
13.5757740244
 30
0.0
 10
4.6677405672
 20
13.5766911797
 30
0.0
 10
4.6676697637
 20
13.5802369755
 30
0.0
 10
4.6673101565
 20
13.5837796381
 30
0.0
 10
4.6668535476
 20
13.5863690222
 30
0.0
  0
SPLINE
  5
4C4
100
AcDbEntity
  8
ALL_FEATURES
100
AcDbSpline
 62
3
  6
CONTINUOUS
 70
0
 71
3
 72
9
 73
5
 74
0
 42
0.0000001
 43
0.0000001
 44
0.0000000001
 40
0.0
 40
0.0
 40
0.0
 40
0.0
 40
0.2586092924
 40
1.0
 40
1.0
 40
1.0
 40
1.0
 10
4.6677405672
 20
12.6572088051
 30
0.0
 10
4.6677405672
 20
12.6581259604
 30
0.0
 10
4.6676697637
 20
12.6616717563
 30
0.0
 10
4.6673101565
 20
12.6652144189
 30
0.0
 10
4.6668535476
 20
12.6678038029
 30
0.0
  0
SPLINE
  5
4C5
100
AcDbEntity
  8
ALL_FEATURES
100
AcDbSpline
 62
3
  6
CONTINUOUS
 70
0
 71
3
 72
12
 73
8
 74
0
 42
0.0000001
 43
0.0000001
 44
0.0000000001
 40
0.0
 40
0.0
 40
0.0
 40
0.0
 40
0.1108531019
 40
0.2291957598
 40
0.4813596482
 40
0.7431149988
 40
1.0
 40
1.0
 40
1.0
 40
1.0
 10
4.5192487614
 20
12.9184910601
 30
0.0
 10
4.5219362738
 20
12.9200426868
 30
0.0
 10
4.5272819717
 20
12.9236242769
 30
0.0
 10
4.537611726
 20
12.9323080563
 30
0.0
 10
4.5493760619
 20
12.9456850355
 30
0.0
 10
4.5607170399
 20
12.964144787
 30
0.0
 10
4.5661956957
 20
12.9776884584
 30
0.0
 10
4.5682446686
 20
12.9845817266
 30
0.0
  0
SPLINE
  5
4C6
100
AcDbEntity
  8
ALL_FEATURES
100
AcDbSpline
 62
3
  6
CONTINUOUS
 70
0
 71
3
 72
9
 73
5
 74
0
 42
0.0000001
 43
0.0000001
 44
0.0000000001
 40
0.0
 40
0.0
 40
0.0
 40
0.0
 40
0.5316629564
 40
1.0
 40
1.0
 40
1.0
 40
1.0
 10
4.5682446686
 20
12.9845817266
 30
0.0
 10
4.5700995934
 20
12.9908221674
 30
0.0
 10
4.5725874169
 20
13.0028912018
 30
0.0
 10
4.5723929332
 20
13.0152972509
 30
0.0
 10
4.5713986284
 20
13.0209452503
 30
0.0
  0
SPLINE
  5
4C7
100
AcDbEntity
  8
ALL_FEATURES
100
AcDbSpline
 62
3
  6
CONTINUOUS
 70
0
 71
3
 72
12
 73
8
 74
0
 42
0.0000001
 43
0.0000001
 44
0.0000000001
 40
0.0
 40
0.0
 40
0.0
 40
0.0
 40
0.1108531019
 40
0.2291957598
 40
0.4813596482
 40
0.7431149988
 40
1.0
 40
1.0
 40
1.0
 40
1.0
 10
4.5192487614
 20
13.9391190815
 30
0.0
 10
4.5219362738
 20
13.9406707082
 30
0.0
 10
4.5272819717
 20
13.9442522983
 30
0.0
 10
4.537611726
 20
13.9529360778
 30
0.0
 10
4.5493760619
 20
13.9663130569
 30
0.0
 10
4.5607170399
 20
13.9847728084
 30
0.0
 10
4.5661956957
 20
13.9983164798
 30
0.0
 10
4.5682446686
 20
14.005209748
 30
0.0
  0
SPLINE
  5
4C8
100
AcDbEntity
  8
ALL_FEATURES
100
AcDbSpline
 62
3
  6
CONTINUOUS
 70
0
 71
3
 72
9
 73
5
 74
0
 42
0.0000001
 43
0.0000001
 44
0.0000000001
 40
0.0
 40
0.0
 40
0.0
 40
0.0
 40
0.5316629564
 40
1.0
 40
1.0
 40
1.0
 40
1.0
 10
4.5682446686
 20
14.005209748
 30
0.0
 10
4.5700995934
 20
14.0114501888
 30
0.0
 10
4.5725874169
 20
14.0235192232
 30
0.0
 10
4.5723929332
 20
14.0359252723
 30
0.0
 10
4.5713986284
 20
14.0415732717
 30
0.0
  0
SPLINE
  5
4C9
100
AcDbEntity
  8
ALL_FEATURES
100
AcDbSpline
 62
3
  6
CONTINUOUS
 70
0
 71
3
 72
9
 73
5
 74
0
 42
0.0000001
 43
0.0000001
 44
0.0000000001
 40
0.0
 40
0.0
 40
0.0
 40
0.0
 40
0.5187595658
 40
1.0
 40
1.0
 40
1.0
 40
1.0
 10
9.880102238
 20
8.1383821475
 30
0.0
 10
9.8907675485
 20
8.1288518897
 30
0.0
 10
9.9101090985
 20
8.1090378767
 30
0.0
 10
9.9259029304
 20
8.0862267182
 30
0.0
 10
9.9323410544
 20
8.0746248339
 30
0.0
  0
SPLINE
  5
4CA
100
AcDbEntity
  8
ALL_FEATURES
100
AcDbSpline
 62
3
  6
CONTINUOUS
 70
0
 71
3
 72
9
 73
5
 74
0
 42
0.0000001
 43
0.0000001
 44
0.0000000001
 40
0.0
 40
0.0
 40
0.0
 40
0.0
 40
0.5098189354
 40
1.0
 40
1.0
 40
1.0
 40
1.0
 10
9.9323410544
 20
8.0746248339
 30
0.0
 10
9.9374104653
 20
8.0654894526
 30
0.0
 10
9.9459686617
 20
8.046749714
 30
0.0
 10
9.9510710905
 20
8.0267659997
 30
0.0
 10
9.9526226463
 20
8.0168412999
 30
0.0
  0
SPLINE
  5
4CB
100
AcDbEntity
  8
ALL_FEATURES
100
AcDbSpline
 62
3
  6
CONTINUOUS
 70
0
 71
3
 72
11
 73
7
 74
0
 42
0.0000001
 43
0.0000001
 44
0.0000000001
 40
0.0
 40
0.0
 40
0.0
 40
0.0
 40
0.265218108
 40
0.5177670589
 40
0.7612535637
 40
1.0
 40
1.0
 40
1.0
 40
1.0
 10
8.6618056866
 20
7.6437237785
 30
0.0
 10
8.6563089902
 20
7.6511294123
 30
0.0
 10
8.6465016266
 20
7.6663113055
 30
0.0
 10
8.6355552283
 20
7.6905302708
 30
0.0
 10
8.6289304435
 20
7.7153277935
 30
0.0
 10
8.6274410274
 20
7.7321319674
 30
0.0
 10
8.6274422607
 20
7.7404340865
 30
0.0
  0
SPLINE
  5
4CC
100
AcDbEntity
  8
ALL_FEATURES
100
AcDbSpline
 62
3
  6
CONTINUOUS
 70
0
 71
3
 72
11
 73
7
 74
0
 42
0.0000001
 43
0.0000001
 44
0.0000000001
 40
0.0
 40
0.0
 40
0.0
 40
0.0
 40
0.265218108
 40
0.5177670589
 40
0.7612535637
 40
1.0
 40
1.0
 40
1.0
 40
1.0
 10
6.574417778
 20
8.8488504859
 30
0.0
 10
6.5689210816
 20
8.8562561196
 30
0.0
 10
6.559113718
 20
8.8714380128
 30
0.0
 10
6.5481673196
 20
8.8956569781
 30
0.0
 10
6.5415425348
 20
8.9204545008
 30
0.0
 10
6.5400531187
 20
8.9372586748
 30
0.0
 10
6.5400543521
 20
8.9455607939
 30
0.0
  0
SPLINE
  5
4CD
100
AcDbEntity
  8
ALL_FEATURES
100
AcDbSpline
 62
3
  6
CONTINUOUS
 70
0
 71
3
 72
9
 73
5
 74
0
 42
0.0000001
 43
0.0000001
 44
0.0000000001
 40
0.0
 40
0.0
 40
0.0
 40
0.0
 40
0.5187595658
 40
1.0
 40
1.0
 40
1.0
 40
1.0
 10
7.7927143293
 20
9.3435088548
 30
0.0
 10
7.8033796398
 20
9.333978597
 30
0.0
 10
7.8227211899
 20
9.314164584
 30
0.0
 10
7.8385150217
 20
9.2913534255
 30
0.0
 10
7.8449531458
 20
9.2797515412
 30
0.0
  0
SPLINE
  5
4CE
100
AcDbEntity
  8
ALL_FEATURES
100
AcDbSpline
 62
3
  6
CONTINUOUS
 70
0
 71
3
 72
9
 73
5
 74
0
 42
0.0000001
 43
0.0000001
 44
0.0000000001
 40
0.0
 40
0.0
 40
0.0
 40
0.0
 40
0.5098189354
 40
1.0
 40
1.0
 40
1.0
 40
1.0
 10
7.8449531458
 20
9.2797515412
 30
0.0
 10
7.8500225567
 20
9.27061616
 30
0.0
 10
7.8585807531
 20
9.2518764214
 30
0.0
 10
7.8636831818
 20
9.2318927071
 30
0.0
 10
7.8652347376
 20
9.2219680072
 30
0.0
  0
SPLINE
  5
4CF
100
AcDbEntity
  8
ALL_FEATURES
100
AcDbSpline
 62
3
  6
CONTINUOUS
 70
0
 71
3
 72
11
 73
7
 74
0
 42
0.0000001
 43
0.0000001
 44
0.0000000001
 40
0.0
 40
0.0
 40
0.0
 40
0.0
 40
0.2277732433
 40
0.4776473155
 40
0.7388019755
 40
1.0
 40
1.0
 40
1.0
 40
1.0
 10
7.162859561
 20
10.3040399362
 30
0.0
 10
7.1579559954
 20
10.306870947
 30
0.0
 10
7.146956101
 20
10.3115893645
 30
0.0
 10
7.1290007159
 20
10.3157853476
 30
0.0
 10
7.1097847942
 20
10.3172072527
 30
0.0
 10
7.0967780407
 20
10.316229093
 30
0.0
 10
7.0903615061
 20
10.3152354818
 30
0.0
  0
SPLINE
  5
4D0
100
AcDbEntity
  8
ALL_FEATURES
100
AcDbSpline
 62
3
  6
CONTINUOUS
 70
0
 71
3
 72
9
 73
5
 74
0
 42
0.0000001
 43
0.0000001
 44
0.0000000001
 40
0.0
 40
0.0
 40
0.0
 40
0.0
 40
0.2608160217
 40
1.0
 40
1.0
 40
1.0
 40
1.0
 10
7.0903615061
 20
10.3152354818
 30
0.0
 10
7.0880139657
 20
10.3148719613
 30
0.0
 10
7.0790584991
 20
10.3132163037
 30
0.0
 10
7.0702812051
 20
10.3104815038
 30
0.0
 10
7.0641265357
 20
10.3077526378
 30
0.0
  0
SPLINE
  5
4D1
100
AcDbEntity
  8
ALL_FEATURES
100
AcDbSpline
 62
3
  6
CONTINUOUS
 70
0
 71
3
 72
9
 73
5
 74
0
 42
0.0000001
 43
0.0000001
 44
0.0000000001
 40
0.0
 40
0.0
 40
0.0
 40
0.0
 40
0.2651662879
 40
1.0
 40
1.0
 40
1.0
 40
1.0
 10
7.0641265357
 20
10.3077526378
 30
0.0
 10
7.0626041151
 20
10.3070776247
 30
0.0
 10
7.056940794
 20
10.3043663158
 30
0.0
 10
7.0515945657
 20
10.300942712
 30
0.0
 10
7.0480583031
 20
10.2979773035
 30
0.0
  0
SPLINE
  5
4D2
100
AcDbEntity
  8
ALL_FEATURES
100
AcDbSpline
 62
3
  6
CONTINUOUS
 70
0
 71
3
 72
9
 73
5
 74
0
 42
0.0000001
 43
0.0000001
 44
0.0000000001
 40
0.0
 40
0.0
 40
0.0
 40
0.0
 40
0.258607869
 40
1.0
 40
1.0
 40
1.0
 40
1.0
 10
7.0072977472
 20
10.0713413634
 30
0.0
 10
7.006503627
 20
10.0708828806
 30
0.0
 10
7.0034688659
 20
10.0690490451
 30
0.0
 10
7.0005811634
 20
10.066966759
 30
0.0
 10
6.9985673261
 20
10.0652770359
 30
0.0
  0
SPLINE
  5
4D3
100
AcDbEntity
  8
ALL_FEATURES
100
AcDbSpline
 62
3
  6
CONTINUOUS
 70
0
 71
3
 72
9
 73
5
 74
0
 42
0.0000001
 43
0.0000001
 44
0.0000000001
 40
0.0
 40
0.0
 40
0.0
 40
0.0
 40
0.2351842619
 40
1.0
 40
1.0
 40
1.0
 40
1.0
 10
7.2529136639
 20
10.1408041479
 30
0.0
 10
7.2517816883
 20
10.1417533905
 30
0.0
 10
7.2468002725
 20
10.1455885373
 30
0.0
 10
7.241236782
 20
10.1486324755
 30
0.0
 10
7.2368449288
 20
10.150579708
 30
0.0
  0
SPLINE
  5
4D4
100
AcDbEntity
  8
ALL_FEATURES
100
AcDbSpline
 62
3
  6
CONTINUOUS
 70
0
 71
3
 72
9
 73
5
 74
0
 42
0.0000001
 43
0.0000001
 44
0.0000000001
 40
0.0
 40
0.0
 40
0.0
 40
0.0
 40
0.2384376286
 40
1.0
 40
1.0
 40
1.0
 40
1.0
 10
7.2368449288
 20
10.150579708
 30
0.0
 10
7.2348594464
 20
10.1514600189
 30
0.0
 10
7.2263925913
 20
10.1548340726
 30
0.0
 10
7.2174650872
 20
10.1570009164
 30
0.0
 10
7.2106098505
 20
10.158062426
 30
0.0
  0
SPLINE
  5
4D5
100
AcDbEntity
  8
ALL_FEATURES
100
AcDbSpline
 62
3
  6
CONTINUOUS
 70
0
 71
3
 72
11
 73
7
 74
0
 42
0.0000001
 43
0.0000001
 44
0.0000000001
 40
0.0
 40
0.0
 40
0.0
 40
0.0
 40
0.2611985689
 40
0.522353393
 40
0.7722272592
 40
1.0
 40
1.0
 40
1.0
 40
1.0
 10
7.2106098505
 20
10.158062426
 30
0.0
 10
7.2041933061
 20
10.1590560056
 30
0.0
 10
7.1911865482
 20
10.1600341034
 30
0.0
 10
7.1719706465
 20
10.1586121081
 30
0.0
 10
7.1540153201
 20
10.1544160406
 30
0.0
 10
7.1430154847
 20
10.149697568
 30
0.0
 10
7.1381119571
 20
10.1468665318
 30
0.0
  0
SPLINE
  5
4D6
100
AcDbEntity
  8
ALL_FEATURES
100
AcDbSpline
 62
3
  6
CONTINUOUS
 70
0
 71
3
 72
9
 73
5
 74
0
 42
0.0000001
 43
0.0000001
 44
0.0000000001
 40
0.0
 40
0.0
 40
0.0
 40
0.0
 40
0.2415103731
 40
1.0
 40
1.0
 40
1.0
 40
1.0
 10
7.1715904308
 20
10.2979753476
 30
0.0
 10
7.1709343675
 20
10.2985258218
 30
0.0
 10
7.1681630751
 20
10.3007394868
 30
0.0
 10
7.165188883
 20
10.3026951319
 30
0.0
 10
7.162859561
 20
10.3040399362
 30
0.0
  0
SPLINE
  5
4D7
100
AcDbEntity
  8
ALL_FEATURES
100
AcDbSpline
 62
3
  6
CONTINUOUS
 70
0
 71
3
 72
11
 73
7
 74
0
 42
0.0000001
 43
0.0000001
 44
0.0000000001
 40
0.0
 40
0.0
 40
0.0
 40
0.0
 40
0.2387584456
 40
0.4822875856
 40
0.7348454242
 40
1.0
 40
1.0
 40
1.0
 40
1.0
 10
7.8271205144
 20
9.1977970588
 30
0.0
 10
7.8271192835
 20
9.1895113914
 30
0.0
 10
7.8256238628
 20
9.1727396842
 30
0.0
 10
7.8189965018
 20
9.1479957072
 30
0.0
 10
7.8080856673
 20
9.123821151
 30
0.0
 10
7.7983019016
 20
9.1086697313
 30
0.0
 10
7.7928211765
 20
9.1012783267
 30
0.0
  0
SPLINE
  5
4D8
100
AcDbEntity
  8
ALL_FEATURES
100
AcDbSpline
 62
3
  6
CONTINUOUS
 70
0
 71
3
 72
9
 73
5
 74
0
 42
0.0000001
 43
0.0000001
 44
0.0000000001
 40
0.0
 40
0.0
 40
0.0
 40
0.0
 40
0.4926078801
 40
1.0
 40
1.0
 40
1.0
 40
1.0
 10
6.5029182681
 20
8.9752385619
 30
0.0
 10
6.5043834439
 20
8.9828211124
 30
0.0
 10
6.5084734371
 20
8.9980158009
 30
0.0
 10
6.5145847814
 20
9.0125074374
 30
0.0
 10
6.518127358
 20
9.0196296314
 30
0.0
  0
SPLINE
  5
4D9
100
AcDbEntity
  8
ALL_FEATURES
100
AcDbSpline
 62
3
  6
CONTINUOUS
 70
0
 71
3
 72
9
 73
5
 74
0
 42
0.0000001
 43
0.0000001
 44
0.0000000001
 40
0.0
 40
0.0
 40
0.0
 40
0.0
 40
0.4793992169
 40
1.0
 40
1.0
 40
1.0
 40
1.0
 10
6.518127358
 20
9.0196296314
 30
0.0
 10
6.5246297553
 20
9.0327024147
 30
0.0
 10
6.5413523832
 20
9.0584554483
 30
0.0
 10
6.5625614601
 20
9.0805395487
 30
0.0
 10
6.5743830225
 20
9.0911058666
 30
0.0
  0
SPLINE
  5
4DA
100
AcDbEntity
  8
ALL_FEATURES
100
AcDbSpline
 62
3
  6
CONTINUOUS
 70
0
 71
3
 72
9
 73
5
 74
0
 42
0.0000001
 43
0.0000001
 44
0.0000000001
 40
0.0
 40
0.0
 40
0.0
 40
0.0
 40
0.4926078801
 40
1.0
 40
1.0
 40
1.0
 40
1.0
 10
8.5903061767
 20
7.7701118545
 30
0.0
 10
8.5917713525
 20
7.777694405
 30
0.0
 10
8.5958613457
 20
7.7928890936
 30
0.0
 10
8.6019726901
 20
7.80738073
 30
0.0
 10
8.6055152666
 20
7.814502924
 30
0.0
  0
SPLINE
  5
4DB
100
AcDbEntity
  8
ALL_FEATURES
100
AcDbSpline
 62
3
  6
CONTINUOUS
 70
0
 71
3
 72
9
 73
5
 74
0
 42
0.0000001
 43
0.0000001
 44
0.0000000001
 40
0.0
 40
0.0
 40
0.0
 40
0.0
 40
0.4793992169
 40
1.0
 40
1.0
 40
1.0
 40
1.0
 10
8.6055152666
 20
7.814502924
 30
0.0
 10
8.6120176639
 20
7.8275757073
 30
0.0
 10
8.6287402919
 20
7.853328741
 30
0.0
 10
8.6499493688
 20
7.8754128414
 30
0.0
 10
8.6617709312
 20
7.8859791593
 30
0.0
  0
SPLINE
  5
4DC
100
AcDbEntity
  8
ALL_FEATURES
100
AcDbSpline
 62
3
  6
CONTINUOUS
 70
0
 71
3
 72
11
 73
7
 74
0
 42
0.0000001
 43
0.0000001
 44
0.0000000001
 40
0.0
 40
0.0
 40
0.0
 40
0.0
 40
0.2387584456
 40
0.4822875856
 40
0.7348454242
 40
1.0
 40
1.0
 40
1.0
 40
1.0
 10
9.914508423
 20
7.9926703514
 30
0.0
 10
9.9145071921
 20
7.9843846841
 30
0.0
 10
9.9130117714
 20
7.9676129769
 30
0.0
 10
9.9063844105
 20
7.9428689998
 30
0.0
 10
9.8954735759
 20
7.9186944437
 30
0.0
 10
9.8856898103
 20
7.9035430239
 30
0.0
 10
9.8802090851
 20
7.8961516194
 30
0.0
  0
SPLINE
  5
4DD
100
AcDbEntity
  8
ALL_FEATURES
100
AcDbSpline
 62
3
  6
CONTINUOUS
 70
0
 71
3
 72
10
 73
6
 74
0
 42
0.0000001
 43
0.0000001
 44
0.0000000001
 40
0.0
 40
0.0
 40
0.0
 40
0.0
 40
0.2242435973
 40
0.5919866215
 40
1.0
 40
1.0
 40
1.0
 40
1.0
 10
5.9356750684
 20
14.3928412105
 30
0.0
 10
5.9351991594
 20
14.3935446782
 30
0.0
 10
5.9341278665
 20
14.3955310058
 30
0.0
 10
5.9330813726
 20
14.3992059367
 30
0.0
 10
5.9328468637
 20
14.4021522748
 30
0.0
 10
5.9328468637
 20
14.4036976333
 30
0.0
  0
SPLINE
  5
4DE
100
AcDbEntity
  8
ALL_FEATURES
100
AcDbSpline
 62
3
  6
CONTINUOUS
 70
0
 71
3
 72
9
 73
5
 74
0
 42
0.0000001
 43
0.0000001
 44
0.0000000001
 40
0.0
 40
0.0
 40
0.0
 40
0.0
 40
0.244891252
 40
1.0
 40
1.0
 40
1.0
 40
1.0
 10
3.7824472872
 20
10.0597361737
 30
0.0
 10
3.7816706717
 20
10.0601845427
 30
0.0
 10
3.7785210671
 20
10.0620528097
 30
0.0
 10
3.7754575092
 20
10.0640652507
 30
0.0
 10
3.7731937654
 20
10.0656530743
 30
0.0
  0
SPLINE
  5
4DF
100
AcDbEntity
  8
ALL_FEATURES
100
AcDbSpline
 62
3
  6
CONTINUOUS
 70
0
 71
3
 72
9
 73
5
 74
0
 42
0.0000001
 43
0.0000001
 44
0.0000000001
 40
0.0
 40
0.0
 40
0.0
 40
0.0
 40
0.2393141913
 40
1.0
 40
1.0
 40
1.0
 40
1.0
 10
3.7731937654
 20
10.0656530743
 30
0.0
 10
3.7708021652
 20
10.0673305782
 30
0.0
 10
3.7610354506
 20
10.0746616879
 30
0.0
 10
3.7521706096
 20
10.0831654143
 30
0.0
 10
3.7459589081
 20
10.0900673044
 30
0.0
  0
SPLINE
  5
4E0
100
AcDbEntity
  8
ALL_FEATURES
100
AcDbSpline
 62
3
  6
CONTINUOUS
 70
0
 71
3
 72
11
 73
7
 74
0
 42
0.0000001
 43
0.0000001
 44
0.0000000001
 40
0.0
 40
0.0
 40
0.0
 40
0.0
 40
0.2654919416
 40
0.525170563
 40
0.7721696217
 40
1.0
 40
1.0
 40
1.0
 40
1.0
 10
3.7242771716
 20
10.1190927963
 30
0.0
 10
3.7197704974
 20
10.1263793736
 30
0.0
 10
3.7117072173
 20
10.1413402716
 30
0.0
 10
3.7026133019
 20
10.1646096556
 30
0.0
 10
3.6969221377
 20
10.1876900287
 30
0.0
 10
3.695472791
 20
10.2030273197
 30
0.0
 10
3.695472791
 20
10.2103795838
 30
0.0
  0
SPLINE
  5
4E1
100
AcDbEntity
  8
ALL_FEATURES
100
AcDbSpline
 62
3
  6
CONTINUOUS
 70
0
 71
3
 72
10
 73
6
 74
0
 42
0.0000001
 43
0.0000001
 44
0.0000000001
 40
0.0
 40
0.0
 40
0.0
 40
0.0
 40
0.2242435973
 40
0.5919866215
 40
1.0
 40
1.0
 40
1.0
 40
1.0
 10
9.1176688316
 20
12.5557578151
 30
0.0
 10
9.1171929225
 20
12.5564612828
 30
0.0
 10
9.1161216296
 20
12.5584476104
 30
0.0
 10
9.1150751357
 20
12.5621225413
 30
0.0
 10
9.1148406269
 20
12.5650688795
 30
0.0
 10
9.1148406269
 20
12.5666142379
 30
0.0
  0
SPLINE
  5
4E2
100
AcDbEntity
  8
ALL_FEATURES
100
AcDbSpline
 62
3
  6
CONTINUOUS
 70
0
 71
3
 72
9
 73
5
 74
0
 42
0.0000001
 43
0.0000001
 44
0.0000000001
 40
0.0
 40
0.0
 40
0.0
 40
0.0
 40
0.2415105255
 40
1.0
 40
1.0
 40
1.0
 40
1.0
 10
4.3788169787
 20
13.8590652007
 30
0.0
 10
4.3796217392
 20
13.8593581171
 30
0.0
 10
4.3829244913
 20
13.860651238
 30
0.0
 10
4.3861052435
 20
13.8622490944
 30
0.0
 10
4.3884345515
 20
13.863593913
 30
0.0
  0
SPLINE
  5
4E3
100
AcDbEntity
  8
ALL_FEATURES
100
AcDbSpline
 62
3
  6
CONTINUOUS
 70
0
 71
3
 72
9
 73
5
 74
0
 42
0.0000001
 43
0.0000001
 44
0.0000000001
 40
0.0
 40
0.0
 40
0.0
 40
0.0
 40
0.2415105255
 40
1.0
 40
1.0
 40
1.0
 40
1.0
 10
4.3788169787
 20
12.8384371793
 30
0.0
 10
4.3796217392
 20
12.8387300957
 30
0.0
 10
4.3829244913
 20
12.8400232166
 30
0.0
 10
4.3861052435
 20
12.841621073
 30
0.0
 10
4.3884345515
 20
12.8429658916
 30
0.0
  0
SPLINE
  5
4E4
100
AcDbEntity
  8
ALL_FEATURES
100
AcDbSpline
 62
3
  6
CONTINUOUS
 70
0
 71
3
 72
9
 73
5
 74
0
 42
0.0000001
 43
0.0000001
 44
0.0000000001
 40
0.0
 40
0.0
 40
0.0
 40
0.0
 40
0.4733991476
 40
1.0
 40
1.0
 40
1.0
 40
1.0
 10
4.6050894852
 20
12.560818951
 30
0.0
 10
4.6091929693
 20
12.5623138587
 30
0.0
 10
4.617483447
 20
12.5665359633
 30
0.0
 10
4.6248378169
 20
12.5721765786
 30
0.0
 10
4.6284718518
 20
12.5754007102
 30
0.0
  0
SPLINE
  5
4E5
100
AcDbEntity
  8
ALL_FEATURES
100
AcDbSpline
 62
3
  6
CONTINUOUS
 70
0
 71
3
 72
12
 73
8
 74
0
 42
0.0000001
 43
0.0000001
 44
0.0000000001
 40
0.0
 40
0.0
 40
0.0
 40
0.0
 40
0.2568831404
 40
0.5186379088
 40
0.7708025048
 40
0.8891459301
 40
1.0
 40
1.0
 40
1.0
 40
1.0
 10
4.6350025487
 20
12.5817313738
 30
0.0
 10
4.6399477702
 20
12.5869524645
 30
0.0
 10
4.6489375381
 20
12.5984689794
 30
0.0
 10
4.659253572
 20
12.6175204991
 30
0.0
 10
4.6649561628
 20
12.6343972987
 30
0.0
 10
4.6673116583
 20
12.6476851289
 30
0.0
 10
4.6677405672
 20
12.6541055011
 30
0.0
 10
4.6677405672
 20
12.6572088051
 30
0.0
  0
SPLINE
  5
4E6
100
AcDbEntity
  8
ALL_FEATURES
100
AcDbSpline
 62
3
  6
CONTINUOUS
 70
0
 71
3
 72
9
 73
5
 74
0
 42
0.0000001
 43
0.0000001
 44
0.0000000001
 40
0.0
 40
0.0
 40
0.0
 40
0.0
 40
0.4733991476
 40
1.0
 40
1.0
 40
1.0
 40
1.0
 10
4.6050894852
 20
13.4793841702
 30
0.0
 10
4.6091929693
 20
13.480879078
 30
0.0
 10
4.617483447
 20
13.4851011826
 30
0.0
 10
4.6248378169
 20
13.4907417979
 30
0.0
 10
4.6284718518
 20
13.4939659295
 30
0.0
  0
SPLINE
  5
4E7
100
AcDbEntity
  8
ALL_FEATURES
100
AcDbSpline
 62
3
  6
CONTINUOUS
 70
0
 71
3
 72
12
 73
8
 74
0
 42
0.0000001
 43
0.0000001
 44
0.0000000001
 40
0.0
 40
0.0
 40
0.0
 40
0.0
 40
0.2568831404
 40
0.5186379088
 40
0.7708025048
 40
0.8891459301
 40
1.0
 40
1.0
 40
1.0
 40
1.0
 10
4.6350025487
 20
13.500296593
 30
0.0
 10
4.6399477702
 20
13.5055176838
 30
0.0
 10
4.6489375381
 20
13.5170341987
 30
0.0
 10
4.659253572
 20
13.5360857184
 30
0.0
 10
4.6649561628
 20
13.5529625179
 30
0.0
 10
4.6673116583
 20
13.5662503481
 30
0.0
 10
4.6677405672
 20
13.5726707204
 30
0.0
 10
4.6677405672
 20
13.5757740244
 30
0.0
  0
SPLINE
  5
4E8
100
AcDbEntity
  8
ALL_FEATURES
100
AcDbSpline
 62
3
  6
CONTINUOUS
 70
0
 71
3
 72
9
 73
5
 74
0
 42
0.0000001
 43
0.0000001
 44
0.0000000001
 40
0.0
 40
0.0
 40
0.0
 40
0.0
 40
0.4733991476
 40
1.0
 40
1.0
 40
1.0
 40
1.0
 10
4.6050894852
 20
14.3979493895
 30
0.0
 10
4.6091929693
 20
14.3994442973
 30
0.0
 10
4.617483447
 20
14.4036664019
 30
0.0
 10
4.6248378169
 20
14.4093070172
 30
0.0
 10
4.6284718518
 20
14.4125311488
 30
0.0
  0
SPLINE
  5
4E9
100
AcDbEntity
  8
ALL_FEATURES
100
AcDbSpline
 62
3
  6
CONTINUOUS
 70
0
 71
3
 72
12
 73
8
 74
0
 42
0.0000001
 43
0.0000001
 44
0.0000000001
 40
0.0
 40
0.0
 40
0.0
 40
0.0
 40
0.2568831404
 40
0.5186379088
 40
0.7708025048
 40
0.8891459301
 40
1.0
 40
1.0
 40
1.0
 40
1.0
 10
4.6350025487
 20
14.4188618123
 30
0.0
 10
4.6399477702
 20
14.424082903
 30
0.0
 10
4.6489375381
 20
14.435599418
 30
0.0
 10
4.659253572
 20
14.4546509376
 30
0.0
 10
4.6649561628
 20
14.4715277372
 30
0.0
 10
4.6673116583
 20
14.4848155674
 30
0.0
 10
4.6677405672
 20
14.4912359396
 30
0.0
 10
4.6677405672
 20
14.4943392436
 30
0.0
  0
SPLINE
  5
4EA
100
AcDbEntity
  8
ALL_FEATURES
100
AcDbSpline
 62
3
  6
CONTINUOUS
 70
0
 71
3
 72
13
 73
9
 74
0
 42
0.0000001
 43
0.0000001
 44
0.0000000001
 40
0.0
 40
0.0
 40
0.0
 40
0.0
 40
0.1140538917
 40
0.2375362919
 40
0.4999983928
 40
0.7624613734
 40
0.8859448042
 40
1.0
 40
1.0
 40
1.0
 40
1.0
 10
5.2920284913
 20
8.8667079273
 30
0.0
 10
5.2905184786
 20
8.8658361262
 30
0.0
 10
5.2875329788
 20
8.8637381795
 30
0.0
 10
5.2819331161
 20
8.8585087451
 30
0.0
 10
5.2760259397
 20
8.8504315448
 30
0.0
 10
5.2719845095
 20
8.8412771459
 30
0.0
 10
5.2702556256
 20
8.8338127536
 30
0.0
 10
5.2699314964
 20
8.8301782268
 30
0.0
 10
5.2699314964
 20
8.8284345969
 30
0.0
  0
SPLINE
  5
4EB
100
AcDbEntity
  8
ALL_FEATURES
100
AcDbSpline
 62
3
  6
CONTINUOUS
 70
0
 71
3
 72
13
 73
9
 74
0
 42
0.0000001
 43
0.0000001
 44
0.0000000001
 40
0.0
 40
0.0
 40
0.0
 40
0.0
 40
0.1140538917
 40
0.2375362919
 40
0.4999983928
 40
0.7624613734
 40
0.8859448042
 40
1.0
 40
1.0
 40
1.0
 40
1.0
 10
5.9549438586
 20
8.4839822199
 30
0.0
 10
5.9534338459
 20
8.4831104189
 30
0.0
 10
5.9504483462
 20
8.4810124722
 30
0.0
 10
5.9448484835
 20
8.4757830377
 30
0.0
 10
5.938941307
 20
8.4677058374
 30
0.0
 10
5.9348998768
 20
8.4585514386
 30
0.0
 10
5.9331709929
 20
8.4510870463
 30
0.0
 10
5.9328468637
 20
8.4474525195
 30
0.0
 10
5.9328468637
 20
8.4457088896
 30
0.0
  0
SPLINE
  5
4EC
100
AcDbEntity
  8
ALL_FEATURES
100
AcDbSpline
 62
3
  6
CONTINUOUS
 70
0
 71
3
 72
13
 73
9
 74
0
 42
0.0000001
 43
0.0000001
 44
0.0000000001
 40
0.0
 40
0.0
 40
0.0
 40
0.0
 40
0.1140538917
 40
0.2375362919
 40
0.4999983928
 40
0.7624613734
 40
0.8859448042
 40
1.0
 40
1.0
 40
1.0
 40
1.0
 10
8.4740222545
 20
7.0296245319
 30
0.0
 10
8.4725122417
 20
7.0287527309
 30
0.0
 10
8.469526742
 20
7.0266547842
 30
0.0
 10
8.4639268793
 20
7.0214253497
 30
0.0
 10
8.4580197029
 20
7.0133481495
 30
0.0
 10
8.4539782727
 20
7.0041937506
 30
0.0
 10
8.4522493888
 20
6.9967293583
 30
0.0
 10
8.4519252596
 20
6.9930948315
 30
0.0
 10
8.4519252596
 20
6.9913512016
 30
0.0
  0
SPLINE
  5
4ED
100
AcDbEntity
  8
ALL_FEATURES
100
AcDbSpline
 62
3
  6
CONTINUOUS
 70
0
 71
3
 72
13
 73
9
 74
0
 42
0.0000001
 43
0.0000001
 44
0.0000000001
 40
0.0
 40
0.0
 40
0.0
 40
0.0
 40
0.1140538917
 40
0.2375362919
 40
0.4999983928
 40
0.7624613734
 40
0.8859448042
 40
1.0
 40
1.0
 40
1.0
 40
1.0
 10
9.1369376218
 20
6.6468988246
 30
0.0
 10
9.135427609
 20
6.6460270235
 30
0.0
 10
9.1324421093
 20
6.6439290768
 30
0.0
 10
9.1268422466
 20
6.6386996424
 30
0.0
 10
9.1209350702
 20
6.6306224421
 30
0.0
 10
9.11689364
 20
6.6214680432
 30
0.0
 10
9.1151647561
 20
6.6140036509
 30
0.0
 10
9.1148406269
 20
6.6103691241
 30
0.0
 10
9.1148406269
 20
6.6086254942
 30
0.0
  0
ENDSEC
  0
SECTION
  2
OBJECTS
  0
DICTIONARY
  5
4EE
100
AcDbDictionary
  3
ACAD_GROUP
350
4EF
  3
ACAD_MLINESTYLE
350
4F0
  0
DICTIONARY
  5
4EF
102
{ACAD_REACTORS
330
4EE
102
}
100
AcDbDictionary
  0
DICTIONARY
  5
4F0
102
{ACAD_REACTORS
330
4EE
102
}
100
AcDbDictionary
  3
STANDARD
350
4F1
  0
MLINESTYLE
  5
4F1
102
{ACAD_REACTORS
330
4F0
102
}
100
AcDbMlineStyle
  2
STANDARD
 70
0
  3

 62
256
 51
90.0
 52
90.0
 71
2
 49
0.5
 62
256
  6
BYLAYER
 49
-0.5
 62
256
  6
BYLAYER
  0
ENDSEC
  0
EOF
