  0
SECTION
  2
HEADER
  9
$ACADVER
  1
AC1014
  9
$ACADMAINTVER
 70
     9
  9
$DWGCODEPAGE
  3
ANSI_1252
  9
$INSBASE
 10
0.0
 20
0.0
 30
0.0
  9
$EXTMIN
 10
-0.004016400754665
 20
-0.0007655282768297
 30
-0.0000000000056347
  9
$EXTMAX
 10
51.00135418845566
 20
33.002007439673
 30
0.0000000000264482
  9
$LIMMIN
 10
0.0
 20
0.0
  9
$LIMMAX
 10
34.0
 20
22.0
  9
$ORTHOMODE
 70
     1
  9
$REGENMODE
 70
     1
  9
$FILLMODE
 70
     1
  9
$QTEXTMODE
 70
     0
  9
$MIRRTEXT
 70
     1
  9
$DRAGMODE
 70
     2
  9
$LTSCALE
 40
1.0
  9
$OSMODE
 70
   383
  9
$ATTMODE
 70
     1
  9
$TEXTSIZE
 40
0.156
  9
$TRACEWID
 40
0.05
  9
$TEXTSTYLE
  7
STANDARD
  9
$CLAYER
  8
DIM
  9
$CELTYPE
  6
BYLAYER
  9
$CECOLOR
 62
   256
  9
$CELTSCALE
 40
1.0
  9
$DELOBJ
 70
     1
  9
$DISPSILH
 70
     0
  9
$DIMSCALE
 40
1.0
  9
$DIMASZ
 40
0.25
  9
$DIMEXO
 40
0.25
  9
$DIMDLI
 40
0.25
  9
$DIMRND
 40
0.0
  9
$DIMDLE
 40
0.0
  9
$DIMEXE
 40
0.25
  9
$DIMTP
 40
0.0
  9
$DIMTM
 40
0.0
  9
$DIMTXT
 40
0.25
  9
$DIMCEN
 40
0.25
  9
$DIMTSZ
 40
0.0
  9
$DIMTOL
 70
     0
  9
$DIMLIM
 70
     0
  9
$DIMTIH
 70
     1
  9
$DIMTOH
 70
     1
  9
$DIMSE1
 70
     0
  9
$DIMSE2
 70
     0
  9
$DIMTAD
 70
     0
  9
$DIMZIN
 70
     4
  9
$DIMBLK
  1

  9
$DIMASO
 70
     1
  9
$DIMSHO
 70
     1
  9
$DIMPOST
  1

  9
$DIMAPOST
  1

  9
$DIMALT
 70
     1
  9
$DIMALTD
 70
     2
  9
$DIMALTF
 40
25.4
  9
$DIMLFAC
 40
1.0
  9
$DIMTOFL
 70
     0
  9
$DIMTVP
 40
0.0
  9
$DIMTIX
 70
     0
  9
$DIMSOXD
 70
     0
  9
$DIMSAH
 70
     0
  9
$DIMBLK1
  1

  9
$DIMBLK2
  1

  9
$DIMSTYLE
  2
STANDARD
  9
$DIMCLRD
 70
     0
  9
$DIMCLRE
 70
     0
  9
$DIMCLRT
 70
     0
  9
$DIMTFAC
 40
1.0
  9
$DIMGAP
 40
0.25
  9
$DIMJUST
 70
     0
  9
$DIMSD1
 70
     0
  9
$DIMSD2
 70
     0
  9
$DIMTOLJ
 70
     1
  9
$DIMTZIN
 70
     0
  9
$DIMALTZ
 70
     4
  9
$DIMALTTZ
 70
     0
  9
$DIMFIT
 70
     3
  9
$DIMUPT
 70
     0
  9
$DIMUNIT
 70
     2
  9
$DIMDEC
 70
     3
  9
$DIMTDEC
 70
     3
  9
$DIMALTU
 70
     2
  9
$DIMALTTD
 70
     2
  9
$DIMTXSTY
  7
STANDARD
  9
$DIMAUNIT
 70
     0
  9
$LUNITS
 70
     2
  9
$LUPREC
 70
     3
  9
$SKETCHINC
 40
0.1
  9
$FILLETRAD
 40
0.5
  9
$AUNITS
 70
     0
  9
$AUPREC
 70
     1
  9
$MENU
  1
.
  9
$ELEVATION
 40
0.0
  9
$PELEVATION
 40
0.0
  9
$THICKNESS
 40
0.0
  9
$LIMCHECK
 70
     0
  9
$BLIPMODE
 70
     0
  9
$CHAMFERA
 40
0.5
  9
$CHAMFERB
 40
0.5
  9
$CHAMFERC
 40
1.0
  9
$CHAMFERD
 40
0.0
  9
$SKPOLY
 70
     0
  9
$TDCREATE
 40
2456454.594322905
  9
$TDUPDATE
 40
2456454.742514132
  9
$TDINDWG
 40
0.0733892940
  9
$TDUSRTIMER
 40
0.0733892940
  9
$USRTIMER
 70
     1
  9
$ANGBASE
 50
0.0
  9
$ANGDIR
 70
     0
  9
$PDMODE
 70
     0
  9
$PDSIZE
 40
-1.0
  9
$PLINEWID
 40
0.0
  9
$COORDS
 70
     2
  9
$SPLFRAME
 70
     0
  9
$SPLINETYPE
 70
     6
  9
$SPLINESEGS
 70
     8
  9
$ATTDIA
 70
     0
  9
$ATTREQ
 70
     1
  9
$HANDLING
 70
 22529
  9
$HANDSEED
  5
5B3E
  9
$SURFTAB1
 70
     6
  9
$SURFTAB2
 70
     6
  9
$SURFTYPE
 70
     6
  9
$SURFU
 70
     6
  9
$SURFV
 70
     6
  9
$UCSNAME
  2

  9
$UCSORG
 10
0.0
 20
0.0
 30
0.0
  9
$UCSXDIR
 10
1.0
 20
0.0
 30
0.0
  9
$UCSYDIR
 10
0.0
 20
1.0
 30
0.0
  9
$PUCSNAME
  2

  9
$PUCSORG
 10
0.0
 20
0.0
 30
0.0
  9
$PUCSXDIR
 10
1.0
 20
0.0
 30
0.0
  9
$PUCSYDIR
 10
0.0
 20
1.0
 30
0.0
  9
$USERI1
 70
     0
  9
$USERI2
 70
     0
  9
$USERI3
 70
     0
  9
$USERI4
 70
     0
  9
$USERI5
 70
     0
  9
$USERR1
 40
0.0
  9
$USERR2
 40
0.0
  9
$USERR3
 40
0.0
  9
$USERR4
 40
0.0
  9
$USERR5
 40
0.0
  9
$WORLDVIEW
 70
     1
  9
$SHADEDGE
 70
     3
  9
$SHADEDIF
 70
    70
  9
$TILEMODE
 70
     1
  9
$MAXACTVP
 70
    64
  9
$PINSBASE
 10
0.0
 20
0.0
 30
0.0
  9
$PLIMCHECK
 70
     0
  9
$PEXTMIN
 10
1.000000000000000E+20
 20
1.000000000000000E+20
 30
1.000000000000000E+20
  9
$PEXTMAX
 10
-1.000000000000000E+20
 20
-1.000000000000000E+20
 30
-1.000000000000000E+20
  9
$PLIMMIN
 10
0.0
 20
0.0
  9
$PLIMMAX
 10
12.0
 20
9.0
  9
$UNITMODE
 70
     0
  9
$VISRETAIN
 70
     1
  9
$PLINEGEN
 70
     0
  9
$PSLTSCALE
 70
     1
  9
$TREEDEPTH
 70
  3020
  9
$PICKSTYLE
 70
     1
  9
$CMLSTYLE
  2
STANDARD
  9
$CMLJUST
 70
     0
  9
$CMLSCALE
 40
1.0
  9
$PROXYGRAPHICS
 70
     1
  9
$MEASUREMENT
 70
     0
  0
ENDSEC
  0
SECTION
  2
CLASSES
  0
CLASS
  1
ACDBDICTIONARYWDFLT
  2
AcDbDictionaryWithDefault
  3
AutoCAD 2000
 90
        0
280
     0
281
     0
  0
CLASS
  1
VISUALSTYLE
  2
AcDbVisualStyle
  3
ObjectDBX Classes
 90
     4095
280
     0
281
     0
  0
CLASS
  1
MATERIAL
  2
AcDbMaterial
  3
ObjectDBX Classes
 90
     1153
280
     0
281
     0
  0
CLASS
  1
SCALE
  2
AcDbScale
  3
ObjectDBX Classes
 90
     1153
280
     0
281
     0
  0
CLASS
  1
DICTIONARYVAR
  2
AcDbDictionaryVar
  3
AutoCAD 2000
 90
        0
280
     0
281
     0
  0
CLASS
  1
ACDBPLACEHOLDER
  2
AcDbPlaceHolder
  3
AutoCAD 2000
 90
        0
280
     0
281
     0
  0
CLASS
  1
LAYOUT
  2
AcDbLayout
  3
AutoCAD 2000
 90
        0
280
     0
281
     0
  0
CLASS
  1
ACAD_PROXY_OBJECT_WRAPPER
  2
AcDbProxyObjectWrapper
  3
AutoCAD 2000
 90
        0
280
     0
281
     0
  0
CLASS
  1
LONG_TRANSACTION
  2
AcDbLongTransaction
  3
AutoCAD 2000
 90
        0
280
     0
281
     0
  0
CLASS
  1
LWPOLYLINE
  2
AcDbPolyline
  3
AutoCAD 2000
 90
        0
280
     0
281
     1
  0
CLASS
  1
HATCH
  2
AcDbHatch
  3
AutoCAD 2000
 90
        0
280
     0
281
     1
  0
CLASS
  1
XRECORD
  2
AcDbXrecord
  3
AutoCAD 2000
 90
        0
280
     0
281
     0
  0
ENDSEC
  0
SECTION
  2
TABLES
  0
TABLE
  2
VPORT
  5
8
330
0
100
AcDbSymbolTable
 70
    11
  0
VPORT
  5
5B16
330
8
100
AcDbSymbolTableRecord
100
AcDbViewportTableRecord
  2
*ACTIVE
 70
     0
 10
0.0
 20
0.0
 11
1.0
 21
1.0
 12
25.4986688938505
 22
16.50062095569809
 13
0.0
 23
0.0
 14
0.5
 24
0.5
 15
0.5
 25
0.5
 16
0.0
 26
0.0
 36
1.0
 17
0.0
 27
0.0
 37
0.0
 40
35.251373482945
 41
1.454106280193236
 42
50.0
 43
0.0
 44
0.0
 50
0.0
 51
0.0
 71
     0
 72
  2000
 73
     1
 74
     3
 75
     0
 76
     0
 77
     0
 78
     0
  0
ENDTAB
  0
TABLE
  2
LTYPE
  5
5
330
0
100
AcDbSymbolTable
 70
     6
  0
LTYPE
  5
14
330
5
100
AcDbSymbolTableRecord
100
AcDbLinetypeTableRecord
  2
BYBLOCK
 70
     0
  3

 72
    65
 73
     0
 40
0.0
  0
LTYPE
  5
15
330
5
100
AcDbSymbolTableRecord
100
AcDbLinetypeTableRecord
  2
BYLAYER
 70
     0
  3

 72
    65
 73
     0
 40
0.0
  0
LTYPE
  5
16
330
5
100
AcDbSymbolTableRecord
100
AcDbLinetypeTableRecord
  2
CONTINUOUS
 70
     0
  3
Solid line
 72
    65
 73
     0
 40
0.0
  0
LTYPE
  5
40
330
5
100
AcDbSymbolTableRecord
100
AcDbLinetypeTableRecord
  2
PHANTOM
 70
     0
  3
Phantom ______  __  __  ______  __  __  ______
 72
    65
 73
     6
 40
0.5
 49
0.25
 74
     0
 49
-0.05
 74
     0
 49
0.05
 74
     0
 49
-0.05
 74
     0
 49
0.05
 74
     0
 49
-0.05
 74
     0
  0
LTYPE
  5
41
330
5
100
AcDbSymbolTableRecord
100
AcDbLinetypeTableRecord
  2
CENTER
 70
     0
  3
Center ____ _ ____ _ ____ _ ____ _ ____ _ ____
 72
    65
 73
     4
 40
0.4
 49
0.25
 74
     0
 49
-0.05
 74
     0
 49
0.05
 74
     0
 49
-0.05
 74
     0
  0
ENDTAB
  0
TABLE
  2
LAYER
  5
2
330
0
100
AcDbSymbolTable
 70
    11
  0
LAYER
  5
10
330
2
100
AcDbSymbolTableRecord
100
AcDbLayerTableRecord
  2
0
 70
     0
 62
     7
  6
CONTINUOUS
  0
LAYER
  5
45
330
2
100
AcDbSymbolTableRecord
100
AcDbLayerTableRecord
  2
FORMAT
 70
     0
 62
     7
  6
CONTINUOUS
  0
LAYER
  5
47
330
2
100
AcDbSymbolTableRecord
100
AcDbLayerTableRecord
  2
TB-TXT
 70
     0
 62
     3
  6
CONTINUOUS
  0
LAYER
  5
147B
330
2
100
AcDbSymbolTableRecord
100
AcDbLayerTableRecord
  2
DEFPOINTS
 70
     0
 62
     7
  6
CONTINUOUS
  0
LAYER
  5
14CF
330
2
100
AcDbSymbolTableRecord
100
AcDbLayerTableRecord
  2
DIM
 70
     0
 62
     1
  6
CONTINUOUS
  0
ENDTAB
  0
TABLE
  2
STYLE
  5
3
330
0
100
AcDbSymbolTable
 70
    10
  0
STYLE
  5
11
330
3
100
AcDbSymbolTableRecord
100
AcDbTextStyleTableRecord
  2
STANDARD
 70
     0
 40
0.0
 41
1.0
 50
0.0
 71
     0
 42
0.156
  3
txt
  4

  0
STYLE
  5
14D4
330
3
100
AcDbSymbolTableRecord
100
AcDbTextStyleTableRecord
  2
ARIAL
 70
     0
 40
0.0
 41
1.0
 50
0.0
 71
     0
 42
0.12
  3
arial.ttf
  4

1001
ACAD
1000
Arial
1071
       34
  0
ENDTAB
  0
TABLE
  2
VIEW
  5
6
330
0
100
AcDbSymbolTable
 70
     0
  0
ENDTAB
  0
TABLE
  2
UCS
  5
7
330
0
100
AcDbSymbolTable
 70
     0
  0
ENDTAB
  0
TABLE
  2
APPID
  5
9
330
0
100
AcDbSymbolTable
 70
     1
  0
APPID
  5
12
330
9
100
AcDbSymbolTableRecord
100
AcDbRegAppTableRecord
  2
ACAD
 70
     0
  0
ENDTAB
  0
TABLE
  2
DIMSTYLE
  5
A
330
0
100
AcDbSymbolTable
 70
     5
  0
DIMSTYLE
105
27
102
{ACAD_REACTORS
330
59B8
330
59C6
330
59D5
330
59E3
330
59F1
330
5A0B
330
5AAA
102
}
330
A
100
AcDbSymbolTableRecord
100
AcDbDimStyleTableRecord
  2
STANDARD
 70
     0
  3

  4

  5

  6

  7

 40
1.0
 41
0.18
 42
0.0625
 43
0.38
 44
0.18
 45
0.0
 46
0.0
 47
0.0
 48
0.0
140
0.18
141
0.09
142
0.0
143
25.4
144
1.0
145
0.0
146
1.0
147
0.09
 71
     0
 72
     0
 73
     1
 74
     1
 75
     0
 76
     0
 77
     0
 78
     0
170
     0
171
     2
172
     0
173
     0
174
     0
175
     0
176
     0
177
     0
178
     0
270
     2
271
     4
272
     4
273
     2
274
     2
340
11
275
     0
280
     0
281
     0
282
     0
283
     1
284
     0
285
     0
286
     0
287
     3
288
     0
  0
ENDTAB
  0
TABLE
  2
BLOCK_RECORD
  5
1
330
0
100
AcDbSymbolTable
 70
    81
  0
BLOCK_RECORD
  5
1F
102
{ACAD_XDICTIONARY
360
5B3A
102
}
330
1
100
AcDbSymbolTableRecord
100
AcDbBlockTableRecord
  2
*MODEL_SPACE
  0
BLOCK_RECORD
  5
1B
102
{ACAD_XDICTIONARY
360
5B38
102
}
330
1
100
AcDbSymbolTableRecord
100
AcDbBlockTableRecord
  2
*PAPER_SPACE
  0
BLOCK_RECORD
  5
14B9
330
1
100
AcDbSymbolTableRecord
100
AcDbBlockTableRecord
  2
REV-BLOCK
  0
BLOCK_RECORD
  5
14C2
330
1
100
AcDbSymbolTableRecord
100
AcDbBlockTableRecord
  2
TITLE-BLOCK
  0
BLOCK_RECORD
  5
59B9
330
1
100
AcDbSymbolTableRecord
100
AcDbBlockTableRecord
  2
*D73
  0
BLOCK_RECORD
  5
59C7
330
1
100
AcDbSymbolTableRecord
100
AcDbBlockTableRecord
  2
*D74
  0
BLOCK_RECORD
  5
59D6
330
1
100
AcDbSymbolTableRecord
100
AcDbBlockTableRecord
  2
*D75
  0
BLOCK_RECORD
  5
59E4
330
1
100
AcDbSymbolTableRecord
100
AcDbBlockTableRecord
  2
*D76
  0
BLOCK_RECORD
  5
59F2
330
1
100
AcDbSymbolTableRecord
100
AcDbBlockTableRecord
  2
*D77
  0
BLOCK_RECORD
  5
5A0C
330
1
100
AcDbSymbolTableRecord
100
AcDbBlockTableRecord
  2
*D78
  0
BLOCK_RECORD
  5
5AAB
330
1
100
AcDbSymbolTableRecord
100
AcDbBlockTableRecord
  2
*D80
  0
ENDTAB
  0
ENDSEC
  0
SECTION
  2
BLOCKS
  0
BLOCK
  5
20
330
1F
100
AcDbEntity
  8
0
100
AcDbBlockBegin
  2
*MODEL_SPACE
 70
     0
 10
0.0
 20
0.0
 30
0.0
  3
*MODEL_SPACE
  1

  0
ENDBLK
  5
21
330
1F
100
AcDbEntity
  8
0
100
AcDbBlockEnd
  0
BLOCK
  5
1C
330
1B
100
AcDbEntity
 67
     1
  8
0
100
AcDbBlockBegin
  2
*PAPER_SPACE
 70
     0
 10
0.0
 20
0.0
 30
0.0
  3
*PAPER_SPACE
  1

  0
ENDBLK
  5
1D
330
1B
100
AcDbEntity
 67
     1
  8
0
100
AcDbBlockEnd
  0
BLOCK
  5
14C0
330
14B9
100
AcDbEntity
  8
0
100
AcDbBlockBegin
  2
REV-BLOCK
 70
     2
 10
0.0
 20
0.0
 30
0.0
  3
REV-BLOCK
  1

  0
ATTDEF
  5
14BA
330
14B9
100
AcDbEntity
  8
TB-TXT
100
AcDbText
 10
-7.419585413768534
 20
-0.2641364156046726
 30
0.0
 40
0.12
  1
--
  7
ARIAL
 72
     1
 11
-7.363760038598002
 21
-0.2041364156046725
 31
0.0
100
AcDbAttributeDefinition
  3
REV
  2
REV
 70
     0
 74
     2
  0
ATTDEF
  5
14BB
330
14B9
100
AcDbEntity
  8
TB-TXT
100
AcDbText
 10
-7.021598876369779
 20
-0.2621627084294076
 30
0.0
 40
0.12
  1

  7
ARIAL
100
AcDbAttributeDefinition
  3
ECN N0,
  2
ECN
 70
     0
  0
ATTDEF
  5
14BC
330
14B9
100
AcDbEntity
  8
TB-TXT
100
AcDbText
 10
-6.3841325538651
 20
-0.2621627084294076
 30
0.0
 40
0.12
  1

  7
ARIAL
100
AcDbAttributeDefinition
  3
DESCRIPTION
  2
DESCRIPTION
 70
     0
  0
ATTDEF
  5
14BD
330
14B9
100
AcDbEntity
  8
TB-TXT
100
AcDbText
 10
-1.912314371261913
 20
-0.2641364156046726
 30
0.0
 40
0.12
  1

  7
ARIAL
 72
     1
 11
-1.912314371261913
 21
-0.2041364156046725
 31
0.0
100
AcDbAttributeDefinition
  3
REV DATE
  2
REV-DATE
 70
     0
 74
     2
  0
ATTDEF
  5
14BE
330
14B9
100
AcDbEntity
  8
TB-TXT
100
AcDbText
 10
-0.7008820905977871
 20
-0.2641364156046726
 30
0.0
 40
0.12
  1

  7
ARIAL
 72
     1
 11
-0.7008820905977871
 21
-0.2041364156046725
 31
0.0
100
AcDbAttributeDefinition
  3
APPR
  2
APPR
 70
     0
 74
     2
  0
LWPOLYLINE
  5
14BF
330
14B9
100
AcDbEntity
  8
FORMAT
100
AcDbPolyline
 90
        2
 70
     0
 43
0.0198
 10
-7.66263347794009
 20
-0.4059699235454915
 10
0.0
 20
-0.4059699235454915
  0
ENDBLK
  5
14C1
330
14B9
100
AcDbEntity
  8
0
100
AcDbBlockEnd
  0
BLOCK
  5
14CC
330
14C2
100
AcDbEntity
  8
0
100
AcDbBlockBegin
  2
TITLE-BLOCK
 70
     2
 10
0.0
 20
0.0
 30
0.0
  3
TITLE-BLOCK
  1

  0
ATTDEF
  5
14C3
330
14C2
100
AcDbEntity
  8
TB-TXT
100
AcDbText
 10
-5.452069740892156
 20
1.724637434505384
 30
0.0
 40
0.15996
  1

  7
ARIAL
100
AcDbAttributeDefinition
  3
TITLE (LINE 1)
  2
LINE1
 70
     0
  0
ATTDEF
  5
14C4
330
14C2
100
AcDbEntity
  8
TB-TXT
100
AcDbText
 10
-5.452069740892156
 20
1.465654577362527
 30
0.0
 40
0.15996
  1

  7
ARIAL
100
AcDbAttributeDefinition
  3
TITLE (LINE 2)
  2
LINE2
 70
     0
  0
ATTDEF
  5
14C5
330
14C2
100
AcDbEntity
  8
TB-TXT
100
AcDbText
 10
-5.452069740892156
 20
1.20667172021967
 30
0.0
 40
0.15996
  1

  7
ARIAL
100
AcDbAttributeDefinition
  3
TITLE (LINE 3)
  2
LINE3
 70
     0
  0
ATTDEF
  5
14C6
330
14C2
100
AcDbEntity
  8
TB-TXT
100
AcDbText
 10
-5.452069740892156
 20
0.9476888630768137
 30
0.0
 40
0.15996
  1

  7
ARIAL
100
AcDbAttributeDefinition
  3
TITLE (LINE 4)
  2
LINE4
 70
     0
  0
ATTDEF
  5
14C7
330
14C2
100
AcDbEntity
  8
TB-TXT
100
AcDbText
 10
-2.607663526262058
 20
0.495823930069566
 30
0.0
 40
0.12
  1

  7
ARIAL
100
AcDbAttributeDefinition
  3
DWG NO.
  2
DWG#
 70
     0
  0
ATTDEF
  5
14C8
330
14C2
100
AcDbEntity
  8
TB-TXT
100
AcDbText
 10
-5.506905230490374
 20
0.1136078675417114
 30
0.0
 40
0.12
  1

  7
ARIAL
100
AcDbAttributeDefinition
  3
FILE NO.
  2
FILE#
 70
     0
  0
ATTDEF
  5
14C9
330
14C2
100
AcDbEntity
  8
TB-TXT
100
AcDbText
 10
-0.2425360425092862
 20
0.4881363695403174
 30
0.0
 40
0.12
  1

  7
ARIAL
 72
     4
 11
-0.2425360425092862
 21
0.4881363695403174
 31
0.0
100
AcDbAttributeDefinition
  3
REV
  2
REV
 70
     0
  0
ATTDEF
  5
14CA
330
14C2
100
AcDbEntity
  8
TB-TXT
100
AcDbText
 10
-4.485055143223689
 20
0.495823930069566
 30
0.0
 40
0.12
  1
FULL
  7
ARIAL
100
AcDbAttributeDefinition
  3
SCALE
  2
SCALE
 70
     0
  0
ATTDEF
  5
14CB
330
14C2
100
AcDbEntity
  8
TB-TXT
100
AcDbText
 10
-1.004564496465349
 20
0.0916846763858388
 30
0.0
 40
0.12
  1
1 OF 1
  7
ARIAL
100
AcDbAttributeDefinition
  3
SHEET N0.
  2
SHT#
 70
     0
  0
ENDBLK
  5
14CD
330
14C2
100
AcDbEntity
  8
0
100
AcDbBlockEnd
  0
BLOCK
  5
59C4
330
59B9
100
AcDbEntity
  8
0
100
AcDbBlockBegin
  2
*D73
 70
     1
 10
0.0
 20
0.0
 30
0.0
  3
*D73
  1

  0
LINE
  5
5AB9
330
59B9
100
AcDbEntity
  8
DIM
 62
     0
100
AcDbLine
 10
32.09366713352558
 20
13.7953788607373
 30
0.0
 11
32.09366713352558
 21
11.64480287559939
 31
0.0
  0
LINE
  5
5ABA
330
59B9
100
AcDbEntity
  8
DIM
 62
     0
100
AcDbLine
 10
29.99326559754336
 20
13.16137889142572
 30
0.0
 11
29.99326559754336
 21
11.64480287559939
 31
0.0
  0
LINE
  5
5ABB
330
59B9
100
AcDbEntity
  8
DIM
 62
     0
100
AcDbLine
 10
31.84366713352558
 20
11.89480287559939
 30
0.0
 11
30.24326559754336
 21
11.89480287559939
 31
0.0
  0
LINE
  5
5ABC
330
59B9
100
AcDbEntity
  8
DIM
 62
     0
100
AcDbLine
 10
29.99326559754336
 20
11.89480287559939
 30
0.0
 11
29.74326559754336
 21
11.89480287559939
 31
0.0
  0
SOLID
  5
5ABD
330
59B9
100
AcDbEntity
  8
DIM
 62
     0
100
AcDbTrace
 10
31.84366713352558
 20
11.93646954226606
 30
0.0
 11
31.84366713352558
 21
11.85313620893273
 31
0.0
 12
32.09366713352558
 22
11.89480287559939
 32
0.0
 13
32.09366713352558
 23
11.89480287559939
 33
0.0
  0
SOLID
  5
5ABE
330
59B9
100
AcDbEntity
  8
DIM
 62
     0
100
AcDbTrace
 10
30.24326559754336
 20
11.93646954226606
 30
0.0
 11
30.24326559754336
 21
11.85313620893273
 31
0.0
 12
29.99326559754336
 22
11.89480287559939
 32
0.0
 13
29.99326559754336
 23
11.89480287559939
 33
0.0
  0
MTEXT
  5
5ABF
330
59B9
100
AcDbEntity
  8
DIM
 62
     0
100
AcDbMText
 10
28.24326559754336
 20
11.89480287559939
 30
0.0
 40
0.25
 41
0.0
 71
     5
 72
     1
  1
\A1;2.100 [53.35]
1001
ACAD
1000
MTEXTBEGIN
1070
    73
1070
     1
1070
    44
1040
1.0
1070
    74
1070
     0
1000
MTEXTEND
  0
POINT
  5
5AC0
330
59B9
100
AcDbEntity
  8
DEFPOINTS
 62
     0
100
AcDbPoint
 10
32.09366713352558
 20
14.04537886073731
 30
0.0
  0
POINT
  5
5AC1
330
59B9
100
AcDbEntity
  8
DEFPOINTS
 62
     0
100
AcDbPoint
 10
29.99326559754336
 20
13.41137889142572
 30
0.0
  0
POINT
  5
5AC2
330
59B9
100
AcDbEntity
  8
DEFPOINTS
 62
     0
100
AcDbPoint
 10
29.99326559754336
 20
11.89480287559939
 30
0.0
  0
ENDBLK
  5
59C5
330
59B9
100
AcDbEntity
  8
0
100
AcDbBlockEnd
  0
BLOCK
  5
59D2
330
59C7
100
AcDbEntity
  8
0
100
AcDbBlockBegin
  2
*D74
 70
     1
 10
0.0
 20
0.0
 30
0.0
  3
*D74
  1

  0
LINE
  5
5A55
330
59C7
100
AcDbEntity
  8
DIM
 62
     0
100
AcDbLine
 10
5.903718964514542
 20
13.26137888288395
 30
0.0
 11
5.903718964514542
 21
10.51673451594621
 31
0.0
  0
LINE
  5
5A56
330
59C7
100
AcDbEntity
  8
DIM
 62
     0
100
AcDbLine
 10
24.90371910155829
 20
13.26137888288395
 30
0.0
 11
24.90371910155829
 21
10.51673451594621
 31
0.0
  0
LINE
  5
5A57
330
59C7
100
AcDbEntity
  8
DIM
 62
     0
100
AcDbLine
 10
6.153718964514542
 20
10.76673451594621
 30
0.0
 11
13.69538569970308
 21
10.76673451594621
 31
0.0
  0
LINE
  5
5A58
330
59C7
100
AcDbEntity
  8
DIM
 62
     0
100
AcDbLine
 10
24.65371910155829
 20
10.76673451594621
 30
0.0
 11
17.11205236636974
 21
10.76673451594621
 31
0.0
  0
SOLID
  5
5A59
330
59C7
100
AcDbEntity
  8
DIM
 62
     0
100
AcDbTrace
 10
6.153718964514542
 20
10.80840118261287
 30
0.0
 11
6.153718964514542
 21
10.72506784927954
 31
0.0
 12
5.903718964514542
 22
10.76673451594621
 32
0.0
 13
5.903718964514542
 23
10.76673451594621
 33
0.0
  0
SOLID
  5
5A5A
330
59C7
100
AcDbEntity
  8
DIM
 62
     0
100
AcDbTrace
 10
24.65371910155829
 20
10.80840118261287
 30
0.0
 11
24.65371910155829
 21
10.72506784927954
 31
0.0
 12
24.90371910155829
 22
10.76673451594621
 32
0.0
 13
24.90371910155829
 23
10.76673451594621
 33
0.0
  0
MTEXT
  5
5A5B
330
59C7
100
AcDbEntity
  8
DIM
 62
     0
100
AcDbMText
 10
15.40371903303642
 20
10.76673451594621
 30
0.0
 40
0.25
 41
0.0
 71
     5
 72
     1
  1
\A1;19.000 [482.60]
1001
ACAD
1000
MTEXTBEGIN
1070
    73
1070
     1
1070
    44
1040
1.0
1070
    74
1070
     0
1000
MTEXTEND
  0
POINT
  5
5A5C
330
59C7
100
AcDbEntity
  8
DEFPOINTS
 62
     0
100
AcDbPoint
 10
5.903718964514542
 20
13.51137888288395
 30
0.0
  0
POINT
  5
5A5D
330
59C7
100
AcDbEntity
  8
DEFPOINTS
 62
     0
100
AcDbPoint
 10
24.90371910155829
 20
13.51137888288395
 30
0.0
  0
POINT
  5
5A5E
330
59C7
100
AcDbEntity
  8
DEFPOINTS
 62
     0
100
AcDbPoint
 10
24.90371910155829
 20
10.76673451594621
 30
0.0
  0
ENDBLK
  5
59D3
330
59C7
100
AcDbEntity
  8
0
100
AcDbBlockEnd
  0
BLOCK
  5
59E1
330
59D6
100
AcDbEntity
  8
0
100
AcDbBlockBegin
  2
*D75
 70
     1
 10
0.0
 20
0.0
 30
0.0
  3
*D75
  1

  0
LINE
  5
5A4B
330
59D6
100
AcDbEntity
  8
DIM
 62
     0
100
AcDbLine
 10
6.239719029679785
 20
14.50537885875674
 30
0.0
 11
6.239719029679785
 21
11.38108521686561
 31
0.0
  0
LINE
  5
5A4C
330
59D6
100
AcDbEntity
  8
DIM
 62
     0
100
AcDbLine
 10
24.56771903639305
 20
14.50537885875674
 30
0.0
 11
24.56771903639305
 21
11.38108521686561
 31
0.0
  0
LINE
  5
5A4D
330
59D6
100
AcDbEntity
  8
DIM
 62
     0
100
AcDbLine
 10
6.489719029679785
 20
11.63108521686561
 30
0.0
 11
13.61205236636975
 21
11.63108521686561
 31
0.0
  0
LINE
  5
5A4E
330
59D6
100
AcDbEntity
  8
DIM
 62
     0
100
AcDbLine
 10
24.31771903639305
 20
11.63108521686561
 30
0.0
 11
17.19538569970308
 21
11.63108521686561
 31
0.0
  0
SOLID
  5
5A4F
330
59D6
100
AcDbEntity
  8
DIM
 62
     0
100
AcDbTrace
 10
6.489719029679785
 20
11.67275188353227
 30
0.0
 11
6.489719029679785
 21
11.58941855019894
 31
0.0
 12
6.239719029679785
 22
11.63108521686561
 32
0.0
 13
6.239719029679785
 23
11.63108521686561
 33
0.0
  0
SOLID
  5
5A50
330
59D6
100
AcDbEntity
  8
DIM
 62
     0
100
AcDbTrace
 10
24.31771903639305
 20
11.67275188353227
 30
0.0
 11
24.31771903639305
 21
11.58941855019894
 31
0.0
 12
24.56771903639305
 22
11.63108521686561
 32
0.0
 13
24.56771903639305
 23
11.63108521686561
 33
0.0
  0
MTEXT
  5
5A51
330
59D6
100
AcDbEntity
  8
DIM
 62
     0
100
AcDbMText
 10
15.40371903303642
 20
11.63108521686561
 30
0.0
 40
0.25
 41
0.0
 71
     5
 72
     1
  1
\A1;18.328 [465.53]
1001
ACAD
1000
MTEXTBEGIN
1070
    73
1070
     1
1070
    44
1040
1.0
1070
    74
1070
     0
1000
MTEXTEND
  0
POINT
  5
5A52
330
59D6
100
AcDbEntity
  8
DEFPOINTS
 62
     0
100
AcDbPoint
 10
6.239719029679785
 20
14.75537885875674
 30
0.0
  0
POINT
  5
5A53
330
59D6
100
AcDbEntity
  8
DEFPOINTS
 62
     0
100
AcDbPoint
 10
24.56771903639305
 20
14.75537885875674
 30
0.0
  0
POINT
  5
5A54
330
59D6
100
AcDbEntity
  8
DEFPOINTS
 62
     0
100
AcDbPoint
 10
24.56771903639305
 20
11.63108521686561
 30
0.0
  0
ENDBLK
  5
59E2
330
59D6
100
AcDbEntity
  8
0
100
AcDbBlockEnd
  0
BLOCK
  5
59EF
330
59E4
100
AcDbEntity
  8
0
100
AcDbBlockBegin
  2
*D76
 70
     1
 10
0.0
 20
0.0
 30
0.0
  3
*D76
  1

  0
LINE
  5
5A69
330
59E4
100
AcDbEntity
  8
DIM
 62
     0
100
AcDbLine
 10
6.239719029679785
 20
14.50537885875674
 30
0.0
 11
6.239719029679785
 21
11.38108521686561
 31
0.0
  0
LINE
  5
5A6A
330
59E4
100
AcDbEntity
  8
DIM
 62
     0
100
AcDbLine
 10
5.903718964514542
 20
13.26137888288395
 30
0.0
 11
5.903718964514542
 21
11.38108521686561
 31
0.0
  0
LINE
  5
5A6B
330
59E4
100
AcDbEntity
  8
DIM
 62
     0
100
AcDbLine
 10
6.489719029679785
 20
11.63108521686561
 30
0.0
 11
6.739719029679785
 21
11.63108521686561
 31
0.0
  0
LINE
  5
5A6C
330
59E4
100
AcDbEntity
  8
DIM
 62
     0
100
AcDbLine
 10
5.653718964514542
 20
11.63108521686561
 30
0.0
 11
5.403718964514542
 21
11.63108521686561
 31
0.0
  0
SOLID
  5
5A6D
330
59E4
100
AcDbEntity
  8
DIM
 62
     0
100
AcDbTrace
 10
6.489719029679785
 20
11.67275188353227
 30
0.0
 11
6.489719029679785
 21
11.58941855019894
 31
0.0
 12
6.239719029679785
 22
11.63108521686561
 32
0.0
 13
6.239719029679785
 23
11.63108521686561
 33
0.0
  0
SOLID
  5
5A6E
330
59E4
100
AcDbEntity
  8
DIM
 62
     0
100
AcDbTrace
 10
5.653718964514542
 20
11.67275188353227
 30
0.0
 11
5.653718964514542
 21
11.58941855019894
 31
0.0
 12
5.903718964514542
 22
11.63108521686561
 32
0.0
 13
5.903718964514542
 23
11.63108521686561
 33
0.0
  0
MTEXT
  5
5A6F
330
59E4
100
AcDbEntity
  8
DIM
 62
     0
100
AcDbMText
 10
4.070385631181209
 20
11.63108521686561
 30
0.0
 40
0.25
 41
0.0
 71
     5
 72
     1
  1
\A1;.336 [8.53]
1001
ACAD
1000
MTEXTBEGIN
1070
    73
1070
     1
1070
    44
1040
1.0
1070
    74
1070
     0
1000
MTEXTEND
  0
POINT
  5
5A70
330
59E4
100
AcDbEntity
  8
DEFPOINTS
 62
     0
100
AcDbPoint
 10
6.239719029679785
 20
14.75537885875674
 30
0.0
  0
POINT
  5
5A71
330
59E4
100
AcDbEntity
  8
DEFPOINTS
 62
     0
100
AcDbPoint
 10
5.903718964514542
 20
13.51137888288395
 30
0.0
  0
POINT
  5
5A72
330
59E4
100
AcDbEntity
  8
DEFPOINTS
 62
     0
100
AcDbPoint
 10
5.903718964514542
 20
11.63108521686561
 30
0.0
  0
ENDBLK
  5
59F0
330
59E4
100
AcDbEntity
  8
0
100
AcDbBlockEnd
  0
BLOCK
  5
59FE
330
59F2
100
AcDbEntity
  8
0
100
AcDbBlockBegin
  2
*D77
 70
     1
 10
0.0
 20
0.0
 30
0.0
  3
*D77
  1

  0
LINE
  5
5A7D
330
59F2
100
AcDbEntity
  8
DIM
 62
     0
100
AcDbLine
 10
5.927219033036418
 20
14.89587887381654
 30
0.0
 11
3.49913110542383
 21
14.89587887381654
 31
0.0
  0
LINE
  5
5A7E
330
59F2
100
AcDbEntity
  8
DIM
 62
     0
100
AcDbLine
 10
5.75371924930272
 20
13.41137889142572
 30
0.0
 11
3.49913110542383
 21
13.41137889142572
 31
0.0
  0
LINE
  5
5A7F
330
59F2
100
AcDbEntity
  8
DIM
 62
     0
100
AcDbLine
 10
3.74913110542383
 20
14.64587887381654
 30
0.0
 11
3.74913110542383
 21
14.52862888262113
 31
0.0
  0
LINE
  5
5A80
330
59F2
100
AcDbEntity
  8
DIM
 62
     0
100
AcDbLine
 10
3.74913110542383
 20
13.66137889142572
 30
0.0
 11
3.74913110542383
 21
13.77862888262113
 31
0.0
  0
SOLID
  5
5A81
330
59F2
100
AcDbEntity
  8
DIM
 62
     0
100
AcDbTrace
 10
3.707464438757163
 20
14.64587887381654
 30
0.0
 11
3.790797772090496
 21
14.64587887381654
 31
0.0
 12
3.74913110542383
 22
14.89587887381654
 32
0.0
 13
3.74913110542383
 23
14.89587887381654
 33
0.0
  0
SOLID
  5
5A82
330
59F2
100
AcDbEntity
  8
DIM
 62
     0
100
AcDbTrace
 10
3.707464438757163
 20
13.66137889142572
 30
0.0
 11
3.790797772090496
 21
13.66137889142572
 31
0.0
 12
3.74913110542383
 22
13.41137889142572
 32
0.0
 13
3.74913110542383
 23
13.41137889142572
 33
0.0
  0
MTEXT
  5
5A83
330
59F2
100
AcDbEntity
  8
DIM
 62
     0
100
AcDbMText
 10
3.749131105423828
 20
14.15362888262113
 30
0.0
 40
0.25
 41
0.0
 71
     5
 72
     1
  1
\A1;1.484 [37.71]
1001
ACAD
1000
MTEXTBEGIN
1070
    73
1070
     1
1070
    44
1040
1.0
1070
    74
1070
     0
1000
MTEXTEND
  0
POINT
  5
5A84
330
59F2
100
AcDbEntity
  8
DEFPOINTS
 62
     0
100
AcDbPoint
 10
6.177219033036418
 20
14.89587887381654
 30
0.0
  0
POINT
  5
5A85
330
59F2
100
AcDbEntity
  8
DEFPOINTS
 62
     0
100
AcDbPoint
 10
6.00371924930272
 20
13.41137889142572
 30
0.0
  0
POINT
  5
5A86
330
59F2
100
AcDbEntity
  8
DEFPOINTS
 62
     0
100
AcDbPoint
 10
3.74913110542383
 20
13.41137889142572
 30
0.0
  0
ENDBLK
  5
59FF
330
59F2
100
AcDbEntity
  8
0
100
AcDbBlockEnd
  0
BLOCK
  5
5A17
330
5A0C
100
AcDbEntity
  8
0
100
AcDbBlockBegin
  2
*D78
 70
     1
 10
0.0
 20
0.0
 30
0.0
  3
*D78
  1

  0
LINE
  5
5A73
330
5A0C
100
AcDbEntity
  8
DIM
 62
     0
100
AcDbLine
 10
5.927219033036418
 20
14.89587887381654
 30
0.0
 11
3.499131105423828
 21
14.89587887381654
 31
0.0
  0
LINE
  5
5A74
330
5A0C
100
AcDbEntity
  8
DIM
 62
     0
100
AcDbLine
 10
5.927219033036418
 20
17.14687887381654
 30
0.0
 11
3.499131105423828
 21
17.14687887381654
 31
0.0
  0
LINE
  5
5A75
330
5A0C
100
AcDbEntity
  8
DIM
 62
     0
100
AcDbLine
 10
3.749131105423828
 20
15.14587887381654
 30
0.0
 11
3.749131105423828
 21
15.64637887381654
 31
0.0
  0
LINE
  5
5A76
330
5A0C
100
AcDbEntity
  8
DIM
 62
     0
100
AcDbLine
 10
3.749131105423828
 20
16.89687887381654
 30
0.0
 11
3.749131105423828
 21
16.39637887381654
 31
0.0
  0
SOLID
  5
5A77
330
5A0C
100
AcDbEntity
  8
DIM
 62
     0
100
AcDbTrace
 10
3.707464438757162
 20
15.14587887381654
 30
0.0
 11
3.790797772090495
 21
15.14587887381654
 31
0.0
 12
3.749131105423828
 22
14.89587887381654
 32
0.0
 13
3.749131105423828
 23
14.89587887381654
 33
0.0
  0
SOLID
  5
5A78
330
5A0C
100
AcDbEntity
  8
DIM
 62
     0
100
AcDbTrace
 10
3.707464438757162
 20
16.89687887381654
 30
0.0
 11
3.790797772090495
 21
16.89687887381654
 31
0.0
 12
3.749131105423828
 22
17.14687887381654
 32
0.0
 13
3.749131105423828
 23
17.14687887381654
 33
0.0
  0
MTEXT
  5
5A79
330
5A0C
100
AcDbEntity
  8
DIM
 62
     0
100
AcDbMText
 10
3.749131105423825
 20
16.02137887381654
 30
0.0
 40
0.25
 41
0.0
 71
     5
 72
     1
  1
\A1;2.251 [57.18]
1001
ACAD
1000
MTEXTBEGIN
1070
    73
1070
     1
1070
    44
1040
1.0
1070
    74
1070
     0
1000
MTEXTEND
  0
POINT
  5
5A7A
330
5A0C
100
AcDbEntity
  8
DEFPOINTS
 62
     0
100
AcDbPoint
 10
6.177219033036418
 20
14.89587887381654
 30
0.0
  0
POINT
  5
5A7B
330
5A0C
100
AcDbEntity
  8
DEFPOINTS
 62
     0
100
AcDbPoint
 10
6.177219033036418
 20
17.14687887381654
 30
0.0
  0
POINT
  5
5A7C
330
5A0C
100
AcDbEntity
  8
DEFPOINTS
 62
     0
100
AcDbPoint
 10
3.749131105423828
 20
17.14687887381654
 30
0.0
  0
ENDBLK
  5
5A18
330
5A0C
100
AcDbEntity
  8
0
100
AcDbBlockEnd
  0
BLOCK
  5
5AB6
330
5AAB
100
AcDbEntity
  8
0
100
AcDbBlockBegin
  2
*D80
 70
     1
 10
0.0
 20
0.0
 30
0.0
  3
*D80
  1

  0
LINE
  5
5AAC
330
5AAB
100
AcDbEntity
  8
DIM
 62
     0
100
AcDbLine
 10
25.05371881677012
 20
13.41137889142572
 30
0.0
 11
27.36430213102979
 21
13.41137889142572
 31
0.0
  0
LINE
  5
5AAD
330
5AAB
100
AcDbEntity
  8
DIM
 62
     0
100
AcDbLine
 10
25.05371881677012
 20
18.63137885620735
 30
0.0
 11
27.36430213102979
 21
18.63137885620735
 31
0.0
  0
LINE
  5
5AAE
330
5AAB
100
AcDbEntity
  8
DIM
 62
     0
100
AcDbLine
 10
27.11430213102978
 20
13.66137889142572
 30
0.0
 11
27.11430213102978
 21
15.64637887381653
 31
0.0
  0
LINE
  5
5AAF
330
5AAB
100
AcDbEntity
  8
DIM
 62
     0
100
AcDbLine
 10
27.11430213102978
 20
18.38137885620735
 30
0.0
 11
27.11430213102978
 21
16.39637887381653
 31
0.0
  0
SOLID
  5
5AB0
330
5AAB
100
AcDbEntity
  8
DIM
 62
     0
100
AcDbTrace
 10
27.07263546436312
 20
13.66137889142572
 30
0.0
 11
27.15596879769645
 21
13.66137889142572
 31
0.0
 12
27.11430213102978
 22
13.41137889142572
 32
0.0
 13
27.11430213102978
 23
13.41137889142572
 33
0.0
  0
SOLID
  5
5AB1
330
5AAB
100
AcDbEntity
  8
DIM
 62
     0
100
AcDbTrace
 10
27.07263546436312
 20
18.38137885620735
 30
0.0
 11
27.15596879769645
 21
18.38137885620735
 31
0.0
 12
27.11430213102978
 22
18.63137885620735
 32
0.0
 13
27.11430213102978
 23
18.63137885620735
 33
0.0
  0
MTEXT
  5
5AB2
330
5AAB
100
AcDbEntity
  8
DIM
 62
     0
100
AcDbMText
 10
27.11430213102978
 20
16.02137887381654
 30
0.0
 40
0.25
 41
0.0
 71
     5
 72
     1
  1
\A1;5.220 [132.59]
1001
ACAD
1000
MTEXTBEGIN
1070
    73
1070
     1
1070
    44
1040
1.0
1070
    74
1070
     0
1000
MTEXTEND
  0
POINT
  5
5AB3
330
5AAB
100
AcDbEntity
  8
DEFPOINTS
 62
     0
100
AcDbPoint
 10
24.80371881677012
 20
13.41137889142572
 30
0.0
  0
POINT
  5
5AB4
330
5AAB
100
AcDbEntity
  8
DEFPOINTS
 62
     0
100
AcDbPoint
 10
24.80371881677012
 20
18.63137885620735
 30
0.0
  0
POINT
  5
5AB5
330
5AAB
100
AcDbEntity
  8
DEFPOINTS
 62
     0
100
AcDbPoint
 10
27.11430213102978
 20
18.63137885620735
 30
0.0
  0
ENDBLK
  5
5AB7
330
5AAB
100
AcDbEntity
  8
0
100
AcDbBlockEnd
  0
ENDSEC
  0
SECTION
  2
ENTITIES
  0
TEXT
  5
16F7
330
1F
100
AcDbEntity
  8
FORMAT
100
AcDbText
 10
40.93833654315839
 20
1.347695282503671
 30
0.0
 40
0.24
  1
D
  7
ARIAL
100
AcDbText
  0
TEXT
  5
16F8
330
1F
100
AcDbEntity
  8
FORMAT
  6
CONTINUOUS
100
AcDbText
 10
47.62333731241473
 20
0.2249999999999979
 30
0.0
 40
0.375
  1
H
  7
ARIAL
 72
     1
 11
47.8125
 21
0.2249999999999979
 31
0.0
100
AcDbText
  0
TEXT
  5
16F9
330
1F
100
AcDbEntity
  8
FORMAT
  6
CONTINUOUS
100
AcDbText
 10
41.2337568212824
 20
0.2249999999999979
 30
0.0
 40
0.375
  1
G
  7
ARIAL
 72
     1
 11
41.43749999999999
 21
0.2249999999999979
 31
0.0
100
AcDbText
  0
TEXT
  5
16FA
330
1F
100
AcDbEntity
  8
FORMAT
  6
CONTINUOUS
100
AcDbText
 10
34.9024982946794
 20
0.2249999999999979
 30
0.0
 40
0.375
  1
F
  7
ARIAL
 72
     1
 11
35.0625
 21
0.2249999999999979
 31
0.0
100
AcDbText
  0
TEXT
  5
16FB
330
1F
100
AcDbEntity
  8
FORMAT
  6
CONTINUOUS
100
AcDbText
 10
28.51278990450204
 20
0.2249999999999979
 30
0.0
 40
0.375
  1
E
  7
ARIAL
 72
     1
 11
28.6875
 21
0.2249999999999979
 31
0.0
100
AcDbText
  0
TEXT
  5
16FC
330
1F
100
AcDbEntity
  8
FORMAT
  6
CONTINUOUS
100
AcDbText
 10
22.12333731241473
 20
0.2249999999999979
 30
0.0
 40
0.375
  1
D
  7
ARIAL
 72
     1
 11
22.3125
 21
0.2249999999999979
 31
0.0
100
AcDbText
  0
TEXT
  5
16FD
330
1F
100
AcDbEntity
  8
FORMAT
  6
CONTINUOUS
100
AcDbText
 10
9.387789904502046
 20
0.2249999999999979
 30
0.0
 40
0.375
  1
B
  7
ARIAL
 72
     1
 11
9.5625
 21
0.2249999999999979
 31
0.0
100
AcDbText
  0
TEXT
  5
16FE
330
1F
100
AcDbEntity
  8
FORMAT
  6
CONTINUOUS
100
AcDbText
 10
15.74833731241473
 20
0.2249999999999979
 30
0.0
 40
0.375
  1
C
  7
ARIAL
 72
     1
 11
15.9375
 21
0.2249999999999979
 31
0.0
100
AcDbText
  0
TEXT
  5
16FF
330
1F
100
AcDbEntity
  8
FORMAT
  6
CONTINUOUS
100
AcDbText
 10
3.012789904502046
 20
0.2249999999999979
 30
0.0
 40
0.375
  1
A
  7
ARIAL
 72
     1
 11
3.1875
 21
0.2249999999999979
 31
0.0
100
AcDbText
  0
TEXT
  5
1700
330
1F
100
AcDbEntity
  8
FORMAT
  6
CONTINUOUS
100
AcDbText
 10
50.43879162974612
 20
28.6875
 30
0.0
 40
0.375
  1
1
  7
ARIAL
 72
     2
 11
50.73014565430273
 21
28.6875
 31
0.0
100
AcDbText
  0
TEXT
  5
1701
330
1F
100
AcDbEntity
  8
FORMAT
  6
CONTINUOUS
100
AcDbText
 10
50.43879162974612
 20
20.4375
 30
0.0
 40
0.375
  1
2
  7
ARIAL
 72
     2
 11
50.73014565430273
 21
20.4375
 31
0.0
100
AcDbText
  0
TEXT
  5
1702
330
1F
100
AcDbEntity
  8
FORMAT
  6
CONTINUOUS
100
AcDbText
 10
50.43879162974612
 20
12.1875
 30
0.0
 40
0.375
  1
3
  7
ARIAL
 72
     2
 11
50.73014565430273
 21
12.1875
 31
0.0
100
AcDbText
  0
TEXT
  5
1703
330
1F
100
AcDbEntity
  8
FORMAT
  6
CONTINUOUS
100
AcDbText
 10
50.43879162974612
 20
3.9375
 30
0.0
 40
0.375
  1
4
  7
ARIAL
 72
     2
 11
50.73014565430273
 21
3.9375
 31
0.0
100
AcDbText
  0
TEXT
  5
1704
330
1F
100
AcDbEntity
  8
FORMAT
  6
CONTINUOUS
100
AcDbText
 10
41.2337568212824
 20
32.39999999999999
 30
0.0
 40
0.375
  1
G
  7
ARIAL
 72
     1
 11
41.43749999999999
 21
32.39999999999999
 31
0.0
100
AcDbText
  0
TEXT
  5
1705
330
1F
100
AcDbEntity
  8
FORMAT
100
AcDbText
 10
42.69966588413747
 20
1.000812244946445
 30
0.0
 40
0.1632
  1
ACAD FILE NO.
  7
ARIAL
100
AcDbText
  0
LWPOLYLINE
  5
1706
330
1F
100
AcDbEntity
  8
FORMAT
100
AcDbPolyline
 90
        2
 70
     0
 43
0.03
 10
41.42555067108118
 20
1.909338159935665
 10
41.42555067108118
 20
1.23547285447306
  0
LWPOLYLINE
  5
1707
330
1F
100
AcDbEntity
  8
FORMAT
100
AcDbPolyline
 90
        2
 70
     0
 43
0.03
 10
42.63095059048686
 20
1.23547285447306
 10
42.63095059048686
 20
0.75
  0
LWPOLYLINE
  5
1708
330
1F
100
AcDbEntity
  8
FORMAT
100
AcDbPolyline
 90
        2
 70
     0
 43
0.03
 10
47.7284395021399
 20
1.23547285447306
 10
47.7284395021399
 20
0.75
  0
LWPOLYLINE
  5
1709
330
1F
100
AcDbEntity
  8
FORMAT
100
AcDbPolyline
 90
        2
 70
     0
 43
0.03
 10
49.42397156104583
 20
1.909338159935665
 10
49.42397156104583
 20
1.23547285447306
  0
LWPOLYLINE
  5
170A
330
1F
100
AcDbEntity
  8
FORMAT
100
AcDbPolyline
 90
        2
 70
     0
 43
0.03
 10
40.6864725941222
 20
1.23547285447306
 10
50.25
 20
1.23547285447306
  0
LWPOLYLINE
  5
170B
330
1F
100
AcDbEntity
  8
FORMAT
100
AcDbPolyline
 90
        2
 70
     0
 43
0.03
 10
40.6864725941222
 20
1.909338159935665
 10
50.25
 20
1.909338159935665
  0
LWPOLYLINE
  5
170C
330
1F
100
AcDbEntity
  8
FORMAT
100
AcDbPolyline
 90
        2
 70
     0
 43
0.03
 10
40.6864725941222
 20
3.662837126838359
 10
50.25
 20
3.662837126838359
  0
LWPOLYLINE
  5
170D
330
1F
100
AcDbEntity
  8
FORMAT
100
AcDbPolyline
 90
        2
 70
     0
 43
0.03
 10
33.90134589523399
 20
1.583274302453759
 10
40.68646940260919
 20
1.583261231350759
  0
LWPOLYLINE
  5
170E
330
1F
100
AcDbEntity
  8
FORMAT
100
AcDbPolyline
 90
        2
 70
     0
 43
0.03
 10
33.90134270372096
 20
4.669999082179465
 10
33.90134589523399
 20
0.75
  0
LWPOLYLINE
  5
170F
330
1F
100
AcDbEntity
  8
FORMAT
100
AcDbPolyline
 90
        2
 70
     0
 43
0.03
 10
40.6864725941222
 20
4.67001215328247
 10
40.6864725941222
 20
0.75
  0
LWPOLYLINE
  5
1710
330
1F
100
AcDbEntity
  8
FORMAT
100
AcDbPolyline
 90
        3
 70
     0
 43
0.03
 10
29.33048476491745
 20
0.75
 10
29.33048482259454
 20
4.670012131255045
 10
50.25
 20
4.67001215328247
  0
TEXT
  5
1711
330
1F
100
AcDbEntity
  8
FORMAT
100
AcDbText
 10
40.75518788777282
 20
1.000812244946445
 30
0.0
 40
0.1632
  1
SCALE
  7
ARIAL
100
AcDbText
  0
TEXT
  5
1712
330
1F
100
AcDbEntity
  8
FORMAT
  6
CONTINUOUS
100
AcDbText
 10
47.62333731241473
 20
32.39999999999999
 30
0.0
 40
0.375
  1
H
  7
ARIAL
 72
     1
 11
47.8125
 21
32.39999999999999
 31
0.0
100
AcDbText
  0
LINE
  5
1713
330
1F
100
AcDbEntity
  8
FORMAT
  6
CONTINUOUS
100
AcDbLine
 10
44.625
 20
32.25
 30
0.0
 11
44.625
 21
33.0
 31
0.0
  0
LINE
  5
1714
330
1F
100
AcDbEntity
  8
FORMAT
  6
CONTINUOUS
100
AcDbLine
 10
50.25
 20
24.75
 30
0.0
 11
51.0
 21
24.75
 31
0.0
  0
LINE
  5
1715
330
1F
100
AcDbEntity
  8
FORMAT
  6
CONTINUOUS
100
AcDbLine
 10
38.25
 20
32.25
 30
0.0
 11
38.25
 21
33.0
 31
0.0
  0
TEXT
  5
1716
330
1F
100
AcDbEntity
  8
FORMAT
  6
CONTINUOUS
100
AcDbText
 10
34.9024982946794
 20
32.39999999999999
 30
0.0
 40
0.375
  1
F
  7
ARIAL
 72
     1
 11
35.0625
 21
32.39999999999999
 31
0.0
100
AcDbText
  0
LINE
  5
1717
330
1F
100
AcDbEntity
  8
FORMAT
  6
CONTINUOUS
100
AcDbLine
 10
31.875
 20
32.25
 30
0.0
 11
31.875
 21
33.0
 31
0.0
  0
TEXT
  5
1718
330
1F
100
AcDbEntity
  8
FORMAT
  6
CONTINUOUS
100
AcDbText
 10
28.51278990450204
 20
32.39999999999999
 30
0.0
 40
0.375
  1
E
  7
ARIAL
 72
     1
 11
28.6875
 21
32.39999999999999
 31
0.0
100
AcDbText
  0
LINE
  5
1719
330
1F
100
AcDbEntity
  8
FORMAT
  6
CONTINUOUS
100
AcDbLine
 10
50.25
 20
16.5
 30
0.0
 11
50.5448595
 21
16.32976349999999
 31
0.0
  0
LINE
  5
171A
330
1F
100
AcDbEntity
  8
FORMAT
  6
CONTINUOUS
100
AcDbLine
 10
50.25
 20
16.5
 30
0.0
 11
51.0
 21
16.5
 31
0.0
  0
LINE
  5
171B
330
1F
100
AcDbEntity
  8
FORMAT
  6
CONTINUOUS
100
AcDbLine
 10
50.25
 20
8.25
 30
0.0
 11
51.0
 21
8.25
 31
0.0
  0
LINE
  5
171C
330
1F
100
AcDbEntity
  8
FORMAT
  6
CONTINUOUS
100
AcDbLine
 10
44.625
 20
0.0
 30
0.0
 11
44.625
 21
0.75
 31
0.0
  0
TEXT
  5
171D
330
1F
100
AcDbEntity
  8
FORMAT
  6
CONTINUOUS
100
AcDbText
 10
39.85754847559248
 20
3.076729430022367
 30
0.0
 40
0.18
  1
0.005
  7
ARIAL
 72
     2
 11
40.48681177709316
 21
3.076729430022367
 31
0.0
100
AcDbText
  0
TEXT
  5
171E
330
1F
100
AcDbEntity
  8
FORMAT
  6
CONTINUOUS
100
AcDbText
 10
39.8236835866089
 20
3.355466343342096
 30
0.0
 40
0.18
  1
0.01
  7
ARIAL
 72
     2
 11
40.3130969563224
 21
3.355466343342096
 31
0.0
100
AcDbText
  0
TEXT
  5
171F
330
1F
100
AcDbEntity
  8
FORMAT
  6
CONTINUOUS
100
AcDbText
 10
39.84956049585602
 20
2.797992516702643
 30
0.0
 40
0.18
  1
0.5%%d
 51
1.0
  7
ARIAL
 72
     2
 11
40.29968327893924
 21
2.797992516702643
 31
0.0
100
AcDbText
  0
TEXT
  5
1720
330
1F
100
AcDbEntity
  8
FORMAT
  6
CONTINUOUS
100
AcDbText
 10
38.77431142849559
 20
3.076729430022367
 30
0.0
 40
0.18
  1
.XXX = %%p
  7
ARIAL
 72
     2
 11
39.77192397965521
 21
3.076729430022367
 31
0.0
100
AcDbText
  0
TEXT
  5
1721
330
1F
100
AcDbEntity
  8
FORMAT
  6
CONTINUOUS
100
AcDbText
 10
38.94203312017363
 20
3.355466343342096
 30
0.0
 40
0.18
  1
.XX = %%p
  7
ARIAL
 72
     2
 11
39.77192397965521
 21
3.355466343342096
 31
0.0
100
AcDbText
  0
TEXT
  5
1722
330
1F
100
AcDbEntity
  8
FORMAT
  6
CONTINUOUS
100
AcDbText
 10
38.40412043258836
 20
2.797992516702643
 30
0.0
 40
0.18
  1
ANGLES:  %%p
  7
ARIAL
 72
     2
 11
39.77192397965521
 21
2.797992516702643
 31
0.0
100
AcDbText
  0
TEXT
  5
1723
330
1F
100
AcDbEntity
  8
FORMAT
  6
CONTINUOUS
100
AcDbText
 10
39.82041238431086
 20
3.634203256661823
 30
0.0
 40
0.18
  1
0.1
  7
ARIAL
 72
     2
 11
40.16997582223718
 21
3.634203256661823
 31
0.0
100
AcDbText
  0
TEXT
  5
1724
330
1F
100
AcDbEntity
  8
FORMAT
  6
CONTINUOUS
100
AcDbText
 10
34.84685148290586
 20
1.68422334591924
 30
0.0
 40
0.279
  1
DO NOT SCALE DRAWING
  7
ARIAL
 72
     1
 11
37.29390605316507
 21
1.68422334591924
 31
0.0
100
AcDbText
  0
TEXT
  5
1725
330
1F
100
AcDbEntity
  8
FORMAT
  6
CONTINUOUS
100
AcDbText
 10
35.49857181032741
 20
2.097543463010604
 30
0.0
 40
0.18
  1
ALL DIMENSIONS IN INCHES. 
  7
ARIAL
 72
     1
 11
37.29390605316507
 21
2.097543463010604
 31
0.0
100
AcDbText
  0
TEXT
  5
1726
330
1F
100
AcDbEntity
  8
FORMAT
  6
CONTINUOUS
100
AcDbText
 10
34.27173074891691
 20
2.397546571743562
 30
0.0
 40
0.18
  1
SURFACE FLATNESS .003 TIR PER LINEAR INCH  
  7
ARIAL
 72
     2
 11
40.26624643786643
 21
2.397546571743562
 31
0.0
100
AcDbText
  0
TEXT
  5
1727
330
1F
100
AcDbEntity
  8
FORMAT
  6
CONTINUOUS
100
AcDbText
 10
33.99596217883665
 20
3.634203256661823
 30
0.0
 40
0.18
  1
TOLERANCE ON DECIMAL DIMENSIONS:   .X = %%p
  7
ARIAL
 72
     2
 11
39.77192397965521
 21
3.634203256661823
 31
0.0
100
AcDbText
  0
TEXT
  5
1728
330
1F
100
AcDbEntity
  8
FORMAT
  6
CONTINUOUS
100
AcDbText
 10
34.13160533488712
 20
4.112067592710431
 30
0.0
 40
0.2848849537882059
  1
%%uUNLESS OTHERWISE SPECIFIED
  7
ARIAL
 72
     1
 11
37.29390605316507
 21
4.112067592710431
 31
0.0
100
AcDbText
  0
TEXT
  5
1729
330
1F
100
AcDbEntity
  8
FORMAT
  6
CONTINUOUS
100
AcDbText
 10
34.81732315944791
 20
1.202866468724868
 30
0.0
 40
0.186
  1
          THIRD ANGLE
  7
ARIAL
100
AcDbText
  0
LINE
  5
172A
330
1F
100
AcDbEntity
  8
FORMAT
  6
CONTINUOUS
100
AcDbLine
 10
38.25
 20
0.0
 30
0.0
 11
38.25
 21
0.75
 31
0.0
  0
TEXT
  5
172B
330
1F
100
AcDbEntity
  8
FORMAT
  6
CONTINUOUS
100
AcDbText
 10
34.81732315944791
 20
0.9065913559138625
 30
0.0
 40
0.186
  1
          PROJECTION 
  7
ARIAL
100
AcDbText
  0
LINE
  5
172C
330
1F
100
AcDbEntity
  8
FORMAT
  6
CONTINUOUS
100
AcDbLine
 10
31.875
 20
0.0
 30
0.0
 11
31.875
 21
0.75
 31
0.0
  0
LINE
  5
172D
330
1F
100
AcDbEntity
  8
FORMAT
  6
CONTINUOUS
100
AcDbLine
 10
50.5448595
 20
16.32976349999999
 30
0.0
 11
50.5448595
 21
16.670238
 31
0.0
  0
LINE
  5
172E
330
1F
100
AcDbEntity
  8
FORMAT
  6
CONTINUOUS
100
AcDbLine
 10
50.5448595
 20
16.670238
 30
0.0
 11
50.25
 21
16.5
 31
0.0
  0
HATCH
  5
172F
330
1F
100
AcDbEntity
  8
FORMAT
  6
CONTINUOUS
100
AcDbHatch
 10
0.0
 20
0.0
 30
0.0
210
0.0
220
0.0
230
1.0
  2
ARROW_RIGHT
 70
     1
 71
     0
 91
        1
 92
        1
 93
        3
 72
     1
 10
50.25
 20
16.49999999999999
 11
50.5448595
 21
16.32976349999999
 72
     1
 10
50.5448595
 20
16.32976349999999
 11
50.5448595
 21
16.67023799999999
 72
     1
 10
50.5448595
 20
16.67023799999999
 11
50.25
 21
16.49999999999999
 97
        0
 75
     0
 76
     1
 98
        1
 10
0.375
 20
0.0
  0
LWPOLYLINE
  5
1730
330
1F
100
AcDbEntity
  8
FORMAT
  6
PHANTOM
 48
10.0
100
AcDbPolyline
 90
        2
 70
     0
 43
0.0015
 10
51.0
 20
0.0
 10
51.0
 20
33.0
  0
LINE
  5
1731
330
1F
100
AcDbEntity
  8
FORMAT
  6
CONTINUOUS
100
AcDbLine
 10
25.32976199999998
 20
32.5448595
 30
0.0
 11
25.5
 21
32.25
 31
0.0
  0
LINE
  5
1732
330
1F
100
AcDbEntity
  8
FORMAT
  6
CONTINUOUS
100
AcDbLine
 10
25.5
 20
32.25
 30
0.0
 11
25.5
 21
33.0
 31
0.0
  0
TEXT
  5
1733
330
1F
100
AcDbEntity
  8
FORMAT
  6
CONTINUOUS
100
AcDbText
 10
22.12333731241473
 20
32.39999999999999
 30
0.0
 40
0.375
  1
D
  7
ARIAL
 72
     1
 11
22.3125
 21
32.39999999999999
 31
0.0
100
AcDbText
  0
LINE
  5
1734
330
1F
100
AcDbEntity
  8
FORMAT
  6
CONTINUOUS
100
AcDbLine
 10
19.125
 20
32.25
 30
0.0
 11
19.125
 21
33.0
 31
0.0
  0
TEXT
  5
1735
330
1F
100
AcDbEntity
  8
FORMAT
  6
CONTINUOUS
100
AcDbText
 10
15.74833731241473
 20
32.39999999999999
 30
0.0
 40
0.375
  1
C
  7
ARIAL
 72
     1
 11
15.9375
 21
32.39999999999999
 31
0.0
100
AcDbText
  0
LINE
  5
1736
330
1F
100
AcDbEntity
  8
FORMAT
  6
CONTINUOUS
100
AcDbLine
 10
12.75
 20
32.25
 30
0.0
 11
12.75
 21
33.0
 31
0.0
  0
LINE
  5
1737
330
1F
100
AcDbEntity
  8
FORMAT
  6
CONTINUOUS
100
AcDbLine
 10
6.375
 20
32.25
 30
0.0
 11
6.375
 21
33.0
 31
0.0
  0
TEXT
  5
1738
330
1F
100
AcDbEntity
  8
FORMAT
  6
CONTINUOUS
100
AcDbText
 10
3.012789904502046
 20
32.39999999999999
 30
0.0
 40
0.375
  1
A
  7
ARIAL
 72
     1
 11
3.1875
 21
32.39999999999999
 31
0.0
100
AcDbText
  0
TEXT
  5
1739
330
1F
100
AcDbEntity
  8
FORMAT
  6
CONTINUOUS
100
AcDbText
 10
0.1586459754433791
 20
28.6875
 30
0.0
 40
0.375
  1
1
  7
ARIAL
 72
     2
 11
0.4499999999999958
 21
28.6875
 31
0.0
100
AcDbText
  0
LINE
  5
173A
330
1F
100
AcDbEntity
  8
FORMAT
  6
CONTINUOUS
100
AcDbLine
 10
0.0
 20
24.75
 30
0.0
 11
0.75
 21
24.75
 31
0.0
  0
TEXT
  5
173B
330
1F
100
AcDbEntity
  8
FORMAT
  6
CONTINUOUS
100
AcDbText
 10
0.1586459754433791
 20
20.4375
 30
0.0
 40
0.375
  1
2
  7
ARIAL
 72
     2
 11
0.4499999999999958
 21
20.4375
 31
0.0
100
AcDbText
  0
TEXT
  5
173C
330
1F
100
AcDbEntity
  8
FORMAT
  6
CONTINUOUS
100
AcDbText
 10
9.387789904502046
 20
32.39999999999999
 30
0.0
 40
0.375
  1
B
  7
ARIAL
 72
     1
 11
9.5625
 21
32.39999999999999
 31
0.0
100
AcDbText
  0
LINE
  5
173D
330
1F
100
AcDbEntity
  8
FORMAT
  6
CONTINUOUS
100
AcDbLine
 10
25.5
 20
0.75
 30
0.0
 11
25.32976349999998
 21
0.4551404999999989
 31
0.0
  0
LINE
  5
173E
330
1F
100
AcDbEntity
  8
FORMAT
  6
CONTINUOUS
100
AcDbLine
 10
25.5
 20
0.0
 30
0.0
 11
25.5
 21
0.75
 31
0.0
  0
LINE
  5
173F
330
1F
100
AcDbEntity
  8
FORMAT
  6
CONTINUOUS
100
AcDbLine
 10
19.125
 20
0.0
 30
0.0
 11
19.125
 21
0.75
 31
0.0
  0
LINE
  5
1740
330
1F
100
AcDbEntity
  8
FORMAT
  6
CONTINUOUS
100
AcDbLine
 10
12.75
 20
0.0
 30
0.0
 11
12.75
 21
0.75
 31
0.0
  0
LINE
  5
1741
330
1F
100
AcDbEntity
  8
FORMAT
  6
CONTINUOUS
100
AcDbLine
 10
0.4551404999999989
 20
16.32976199999999
 30
0.0
 11
0.75
 21
16.5
 31
0.0
  0
LINE
  5
1742
330
1F
100
AcDbEntity
  8
FORMAT
  6
CONTINUOUS
100
AcDbLine
 10
0.0
 20
16.5
 30
0.0
 11
0.75
 21
16.5
 31
0.0
  0
TEXT
  5
1743
330
1F
100
AcDbEntity
  8
FORMAT
  6
CONTINUOUS
100
AcDbText
 10
0.1586459754433791
 20
12.1875
 30
0.0
 40
0.375
  1
3
  7
ARIAL
 72
     2
 11
0.4499999999999958
 21
12.1875
 31
0.0
100
AcDbText
  0
LINE
  5
1744
330
1F
100
AcDbEntity
  8
FORMAT
  6
CONTINUOUS
100
AcDbLine
 10
0.0
 20
8.25
 30
0.0
 11
0.75
 21
8.25
 31
0.0
  0
LINE
  5
1745
330
1F
100
AcDbEntity
  8
FORMAT
  6
CONTINUOUS
100
AcDbLine
 10
6.375
 20
0.0
 30
0.0
 11
6.375
 21
0.75
 31
0.0
  0
TEXT
  5
1746
330
1F
100
AcDbEntity
  8
FORMAT
  6
CONTINUOUS
100
AcDbText
 10
0.1586459754433791
 20
3.9375
 30
0.0
 40
0.375
  1
4
  7
ARIAL
 72
     2
 11
0.4499999999999958
 21
3.9375
 31
0.0
100
AcDbText
  0
LINE
  5
1747
330
1F
100
AcDbEntity
  8
FORMAT
  6
CONTINUOUS
100
AcDbLine
 10
0.75
 20
16.5
 30
0.0
 11
0.4551404999999989
 21
16.67023649999999
 31
0.0
  0
LINE
  5
1748
330
1F
100
AcDbEntity
  8
FORMAT
  6
CONTINUOUS
100
AcDbLine
 10
0.4551404999999989
 20
16.67023649999999
 30
0.0
 11
0.4551404999999989
 21
16.32976199999999
 31
0.0
  0
LWPOLYLINE
  5
1749
330
1F
100
AcDbEntity
  8
FORMAT
  6
PHANTOM
 48
10.0
100
AcDbPolyline
 90
        2
 70
     0
 43
0.0015
 10
0.0
 20
33.0
 10
0.0
 20
0.0
  0
HATCH
  5
174A
330
1F
100
AcDbEntity
  8
FORMAT
  6
CONTINUOUS
100
AcDbHatch
 10
0.0
 20
0.0
 30
0.0
210
0.0
220
0.0
230
1.0
  2
ARROW_LEFT
 70
     1
 71
     0
 91
        1
 92
        1
 93
        3
 72
     1
 10
0.4551404999999989
 20
16.32976199999998
 11
0.7499999999999987
 21
16.49999999999999
 72
     1
 10
0.75
 20
16.49999999999999
 11
0.4551405000000002
 21
16.67023649999998
 72
     1
 10
0.4551404999999989
 20
16.67023649999999
 11
0.4551404999999989
 21
16.32976199999999
 97
        0
 75
     0
 76
     1
 98
        1
 10
-0.375
 20
0.0
  0
LINE
  5
174B
330
1F
100
AcDbEntity
  8
FORMAT
  6
CONTINUOUS
100
AcDbLine
 10
25.67023649999999
 20
32.5448595
 30
0.0
 11
25.32976199999998
 21
32.5448595
 31
0.0
  0
LINE
  5
174C
330
1F
100
AcDbEntity
  8
FORMAT
  6
CONTINUOUS
100
AcDbLine
 10
25.5
 20
32.25
 30
0.0
 11
25.67023649999999
 21
32.5448595
 31
0.0
  0
LINE
  5
174D
330
1F
100
AcDbEntity
  8
FORMAT
  6
CONTINUOUS
100
AcDbLine
 10
25.67023799999999
 20
0.4551404999999989
 30
0.0
 11
25.5
 21
0.75
 31
0.0
  0
LINE
  5
174E
330
1F
100
AcDbEntity
  8
FORMAT
  6
CONTINUOUS
100
AcDbLine
 10
25.32976349999998
 20
0.4551404999999989
 30
0.0
 11
25.67023799999999
 21
0.4551404999999989
 31
0.0
  0
LWPOLYLINE
  5
174F
330
1F
100
AcDbEntity
  8
FORMAT
  6
PHANTOM
 48
10.0
100
AcDbPolyline
 90
        2
 70
     0
 43
0.0015
 10
0.0
 20
0.0
 10
51.0
 20
0.0
  0
HATCH
  5
1750
330
1F
100
AcDbEntity
  8
FORMAT
  6
CONTINUOUS
100
AcDbHatch
 10
0.0
 20
0.0
 30
0.0
210
0.0
220
0.0
230
1.0
  2
ARROW_BOTTOM
 70
     1
 71
     0
 91
        1
 92
        1
 93
        3
 72
     1
 10
25.67023799999999
 20
0.4551404999999989
 11
25.49999999999998
 21
0.7499999999999999
 72
     1
 10
25.5
 20
0.75
 11
25.3297635
 21
0.4551404999999989
 72
     1
 10
25.32976349999998
 20
0.4551404999999989
 11
25.67023799999998
 21
0.4551404999999989
 97
        0
 75
     0
 76
     1
 98
        1
 10
0.0
 20
0.0
  0
HATCH
  5
1751
330
1F
100
AcDbEntity
  8
FORMAT
  6
CONTINUOUS
100
AcDbHatch
 10
0.0
 20
0.0
 30
0.0
210
0.0
220
0.0
230
1.0
  2
ARROW_TOP
 70
     1
 71
     0
 91
        1
 92
        1
 93
        3
 72
     1
 10
25.67023649999999
 20
32.5448595
 11
25.32976199999999
 21
32.5448595
 72
     1
 10
25.32976199999998
 20
32.5448595
 11
25.49999999999998
 21
32.25
 72
     1
 10
25.5
 20
32.25
 11
25.6702365
 21
32.5448595
 97
        0
 75
     0
 76
     1
 98
        1
 10
0.0
 20
0.0
  0
LWPOLYLINE
  5
1752
330
1F
100
AcDbEntity
  8
FORMAT
  6
PHANTOM
 48
10.0
100
AcDbPolyline
 90
        2
 70
     0
 43
0.0015
 10
51.0
 20
33.0
 10
0.0
 20
33.0
  0
LWPOLYLINE
  5
1753
102
{ACAD_REACTORS
330
1758
102
}
330
1F
100
AcDbEntity
  8
FORMAT
100
AcDbPolyline
 90
       10
 70
     1
 43
0.0
 10
43.27218819735853
 20
3.840057284647676
 10
43.50239043254029
 20
4.033494770890801
 10
43.67064617849837
 20
3.840057284647676
 10
43.99106951034311
 20
3.840057284647676
 10
43.70999221257159
 20
4.163201588643611
 42
0.0105244554857435
 10
43.33330398163474
 20
4.160633088715632
 10
42.99406865186373
 20
3.87557578080573
 10
43.03994497679644
 20
4.150833730402005
 42
0.0083241925565687
 10
42.79144594632277
 20
4.139159913583171
 10
42.74159550816685
 20
3.840057284647676
  0
LWPOLYLINE
  5
1754
102
{ACAD_REACTORS
330
1758
102
}
330
1F
100
AcDbEntity
  8
FORMAT
100
AcDbPolyline
 90
        7
 70
     1
 43
0.0
 10
41.78069600214491
 20
4.003748294453174
 10
41.83878045088454
 20
3.840057284647676
 10
42.33659264661546
 20
3.840057284647676
 10
42.38017222003125
 20
4.101534725142556
 42
0.0085307115550227
 10
42.12757981225816
 20
4.066986438472518
 10
42.0942662519189
 20
3.866980891212382
 10
42.02356613411705
 20
4.049175726038848
 42
0.014633201278307
  0
LWPOLYLINE
  5
1755
102
{ACAD_REACTORS
330
1758
102
}
330
1F
100
AcDbEntity
  8
FORMAT
100
AcDbPolyline
 90
        4
 70
     1
 43
0.0
 10
41.73937707946686
 20
4.119451681100237
 10
41.73970706595084
 20
4.119131893894476
 10
41.68095451663573
 20
4.286173455672747
 10
41.57457384401846
 20
4.119131893894476
  0
LWPOLYLINE
  5
1756
102
{ACAD_REACTORS
330
1758
102
}
330
1F
100
AcDbEntity
  8
FORMAT
100
AcDbPolyline
 90
        4
 70
     1
 43
0.0
 10
41.84286366836633
 20
4.514847593693344
 10
41.99406941569352
 20
4.125189032779845
 42
0.0660149720166298
 10
41.13144537892376
 20
3.840057284647679
 10
41.58332160380327
 20
4.514847593693344
  0
LWPOLYLINE
  5
1757
102
{ACAD_REACTORS
330
1758
102
}
330
1F
100
AcDbEntity
  8
FORMAT
100
AcDbPolyline
 90
       13
 70
     1
 43
0.0
 10
44.07522922336768
 20
4.514847593693344
 10
43.78919481276283
 20
4.274494682598666
 42
0.0022906596071181
 10
43.30139380433666
 20
4.264573253718658
 10
43.09789423457111
 20
4.498529277050035
 10
43.05707553565327
 20
4.253617083543007
 42
0.0274655559228494
 10
42.14216194841306
 20
4.154533614222561
 10
42.20217699129866
 20
4.514847593693344
 10
42.40876201177373
 20
4.514847593693344
 10
42.61269774661692
 20
4.291643136441916
 10
42.89133503921908
 20
4.514847593693344
 10
43.40412357230994
 20
4.514847593693344
 10
43.55221984988008
 20
4.344586712009851
 10
43.75484053260698
 20
4.514847593693344
  0
HATCH
  5
1758
330
1F
100
AcDbEntity
  8
FORMAT
100
AcDbHatch
 10
0.0
 20
0.0
 30
0.0
210
0.0
220
0.0
230
1.0
  2
SOLID
 70
     1
 71
     1
 91
        5
 92
        1
 93
        4
 72
     1
 10
41.84286366836633
 20
4.514847593693344
 11
41.99406941569352
 21
4.125189032779845
 72
     2
 10
42.63785120555199
 20
0.7300854569382281
 40
3.455601725263766
 50
100.7369884767685
 51
115.8445848643794
 73
     1
 72
     1
 10
41.13144537892376
 20
3.840057284647679
 11
41.58332160380327
 21
4.514847593693344
 72
     1
 10
41.58332160380327
 20
4.514847593693344
 11
41.84286366836633
 21
4.514847593693344
 97
        1
330
1756
 92
       16
 93
        4
 72
     1
 10
41.73937707946686
 20
4.119451681100237
 11
41.73970706595084
 21
4.119131893894476
 72
     1
 10
41.73970706595084
 20
4.119131893894476
 11
41.68095451663573
 21
4.286173455672747
 72
     1
 10
41.68095451663573
 20
4.286173455672747
 11
41.57457384401846
 21
4.119131893894476
 72
     1
 10
41.57457384401846
 20
4.119131893894476
 11
41.73937707946686
 21
4.119451681100237
 97
        1
330
1755
 92
        1
 93
        7
 72
     1
 10
41.78069600214491
 20
4.003748294453174
 11
41.83878045088454
 21
3.840057284647676
 72
     1
 10
41.83878045088454
 20
3.840057284647676
 11
42.33659264661546
 21
3.840057284647676
 72
     1
 10
42.33659264661546
 20
3.840057284647676
 11
42.38017222003125
 21
4.101534725142556
 72
     2
 10
43.26627024209479
 20
-3.317643240244484
 40
7.471905472286806
 50
96.81077116038439
 51
98.7658188097698
 73
     1
 72
     1
 10
42.12757981225816
 20
4.066986438472518
 11
42.0942662519189
 21
3.866980891212382
 72
     1
 10
42.0942662519189
 20
3.866980891212382
 11
42.02356613411705
 21
4.049175726038848
 72
     2
 10
42.67806695733975
 20
-0.1219488779779883
 40
4.222161980530094
 50
98.91769894924955
 51
102.2711423007092
 73
     1
 97
        1
330
1754
 92
        1
 93
       13
 72
     1
 10
44.07522922336768
 20
4.514847593693344
 11
43.78919481276283
 21
4.274494682598666
 72
     2
 10
44.62810215898667
 20
-48.96823730078336
 40
53.24934060239432
 50
90.90269359832781
 51
91.4276731912744
 73
     1
 72
     1
 10
43.30139380433666
 20
4.264573253718658
 11
43.09789423457111
 21
4.498529277050035
 72
     1
 10
43.09789423457111
 20
4.498529277050035
 11
43.05707553565327
 21
4.253617083543007
 72
     2
 10
43.50082683439311
 20
-4.117469448507668
 40
8.382839909136611
 50
93.03440911951204
 51
99.32746877910854
 73
     1
 72
     1
 10
42.14216194841306
 20
4.154533614222561
 11
42.20217699129866
 21
4.514847593693344
 72
     1
 10
42.20217699129866
 20
4.514847593693344
 11
42.40876201177373
 21
4.514847593693344
 72
     1
 10
42.40876201177373
 20
4.514847593693344
 11
42.61269774661692
 21
4.291643136441916
 72
     1
 10
42.61269774661692
 20
4.291643136441916
 11
42.89133503921908
 21
4.514847593693344
 72
     1
 10
42.89133503921908
 20
4.514847593693344
 11
43.40412357230994
 21
4.514847593693344
 72
     1
 10
43.40412357230994
 20
4.514847593693344
 11
43.55221984988008
 21
4.344586712009851
 72
     1
 10
43.55221984988008
 20
4.344586712009851
 11
43.75484053260698
 21
4.514847593693344
 72
     1
 10
43.75484053260698
 20
4.514847593693344
 11
44.07522922336768
 21
4.514847593693344
 97
        1
330
1757
 92
        1
 93
       10
 72
     1
 10
43.27218819735853
 20
3.840057284647676
 11
43.50239043254029
 21
4.033494770890801
 72
     1
 10
43.50239043254029
 20
4.033494770890801
 11
43.67064617849837
 21
3.840057284647676
 72
     1
 10
43.67064617849837
 20
3.840057284647676
 11
43.99106951034311
 21
3.840057284647676
 72
     1
 10
43.99106951034311
 20
3.840057284647676
 11
43.70999221257159
 21
4.163201588643611
 72
     2
 10
43.58265399507366
 20
-4.785018393300653
 40
8.949125983407663
 50
89.18470377236852
 51
91.59664224690866
 73
     1
 72
     1
 10
43.33330398163474
 20
4.160633088715632
 11
42.99406865186373
 21
3.87557578080573
 72
     1
 10
42.99406865186373
 20
3.87557578080573
 11
43.03994497679644
 21
4.150833730402005
 72
     2
 10
43.26627024209453
 20
-3.317643240244392
 40
7.471905472286695
 50
91.73576423011793
 51
93.6434845729463
 73
     1
 72
     1
 10
42.79144594632277
 20
4.139159913583171
 11
42.74159550816685
 21
3.840057284647676
 72
     1
 10
42.74159550816685
 20
3.840057284647676
 11
43.27218819735853
 21
3.840057284647676
 97
        1
330
1753
 75
     0
 76
     1
 98
        1
 10
41.10523713388614
 20
3.482933945673443
  0
INSERT
  5
1759
330
1F
100
AcDbEntity
  8
TB-TXT
100
AcDbBlockReference
 66
     1
  2
TITLE-BLOCK
 10
48.90388514324758
 20
0.7307712429076787
 30
0.0
 41
1.454545454545466
 42
1.454545454545466
 43
1.454545454545466
  0
ATTRIB
  5
175A
330
1759
100
AcDbEntity
  8
TB-TXT
100
AcDbText
 10
40.97360188376803
 20
3.23933478400643
 30
0.0
 40
0.255
  1
PICTORIAL,
  7
ARIAL
100
AcDbAttribute
  2
LINE1
 70
     0
  0
ATTRIB
  5
175B
330
1759
100
AcDbEntity
  8
TB-TXT
100
AcDbText
 10
40.97360188376803
 20
2.862632446344107
 30
0.0
 40
0.255
  1
RACK MOUNT KIT,
  7
ARIAL
100
AcDbAttribute
  2
LINE2
 70
     0
  0
ATTRIB
  5
175C
330
1759
100
AcDbEntity
  8
TB-TXT
100
AcDbText
 10
40.97360188376803
 20
2.485930108681763
 30
0.0
 40
0.255
  1
MODERO S 7.0
  7
ARIAL
100
AcDbAttribute
  2
LINE3
 70
     0
  0
ATTRIB
  5
175D
330
1759
100
AcDbEntity
  8
TB-TXT
100
AcDbText
 10
40.97360188376803
 20
2.109227771019419
 30
0.0
 40
0.255
  1

  7
ARIAL
100
AcDbAttribute
  2
LINE4
 70
     0
  0
ATTRIB
  5
175E
330
1759
100
AcDbEntity
  8
TB-TXT
100
AcDbText
 10
43.00861116807891
 20
1.409022649675591
 30
0.0
 40
0.255
  1
95-2265-15
  7
ARIAL
100
AcDbAttribute
  2
DWG#
 70
     0
  0
ATTRIB
  5
175F
330
1759
100
AcDbEntity
  8
TB-TXT
100
AcDbText
 10
44.50777433870857
 20
0.9196818017383776
 30
0.0
 40
0.1745454545454559
  1
95-2265-15_A
  7
ARIAL
100
AcDbAttribute
  2
FILE#
 70
     0
  0
ATTRIB
  5
1760
330
1759
100
AcDbEntity
  8
TB-TXT
100
AcDbText
 10
49.73863891192627
 20
1.345788027931392
 30
0.0
 40
0.255
  1
A
  7
ARIAL
 72
     4
 11
49.85744177686488
 21
1.473288027931392
 31
0.0
100
AcDbAttribute
  2
REV
 70
     0
  0
ATTRIB
  5
1761
330
1759
100
AcDbEntity
  8
TB-TXT
100
AcDbText
 10
41.60123326174004
 20
0.8687087507210833
 30
0.0
 40
0.255
  1
N/A
  7
ARIAL
100
AcDbAttribute
  2
SCALE
 70
     0
  0
ATTRIB
  5
1762
330
1759
100
AcDbEntity
  8
TB-TXT
100
AcDbText
 10
48.84209016419814
 20
0.8789032136482859
 30
0.0
 40
0.255
  1
1 OF 1
  7
ARIAL
100
AcDbAttribute
  2
SHT#
 70
     0
  0
SEQEND
  5
1763
330
1759
100
AcDbEntity
  8
TB-TXT
  0
TEXT
  5
1764
330
1F
100
AcDbEntity
  8
FORMAT
100
AcDbText
 10
44.06347550409207
 20
3.842334539054839
 30
0.0
 40
0.0874906989123476
  1
TM
  7
ARIAL
 11
44.06347550409207
 21
3.886079888511012
 31
0.0
100
AcDbText
 73
     2
  0
TEXT
  5
1765
330
1F
100
AcDbEntity
  8
FORMAT
  6
BYBLOCK
100
AcDbText
 10
47.15230182974942
 20
4.36688163217363
 30
0.0
 40
0.1553860309799347
  1
AMX LLC
 41
1.011836867459718
  7
ARIAL
100
AcDbText
  0
TEXT
  5
1766
330
1F
100
AcDbEntity
  8
FORMAT
  6
BYBLOCK
100
AcDbText
 10
47.15230182974942
 20
4.100506477569304
 30
0.0
 40
0.1553860309799347
  1
3000 RESEARCH DRIVE
 41
1.011836867459718
  7
ARIAL
100
AcDbText
  0
TEXT
  5
1767
330
1F
100
AcDbEntity
  8
FORMAT
  6
BYBLOCK
100
AcDbText
 10
47.1449475560856
 20
3.834131322964978
 30
0.0
 40
0.1553860309799347
  1
RICHARDSON, TX 75082
 41
1.018884921437547
  7
ARIAL
100
AcDbText
  0
TEXT
  5
1768
330
1F
100
AcDbEntity
  8
FORMAT
100
AcDbText
 10
49.61445078286276
 20
1.668252746525674
 30
0.0
 40
0.1632
  1
REV.
  7
ARIAL
 72
     1
 11
49.88051353866085
 21
1.668252746525674
 31
0.0
100
AcDbText
  0
TEXT
  5
1769
330
1F
100
AcDbEntity
  8
FORMAT
100
AcDbText
 10
47.77856080654024
 20
1.000812244946445
 30
0.0
 40
0.1745454545454546
  1
SHEET
  7
ARIAL
100
AcDbText
  0
TEXT
  5
176A
330
1F
100
AcDbEntity
  8
FORMAT
100
AcDbText
 10
41.52142914064903
 20
1.668252746525674
 30
0.0
 40
0.1632
  1
DWG. NO.
  7
ARIAL
100
AcDbText
  0
TEXT
  5
176B
330
1F
100
AcDbEntity
  8
FORMAT
100
AcDbText
 10
40.78496923301189
 20
1.668252746525674
 30
0.0
 40
0.1632
  1
SIZE
  7
ARIAL
100
AcDbText
  0
LWPOLYLINE
  5
176C
330
1F
100
AcDbEntity
  8
FORMAT
100
AcDbPolyline
 90
        2
 70
     0
 43
0.0192
 10
38.45493700572134
 20
1.201440438836129
 10
38.67480003447038
 20
1.201440438836129
  0
LWPOLYLINE
  5
176D
330
1F
100
AcDbEntity
  8
FORMAT
100
AcDbPolyline
 90
        2
 70
     1
 43
0.0192
 10
38.62150728272716
 20
1.201440438836129
 42
0.9999999999999998
 10
38.11750728272716
 20
1.201440438836129
 42
1.0
  0
LWPOLYLINE
  5
176E
330
1F
100
AcDbEntity
  8
FORMAT
100
AcDbPolyline
 90
        2
 70
     1
 43
0.0192
 10
38.48470728272715
 20
1.201440438836129
 42
0.9999999999999998
 10
38.25430728272716
 20
1.201440438836129
 42
1.0
  0
LWPOLYLINE
  5
176F
330
1F
100
AcDbEntity
  8
FORMAT
100
AcDbPolyline
 90
        2
 70
     0
 43
0.0192
 10
38.36950728272717
 20
1.534852171436689
 10
38.36950728272717
 20
1.286870161829817
  0
LWPOLYLINE
  5
1770
330
1F
100
AcDbEntity
  8
FORMAT
100
AcDbPolyline
 90
        2
 70
     0
 43
0.0192
 10
38.33207755973301
 20
1.201440438836129
 10
38.40693700572131
 20
1.201440438836129
  0
LWPOLYLINE
  5
1771
330
1F
100
AcDbEntity
  8
FORMAT
100
AcDbPolyline
 90
        2
 70
     0
 43
0.0192
 10
38.36950728272717
 20
1.116010715843017
 10
38.36950728272717
 20
0.8755419247424072
  0
LWPOLYLINE
  5
1772
330
1F
100
AcDbEntity
  8
FORMAT
100
AcDbPolyline
 90
        2
 70
     0
 43
0.0192
 10
38.36950728272717
 20
1.238870161829183
 10
38.36950728272717
 20
1.164010715844462
  0
LWPOLYLINE
  5
1773
330
1F
100
AcDbEntity
  8
FORMAT
100
AcDbPolyline
 90
        2
 70
     0
 43
0.0192
 10
38.0481016275852
 20
1.201440438836129
 10
38.28407755973297
 20
1.201440438836129
  0
LWPOLYLINE
  5
1774
330
1F
100
AcDbEntity
  8
FORMAT
  6
CENTER
100
AcDbPolyline
 90
        2
 70
     0
 43
0.0192
 10
38.71599612844096
 20
1.201440438836129
 10
39.65841158542542
 20
1.201440438836129
  0
LWPOLYLINE
  5
1775
330
1F
100
AcDbEntity
  8
FORMAT
100
AcDbPolyline
 90
        4
 70
     1
 43
0.0192
 10
39.01777921820789
 20
1.316640438836117
 10
39.53617921820793
 20
1.453440438836118
 10
39.5361792182079
 20
0.9558710918312698
 10
39.01777921820789
 20
1.086240438836121
  0
TEXT
  5
1776
330
1F
100
AcDbEntity
  8
FORMAT
100
AcDbText
 10
29.63243090477398
 20
0.9765118355888553
 30
0.0
 40
0.196992
  1
written permission.
  7
ARIAL
100
AcDbText
  0
TEXT
  5
1777
330
1F
100
AcDbEntity
  8
FORMAT
100
AcDbText
 10
29.62477159781626
 20
2.95315052590266
 30
0.0
 40
0.196992
  1
shall be confidential except
  7
ARIAL
100
AcDbText
  0
TEXT
  5
1778
330
1F
100
AcDbEntity
  8
FORMAT
100
AcDbText
 10
29.61227483383261
 20
4.276508561373315
 30
0.0
 40
0.196992
  1
NOTICE:   This drawing is the 
  7
ARIAL
100
AcDbText
  0
TEXT
  5
1779
330
1F
100
AcDbEntity
  8
FORMAT
100
AcDbText
 10
29.6150966837644
 20
3.94482921621643
 30
0.0
 40
0.196992
  1
property of AMX LLC.
  7
ARIAL
100
AcDbText
  0
TEXT
  5
177A
330
1F
100
AcDbEntity
  8
FORMAT
100
AcDbText
 10
29.62839969058567
 20
3.284829871059525
 30
0.0
 40
0.196992
  1
that is not generally known 
  7
ARIAL
100
AcDbText
  0
TEXT
  5
177B
330
1F
100
AcDbEntity
  8
FORMAT
100
AcDbText
 10
29.62839969058567
 20
2.621471180745754
 30
0.0
 40
0.196992
  1
to the extent the information
  7
ARIAL
100
AcDbText
  0
TEXT
  5
177C
330
1F
100
AcDbEntity
  8
FORMAT
100
AcDbText
 10
29.6150966837644
 20
2.293151180745756
 30
0.0
 40
0.196992
  1
has been previously established.
  7
ARIAL
100
AcDbText
  0
TEXT
  5
177D
330
1F
100
AcDbEntity
  8
FORMAT
100
AcDbText
 10
29.62678720491036
 20
1.964831180745758
 30
0.0
 40
0.196992
  1
This drawing may not be copied,
  7
ARIAL
100
AcDbText
  0
TEXT
  5
177E
330
1F
100
AcDbEntity
  8
FORMAT
100
AcDbText
 10
29.63068404529238
 20
1.304831835588874
 30
0.0
 40
0.196992
  1
for manufacture or sale without
  7
ARIAL
100
AcDbText
  0
TEXT
  5
177F
330
1F
100
AcDbEntity
  8
FORMAT
100
AcDbText
 10
29.61536543137698
 20
1.636511180745738
 30
0.0
 40
0.196992
  1
reproduced, or used as the basis
  7
ARIAL
100
AcDbText
  0
TEXT
  5
1780
330
1F
100
AcDbEntity
  8
FORMAT
100
AcDbText
 10
29.61496230995811
 20
3.613149871059544
 30
0.0
 40
0.196992
  1
All information contained herein
  7
ARIAL
100
AcDbText
  0
LWPOLYLINE
  5
1781
330
1F
100
AcDbEntity
  8
FORMAT
100
AcDbPolyline
 90
        4
 70
     1
 43
0.0436363636363637
 10
0.75
 20
0.75
 10
50.25
 20
0.75
 10
50.25
 20
32.25
 10
0.75
 20
32.25
  0
INSERT
  5
1782
330
1F
100
AcDbEntity
  8
TB-TXT
100
AcDbBlockReference
 66
     1
  2
REV-BLOCK
 10
50.25
 20
31.20014399999999
 30
0.0
 41
1.454545454545453
 42
1.454545454545453
 43
1.454545454545453
  0
ATTRIB
  5
1783
330
1782
100
AcDbEntity
  8
TB-TXT
100
AcDbText
 10
39.42726184637512
 20
30.78321830457499
 30
0.0
 40
0.24
  1
A
  7
ARIAL
 72
     1
 11
39.53907630749381
 21
30.90321830457499
 31
0.0
100
AcDbAttribute
  2
REV
 70
     0
 74
     2
  0
ATTRIB
  5
1784
330
1782
100
AcDbEntity
  8
TB-TXT
100
AcDbText
 10
40.03735898729872
 20
30.80583026873047
 30
0.0
 40
0.24
  1
20978
  7
ARIAL
100
AcDbAttribute
  2
ECN
 70
     0
  0
ATTRIB
  5
1785
330
1782
100
AcDbEntity
  8
TB-TXT
100
AcDbText
 10
41.26477729512791
 20
30.80615466328462
 30
0.0
 40
0.24
  1
INITIAL RELEASE
  7
ARIAL
100
AcDbAttribute
  2
DESCRIPTION
 70
     0
  0
ATTRIB
  5
1786
330
1782
100
AcDbEntity
  8
TB-TXT
100
AcDbText
 10
46.81590066400103
 20
30.78321830457499
 30
0.0
 40
0.24
  1
06/10/13
  7
ARIAL
 72
     1
 11
47.46845182361904
 21
30.90321830457499
 31
0.0
100
AcDbAttribute
  2
REV-DATE
 70
     0
 74
     2
  0
ATTRIB
  5
1787
330
1782
100
AcDbEntity
  8
TB-TXT
100
AcDbText
 10
48.82052149838387
 20
30.78321830457499
 30
0.0
 40
0.24
  1
P. LE
  7
ARIAL
 72
     1
 11
49.23053514094867
 21
30.90321830457499
 31
0.0
100
AcDbAttribute
  2
APPR
 70
     0
 74
     2
  0
SEQEND
  5
1788
330
1782
100
AcDbEntity
  8
TB-TXT
  0
LWPOLYLINE
  5
1789
330
1F
100
AcDbEntity
  8
FORMAT
100
AcDbPolyline
 90
        2
 70
     0
 43
0.0288
 10
39.10435130481442
 20
31.71124799999998
 10
50.25
 20
31.71124799999998
  0
LWPOLYLINE
  5
178A
330
1F
100
AcDbEntity
  8
FORMAT
100
AcDbPolyline
 90
        2
 70
     0
 43
0.0288
 10
39.10435130481442
 20
31.20014399999999
 10
50.25
 20
31.20014399999999
  0
LWPOLYLINE
  5
178B
330
1F
100
AcDbEntity
  8
FORMAT
100
AcDbPolyline
 90
        2
 70
     0
 43
0.0384
 10
39.10435130481442
 20
32.25
 10
39.10435130481442
 20
30.36014399999999
  0
TEXT
  5
178C
330
1F
100
AcDbEntity
  8
FORMAT
100
AcDbText
 10
39.28123437918749
 20
31.39150610777911
 30
0.0
 40
0.1728
  1
REV
  7
ARIAL
 72
     1
 11
39.52941336963769
 21
31.39150610777911
 31
0.0
100
AcDbText
  0
LWPOLYLINE
  5
178D
330
1F
100
AcDbEntity
  8
FORMAT
100
AcDbPolyline
 90
        2
 70
     0
 43
0.0288
 10
41.10989899392665
 20
30.36014399999999
 10
41.10989899392665
 20
31.71124799999998
  0
LWPOLYLINE
  5
178E
330
1F
100
AcDbEntity
  8
FORMAT
100
AcDbPolyline
 90
        2
 70
     0
 43
0.0288
 10
39.9443513048144
 20
30.36014399999999
 10
39.9443513048144
 20
31.71124799999998
  0
TEXT
  5
178F
330
1F
100
AcDbEntity
  8
FORMAT
100
AcDbText
 10
40.23847733733837
 20
31.39150610777911
 30
0.0
 40
0.1728
  1
ECN
  7
ARIAL
 72
     1
 11
40.49331608222241
 21
31.39150610777911
 31
0.0
100
AcDbText
  0
TEXT
  5
1790
330
1F
100
AcDbEntity
  8
FORMAT
100
AcDbText
 10
48.5519037553583
 20
31.39150610777911
 30
0.0
 40
0.1728
  1
APPROVED
  7
ARIAL
 72
     1
 11
49.2224761973774
 21
31.39150610777911
 31
0.0
100
AcDbText
  0
TEXT
  5
1791
330
1F
100
AcDbEntity
  8
FORMAT
100
AcDbText
 10
43.8120885300978
 20
31.85619116609868
 30
0.0
 40
0.2304
  1
REVISIONS
  7
ARIAL
 72
     1
 11
44.68850435547297
 21
31.85619116609868
 31
0.0
100
AcDbText
  0
TEXT
  5
1792
330
1F
100
AcDbEntity
  8
FORMAT
100
AcDbText
 10
42.90549333183542
 20
31.39150610777911
 30
0.0
 40
0.1728
  1
DESCRIPTION
  7
ARIAL
 72
     1
 11
43.73035990755165
 21
31.39150610777911
 31
0.0
100
AcDbText
  0
TEXT
  5
1793
330
1F
100
AcDbEntity
  8
FORMAT
100
AcDbText
 10
47.10056842111543
 20
31.39150610777911
 30
0.0
 40
0.1728
  1
DATE
  7
ARIAL
 72
     1
 11
47.42247619737738
 21
31.39150610777911
 31
0.0
100
AcDbText
  0
LWPOLYLINE
  5
1794
330
1F
100
AcDbEntity
  8
FORMAT
100
AcDbPolyline
 90
        2
 70
     0
 43
0.0288
 10
46.61242819737738
 20
30.36014399999999
 10
46.61242819737738
 20
31.71124799999998
  0
LWPOLYLINE
  5
1795
330
1F
100
AcDbEntity
  8
FORMAT
100
AcDbPolyline
 90
        2
 70
     0
 43
0.0288
 10
48.29242819737739
 20
30.36014399999999
 10
48.29242819737739
 20
31.71124799999998
  0
TEXT
  5
1797
330
1F
100
AcDbEntity
  8
TB-TXT
100
AcDbText
 10
2.612948585130141
 20
30.70279455502131
 30
0.0
 40
0.25
  1
NOTES, UNLESS OTHERWISE SPECIFIED:
100
AcDbText
  0
TEXT
  5
1824
330
1F
100
AcDbEntity
  8
TB-TXT
100
AcDbText
 10
2.951547191351096
 20
29.91024853344262
 30
0.0
 40
0.25
  1
1. DIMENSIONS IN [ ] ARE IN MILLIMETERS
100
AcDbText
  0
ARC
  5
572A
330
1F
100
AcDbEntity
  8
0
  6
CONTINUOUS
 62
     7
100
AcDbCircle
 10
18.25371903303642
 20
14.43137887381653
 30
0.0
 40
0.065100000000065
100
AcDbArc
 50
90.0
 51
270.0000000000008
  0
LINE
  5
572B
330
1F
100
AcDbEntity
  8
0
  6
CONTINUOUS
 62
     7
100
AcDbLine
 10
18.253718936261
 20
14.36627888700615
 30
0.0
 11
18.253718936261
 21
14.34937985555853
 31
0.0
  0
ARC
  5
572C
330
1F
100
AcDbEntity
  8
0
  6
CONTINUOUS
 62
     7
100
AcDbCircle
 10
18.25371903303642
 20
14.43137887381653
 30
0.0
 40
0.0819999999999999
100
AcDbArc
 50
90.0
 51
270.0000000000008
  0
LINE
  5
572D
330
1F
100
AcDbEntity
  8
0
  6
CONTINUOUS
 62
     7
100
AcDbLine
 10
18.253718936261
 20
14.51337798770479
 30
0.0
 11
18.253718936261
 21
14.4964788095922
 31
0.0
  0
ARC
  5
572E
330
1F
100
AcDbEntity
  8
0
  6
CONTINUOUS
 62
     7
100
AcDbCircle
 10
18.25371903303642
 20
14.43137887381653
 30
0.0
 40
0.0819999999999999
100
AcDbArc
 50
270.0000000000008
 51
90.0
  0
ARC
  5
572F
330
1F
100
AcDbEntity
  8
0
  6
CONTINUOUS
 62
     7
100
AcDbCircle
 10
18.25371903303642
 20
14.43137887381653
 30
0.0
 40
0.065100000000065
100
AcDbArc
 50
270.0000000000008
 51
90.0
  0
CIRCLE
  5
5730
330
1F
100
AcDbEntity
  8
0
  6
CONTINUOUS
 62
     7
100
AcDbCircle
 10
18.25371903303642
 20
14.43137887381653
 30
0.0
 40
0.1399999999999997
  0
CIRCLE
  5
5731
330
1F
100
AcDbEntity
  8
0
  6
CONTINUOUS
 62
     7
100
AcDbCircle
 10
12.55371903303643
 20
17.61137887381653
 30
0.0
 40
0.1400000000000006
  0
ARC
  5
5732
330
1F
100
AcDbEntity
  8
0
  6
CONTINUOUS
 62
     7
100
AcDbCircle
 10
12.55371903303643
 20
17.61137887381653
 30
0.0
 40
0.0820000000000008
100
AcDbArc
 50
90.0
 51
270.0000000000008
  0
ARC
  5
5733
330
1F
100
AcDbEntity
  8
0
  6
CONTINUOUS
 62
     7
100
AcDbCircle
 10
12.55371903303643
 20
17.61137887381653
 30
0.0
 40
0.0820000000000008
100
AcDbArc
 50
270.0000000000008
 51
90.0
  0
ARC
  5
5734
330
1F
100
AcDbEntity
  8
0
  6
CONTINUOUS
 62
     7
100
AcDbCircle
 10
12.55371903303643
 20
17.61137887381653
 30
0.0
 40
0.0651000000000668
100
AcDbArc
 50
90.0
 51
270.0000000000008
  0
LINE
  5
5735
330
1F
100
AcDbEntity
  8
0
  6
CONTINUOUS
 62
     7
100
AcDbLine
 10
12.55371912981183
 20
17.54627893804087
 30
0.0
 11
12.55371912981183
 21
17.52937975992828
 31
0.0
  0
LINE
  5
5736
330
1F
100
AcDbEntity
  8
0
  6
CONTINUOUS
 62
     7
100
AcDbLine
 10
12.55371912981183
 20
17.69337789207453
 30
0.0
 11
12.55371912981183
 21
17.67647886062692
 31
0.0
  0
ARC
  5
5737
330
1F
100
AcDbEntity
  8
0
  6
CONTINUOUS
 62
     7
100
AcDbCircle
 10
12.55371903303643
 20
17.61137887381653
 30
0.0
 40
0.0651000000000668
100
AcDbArc
 50
270.0000000000008
 51
90.0
  0
LINE
  5
5738
330
1F
100
AcDbEntity
  8
0
  6
CONTINUOUS
 62
     7
100
AcDbLine
 10
6.903718879096864
 20
18.46637885563477
 30
0.0
 11
6.903718879096864
 21
18.63137885620735
 31
0.0
  0
LINE
  5
5739
330
1F
100
AcDbEntity
  8
0
  6
CONTINUOUS
 62
     7
100
AcDbLine
 10
6.903718879096864
 20
18.63137885620735
 30
0.0
 11
23.90371918697597
 21
18.63137885620735
 31
0.0
  0
LINE
  5
573A
330
1F
100
AcDbEntity
  8
0
  6
CONTINUOUS
 62
     7
100
AcDbLine
 10
23.90371918697597
 20
18.63137885620735
 30
0.0
 11
23.90371918697597
 21
18.46637885563477
 31
0.0
  0
LINE
  5
573B
330
1F
100
AcDbEntity
  8
0
  6
CONTINUOUS
 62
     7
100
AcDbLine
 10
23.90371918697597
 20
18.46637885563477
 30
0.0
 11
6.903718879096864
 21
18.46637885563477
 31
0.0
  0
ARC
  5
573C
330
1F
100
AcDbEntity
  8
0
  6
CONTINUOUS
 62
     7
100
AcDbCircle
 10
24.80371903303641
 20
13.51137887381653
 30
0.0
 40
0.1000000000000005
100
AcDbArc
 50
270.0000000000008
 51
0.0
  0
LINE
  5
573D
330
1F
100
AcDbEntity
  8
0
  6
CONTINUOUS
 62
     7
100
AcDbLine
 10
23.99371926728736
 20
13.41137889142572
 30
0.0
 11
24.80371881677012
 21
13.41137889142572
 31
0.0
  0
LINE
  5
573E
330
1F
100
AcDbEntity
  8
0
  6
CONTINUOUS
 62
     7
100
AcDbLine
 10
23.99371926728736
 20
13.5763788919983
 30
0.0
 11
23.99371926728736
 21
13.41137889142572
 31
0.0
  0
ARC
  5
573F
330
1F
100
AcDbEntity
  8
0
  6
CONTINUOUS
 62
     7
100
AcDbCircle
 10
23.94871903303641
 20
13.57637887381653
 30
0.0
 40
0.0450000000000017
100
AcDbArc
 50
0.0
 51
180.0
  0
LINE
  5
5740
330
1F
100
AcDbEntity
  8
0
  6
CONTINUOUS
 62
     7
100
AcDbLine
 10
6.903718879096864
 20
13.5763788919983
 30
0.0
 11
23.90371918697597
 21
13.5763788919983
 31
0.0
  0
ARC
  5
5741
330
1F
100
AcDbEntity
  8
0
  6
CONTINUOUS
 62
     7
100
AcDbCircle
 10
6.858719033036422
 20
13.57637887381653
 30
0.0
 40
0.0450000000000008
100
AcDbArc
 50
359.9999999999996
 51
180.0
  0
LINE
  5
5742
330
1F
100
AcDbEntity
  8
0
  6
CONTINUOUS
 62
     7
100
AcDbLine
 10
6.813718798785471
 20
13.41137889142572
 30
0.0
 11
6.813718798785471
 21
13.5763788919983
 31
0.0
  0
LINE
  5
5743
330
1F
100
AcDbEntity
  8
0
  6
CONTINUOUS
 62
     7
100
AcDbLine
 10
6.00371924930272
 20
13.41137889142572
 30
0.0
 11
6.813718798785471
 21
13.41137889142572
 31
0.0
  0
ARC
  5
5744
330
1F
100
AcDbEntity
  8
0
  6
CONTINUOUS
 62
     7
100
AcDbCircle
 10
6.003719033036418
 20
13.51137887381653
 30
0.0
 40
0.1000000000000005
100
AcDbArc
 50
180.0
 51
270.0000000000033
  0
LINE
  5
5745
330
1F
100
AcDbEntity
  8
0
  6
CONTINUOUS
 62
     7
100
AcDbLine
 10
5.903718964514542
 20
18.53137886474913
 30
0.0
 11
5.903718964514542
 21
13.51137888288395
 31
0.0
  0
ARC
  5
5746
330
1F
100
AcDbEntity
  8
0
  6
CONTINUOUS
 62
     7
100
AcDbCircle
 10
6.003719033036418
 20
18.53137887381653
 30
0.0
 40
0.1000000000000014
100
AcDbArc
 50
89.99999999999745
 51
179.9999999999987
  0
LINE
  5
5747
330
1F
100
AcDbEntity
  8
0
  6
CONTINUOUS
 62
     7
100
AcDbLine
 10
6.813718798785471
 20
18.63137885620735
 30
0.0
 11
6.00371924930272
 21
18.63137885620735
 31
0.0
  0
LINE
  5
5748
330
1F
100
AcDbEntity
  8
0
  6
CONTINUOUS
 62
     7
100
AcDbLine
 10
6.813718798785471
 20
18.46637885563477
 30
0.0
 11
6.813718798785471
 21
18.63137885620735
 31
0.0
  0
ARC
  5
5749
330
1F
100
AcDbEntity
  8
0
  6
CONTINUOUS
 62
     7
100
AcDbCircle
 10
6.858719033036424
 20
18.46637887381653
 30
0.0
 40
0.0450000000000008
100
AcDbArc
 50
180.0
 51
0.0
  0
ARC
  5
574A
330
1F
100
AcDbEntity
  8
0
  6
CONTINUOUS
 62
     7
100
AcDbCircle
 10
23.94871903303641
 20
18.46637887381653
 30
0.0
 40
0.0450000000000053
100
AcDbArc
 50
179.9999999999959
 51
0.0
  0
LINE
  5
574B
330
1F
100
AcDbEntity
  8
0
  6
CONTINUOUS
 62
     7
100
AcDbLine
 10
23.99371926728736
 20
18.63137885620735
 30
0.0
 11
23.99371926728736
 21
18.46637885563477
 31
0.0
  0
LINE
  5
574C
330
1F
100
AcDbEntity
  8
0
  6
CONTINUOUS
 62
     7
100
AcDbLine
 10
24.80371881677012
 20
18.63137885620735
 30
0.0
 11
23.99371926728736
 21
18.63137885620735
 31
0.0
  0
ARC
  5
574D
330
1F
100
AcDbEntity
  8
0
  6
CONTINUOUS
 62
     7
100
AcDbCircle
 10
24.80371903303641
 20
18.53137887381653
 30
0.0
 40
0.0999999999999997
100
AcDbArc
 50
0.0
 51
90.0
  0
LINE
  5
574E
330
1F
100
AcDbEntity
  8
0
  6
CONTINUOUS
 62
     7
100
AcDbLine
 10
24.90371910155829
 20
13.51137888288395
 30
0.0
 11
24.90371910155829
 21
18.53137886474913
 31
0.0
  0
ARC
  5
574F
330
1F
100
AcDbEntity
  8
0
  6
CONTINUOUS
 62
     7
100
AcDbCircle
 10
11.90721903303641
 20
18.04237887381654
 30
0.0
 40
0.0449999999999999
100
AcDbArc
 50
90.0
 51
270.0000000000008
  0
LINE
  5
5750
330
1F
100
AcDbEntity
  8
0
  6
CONTINUOUS
 62
     7
100
AcDbLine
 10
11.90721905156923
 20
14.04537886073731
 30
0.0
 11
11.90721905156923
 21
17.99737888689577
 31
0.0
  0
ARC
  5
5751
330
1F
100
AcDbEntity
  8
0
  6
CONTINUOUS
 62
     7
100
AcDbCircle
 10
11.90721903303641
 20
14.00037887381654
 30
0.0
 40
0.0449999999999999
100
AcDbArc
 50
90.0
 51
270.0000000000008
  0
LINE
  5
5752
330
1F
100
AcDbEntity
  8
0
  6
CONTINUOUS
 62
     7
100
AcDbLine
 10
11.90721905156923
 20
13.95537892709089
 30
0.0
 11
18.90021901450359
 21
13.95537892709089
 31
0.0
  0
ARC
  5
5753
330
1F
100
AcDbEntity
  8
0
  6
CONTINUOUS
 62
     7
100
AcDbCircle
 10
18.90021903303642
 20
14.00037887381653
 30
0.0
 40
0.0449999999999999
100
AcDbArc
 50
270.0000000000008
 51
90.0
  0
LINE
  5
5754
330
1F
100
AcDbEntity
  8
0
  6
CONTINUOUS
 62
     7
100
AcDbLine
 10
18.90021901450359
 20
17.99737888689577
 30
0.0
 11
18.90021901450359
 21
14.04537886073731
 31
0.0
  0
ARC
  5
5755
330
1F
100
AcDbEntity
  8
0
  6
CONTINUOUS
 62
     7
100
AcDbCircle
 10
18.90021903303642
 20
18.04237887381654
 30
0.0
 40
0.0449999999999999
100
AcDbArc
 50
270.0000000000008
 51
90.0
  0
LINE
  5
5756
330
1F
100
AcDbEntity
  8
0
  6
CONTINUOUS
 62
     7
100
AcDbLine
 10
18.90021901450359
 20
18.08737882054219
 30
0.0
 11
11.90721905156923
 21
18.08737882054219
 31
0.0
  0
LINE
  5
5757
330
1F
100
AcDbEntity
  8
0
  6
CONTINUOUS
 62
     7
100
AcDbLine
 10
6.177219218349605
 20
17.00637884834611
 30
0.0
 11
6.302218841009965
 21
17.00637884834611
 31
0.0
  0
ARC
  5
5758
330
1F
100
AcDbEntity
  8
0
  6
CONTINUOUS
 62
     7
100
AcDbCircle
 10
6.302219033036418
 20
17.14687887381654
 30
0.0
 40
0.1405000000000012
100
AcDbArc
 50
270.0000000000008
 51
90.0
  0
LINE
  5
5759
330
1F
100
AcDbEntity
  8
0
  6
CONTINUOUS
 62
     7
100
AcDbLine
 10
6.302218841009965
 20
17.28737888887633
 30
0.0
 11
6.177219218349605
 21
17.28737888887633
 31
0.0
  0
ARC
  5
575A
330
1F
100
AcDbEntity
  8
0
  6
CONTINUOUS
 62
     7
100
AcDbCircle
 10
6.177219033036418
 20
17.14687887381654
 30
0.0
 40
0.1405000000000012
100
AcDbArc
 50
90.0
 51
270.0000000000008
  0
LINE
  5
575B
330
1F
100
AcDbEntity
  8
0
  6
CONTINUOUS
 62
     7
100
AcDbLine
 10
6.177219218349605
 20
14.75537885875674
 30
0.0
 11
6.302218841009965
 21
14.75537885875674
 31
0.0
  0
ARC
  5
575C
330
1F
100
AcDbEntity
  8
0
  6
CONTINUOUS
 62
     7
100
AcDbCircle
 10
6.302219033036418
 20
14.89587887381654
 30
0.0
 40
0.1405000000000012
100
AcDbArc
 50
270.0000000000008
 51
90.0
  0
LINE
  5
575D
330
1F
100
AcDbEntity
  8
0
  6
CONTINUOUS
 62
     7
100
AcDbLine
 10
6.302218841009965
 20
15.03637889928696
 30
0.0
 11
6.177219218349605
 21
15.03637889928696
 31
0.0
  0
ARC
  5
575E
330
1F
100
AcDbEntity
  8
0
  6
CONTINUOUS
 62
     7
100
AcDbCircle
 10
6.177219033036418
 20
14.89587887381654
 30
0.0
 40
0.1405000000000012
100
AcDbArc
 50
90.0
 51
270.0000000000008
  0
LINE
  5
575F
330
1F
100
AcDbEntity
  8
0
  6
CONTINUOUS
 62
     7
100
AcDbLine
 10
24.50521922506287
 20
14.75537885875674
 30
0.0
 11
24.63021884772323
 21
14.75537885875674
 31
0.0
  0
ARC
  5
5760
330
1F
100
AcDbEntity
  8
0
  6
CONTINUOUS
 62
     7
100
AcDbCircle
 10
24.63021903303642
 20
14.89587887381654
 30
0.0
 40
0.1405000000000012
100
AcDbArc
 50
270.0000000000008
 51
90.0
  0
LINE
  5
5761
330
1F
100
AcDbEntity
  8
0
  6
CONTINUOUS
 62
     7
100
AcDbLine
 10
24.63021884772323
 20
15.03637889928696
 30
0.0
 11
24.50521922506287
 21
15.03637889928696
 31
0.0
  0
ARC
  5
5762
330
1F
100
AcDbEntity
  8
0
  6
CONTINUOUS
 62
     7
100
AcDbCircle
 10
24.50521903303642
 20
14.89587887381654
 30
0.0
 40
0.1405000000000012
100
AcDbArc
 50
90.0
 51
270.0000000000008
  0
LINE
  5
5763
330
1F
100
AcDbEntity
  8
0
  6
CONTINUOUS
 62
     7
100
AcDbLine
 10
24.50521922506287
 20
17.00637884834611
 30
0.0
 11
24.63021884772323
 21
17.00637884834611
 31
0.0
  0
ARC
  5
5764
330
1F
100
AcDbEntity
  8
0
  6
CONTINUOUS
 62
     7
100
AcDbCircle
 10
24.63021903303642
 20
17.14687887381654
 30
0.0
 40
0.1405000000000012
100
AcDbArc
 50
270.0000000000008
 51
90.0
  0
LINE
  5
5765
330
1F
100
AcDbEntity
  8
0
  6
CONTINUOUS
 62
     7
100
AcDbLine
 10
24.63021884772323
 20
17.28737888887633
 30
0.0
 11
24.50521922506287
 21
17.28737888887633
 31
0.0
  0
ARC
  5
5766
330
1F
100
AcDbEntity
  8
0
  6
CONTINUOUS
 62
     7
100
AcDbCircle
 10
24.50521903303642
 20
17.14687887381654
 30
0.0
 40
0.1405000000000012
100
AcDbArc
 50
90.0
 51
270.0000000000008
  0
LINE
  5
5767
330
1F
100
AcDbEntity
  8
0
  6
CONTINUOUS
 62
     7
100
AcDbLine
 10
11.90721905156923
 20
17.99737888689577
 30
0.0
 11
12.07221890547684
 21
17.99737888689577
 31
0.0
  0
LINE
  5
5768
330
1F
100
AcDbEntity
  8
0
  6
CONTINUOUS
 62
     7
100
AcDbLine
 10
12.07221890547684
 20
17.99737888689577
 30
0.0
 11
12.07221890547684
 21
14.04537886073731
 31
0.0
  0
LINE
  5
5769
330
1F
100
AcDbEntity
  8
0
  6
CONTINUOUS
 62
     7
100
AcDbLine
 10
12.07221890547684
 20
14.04537886073731
 30
0.0
 11
11.90721905156923
 21
14.04537886073731
 31
0.0
  0
LINE
  5
576A
330
1F
100
AcDbEntity
  8
0
  6
CONTINUOUS
 62
     7
100
AcDbLine
 10
18.90021901450359
 20
14.04537886073731
 30
0.0
 11
18.73521916059599
 21
14.04537886073731
 31
0.0
  0
LINE
  5
576B
330
1F
100
AcDbEntity
  8
0
  6
CONTINUOUS
 62
     7
100
AcDbLine
 10
18.73521916059599
 20
14.04537886073731
 30
0.0
 11
18.73521916059599
 21
17.99737888689577
 31
0.0
  0
LINE
  5
576C
330
1F
100
AcDbEntity
  8
0
  6
CONTINUOUS
 62
     7
100
AcDbLine
 10
18.73521916059599
 20
17.99737888689577
 30
0.0
 11
18.90021901450359
 21
17.99737888689577
 31
0.0
  0
LINE
  5
576D
330
1F
100
AcDbEntity
  8
0
  6
CONTINUOUS
 62
     7
100
AcDbLine
 10
23.90371918697597
 20
13.41137889142572
 30
0.0
 11
6.903718879096864
 21
13.41137889142572
 31
0.0
  0
LINE
  5
576E
330
1F
100
AcDbEntity
  8
0
  6
CONTINUOUS
 62
     7
100
AcDbLine
 10
6.903718879096864
 20
13.41137889142572
 30
0.0
 11
6.903718879096864
 21
13.5763788919983
 31
0.0
  0
LINE
  5
576F
330
1F
100
AcDbEntity
  8
0
  6
CONTINUOUS
 62
     7
100
AcDbLine
 10
23.90371918697597
 20
13.5763788919983
 30
0.0
 11
23.90371918697597
 21
13.41137889142572
 31
0.0
  0
LINE
  5
5770
330
1F
100
AcDbEntity
  8
0
  6
CONTINUOUS
 62
     7
100
AcDbLine
 10
12.147218972403
 20
17.99737888689577
 30
0.0
 11
12.07221890547684
 21
17.99737888689577
 31
0.0
  0
LINE
  5
5771
330
1F
100
AcDbEntity
  8
0
  6
CONTINUOUS
 62
     7
100
AcDbLine
 10
12.147218972403
 20
14.04537886073731
 30
0.0
 11
12.147218972403
 21
17.99737888689577
 31
0.0
  0
LINE
  5
5772
330
1F
100
AcDbEntity
  8
0
  6
CONTINUOUS
 62
     7
100
AcDbLine
 10
12.07221890547684
 20
14.04537886073731
 30
0.0
 11
12.147218972403
 21
14.04537886073731
 31
0.0
  0
LINE
  5
5773
330
1F
100
AcDbEntity
  8
0
  6
CONTINUOUS
 62
     7
100
AcDbLine
 10
18.66021909366983
 20
14.04537886073731
 30
0.0
 11
18.73521916059599
 21
14.04537886073731
 31
0.0
  0
LINE
  5
5774
330
1F
100
AcDbEntity
  8
0
  6
CONTINUOUS
 62
     7
100
AcDbLine
 10
18.66021909366983
 20
17.99737888689577
 30
0.0
 11
18.66021909366983
 21
14.04537886073731
 31
0.0
  0
LINE
  5
5775
330
1F
100
AcDbEntity
  8
0
  6
CONTINUOUS
 62
     7
100
AcDbLine
 10
18.73521916059599
 20
17.99737888689577
 30
0.0
 11
18.66021909366983
 21
17.99737888689577
 31
0.0
  0
ARC
  5
5776
330
1F
100
AcDbEntity
  8
0
  6
CONTINUOUS
 62
     7
100
AcDbCircle
 10
12.72221903303641
 20
14.14537887381654
 30
0.0
 40
0.1000000000000005
100
AcDbArc
 50
270.0000000000008
 51
0.0
  0
LINE
  5
5777
330
1F
100
AcDbEntity
  8
0
  6
CONTINUOUS
 62
     7
100
AcDbLine
 10
12.82221898807855
 20
14.14537885219554
 30
0.0
 11
12.82221898807855
 21
17.89737889543754
 31
0.0
  0
CIRCLE
  5
5778
330
1F
100
AcDbEntity
  8
0
  6
CONTINUOUS
 62
     7
100
AcDbCircle
 10
12.55371903303643
 20
17.61137887381653
 30
0.0
 40
0.1404999999999994
  0
LINE
  5
5779
330
1F
100
AcDbEntity
  8
0
  6
CONTINUOUS
 62
     7
100
AcDbLine
 10
12.147218972403
 20
14.04537886073731
 30
0.0
 11
12.72221899662032
 21
14.04537886073731
 31
0.0
  0
LINE
  5
577A
330
1F
100
AcDbEntity
  8
0
  6
CONTINUOUS
 62
     7
100
AcDbLine
 10
12.72221899662032
 20
17.99737888689577
 30
0.0
 11
12.147218972403
 21
17.99737888689577
 31
0.0
  0
ARC
  5
577B
330
1F
100
AcDbEntity
  8
0
  6
CONTINUOUS
 62
     7
100
AcDbCircle
 10
12.72221903303641
 20
17.89737887381654
 30
0.0
 40
0.0999999999999997
100
AcDbArc
 50
0.0
 51
90.0
  0
LINE
  5
577C
330
1F
100
AcDbEntity
  8
0
  6
CONTINUOUS
 62
     7
100
AcDbLine
 10
18.08521906945251
 20
14.04537886073731
 30
0.0
 11
18.66021909366983
 21
14.04537886073731
 31
0.0
  0
ARC
  5
577D
330
1F
100
AcDbEntity
  8
0
  6
CONTINUOUS
 62
     7
100
AcDbCircle
 10
18.08521903303641
 20
14.14537887381654
 30
0.0
 40
0.1000000000000014
100
AcDbArc
 50
180.0
 51
270.0000000000008
  0
LINE
  5
577E
330
1F
100
AcDbEntity
  8
0
  6
CONTINUOUS
 62
     7
100
AcDbLine
 10
17.98521907799428
 20
17.89737889543754
 30
0.0
 11
17.98521907799428
 21
14.14537885219554
 31
0.0
  0
ARC
  5
577F
330
1F
100
AcDbEntity
  8
0
  6
CONTINUOUS
 62
     7
100
AcDbCircle
 10
18.08521903303641
 20
17.89737887381654
 30
0.0
 40
0.1000000000000014
100
AcDbArc
 50
90.0
 51
180.0
  0
LINE
  5
5780
330
1F
100
AcDbEntity
  8
0
  6
CONTINUOUS
 62
     7
100
AcDbLine
 10
18.66021909366983
 20
17.99737888689577
 30
0.0
 11
18.08521906945251
 21
17.99737888689577
 31
0.0
  0
CIRCLE
  5
5781
330
1F
100
AcDbEntity
  8
0
  6
CONTINUOUS
 62
     7
100
AcDbCircle
 10
18.25371903303642
 20
14.43137887381653
 30
0.0
 40
0.1404999999999994
  0
LINE
  5
578C
330
1F
100
AcDbEntity
  8
0
  6
CONTINUOUS
 62
     7
100
AcDbLine
 10
18.39371915896648
 20
25.32449563018845
 30
0.0
 11
18.39371915896648
 21
25.35569566976294
 31
0.0
  0
LINE
  5
578D
330
1F
100
AcDbEntity
  8
0
  6
CONTINUOUS
 62
     7
100
AcDbLine
 10
18.11371900688546
 20
25.35569566976294
 30
0.0
 11
18.11371900688546
 21
25.32449563018845
 31
0.0
  0
LINE
  5
578E
330
1F
100
AcDbEntity
  8
0
  6
CONTINUOUS
 62
     7
100
AcDbLine
 10
18.39371915896648
 20
25.13369564765946
 30
0.0
 11
18.39371915896648
 21
25.31049557858491
 31
0.0
  0
LINE
  5
578F
330
1F
100
AcDbEntity
  8
0
  6
CONTINUOUS
 62
     7
100
AcDbLine
 10
18.11371900688546
 20
25.31049557858491
 30
0.0
 11
18.11371900688546
 21
25.13369564765946
 31
0.0
  0
LINE
  5
5790
330
1F
100
AcDbEntity
  8
0
  6
CONTINUOUS
 62
     7
100
AcDbLine
 10
18.38671913316471
 20
25.31049557858491
 30
0.0
 11
18.38671913316471
 21
25.32449563018845
 31
0.0
  0
LINE
  5
5791
330
1F
100
AcDbEntity
  8
0
  6
CONTINUOUS
 62
     7
100
AcDbLine
 10
18.12071903268724
 20
25.32449563018845
 30
0.0
 11
18.12071903268724
 21
25.31049557858491
 31
0.0
  0
LINE
  5
5792
330
1F
100
AcDbEntity
  8
0
  6
CONTINUOUS
 62
     7
100
AcDbLine
 10
12.69371905918736
 20
25.32449563018845
 30
0.0
 11
12.69371905918736
 21
25.35569566976294
 31
0.0
  0
LINE
  5
5793
330
1F
100
AcDbEntity
  8
0
  6
CONTINUOUS
 62
     7
100
AcDbLine
 10
12.41371890710635
 20
25.35569566976294
 30
0.0
 11
12.41371890710635
 21
25.32449563018845
 31
0.0
  0
LINE
  5
5794
330
1F
100
AcDbEntity
  8
0
  6
CONTINUOUS
 62
     7
100
AcDbLine
 10
12.69371905918736
 20
25.13369564765946
 30
0.0
 11
12.69371905918736
 21
25.31049557858491
 31
0.0
  0
LINE
  5
5795
330
1F
100
AcDbEntity
  8
0
  6
CONTINUOUS
 62
     7
100
AcDbLine
 10
12.41371890710635
 20
25.31049557858491
 30
0.0
 11
12.41371890710635
 21
25.13369564765946
 31
0.0
  0
LINE
  5
5796
330
1F
100
AcDbEntity
  8
0
  6
CONTINUOUS
 62
     7
100
AcDbLine
 10
12.68671903338559
 20
25.31049557858491
 30
0.0
 11
12.68671903338559
 21
25.32449563018845
 31
0.0
  0
LINE
  5
5797
330
1F
100
AcDbEntity
  8
0
  6
CONTINUOUS
 62
     7
100
AcDbLine
 10
12.42071893290812
 20
25.32449563018845
 30
0.0
 11
12.42071893290812
 21
25.31049557858491
 31
0.0
  0
LINE
  5
5798
330
1F
100
AcDbEntity
  8
0
  6
CONTINUOUS
 62
     7
100
AcDbLine
 10
18.253718936261
 20
25.32449563018845
 30
0.0
 11
18.39371915896648
 21
25.32449563018845
 31
0.0
  0
LINE
  5
5799
330
1F
100
AcDbEntity
  8
0
  6
CONTINUOUS
 62
     7
100
AcDbLine
 10
18.11371900688546
 20
25.32449563018845
 30
0.0
 11
18.253718936261
 21
25.32449563018845
 31
0.0
  0
LINE
  5
579A
330
1F
100
AcDbEntity
  8
0
  6
CONTINUOUS
 62
     7
100
AcDbLine
 10
18.253718936261
 20
25.13369564765946
 30
0.0
 11
18.39371915896648
 21
25.13369564765946
 31
0.0
  0
LINE
  5
579B
330
1F
100
AcDbEntity
  8
0
  6
CONTINUOUS
 62
     7
100
AcDbLine
 10
18.11371900688546
 20
25.13369564765946
 30
0.0
 11
18.253718936261
 21
25.13369564765946
 31
0.0
  0
LINE
  5
579C
330
1F
100
AcDbEntity
  8
0
  6
CONTINUOUS
 62
     7
100
AcDbLine
 10
18.253718936261
 20
25.31049557858491
 30
0.0
 11
18.11371900688546
 21
25.31049557858491
 31
0.0
  0
LINE
  5
579D
330
1F
100
AcDbEntity
  8
0
  6
CONTINUOUS
 62
     7
100
AcDbLine
 10
18.39371915896648
 20
25.31049557858491
 30
0.0
 11
18.253718936261
 21
25.31049557858491
 31
0.0
  0
LINE
  5
579E
330
1F
100
AcDbEntity
  8
0
  6
CONTINUOUS
 62
     7
100
AcDbLine
 10
12.55371912981183
 20
25.32449563018845
 30
0.0
 11
12.69371905918736
 21
25.32449563018845
 31
0.0
  0
LINE
  5
579F
330
1F
100
AcDbEntity
  8
0
  6
CONTINUOUS
 62
     7
100
AcDbLine
 10
12.41371890710635
 20
25.32449563018845
 30
0.0
 11
12.55371912981183
 21
25.32449563018845
 31
0.0
  0
LINE
  5
57A0
330
1F
100
AcDbEntity
  8
0
  6
CONTINUOUS
 62
     7
100
AcDbLine
 10
12.55371912981183
 20
25.31049557858491
 30
0.0
 11
12.41371890710635
 21
25.31049557858491
 31
0.0
  0
LINE
  5
57A1
330
1F
100
AcDbEntity
  8
0
  6
CONTINUOUS
 62
     7
100
AcDbLine
 10
12.69371905918736
 20
25.31049557858491
 30
0.0
 11
12.55371912981183
 21
25.31049557858491
 31
0.0
  0
LINE
  5
57A2
330
1F
100
AcDbEntity
  8
0
  6
CONTINUOUS
 62
     7
100
AcDbLine
 10
12.55371912981183
 20
25.13369564765946
 30
0.0
 11
12.69371905918736
 21
25.13369564765946
 31
0.0
  0
LINE
  5
57A3
330
1F
100
AcDbEntity
  8
0
  6
CONTINUOUS
 62
     7
100
AcDbLine
 10
12.41371890710635
 20
25.13369564765946
 30
0.0
 11
12.55371912981183
 21
25.13369564765946
 31
0.0
  0
LINE
  5
57A4
330
1F
100
AcDbEntity
  8
0
  6
CONTINUOUS
 62
     7
100
AcDbLine
 10
6.903718879096864
 20
23.51029406799971
 30
0.0
 11
23.90371918697597
 21
23.51029406799971
 31
0.0
  0
LINE
  5
57A5
330
1F
100
AcDbEntity
  8
0
  6
CONTINUOUS
 62
     7
100
AcDbLine
 10
6.903718879096864
 20
23.51029406799971
 30
0.0
 11
6.903718879096864
 21
23.7452940699263
 31
0.0
  0
ARC
  5
57A6
330
1F
100
AcDbEntity
  8
0
  6
CONTINUOUS
 62
     7
100
AcDbCircle
 10
7.003719033036418
 20
23.74529406742713
 30
0.0
 40
0.1000000000000014
100
AcDbArc
 50
90.0
 51
180.0
  0
LINE
  5
57A7
330
1F
100
AcDbEntity
  8
0
  6
CONTINUOUS
 62
     7
100
AcDbLine
 10
7.00371916388504
 20
23.84529406138453
 30
0.0
 11
23.80371890218779
 21
23.84529406138453
 31
0.0
  0
LINE
  5
57A8
330
1F
100
AcDbEntity
  8
0
  6
CONTINUOUS
 62
     7
100
AcDbLine
 10
23.90371918697597
 20
23.7452940699263
 30
0.0
 11
23.90371918697597
 21
23.51029406799971
 31
0.0
  0
ARC
  5
57A9
330
1F
100
AcDbEntity
  8
0
  6
CONTINUOUS
 62
     7
100
AcDbCircle
 10
23.80371903303642
 20
23.74529406742713
 30
0.0
 40
0.1000000000000014
100
AcDbArc
 50
0.0
 51
90.0
  0
LINE
  5
57AA
330
1F
100
AcDbEntity
  8
0
  6
CONTINUOUS
 62
     7
100
AcDbLine
 10
24.90371910155829
 20
23.43529406523948
 30
0.0
 11
24.90371910155829
 21
23.34529406742713
 31
0.0
  0
LINE
  5
57AB
330
1F
100
AcDbEntity
  8
0
  6
CONTINUOUS
 62
     7
100
AcDbLine
 10
24.90371910155829
 20
23.34529406742713
 30
0.0
 11
24.80371881677012
 21
23.34529406742713
 31
0.0
  0
LINE
  5
57AC
330
1F
100
AcDbEntity
  8
0
  6
CONTINUOUS
 62
     7
100
AcDbLine
 10
24.80371881677012
 20
23.34529406742713
 30
0.0
 11
24.80371881677012
 21
23.43529406523948
 31
0.0
  0
LINE
  5
57AD
330
1F
100
AcDbEntity
  8
0
  6
CONTINUOUS
 62
     7
100
AcDbLine
 10
24.80371881677012
 20
23.43529406523948
 30
0.0
 11
24.90371910155829
 21
23.43529406523948
 31
0.0
  0
LINE
  5
57AE
330
1F
100
AcDbEntity
  8
0
  6
CONTINUOUS
 62
     7
100
AcDbLine
 10
6.903718879096864
 20
23.34529406742713
 30
0.0
 11
6.903718879096864
 21
23.51029406799971
 31
0.0
  0
LINE
  5
57AF
330
1F
100
AcDbEntity
  8
0
  6
CONTINUOUS
 62
     7
100
AcDbLine
 10
23.90371918697597
 20
23.34529406742713
 30
0.0
 11
6.903718879096864
 21
23.34529406742713
 31
0.0
  0
LINE
  5
57B0
330
1F
100
AcDbEntity
  8
0
  6
CONTINUOUS
 62
     7
100
AcDbLine
 10
23.90371918697597
 20
23.51029406799971
 30
0.0
 11
23.90371918697597
 21
23.34529406742713
 31
0.0
  0
LINE
  5
57B1
330
1F
100
AcDbEntity
  8
0
  6
CONTINUOUS
 62
     7
100
AcDbLine
 10
23.99371926728736
 20
23.43529406523948
 30
0.0
 11
23.99371926728736
 21
23.34529406742713
 31
0.0
  0
LINE
  5
57B2
330
1F
100
AcDbEntity
  8
0
  6
CONTINUOUS
 62
     7
100
AcDbLine
 10
24.80371881677012
 20
23.34529406742713
 30
0.0
 11
23.99371926728736
 21
23.34529406742713
 31
0.0
  0
LINE
  5
57B3
330
1F
100
AcDbEntity
  8
0
  6
CONTINUOUS
 62
     7
100
AcDbLine
 10
24.80371881677012
 20
23.43529406523948
 30
0.0
 11
23.99371926728736
 21
23.43529406523948
 31
0.0
  0
LINE
  5
57B4
330
1F
100
AcDbEntity
  8
0
  6
CONTINUOUS
 62
     7
100
AcDbLine
 10
6.813718798785471
 20
23.43529406523948
 30
0.0
 11
6.813718798785471
 21
23.34529406742713
 31
0.0
  0
LINE
  5
57B5
330
1F
100
AcDbEntity
  8
0
  6
CONTINUOUS
 62
     7
100
AcDbLine
 10
6.00371924930272
 20
23.43529406523948
 30
0.0
 11
6.00371924930272
 21
23.34529406742713
 31
0.0
  0
LINE
  5
57B6
330
1F
100
AcDbEntity
  8
0
  6
CONTINUOUS
 62
     7
100
AcDbLine
 10
6.813718798785471
 20
23.34529406742713
 30
0.0
 11
6.00371924930272
 21
23.34529406742713
 31
0.0
  0
LINE
  5
57B7
330
1F
100
AcDbEntity
  8
0
  6
CONTINUOUS
 62
     7
100
AcDbLine
 10
6.813718798785471
 20
23.43529406523948
 30
0.0
 11
6.00371924930272
 21
23.43529406523948
 31
0.0
  0
LINE
  5
57B8
330
1F
100
AcDbEntity
  8
0
  6
CONTINUOUS
 62
     7
100
AcDbLine
 10
5.903718964514542
 20
23.34529406742713
 30
0.0
 11
5.903718964514542
 21
23.43529406523948
 31
0.0
  0
LINE
  5
57B9
330
1F
100
AcDbEntity
  8
0
  6
CONTINUOUS
 62
     7
100
AcDbLine
 10
6.00371924930272
 20
23.34529406742713
 30
0.0
 11
5.903718964514542
 21
23.34529406742713
 31
0.0
  0
LINE
  5
57BA
330
1F
100
AcDbEntity
  8
0
  6
CONTINUOUS
 62
     7
100
AcDbLine
 10
5.903718964514542
 20
23.43529406523948
 30
0.0
 11
6.00371924930272
 21
23.43529406523948
 31
0.0
  0
LINE
  5
57BB
330
1F
100
AcDbEntity
  8
0
  6
CONTINUOUS
 62
     7
100
AcDbLine
 10
23.99371926728736
 20
23.34529406742713
 30
0.0
 11
23.90371918697597
 21
23.34529406742713
 31
0.0
  0
LINE
  5
57BC
330
1F
100
AcDbEntity
  8
0
  6
CONTINUOUS
 62
     7
100
AcDbLine
 10
23.99371926728736
 20
23.43529406523948
 30
0.0
 11
23.90371918697597
 21
23.43529406523948
 31
0.0
  0
LINE
  5
57BD
330
1F
100
AcDbEntity
  8
0
  6
CONTINUOUS
 62
     7
100
AcDbLine
 10
6.903718879096864
 20
23.34529406742713
 30
0.0
 11
6.813718798785471
 21
23.34529406742713
 31
0.0
  0
LINE
  5
57BE
330
1F
100
AcDbEntity
  8
0
  6
CONTINUOUS
 62
     7
100
AcDbLine
 10
6.903718879096864
 20
23.43529406523948
 30
0.0
 11
6.813718798785471
 21
23.43529406523948
 31
0.0
  0
LINE
  5
57BF
330
1F
100
AcDbEntity
  8
0
  6
CONTINUOUS
 62
     7
100
AcDbLine
 10
18.08521906945251
 20
25.44569560340936
 30
0.0
 11
18.08521906945251
 21
25.35569566976294
 31
0.0
  0
LINE
  5
57C0
330
1F
100
AcDbEntity
  8
0
  6
CONTINUOUS
 62
     7
100
AcDbLine
 10
18.08521906945251
 20
25.35569566976294
 30
0.0
 11
17.98521907799428
 21
25.35569566976294
 31
0.0
  0
LINE
  5
57C1
330
1F
100
AcDbEntity
  8
0
  6
CONTINUOUS
 62
     7
100
AcDbLine
 10
17.98521907799428
 20
25.35569566976294
 30
0.0
 11
17.98521907799428
 21
25.44569560340936
 31
0.0
  0
LINE
  5
57C2
330
1F
100
AcDbEntity
  8
0
  6
CONTINUOUS
 62
     7
100
AcDbLine
 10
17.98521907799428
 20
25.44569560340936
 30
0.0
 11
18.08521906945251
 21
25.44569560340936
 31
0.0
  0
LINE
  5
57C3
330
1F
100
AcDbEntity
  8
0
  6
CONTINUOUS
 62
     7
100
AcDbLine
 10
12.147218972403
 20
25.35569566976294
 30
0.0
 11
12.147218972403
 21
25.44569560340936
 31
0.0
  0
LINE
  5
57C4
330
1F
100
AcDbEntity
  8
0
  6
CONTINUOUS
 62
     7
100
AcDbLine
 10
12.72221899662032
 20
25.44569560340936
 30
0.0
 11
12.147218972403
 21
25.44569560340936
 31
0.0
  0
LINE
  5
57C5
330
1F
100
AcDbEntity
  8
0
  6
CONTINUOUS
 62
     7
100
AcDbLine
 10
12.72221899662032
 20
25.35569566976294
 30
0.0
 11
12.72221899662032
 21
25.44569560340936
 31
0.0
  0
LINE
  5
57C6
330
1F
100
AcDbEntity
  8
0
  6
CONTINUOUS
 62
     7
100
AcDbLine
 10
12.72221899662032
 20
25.35569566976294
 30
0.0
 11
12.147218972403
 21
25.35569566976294
 31
0.0
  0
LINE
  5
57C7
330
1F
100
AcDbEntity
  8
0
  6
CONTINUOUS
 62
     7
100
AcDbLine
 10
12.82221898807855
 20
25.44569560340936
 30
0.0
 11
12.82221898807855
 21
25.35569566976294
 31
0.0
  0
LINE
  5
57C8
330
1F
100
AcDbEntity
  8
0
  6
CONTINUOUS
 62
     7
100
AcDbLine
 10
12.82221898807855
 20
25.35569566976294
 30
0.0
 11
12.72221899662032
 21
25.35569566976294
 31
0.0
  0
LINE
  5
57C9
330
1F
100
AcDbEntity
  8
0
  6
CONTINUOUS
 62
     7
100
AcDbLine
 10
12.72221899662032
 20
25.44569560340936
 30
0.0
 11
12.82221898807855
 21
25.44569560340936
 31
0.0
  0
LINE
  5
57CA
330
1F
100
AcDbEntity
  8
0
  6
CONTINUOUS
 62
     7
100
AcDbLine
 10
12.07221890547684
 20
25.28069560283677
 30
0.0
 11
11.98221911849539
 21
25.28069560283677
 31
0.0
  0
ARC
  5
57CB
330
1F
100
AcDbEntity
  8
0
  6
CONTINUOUS
 62
     7
100
AcDbCircle
 10
12.14721903303642
 20
25.28069564223025
 30
0.0
 40
0.0750000000000029
100
AcDbArc
 50
90.0
 51
180.0
  0
ARC
  5
57CC
330
1F
100
AcDbEntity
  8
0
  6
CONTINUOUS
 62
     7
100
AcDbCircle
 10
12.14721903303642
 20
25.28069564223025
 30
0.0
 40
0.1650000000000027
100
AcDbArc
 50
90.0
 51
179.9999999999987
  0
LINE
  5
57CD
330
1F
100
AcDbEntity
  8
0
  6
CONTINUOUS
 62
     7
100
AcDbLine
 10
18.66021909366983
 20
25.35569566976294
 30
0.0
 11
18.66021909366983
 21
25.44569560340936
 31
0.0
  0
LINE
  5
57CE
330
1F
100
AcDbEntity
  8
0
  6
CONTINUOUS
 62
     7
100
AcDbLine
 10
18.66021909366983
 20
25.35569566976294
 30
0.0
 11
18.08521906945251
 21
25.35569566976294
 31
0.0
  0
LINE
  5
57CF
330
1F
100
AcDbEntity
  8
0
  6
CONTINUOUS
 62
     7
100
AcDbLine
 10
18.66021909366983
 20
25.44569560340936
 30
0.0
 11
18.08521906945251
 21
25.44569560340936
 31
0.0
  0
LINE
  5
57D0
330
1F
100
AcDbEntity
  8
0
  6
CONTINUOUS
 62
     7
100
AcDbLine
 10
18.73521916059599
 20
25.28069560283677
 30
0.0
 11
18.82521894757744
 21
25.28069560283677
 31
0.0
  0
ARC
  5
57D1
330
1F
100
AcDbEntity
  8
0
  6
CONTINUOUS
 62
     7
100
AcDbCircle
 10
18.66021903303641
 20
25.28069564223028
 30
0.0
 40
0.0750000000000029
100
AcDbArc
 50
0.0
 51
90.0
  0
ARC
  5
57D2
330
1F
100
AcDbEntity
  8
0
  6
CONTINUOUS
 62
     7
100
AcDbCircle
 10
18.66021903303641
 20
25.28069564223028
 30
0.0
 40
0.1649999999999991
100
AcDbArc
 50
0.0
 51
90.0
  0
LINE
  5
57D3
330
1F
100
AcDbEntity
  8
0
  6
CONTINUOUS
 62
     7
100
AcDbLine
 10
18.82521894757744
 20
25.28069560283677
 30
0.0
 11
18.82521894757744
 21
23.84529406138453
 31
0.0
  0
LINE
  5
57D4
330
1F
100
AcDbEntity
  8
0
  6
CONTINUOUS
 62
     7
100
AcDbLine
 10
18.73521916059599
 20
25.28069560283677
 30
0.0
 11
18.73521916059599
 21
23.84529406138453
 31
0.0
  0
LINE
  5
57D5
330
1F
100
AcDbEntity
  8
0
  6
CONTINUOUS
 62
     7
100
AcDbLine
 10
11.98221911849539
 20
23.84529406138453
 30
0.0
 11
11.98221911849539
 21
25.28069560283677
 31
0.0
  0
LINE
  5
57D6
330
1F
100
AcDbEntity
  8
0
  6
CONTINUOUS
 62
     7
100
AcDbLine
 10
12.07221890547684
 20
23.84529406138453
 30
0.0
 11
12.07221890547684
 21
25.28069560283677
 31
0.0
  0
LINE
  5
57D7
330
1F
100
AcDbEntity
  8
0
  6
CONTINUOUS
 62
     7
100
AcDbLine
 10
48.15761195769895
 20
20.14081845173036
 30
0.0
 11
48.15761195769895
 21
20.2143071903776
 31
0.0
  0
LINE
  5
57D8
330
1F
100
AcDbEntity
  8
0
  6
CONTINUOUS
 62
     7
100
AcDbLine
 10
48.53187223899501
 20
15.37552742004543
 30
0.0
 11
48.5955118477549
 21
15.41226578418444
 31
0.0
  0
LINE
  5
57D9
330
1F
100
AcDbEntity
  8
0
  6
CONTINUOUS
 62
     7
100
AcDbLine
 10
35.858843937648
 20
22.74651596296324
 30
0.0
 11
47.87965943552269
 21
15.80704688679271
 31
0.0
  0
LINE
  5
57DA
330
1F
100
AcDbEntity
  8
0
  6
CONTINUOUS
 62
     7
100
AcDbLine
 10
44.25914386481011
 20
21.60232092534652
 30
0.0
 11
44.25914386481011
 21
18.37535161541458
 31
0.0
  0
LINE
  5
57DB
330
1F
100
AcDbEntity
  8
0
  6
CONTINUOUS
 62
     7
100
AcDbLine
 10
45.67130122801899
 20
21.67353591878879
 30
0.0
 11
45.67130122801899
 21
22.4229750321398
 31
0.0
  0
LINE
  5
57DC
330
1F
100
AcDbEntity
  8
0
  6
CONTINUOUS
 62
     7
100
AcDbLine
 10
45.16639152397577
 20
22.72999675611431
 30
0.0
 11
45.10275196058805
 21
22.69325841816809
 31
0.0
  0
LINE
  5
57DD
330
1F
100
AcDbEntity
  8
0
  6
CONTINUOUS
 62
     7
100
AcDbLine
 10
41.41052998035182
 20
21.64558594511915
 30
0.0
 11
41.47416954373954
 21
21.68232428306537
 31
0.0
  0
LINE
  5
57DE
330
1F
100
AcDbEntity
  8
0
  6
CONTINUOUS
 62
     7
100
AcDbLine
 10
35.20191209886483
 20
27.3587471312125
 30
0.0
 11
35.13827249010495
 21
27.32200876707348
 31
0.0
  0
LINE
  5
57DF
330
1F
100
AcDbEntity
  8
0
  6
CONTINUOUS
 62
     7
100
AcDbLine
 10
41.15440325008616
 20
24.41923545872163
 30
0.0
 11
41.27941968015686
 21
24.49140590761024
 31
0.0
  0
LINE
  5
57E0
330
1F
100
AcDbEntity
  8
0
  6
CONTINUOUS
 62
     7
100
AcDbLine
 10
41.13943095550074
 20
24.73389971747771
 30
0.0
 11
41.01441452543004
 21
24.66172926858909
 31
0.0
  0
LINE
  5
57E1
330
1F
100
AcDbEntity
  8
0
  6
CONTINUOUS
 62
     7
100
AcDbLine
 10
41.28931921158268
 20
24.49712078545778
 30
0.0
 11
41.31730279002891
 21
24.51327536143496
 31
0.0
  0
LINE
  5
57E2
330
1F
100
AcDbEntity
  8
0
  6
CONTINUOUS
 62
     7
100
AcDbLine
 10
41.17731406537278
 20
24.75576917130242
 30
0.0
 11
41.14933048692657
 21
24.73961459532524
 31
0.0
  0
LWPOLYLINE
  5
57E3
330
1F
100
AcDbEntity
  8
0
  6
CONTINUOUS
 62
     7
100
AcDbPolyline
 90
       15
 70
   128
 43
0.0
 10
48.48187595478015
 20
15.38047855163031
 10
48.48979300796746
 20
15.3764216561373
 10
48.49761091650128
 20
15.3734420937301
 10
48.50523053572813
 20
15.37157841716093
 10
48.5125564544752
 20
15.37085337148483
 10
48.51949658021917
 20
15.37127628917945
 10
48.52596338357976
 20
15.37284165316659
 10
48.53187597247569
 20
15.37553005507034
 10
48.53716009212462
 20
15.37930723715354
 10
48.54174853987442
 20
15.3841262479996
 10
48.54558406902138
 20
15.38992624520558
 10
48.54861855914793
 20
15.39663441143133
 10
48.55081384578493
 20
15.40416595447735
 10
48.55214213524292
 20
15.4124265024824
 10
48.55258683427446
 20
15.42131210400135
  0
LINE
  5
57E4
330
1F
100
AcDbEntity
  8
0
  6
CONTINUOUS
 62
     7
100
AcDbLine
 10
47.90911978058285
 20
15.71112365301554
 30
0.0
 11
48.48187595478015
 21
15.38047855163031
 31
0.0
  0
LINE
  5
57E5
330
1F
100
AcDbEntity
  8
0
  6
CONTINUOUS
 62
     7
100
AcDbLine
 10
47.90911978058285
 20
15.84585288744422
 30
0.0
 11
47.90911978058285
 21
15.71112365301554
 31
0.0
  0
LWPOLYLINE
  5
57E6
330
1F
100
AcDbEntity
  8
0
  6
CONTINUOUS
 62
     7
100
AcDbPolyline
 90
       20
 70
   128
 43
0.0
 10
47.84548011348733
 20
15.88259128525968
 10
47.84591402690802
 20
15.88838868788069
 10
47.84720415189688
 20
15.89352690340709
 10
47.8493152278031
 20
15.89786569198766
 10
47.85218959309181
 20
15.90128684712937
 10
47.85574884466881
 20
15.90369695028562
 10
47.85989591203656
 20
15.90503036499929
 10
47.86451796111244
 20
15.90525043475447
 10
47.86948846838465
 20
15.90435151905613
 10
47.87467219888655
 20
15.90235791607566
 10
47.87992728035245
 20
15.89932422211938
 10
47.88511101085433
 20
15.89533281725685
 10
47.89008151812656
 20
15.89049290741302
 10
47.89470356720243
 20
15.88493633338552
 10
47.89885063457019
 20
15.87881481660667
 10
47.90241030097837
 20
15.87229504957422
 10
47.90528466626707
 20
15.86555522291009
 10
47.9073953273421
 20
15.85877927744658
 10
47.90868545233098
 20
15.85215151531392
 10
47.90911978058285
 20
15.84585288744422
  0
LINE
  5
57E7
330
1F
100
AcDbEntity
  8
0
  6
CONTINUOUS
 62
     7
100
AcDbLine
 10
35.82466461561264
 20
22.82206036143022
 30
0.0
 11
47.84548011348733
 21
15.88259128525968
 31
0.0
  0
LWPOLYLINE
  5
57E8
330
1F
100
AcDbEntity
  8
0
  6
CONTINUOUS
 62
     7
100
AcDbPolyline
 90
       20
 70
   128
 43
0.0
 10
35.76102494851712
 20
22.85879875924567
 10
35.76145927676899
 20
22.86459592238974
 10
35.76274940175786
 20
22.86973413791614
 10
35.7648600628329
 20
22.87407316597365
 10
35.7677344281216
 20
22.87749432111536
 10
35.77129409452978
 20
22.87990418479467
 10
35.77544116189754
 20
22.88123759950833
 10
35.7800632109734
 20
22.88145766926353
 10
35.78503371824562
 20
22.88055875356518
 10
35.79021744874752
 20
22.8785651505847
 10
35.79547253021342
 20
22.87553145662843
 10
35.80065626071531
 20
22.87154005176589
 10
35.80562676798753
 20
22.86670014192208
 10
35.8102488170634
 20
22.86114356789457
 10
35.81439588443116
 20
22.85502205111572
 10
35.81795513600816
 20
22.84850252356021
 10
35.82082950129685
 20
22.84176269689608
 10
35.82294057720307
 20
22.83498651195563
 10
35.82423070219194
 20
22.82835874982298
 10
35.82466461561264
 20
22.82206036143022
  0
LINE
  5
57E9
330
1F
100
AcDbEntity
  8
0
  6
CONTINUOUS
 62
     7
100
AcDbLine
 10
35.76102494851712
 20
22.72406952481699
 30
0.0
 11
35.76102494851712
 21
22.85879875924567
 31
0.0
  0
LINE
  5
57EA
330
1F
100
AcDbEntity
  8
0
  6
CONTINUOUS
 62
     7
100
AcDbLine
 10
35.18826877431981
 20
23.05471462620222
 30
0.0
 11
35.76102494851712
 21
22.72406952481699
 31
0.0
  0
ARC
  5
57EB
330
1F
100
AcDbEntity
  8
0
  6
CONTINUOUS
 62
     7
100
AcDbCircle
 10
35.27031686069941
 20
23.18373501440147
 30
0.0
 40
0.1528991466609276
100
AcDbArc
 50
182.4536495464401
 51
237.546447637079
  0
LINE
  5
57EC
330
1F
100
AcDbEntity
  8
0
  6
CONTINUOUS
 62
     7
100
AcDbLine
 10
35.11755789482551
 20
27.27622408311755
 30
0.0
 11
35.11755789482551
 21
23.17718922225892
 31
0.0
  0
LWPOLYLINE
  5
57ED
330
1F
100
AcDbEntity
  8
0
  6
CONTINUOUS
 62
     7
100
AcDbPolyline
 90
       15
 70
   128
 43
0.0
 10
35.18826877431981
 20
27.31705763548861
 10
35.18035172113251
 20
27.32111453098161
 10
35.17253381259868
 20
27.32409409338882
 10
35.16491419337183
 20
27.32595776995799
 10
35.15758827462476
 20
27.32668281563408
 10
35.15064814888079
 20
27.32625989793947
 10
35.1441813455202
 20
27.32469453395232
 10
35.13826875662428
 20
27.32200613204858
 10
35.13298463697534
 20
27.31822894996538
 10
35.12839618922555
 20
27.31340993911932
 10
35.12456066007858
 20
27.30760994191334
 10
35.12152616995204
 20
27.30090177568758
 10
35.11933088331503
 20
27.29337023264156
 10
35.11800259385704
 20
27.28510968463651
 10
35.11755789482551
 20
27.27622408311755
  0
LINE
  5
57EE
330
1F
100
AcDbEntity
  8
0
  6
CONTINUOUS
 62
     7
100
AcDbLine
 10
35.76102494851712
 20
26.98641253410338
 30
0.0
 11
35.18826877431981
 21
27.31705763548861
 31
0.0
  0
LINE
  5
57EF
330
1F
100
AcDbEntity
  8
0
  6
CONTINUOUS
 62
     7
100
AcDbLine
 10
35.76102494851712
 20
26.85168329967469
 30
0.0
 11
35.76102494851712
 21
26.98641253410338
 31
0.0
  0
LWPOLYLINE
  5
57F0
330
1F
100
AcDbEntity
  8
0
  6
CONTINUOUS
 62
     7
100
AcDbPolyline
 90
       20
 70
   128
 43
0.0
 10
35.82466461561264
 20
26.81494490185923
 10
35.82423070219194
 20
26.80914749923823
 10
35.82294057720307
 20
26.80400928371183
 10
35.82082950129685
 20
26.79967049513126
 10
35.81795513600816
 20
26.79624933998955
 10
35.81439588443116
 20
26.79383923683329
 10
35.8102488170634
 20
26.79250582211963
 10
35.80562676798753
 20
26.79228575236444
 10
35.80065626071531
 20
26.79318466806279
 10
35.79547253021342
 20
26.79517827104326
 10
35.79021744874752
 20
26.79821196499954
 10
35.78503371824562
 20
26.80220336986207
 10
35.7800632109734
 20
26.80704327970589
 10
35.77544116189754
 20
26.81259985373339
 10
35.77129409452978
 20
26.81872137051225
 10
35.7677344281216
 20
26.82524113754471
 10
35.7648600628329
 20
26.83198096420884
 10
35.76274940175786
 20
26.83875690967234
 10
35.76145927676899
 20
26.84538467180499
 10
35.76102494851712
 20
26.85168329967469
  0
LINE
  5
57F1
330
1F
100
AcDbEntity
  8
0
  6
CONTINUOUS
 62
     7
100
AcDbLine
 10
47.84548011348732
 20
19.87547582568869
 30
0.0
 11
35.82466461561264
 21
26.81494490185923
 31
0.0
  0
LWPOLYLINE
  5
57F2
330
1F
100
AcDbEntity
  8
0
  6
CONTINUOUS
 62
     7
100
AcDbPolyline
 90
       20
 70
   128
 43
0.0
 10
47.90911978058285
 20
19.83873742787324
 10
47.90868545233098
 20
19.83294026472918
 10
47.9073953273421
 20
19.82780204920278
 10
47.90528466626707
 20
19.82346302114526
 10
47.90241030097837
 20
19.82004186600355
 10
47.89885063457019
 20
19.81763200232424
 10
47.89470356720243
 20
19.81629858761058
 10
47.89008151812656
 20
19.81607851785538
 10
47.88511101085433
 20
19.81697743355374
 10
47.87992728035245
 20
19.81897103653421
 10
47.87467219888655
 20
19.82200473049049
 10
47.86948846838465
 20
19.82599613535302
 10
47.86451796111244
 20
19.83083604519684
 10
47.85989591203656
 20
19.83639261922435
 10
47.85574884466881
 20
19.84251413600319
 10
47.85218959309181
 20
19.8490336635587
 10
47.8493152278031
 20
19.85577349022283
 10
47.84720415189688
 20
19.86254967516328
 10
47.84591402690802
 20
19.86917743729594
 10
47.84548011348732
 20
19.87547582568869
  0
LINE
  5
57F3
330
1F
100
AcDbEntity
  8
0
  6
CONTINUOUS
 62
     7
100
AcDbLine
 10
47.90911978058285
 20
19.97346666230192
 30
0.0
 11
47.90911978058285
 21
19.83873742787324
 31
0.0
  0
LINE
  5
57F4
330
1F
100
AcDbEntity
  8
0
  6
CONTINUOUS
 62
     7
100
AcDbLine
 10
48.48187595478015
 20
19.64282156091669
 30
0.0
 11
47.90911978058285
 21
19.97346666230192
 31
0.0
  0
ARC
  5
57F5
330
1F
100
AcDbEntity
  8
0
  6
CONTINUOUS
 62
     7
100
AcDbCircle
 10
48.3998278684006
 20
19.51380117271747
 30
0.0
 40
0.152899146660877
100
AcDbArc
 50
2.453649546429489
 51
57.54644763708817
  0
LINE
  5
57F6
330
1F
100
AcDbEntity
  8
0
  6
CONTINUOUS
 62
     7
100
AcDbLine
 10
48.55258683427446
 20
15.42131210400135
 30
0.0
 11
48.55258683427446
 21
19.52034696485999
 31
0.0
  0
LWPOLYLINE
  5
57F7
330
1F
100
AcDbEntity
  8
0
  6
CONTINUOUS
 62
     7
100
AcDbPolyline
 90
       20
 70
   128
 43
0.0
 10
39.36267351723591
 20
24.3895382224543
 10
39.35743606609541
 20
24.39306292560094
 10
39.35234173171413
 20
24.39749349120173
 10
39.34752886029265
 20
24.40270969527073
 10
39.34312936814813
 20
24.40856867896889
 10
39.33926293407779
 20
24.41491093595578
 10
39.33603513261851
 20
24.42156330616291
 10
39.33353370056615
 20
24.42834460406625
 10
39.331827292482
 20
24.43506945082356
 10
39.33096236945891
 20
24.44155462115291
 10
39.33096236945891
 20
24.44762335454059
 10
39.331827292482
 20
24.45310990600368
 10
39.33353370056615
 20
24.45786469568136
 10
39.33603513261851
 20
24.46175778185388
 10
39.33926293407779
 20
24.464683411822
 10
39.34312936814813
 20
24.46656157905211
 10
39.34752886029265
 20
24.46734101724139
 10
39.35234173171413
 20
24.46700039824745
 10
39.35743606609541
 20
24.46554929032703
 10
39.36267351723591
 20
24.46302684134362
  0
LINE
  5
57F8
330
1F
100
AcDbEntity
  8
0
  6
CONTINUOUS
 62
     7
100
AcDbLine
 10
39.36267351723591
 20
21.16256891252237
 30
0.0
 11
39.36267351723591
 21
24.3895382224543
 31
0.0
  0
LWPOLYLINE
  5
57F9
330
1F
100
AcDbEntity
  8
0
  6
CONTINUOUS
 62
     7
100
AcDbPolyline
 90
       20
 70
   128
 43
0.0
 10
39.36267351723591
 20
21.08908029363306
 10
39.35743606609541
 20
21.09260487702176
 10
39.35234173171413
 20
21.09703556238047
 10
39.34752886029265
 20
21.10225176644948
 10
39.34312936814813
 20
21.10811075014764
 10
39.33926293407779
 20
21.11445300713455
 10
39.33603513261851
 20
21.12110537734165
 10
39.33353370056615
 20
21.12788655548706
 10
39.331827292482
 20
21.13461152200231
 10
39.33096236945891
 20
21.14109669233166
 10
39.33096236945891
 20
21.14716542571934
 10
39.331827292482
 20
21.15265197718245
 10
39.33353370056615
 20
21.15740664710219
 10
39.33603513261851
 20
21.16129985303263
 10
39.33926293407779
 20
21.16422548300075
 10
39.34312936814813
 20
21.16610365023087
 10
39.34752886029265
 20
21.16688308842014
 10
39.35234173171413
 20
21.1665424694262
 10
39.35743606609541
 20
21.16509124174785
 10
39.36267351723591
 20
21.16256891252237
  0
LINE
  5
57FA
330
1F
100
AcDbEntity
  8
0
  6
CONTINUOUS
 62
     7
100
AcDbLine
 10
39.36267351723591
 20
21.08908029363306
 30
0.0
 11
44.30747121186406
 21
18.2345093457753
 31
0.0
  0
LWPOLYLINE
  5
57FB
330
1F
100
AcDbEntity
  8
0
  6
CONTINUOUS
 62
     7
100
AcDbPolyline
 90
       20
 70
   128
 43
0.0
 10
44.30747121186406
 20
18.30799796466461
 10
44.31270866300455
 20
18.30447326151797
 10
44.31780299738583
 20
18.3000426959172
 10
44.32261586880732
 20
18.29482649184819
 10
44.32701536095184
 20
18.28896750815002
 10
44.33088179502216
 20
18.28262525116312
 10
44.33410959648145
 20
18.27597288095601
 10
44.33661102853381
 20
18.26919158305267
 10
44.33831743661797
 20
18.26246673629536
 10
44.33918235964105
 20
18.25598156596601
 10
44.33918235964105
 20
18.24991283257833
 10
44.33831743661797
 20
18.24442628111522
 10
44.33661102853381
 20
18.23967149143754
 10
44.33410959648145
 20
18.23577840526503
 10
44.33088179502216
 20
18.23285277529691
 10
44.32701536095184
 20
18.2309746080668
 10
44.32261586880732
 20
18.23019516987753
 10
44.31780299738583
 20
18.23053578887147
 10
44.31270866300455
 20
18.23198689679189
 10
44.30747121186406
 20
18.2345093457753
  0
LINE
  5
57FC
330
1F
100
AcDbEntity
  8
0
  6
CONTINUOUS
 62
     7
100
AcDbLine
 10
44.30747121186406
 20
21.53496727459654
 30
0.0
 11
44.30747121186406
 21
18.30799796466461
 31
0.0
  0
LWPOLYLINE
  5
57FD
330
1F
100
AcDbEntity
  8
0
  6
CONTINUOUS
 62
     7
100
AcDbPolyline
 90
       20
 70
   128
 43
0.0
 10
44.30747121186406
 20
21.60845589348586
 10
44.31270866300455
 20
21.60493131009715
 10
44.31780299738583
 20
21.60050062473844
 10
44.32261586880732
 20
21.59528442066942
 10
44.32701536095184
 20
21.58942543697127
 10
44.33088179502216
 20
21.58308317998437
 10
44.33410959648145
 20
21.57643080977726
 10
44.33661102853381
 20
21.56964963163185
 10
44.33831743661797
 20
21.56292466511661
 10
44.33918235964105
 20
21.55643949478725
 10
44.33918235964105
 20
21.55037076139957
 10
44.33831743661797
 20
21.54488420993647
 10
44.33661102853381
 20
21.54012954001673
 10
44.33410959648145
 20
21.53623633408628
 10
44.33088179502216
 20
21.53331070411816
 10
44.32701536095184
 20
21.53143253688805
 10
44.32261586880732
 20
21.53065309869877
 10
44.31780299738583
 20
21.53099371769271
 10
44.31270866300455
 20
21.53244494537107
 10
44.30747121186406
 20
21.53496727459654
  0
LINE
  5
57FE
330
1F
100
AcDbEntity
  8
0
  6
CONTINUOUS
 62
     7
100
AcDbLine
 10
44.30747121186406
 20
21.60845589348586
 30
0.0
 11
39.36267351723591
 21
24.46302684134362
 31
0.0
  0
LINE
  5
57FF
330
1F
100
AcDbEntity
  8
0
  6
CONTINUOUS
 62
     7
100
AcDbLine
 10
35.31095177896853
 20
25.9193554186898
 30
0.0
 11
35.39933985979743
 21
25.86833006573245
 31
0.0
  0
LWPOLYLINE
  5
5800
330
1F
100
AcDbEntity
  8
0
  6
CONTINUOUS
 62
     7
100
AcDbPolyline
 90
       35
 70
   128
 43
0.0
 10
35.39933985979743
 20
25.86833006573245
 10
35.40850679934854
 20
25.86352749497609
 10
35.41759533580548
 20
25.85974483532164
 10
35.42652789573644
 20
25.85701429437484
 10
35.43522897986553
 20
25.85535879869604
 10
35.44362350374808
 20
25.85479295170796
 10
35.45164011642006
 20
25.85532147715398
 10
35.45921078556694
 20
25.85693957833299
 10
35.4662707975237
 20
25.85963359676806
 10
35.47275958693716
 20
25.8633807128894
 10
35.47862198125956
 20
25.86814882639326
 10
35.48380778591739
 20
25.87389739450852
 10
35.48827302880489
 20
25.88057719259758
 10
35.49197954545297
 20
25.88813121230201
 10
35.49489580869148
 20
25.89649508077312
 10
35.49699692864923
 20
25.90559736006682
 10
35.49826465275404
 20
25.91536062496502
 10
35.49868861022627
 20
25.92570128345555
 10
35.49826465275404
 20
25.93653137294543
 10
35.49699692864923
 20
25.94775832093969
 10
35.49489580869148
 20
25.95928650169984
 10
35.49197954545297
 20
25.97101741603654
 10
35.48827302880489
 20
25.9828509486511
 10
35.48380778591739
 20
25.99468614656207
 10
35.47862198125956
 20
26.00642211728979
 10
35.47275958693716
 20
26.01795880720509
 10
35.4662707975237
 20
26.02919772011583
 10
35.45921078556694
 20
26.04004299497156
 10
35.45164011642006
 20
26.05040206457107
 10
35.44362350374808
 20
26.06018637399326
 10
35.43522897986553
 20
26.06931269785656
 10
35.42652789573644
 20
26.07770320019787
 10
35.41759533580548
 20
26.08528603330126
 10
35.40850679934854
 20
26.09199665472375
 10
35.39933985979743
 20
26.09777806696694
  0
LINE
  5
5801
330
1F
100
AcDbEntity
  8
0
  6
CONTINUOUS
 62
     7
100
AcDbLine
 10
35.39933985979743
 20
26.09777806696694
 30
0.0
 11
35.31095177896853
 21
26.14880341992428
 31
0.0
  0
LWPOLYLINE
  5
5802
330
1F
100
AcDbEntity
  8
0
  6
CONTINUOUS
 62
     7
100
AcDbPolyline
 90
       35
 70
   128
 43
0.0
 10
35.31095177896853
 20
26.14880341992428
 10
35.30178483941741
 20
26.15360593080168
 10
35.29269630296046
 20
26.15738871021406
 10
35.28376374302951
 20
26.16011919128189
 10
35.27506265890041
 20
26.16177474683967
 10
35.26666813501787
 20
26.16234053394878
 10
35.25865152234589
 20
26.16181200850276
 10
35.251080853199
 20
26.16019384744477
 10
35.24402084124224
 20
26.15749988888867
 10
35.23753205182878
 20
26.15375277276733
 10
35.23166965750638
 20
26.14898465926347
 10
35.22648385284856
 20
26.14323609114822
 10
35.22201860996104
 20
26.13655635293813
 10
35.21831209331297
 20
26.12900227335472
 10
35.21539583007447
 20
26.12063840488361
 10
35.21329471011672
 20
26.11153612558992
 10
35.21202698601189
 20
26.10177286069171
 10
35.21160302853967
 20
26.09143226208015
 10
35.21202698601189
 20
26.0806021127113
 10
35.21329471011672
 20
26.06937516471704
 10
35.21539583007447
 20
26.05784698395689
 10
35.21831209331297
 20
26.04611606962019
 10
35.22201860996104
 20
26.03428259688461
 10
35.22648385284856
 20
26.02244733909467
 10
35.23166965750638
 20
26.01071136836694
 10
35.23753205182878
 20
25.99917467845164
 10
35.24402084124224
 20
25.9879357655409
 10
35.251080853199
 20
25.97709043080621
 10
35.25865152234589
 20
25.96673142108567
 10
35.26666813501787
 20
25.95694711166348
 10
35.27506265890041
 20
25.94782084767915
 10
35.28376374302951
 20
25.93943028545886
 10
35.29269630296046
 20
25.93184751223444
 10
35.30178483941741
 20
25.92513677105402
 10
35.31095177896853
 20
25.9193554186898
  0
LINE
  5
5803
330
1F
100
AcDbEntity
  8
0
  6
CONTINUOUS
 62
     7
100
AcDbLine
 10
35.31095177896853
 20
24.08132205963569
 30
0.0
 11
35.39933985979743
 21
24.03029670667834
 31
0.0
  0
LWPOLYLINE
  5
5804
330
1F
100
AcDbEntity
  8
0
  6
CONTINUOUS
 62
     7
100
AcDbPolyline
 90
       35
 70
   128
 43
0.0
 10
35.39933985979743
 20
24.03029670667834
 10
35.40850679934854
 20
24.02549419580093
 10
35.41759533580548
 20
24.02171141638855
 10
35.42652789573644
 20
24.01898093532072
 10
35.43522897986553
 20
24.01732537976295
 10
35.44362350374808
 20
24.01675959265384
 10
35.45164011642006
 20
24.01728811809987
 10
35.45921078556694
 20
24.01890627915785
 10
35.4662707975237
 20
24.02160023771394
 10
35.47275958693716
 20
24.02534735383528
 10
35.47862198125956
 20
24.03011546733914
 10
35.48380778591739
 20
24.03586403545439
 10
35.48827302880489
 20
24.04254377366449
 10
35.49197954545297
 20
24.05009785324789
 10
35.49489580869148
 20
24.05846172171901
 10
35.49699692864923
 20
24.0675640010127
 10
35.49826465275404
 20
24.07732726591091
 10
35.49868861022627
 20
24.08766786452246
 10
35.49826465275404
 20
24.09849801389131
 10
35.49699692864923
 20
24.10972496188557
 10
35.49489580869148
 20
24.12125314264573
 10
35.49197954545297
 20
24.13298405698242
 10
35.48827302880489
 20
24.14481752971801
 10
35.48380778591739
 20
24.15665278750795
 10
35.47862198125956
 20
24.16838875823568
 10
35.47275958693716
 20
24.17992544815098
 10
35.4662707975237
 20
24.19116436106172
 10
35.45921078556694
 20
24.20200969579641
 10
35.45164011642006
 20
24.21236870551696
 10
35.44362350374808
 20
24.22215301493914
 10
35.43522897986553
 20
24.23127927892346
 10
35.42652789573644
 20
24.23966984114375
 10
35.41759533580548
 20
24.24725261436817
 10
35.40850679934854
 20
24.2539633555486
 10
35.39933985979743
 20
24.25974470791281
  0
LINE
  5
5805
330
1F
100
AcDbEntity
  8
0
  6
CONTINUOUS
 62
     7
100
AcDbLine
 10
35.39933985979743
 20
24.25974470791281
 30
0.0
 11
35.31095177896853
 21
24.31077006087016
 31
0.0
  0
LWPOLYLINE
  5
5806
330
1F
100
AcDbEntity
  8
0
  6
CONTINUOUS
 62
     7
100
AcDbPolyline
 90
       35
 70
   128
 43
0.0
 10
35.31095177896853
 20
24.31077006087016
 10
35.30178483941741
 20
24.31557263162654
 10
35.29269630296046
 20
24.31935529128097
 10
35.28376374302951
 20
24.32208583222777
 10
35.27506265890041
 20
24.32374132790658
 10
35.26666813501787
 20
24.32430717489466
 10
35.25865152234589
 20
24.32377864944864
 10
35.251080853199
 20
24.32216054826962
 10
35.24402084124224
 20
24.31946652983455
 10
35.23753205182878
 20
24.31571941371322
 10
35.23166965750638
 20
24.31095130020936
 10
35.22648385284856
 20
24.30520273209411
 10
35.22201860996104
 20
24.29852293400504
 10
35.21831209331297
 20
24.2909689143006
 10
35.21539583007447
 20
24.28260504582949
 10
35.21329471011672
 20
24.2735027665358
 10
35.21202698601189
 20
24.2637395016376
 10
35.21160302853967
 20
24.25339884314706
 10
35.21202698601189
 20
24.24256875365718
 10
35.21329471011672
 20
24.23134180566293
 10
35.21539583007447
 20
24.21981362490278
 10
35.21831209331297
 20
24.20808271056608
 10
35.22201860996104
 20
24.19624917795152
 10
35.22648385284856
 20
24.18441398004055
 10
35.23166965750638
 20
24.17267800931283
 10
35.23753205182878
 20
24.16114131939753
 10
35.24402084124224
 20
24.14990240648679
 10
35.251080853199
 20
24.13905713163106
 10
35.25865152234589
 20
24.12869806203154
 10
35.26666813501787
 20
24.11891375260935
 10
35.27506265890041
 20
24.10978742874607
 10
35.28376374302951
 20
24.10139692640474
 10
35.29269630296046
 20
24.09381409330135
 10
35.30178483941741
 20
24.08710347187887
 10
35.31095177896853
 20
24.08132205963569
  0
LINE
  5
5807
330
1F
100
AcDbEntity
  8
0
  6
CONTINUOUS
 62
     7
100
AcDbLine
 10
48.27080486930254
 20
16.59975812015199
 30
0.0
 11
48.35919295013145
 21
16.54873276719464
 31
0.0
  0
LWPOLYLINE
  5
5808
330
1F
100
AcDbEntity
  8
0
  6
CONTINUOUS
 62
     7
100
AcDbPolyline
 90
       35
 70
   128
 43
0.0
 10
48.35919295013145
 20
16.54873276719464
 10
48.36835988968257
 20
16.54393025631724
 10
48.3774484261395
 20
16.54014747690485
 10
48.38638098607045
 20
16.53741699583702
 10
48.39508207019956
 20
16.53576144027925
 10
48.4034765940821
 20
16.53519565317014
 10
48.41149320675407
 20
16.53572417861616
 10
48.41906387590096
 20
16.53734233967415
 10
48.42612388785773
 20
16.54003629823025
 10
48.43261267727118
 20
16.54378341435158
 10
48.43847507159358
 20
16.54855152785544
 10
48.4436608762514
 20
16.55430009597069
 10
48.44812611913891
 20
16.5609798341808
 10
48.451832635787
 20
16.5685339137642
 10
48.4547488990255
 20
16.5768977822353
 10
48.45685001898324
 20
16.586000061529
 10
48.45811774308806
 20
16.59576332642721
 10
48.45854170056028
 20
16.60610392503876
 10
48.45811774308806
 20
16.61693407440761
 10
48.45685001898324
 20
16.62816102240187
 10
48.4547488990255
 20
16.63968920316202
 10
48.451832635787
 20
16.65142011749872
 10
48.44812611913891
 20
16.66325359023431
 10
48.4436608762514
 20
16.67508884802425
 10
48.43847507159358
 20
16.68682481875197
 10
48.43261267727118
 20
16.69836150866727
 10
48.42612388785773
 20
16.70960042157801
 10
48.41906387590096
 20
16.72044575631271
 10
48.41149320675407
 20
16.73080476603326
 10
48.4034765940821
 20
16.74058907545544
 10
48.39508207019956
 20
16.74971533943976
 10
48.38638098607045
 20
16.75810590166006
 10
48.3774484261395
 20
16.76568867488447
 10
48.36835988968257
 20
16.77239941606489
 10
48.35919295013145
 20
16.77818076842911
  0
LINE
  5
5809
330
1F
100
AcDbEntity
  8
0
  6
CONTINUOUS
 62
     7
100
AcDbLine
 10
48.35919295013145
 20
16.77818076842911
 30
0.0
 11
48.27080486930254
 21
16.82920612138646
 31
0.0
  0
LWPOLYLINE
  5
580A
330
1F
100
AcDbEntity
  8
0
  6
CONTINUOUS
 62
     7
100
AcDbPolyline
 90
       35
 70
   128
 43
0.0
 10
48.27080486930254
 20
16.82920612138646
 10
48.26163792975143
 20
16.83400869214283
 10
48.25254939329449
 20
16.83779135179728
 10
48.24361683336352
 20
16.84052189274408
 10
48.23491574923443
 20
16.84217738842288
 10
48.22652122535189
 20
16.84274323541096
 10
48.21850461267991
 20
16.84221470996493
 10
48.21093394353302
 20
16.84059660878592
 10
48.20387393157627
 20
16.83790259035085
 10
48.1973851421628
 20
16.83415547422951
 10
48.1915227478404
 20
16.82938736072566
 10
48.18633694318258
 20
16.82363879261041
 10
48.18187170029506
 20
16.81695899452134
 10
48.17816518364699
 20
16.8094049748169
 10
48.17524892040849
 20
16.80104110634579
 10
48.17314780045073
 20
16.79193882705209
 10
48.17188007634592
 20
16.78217556215389
 10
48.17145611887369
 20
16.77183490366337
 10
48.17188007634592
 20
16.76100481417349
 10
48.17314780045073
 20
16.74977786617922
 10
48.17524892040849
 20
16.73824968541907
 10
48.17816518364699
 20
16.72651877108238
 10
48.18187170029506
 20
16.71468523846782
 10
48.18633694318258
 20
16.70285004055685
 10
48.1915227478404
 20
16.69111406982912
 10
48.1973851421628
 20
16.67957737991382
 10
48.20387393157627
 20
16.66833846700308
 10
48.21093394353302
 20
16.65749319214735
 10
48.21850461267991
 20
16.64713412254784
 10
48.22652122535189
 20
16.63734981312566
 10
48.23491574923443
 20
16.62822348926236
 10
48.24361683336352
 20
16.61983298692104
 10
48.25254939329449
 20
16.61225015381765
 10
48.26163792975143
 20
16.60553953239516
 10
48.27080486930254
 20
16.59975812015199
  0
LINE
  5
580B
330
1F
100
AcDbEntity
  8
0
  6
CONTINUOUS
 62
     7
100
AcDbLine
 10
48.27080486930254
 20
18.4377914792061
 30
0.0
 11
48.35919295013145
 21
18.38676612624875
 31
0.0
  0
LWPOLYLINE
  5
580C
330
1F
100
AcDbEntity
  8
0
  6
CONTINUOUS
 62
     7
100
AcDbPolyline
 90
       35
 70
   128
 43
0.0
 10
48.35919295013145
 20
18.38676612624875
 10
48.36835988968257
 20
18.38196355549239
 10
48.3774484261395
 20
18.37818089583794
 10
48.38638098607045
 20
18.37545035489115
 10
48.39508207019956
 20
18.37379485921234
 10
48.4034765940821
 20
18.37322901222425
 10
48.41149320675407
 20
18.37375753767028
 10
48.41906387590096
 20
18.3753756388493
 10
48.42612388785773
 20
18.37806965728436
 10
48.43261267727118
 20
18.3818167734057
 10
48.43847507159358
 20
18.38658488690956
 10
48.4436608762514
 20
18.39233345502481
 10
48.44812611913891
 20
18.39901325311387
 10
48.451832635787
 20
18.40656727281831
 10
48.4547488990255
 20
18.41493114128942
 10
48.45685001898324
 20
18.42403342058312
 10
48.45811774308806
 20
18.43379668548132
 10
48.45854170056028
 20
18.44413734397185
 10
48.45811774308806
 20
18.45496743346173
 10
48.45685001898324
 20
18.46619438145599
 10
48.4547488990255
 20
18.47772256221614
 10
48.451832635787
 20
18.48945347655283
 10
48.44812611913891
 20
18.50128700916739
 10
48.4436608762514
 20
18.51312220707836
 10
48.43847507159358
 20
18.52485817780609
 10
48.43261267727118
 20
18.5363948677214
 10
48.42612388785773
 20
18.54763378063213
 10
48.41906387590096
 20
18.55847905548786
 10
48.41149320675407
 20
18.56883812508737
 10
48.4034765940821
 20
18.57862243450956
 10
48.39508207019956
 20
18.58774875837285
 10
48.38638098607045
 20
18.59613926071418
 10
48.3774484261395
 20
18.60372209381756
 10
48.36835988968257
 20
18.61043271524005
 10
48.35919295013145
 20
18.61621412748323
  0
LINE
  5
580D
330
1F
100
AcDbEntity
  8
0
  6
CONTINUOUS
 62
     7
100
AcDbLine
 10
48.35919295013145
 20
18.61621412748323
 30
0.0
 11
48.27080486930254
 21
18.66723948044057
 31
0.0
  0
LWPOLYLINE
  5
580E
330
1F
100
AcDbEntity
  8
0
  6
CONTINUOUS
 62
     7
100
AcDbPolyline
 90
       35
 70
   128
 43
0.0
 10
48.27080486930254
 20
18.66723948044057
 10
48.26163792975143
 20
18.67204199131798
 10
48.25254939329449
 20
18.67582477073036
 10
48.24361683336352
 20
18.67855525179819
 10
48.23491574923443
 20
18.68021080735596
 10
48.22652122535189
 20
18.68077659446507
 10
48.21850461267991
 20
18.68024806901905
 10
48.21093394353302
 20
18.67862990796106
 10
48.20387393157627
 20
18.67593594940497
 10
48.1973851421628
 20
18.67218883328363
 10
48.1915227478404
 20
18.66742071977977
 10
48.18633694318258
 20
18.66167215166452
 10
48.18187170029506
 20
18.65499241345442
 10
48.17816518364699
 20
18.64743833387102
 10
48.17524892040849
 20
18.63907446539991
 10
48.17314780045073
 20
18.62997218610621
 10
48.17188007634592
 20
18.62020892120801
 10
48.17145611887369
 20
18.60986832259645
 10
48.17188007634592
 20
18.5990381732276
 10
48.17314780045073
 20
18.58781122523335
 10
48.17524892040849
 20
18.5762830444732
 10
48.17816518364699
 20
18.56455213013649
 10
48.18187170029506
 20
18.55271865740091
 10
48.18633694318258
 20
18.54088339961096
 10
48.1915227478404
 20
18.52914742888324
 10
48.1973851421628
 20
18.51761073896794
 10
48.20387393157627
 20
18.5063718260572
 10
48.21093394353302
 20
18.4955264913225
 10
48.21850461267991
 20
18.48516748160196
 10
48.22652122535189
 20
18.47538317217977
 10
48.23491574923443
 20
18.46625690819545
 10
48.24361683336352
 20
18.45786634597516
 10
48.25254939329449
 20
18.45028357275074
 10
48.26163792975143
 20
18.44357283157032
 10
48.27080486930254
 20
18.4377914792061
  0
LINE
  5
580F
330
1F
100
AcDbEntity
  8
0
  6
CONTINUOUS
 62
     7
100
AcDbLine
 10
48.61622644303434
 20
19.557085328999
 30
0.0
 11
48.55258683427446
 21
19.52034696485999
 31
0.0
  0
LINE
  5
5810
330
1F
100
AcDbEntity
  8
0
  6
CONTINUOUS
 62
     7
100
AcDbLine
 10
48.48187595478015
 20
19.64282156091669
 30
0.0
 11
48.54551556354004
 21
19.6795599250557
 31
0.0
  0
ARC
  5
5811
330
1F
100
AcDbEntity
  8
0
  6
CONTINUOUS
 62
     7
100
AcDbCircle
 10
48.46346747716044
 20
19.55053953685647
 30
0.0
 40
0.1528991466609177
100
AcDbArc
 50
2.453649546434787
 51
57.54644763707556
  0
LINE
  5
5812
330
1F
100
AcDbEntity
  8
0
  6
CONTINUOUS
 62
     7
100
AcDbLine
 10
48.55258683427446
 20
15.42131210400135
 30
0.0
 11
48.61622644303434
 21
15.45805046814037
 31
0.0
  0
LINE
  5
5813
330
1F
100
AcDbEntity
  8
0
  6
CONTINUOUS
 62
     7
100
AcDbLine
 10
48.61622644303434
 20
15.45805046814037
 30
0.0
 11
48.61622644303434
 21
19.557085328999
 31
0.0
  0
LINE
  5
5814
330
1F
100
AcDbEntity
  8
0
  6
CONTINUOUS
 62
     7
100
AcDbLine
 10
47.97275938934273
 20
20.01020502644093
 30
0.0
 11
47.90911978058285
 21
19.97346666230192
 31
0.0
  0
LINE
  5
5815
330
1F
100
AcDbEntity
  8
0
  6
CONTINUOUS
 62
     7
100
AcDbLine
 10
48.54551556354004
 20
19.6795599250557
 30
0.0
 11
47.97275938934273
 21
20.01020502644093
 31
0.0
  0
ARC
  5
5816
330
1F
100
AcDbEntity
  8
0
  6
CONTINUOUS
 62
     7
100
AcDbCircle
 10
36.07700864232321
 20
26.80397594580479
 30
0.0
 40
0.2525823149261093
100
AcDbArc
 50
122.4889809158121
 51
177.5110189385576
  0
LINE
  5
5817
330
1F
100
AcDbEntity
  8
0
  6
CONTINUOUS
 62
     7
100
AcDbLine
 10
35.9413372349133
 20
27.01702780574702
 30
0.0
 11
47.96215273278799
 21
20.07755872957648
 31
0.0
  0
ARC
  5
5818
330
1F
100
AcDbEntity
  8
0
  6
CONTINUOUS
 62
     7
100
AcDbCircle
 10
48.09782414019796
 20
19.86450686963421
 30
0.0
 40
0.2525823149261728
100
AcDbArc
 50
122.4889809158187
 51
177.511018938551
  0
LINE
  5
5819
330
1F
100
AcDbEntity
  8
0
  6
CONTINUOUS
 62
     7
100
AcDbLine
 10
47.90911972224722
 20
19.9122141898277
 30
0.0
 11
47.84548011348732
 21
19.87547582568869
 31
0.0
  0
LINE
  5
581A
330
1F
100
AcDbEntity
  8
0
  6
CONTINUOUS
 62
     7
100
AcDbLine
 10
48.12832282772912
 20
20.17348668350209
 30
0.0
 11
47.96215273278799
 21
20.07755872957648
 31
0.0
  0
LINE
  5
581B
330
1F
100
AcDbEntity
  8
0
  6
CONTINUOUS
 62
     7
100
AcDbLine
 10
48.12832282772912
 20
20.09999794485485
 30
0.0
 11
48.12832282772912
 21
20.17348668350209
 31
0.0
  0
LINE
  5
581C
330
1F
100
AcDbEntity
  8
0
  6
CONTINUOUS
 62
     7
100
AcDbLine
 10
48.12832282772912
 20
20.09999794485485
 30
0.0
 11
47.97276967585981
 21
20.01019902170451
 31
0.0
  0
LINE
  5
581D
330
1F
100
AcDbEntity
  8
0
  6
CONTINUOUS
 62
     7
100
AcDbLine
 10
35.9413372349133
 20
27.01702780574702
 30
0.0
 11
36.10750732985443
 21
27.11295575967263
 31
0.0
  0
ARC
  5
581E
330
1F
100
AcDbEntity
  8
0
  6
CONTINUOUS
 62
     7
100
AcDbCircle
 10
36.1782179908395
 20
26.97736520144533
 30
0.0
 40
0.1529208849612657
100
AcDbArc
 50
62.45780060425241
 51
117.5421023736326
  0
LINE
  5
581F
330
1F
100
AcDbEntity
  8
0
  6
CONTINUOUS
 62
     7
100
AcDbLine
 10
36.24892888142746
 20
27.11295563993416
 30
0.0
 11
48.12832262031354
 21
20.25512760744927
 31
0.0
  0
LWPOLYLINE
  5
5820
330
1F
100
AcDbEntity
  8
0
  6
CONTINUOUS
 62
     7
100
AcDbPolyline
 90
       15
 70
   128
 43
0.0
 10
48.12832282772912
 20
20.17348668350209
 10
48.13579520781186
 20
20.17831383527684
 10
48.14228443798345
 20
20.18359359848018
 10
48.14770879650025
 20
20.18925963799797
 10
48.15200027697467
 20
20.19524060466751
 10
48.15510487357167
 20
20.20146125782571
 10
48.15698304769384
 20
20.20784369262849
 10
48.15761195769895
 20
20.2143071903776
 10
48.15698320325552
 20
20.22077074799595
 10
48.15510500320642
 20
20.22715289841986
 10
48.15200056217111
 20
20.23337364138192
 10
48.14770874464635
 20
20.2393548325611
 10
48.1422843083487
 20
20.24502079724234
 10
48.13579505225016
 20
20.25030051554375
 10
48.12832262031354
 20
20.25512760744927
  0
ARC
  5
5821
330
1F
100
AcDbEntity
  8
0
  6
CONTINUOUS
 62
     7
100
AcDbCircle
 10
48.10624642073558
 20
20.14675587016682
 30
0.0
 40
0.0517075557846761
100
AcDbArc
 50
295.2739904794731
 51
353.406358879325
  0
LINE
  5
5822
330
1F
100
AcDbEntity
  8
0
  6
CONTINUOUS
 62
     7
100
AcDbLine
 10
48.42283255889133
 20
18.42350449038777
 30
0.0
 11
48.35919295013145
 21
18.38676612624875
 31
0.0
  0
ARC
  5
5823
330
1F
100
AcDbEntity
  8
0
  6
CONTINUOUS
 62
     7
100
AcDbCircle
 10
48.47481978608577
 20
18.51035673835829
 30
0.0
 40
0.1012224519012436
100
AcDbArc
 50
239.096488845162
 51
257.9219399207727
  0
LINE
  5
5824
330
1F
100
AcDbEntity
  8
0
  6
CONTINUOUS
 62
     7
100
AcDbLine
 10
48.33444447806242
 20
18.47452984334511
 30
0.0
 11
48.27080486930254
 21
18.4377914792061
 31
0.0
  0
ARC
  5
5825
330
1F
100
AcDbEntity
  8
0
  6
CONTINUOUS
 62
     7
100
AcDbCircle
 10
48.43639184380371
 20
18.64572865817518
 30
0.0
 40
0.1992543590007759
100
AcDbArc
 50
170.2801260938872
 51
239.2265791511606
  0
LINE
  5
5826
330
1F
100
AcDbEntity
  8
0
  6
CONTINUOUS
 62
     7
100
AcDbLine
 10
48.33444447806242
 20
18.47452984334511
 30
0.0
 11
48.42283255889133
 21
18.42350449038777
 31
0.0
  0
LINE
  5
5827
330
1F
100
AcDbEntity
  8
0
  6
CONTINUOUS
 62
     7
100
AcDbLine
 10
48.42283255889133
 20
16.58547113133365
 30
0.0
 11
48.35919295013145
 21
16.54873276719464
 31
0.0
  0
ARC
  5
5828
330
1F
100
AcDbEntity
  8
0
  6
CONTINUOUS
 62
     7
100
AcDbCircle
 10
48.47482167949859
 20
16.67232769962136
 30
0.0
 40
0.101227131324734
100
AcDbArc
 50
239.0968252129927
 51
257.9214107171208
  0
LINE
  5
5829
330
1F
100
AcDbEntity
  8
0
  6
CONTINUOUS
 62
     7
100
AcDbLine
 10
48.33444447806242
 20
16.636496484291
 30
0.0
 11
48.27080486930254
 21
16.59975812015199
 31
0.0
  0
ARC
  5
582A
330
1F
100
AcDbEntity
  8
0
  6
CONTINUOUS
 62
     7
100
AcDbCircle
 10
48.43639184380371
 20
16.80769529912107
 30
0.0
 40
0.1992543590007744
100
AcDbArc
 50
170.2801260938868
 51
239.2265791511603
  0
LINE
  5
582B
330
1F
100
AcDbEntity
  8
0
  6
CONTINUOUS
 62
     7
100
AcDbLine
 10
48.33444447806242
 20
16.636496484291
 30
0.0
 11
48.42283255889133
 21
16.58547113133365
 31
0.0
  0
ARC
  5
582C
330
1F
100
AcDbEntity
  8
0
  6
CONTINUOUS
 62
     7
100
AcDbCircle
 10
48.5673736823482
 20
15.45257482249407
 30
0.0
 40
0.0491586708720009
100
AcDbArc
 50
304.9173887494507
 51
6.395286503292569
  0
LWPOLYLINE
  5
582D
330
1F
100
AcDbEntity
  8
0
  6
CONTINUOUS
 62
     7
100
AcDbPolyline
 90
       14
 70
   128
 43
0.0
 10
47.84548011348733
 20
15.88259128525968
 10
47.8459240880328
 20
15.87110520096352
 10
47.84725263265857
 20
15.86021898776723
 10
47.84945563641146
 20
15.85001578888796
 10
47.85251633341718
 20
15.84057310936962
 10
47.85641142972978
 20
15.83196276955362
 10
47.86111127990847
 20
15.82425028846686
 10
47.86658011772694
 20
15.81749453797562
 10
47.872776319899
 20
15.81174669745182
 10
47.87965273340634
 20
15.80705068225117
 10
47.88715701984084
 20
15.80344214491838
 10
47.8952320686153
 20
15.80094871372866
 10
47.90381642313766
 20
15.79958928064935
 10
47.90911972224722
 20
15.79932321605959
  0
ARC
  5
582E
330
1F
100
AcDbEntity
  8
0
  6
CONTINUOUS
 62
     7
100
AcDbCircle
 10
35.90598897042751
 20
22.81335051929654
 30
0.0
 40
0.0817894371911712
100
AcDbArc
 50
173.8869215093326
 51
234.8008932359075
  0
ARC
  5
582F
330
1F
100
AcDbEntity
  8
0
  6
CONTINUOUS
 62
     7
100
AcDbCircle
 10
44.34131597199661
 20
18.38329679084139
 30
0.0
 40
0.0825553209189564
100
AcDbArc
 50
185.5227294236835
 51
245.7973881798599
  0
ARC
  5
5830
330
1F
100
AcDbEntity
  8
0
  6
CONTINUOUS
 62
     7
100
AcDbCircle
 10
44.3323104181676
 20
21.60206457186
 30
0.0
 40
0.0715474211264922
100
AcDbArc
 50
155.5234727535202
 51
249.6856077168172
  0
LINE
  5
5831
330
1F
100
AcDbEntity
  8
0
  6
CONTINUOUS
 62
     7
100
AcDbLine
 10
45.62297370595814
 20
22.3556213626807
 30
0.0
 11
45.05637010049794
 21
22.02852806362516
 31
0.0
  0
LINE
  5
5832
330
1F
100
AcDbEntity
  8
0
  6
CONTINUOUS
 62
     7
100
AcDbLine
 10
45.55933424627822
 20
22.39235964075768
 30
0.0
 11
44.99273064081801
 21
22.06526634170215
 31
0.0
  0
LINE
  5
5833
330
1F
100
AcDbEntity
  8
0
  6
CONTINUOUS
 62
     7
100
AcDbLine
 10
45.55933424627822
 20
22.39235964075768
 30
0.0
 11
45.62297370595814
 21
22.3556213626807
 31
0.0
  0
LWPOLYLINE
  5
5834
330
1F
100
AcDbEntity
  8
0
  6
CONTINUOUS
 62
     7
100
AcDbPolyline
 90
       19
 70
   128
 43
0.0
 10
45.62297370595814
 20
22.3556213626807
 10
45.63269859345461
 20
22.361747901399
 10
45.64146138372264
 20
22.36834040238564
 10
45.64919528894127
 20
22.37534881495885
 10
45.65584192162105
 20
22.38271955615188
 10
45.66135046494169
 20
22.39039670809775
 10
45.66567902095337
 20
22.39832183842156
 10
45.66879440316121
 20
22.40643459893283
 10
45.67067338101878
 20
22.4146732045794
 10
45.67130122801899
 20
22.4229750321398
 10
45.67067327731099
 20
22.43127679983098
 10
45.66879440316121
 20
22.43951546534678
 10
45.66567891724556
 20
22.44762816598881
 10
45.66135036123388
 20
22.45555329631263
 10
45.65584192162105
 20
22.46323050812773
 10
45.64919528894127
 20
22.47060124932076
 10
45.64146128001485
 20
22.47760960202473
 10
45.63269838603902
 20
22.48420216288061
 10
45.62297380966594
 20
22.49032864172967
  0
ARC
  5
5835
330
1F
100
AcDbEntity
  8
0
  6
CONTINUOUS
 62
     7
100
AcDbCircle
 10
45.54771456712647
 20
22.42297497227057
 30
0.0
 40
0.032746228290188
100
AcDbArc
 50
290.7836527174348
 51
69.21634728256603
  0
LINE
  5
5836
330
1F
100
AcDbEntity
  8
0
  6
CONTINUOUS
 62
     7
100
AcDbLine
 10
45.55933424627822
 20
22.45359030378345
 30
0.0
 11
45.62297380966594
 21
22.49032864172967
 31
0.0
  0
LINE
  5
5837
330
1F
100
AcDbEntity
  8
0
  6
CONTINUOUS
 62
     7
100
AcDbLine
 10
45.08203715789301
 20
22.64747397370857
 30
0.0
 11
45.08203715789301
 21
22.11682195028393
 31
0.0
  0
LWPOLYLINE
  5
5838
330
1F
100
AcDbEntity
  8
0
  6
CONTINUOUS
 62
     7
100
AcDbPolyline
 90
       15
 70
   128
 43
0.0
 10
45.15274782997172
 20
22.68830764581809
 10
45.14483077678441
 20
22.69236466106903
 10
45.13701328308178
 20
22.69534374448342
 10
45.12939345643934
 20
22.69720766054899
 10
45.12206753769226
 20
22.6979327062251
 10
45.1151274119483
 20
22.69750978853048
 10
45.1086604011721
 20
22.69594442452387
 10
45.10274781227619
 20
22.69325614237806
 10
45.09746390004283
 20
22.68947872079845
 10
45.09287545229304
 20
22.6846597099524
 10
45.08903971573049
 20
22.67885983248489
 10
45.08600522560394
 20
22.672151905775
 10
45.08380993896693
 20
22.66462024297104
 10
45.08248164950894
 20
22.65635969496599
 10
45.08203715789301
 20
22.64747397370857
  0
LINE
  5
5839
330
1F
100
AcDbEntity
  8
0
  6
CONTINUOUS
 62
     7
100
AcDbLine
 10
45.55933424627822
 20
22.45359030378345
 30
0.0
 11
45.15274782997172
 21
22.68830764581809
 31
0.0
  0
LINE
  5
583A
330
1F
100
AcDbEntity
  8
0
  6
CONTINUOUS
 62
     7
100
AcDbLine
 10
45.21638739335944
 20
22.72504598376432
 30
0.0
 11
45.15274782997172
 21
22.68830764581809
 31
0.0
  0
LINE
  5
583B
330
1F
100
AcDbEntity
  8
0
  6
CONTINUOUS
 62
     7
100
AcDbLine
 10
45.62297380966594
 20
22.49032864172967
 30
0.0
 11
45.21638739335944
 21
22.72504598376432
 31
0.0
  0
ARC
  5
583C
330
1F
100
AcDbEntity
  8
0
  6
CONTINUOUS
 62
     7
100
AcDbCircle
 10
45.18693551009132
 20
22.6825427250897
 30
0.0
 40
0.0517101578609097
100
AcDbArc
 50
55.28065901182368
 51
113.4089416644342
  0
LINE
  5
583D
330
1F
100
AcDbEntity
  8
0
  6
CONTINUOUS
 62
     7
100
AcDbLine
 10
39.42631312599579
 20
21.12581865777207
 30
0.0
 11
39.36267351723591
 21
21.08908029363306
 31
0.0
  0
LINE
  5
583E
330
1F
100
AcDbEntity
  8
0
  6
CONTINUOUS
 62
     7
100
AcDbLine
 10
39.42631312599579
 20
21.12581865777207
 30
0.0
 11
44.30828235591291
 21
18.3075178105612
 31
0.0
  0
ARC
  5
583F
330
1F
100
AcDbEntity
  8
0
  6
CONTINUOUS
 62
     7
100
AcDbCircle
 10
39.47965800460972
 20
24.61715081780845
 30
0.0
 40
0.2559157358388978
100
AcDbArc
 50
242.7985060170909
 51
281.4023117487792
  0
ARC
  5
5840
330
1F
100
AcDbEntity
  8
0
  6
CONTINUOUS
 62
     7
100
AcDbCircle
 10
39.47934602719549
 20
21.38662980010303
 30
0.0
 40
0.2526178060305757
100
AcDbArc
 50
242.4932011651189
 51
297.5068282355759
  0
LINE
  5
5841
330
1F
100
AcDbEntity
  8
0
  6
CONTINUOUS
 62
     7
100
AcDbLine
 10
39.42631312599579
 20
24.42627658659331
 30
0.0
 11
39.36267351723591
 21
24.3895382224543
 31
0.0
  0
LINE
  5
5842
330
1F
100
AcDbEntity
  8
0
  6
CONTINUOUS
 62
     7
100
AcDbLine
 10
39.42631312599579
 20
24.42627658659331
 30
0.0
 11
39.42737091959347
 21
24.42567787926015
 31
0.0
  0
LINE
  5
5843
330
1F
100
AcDbEntity
  8
0
  6
CONTINUOUS
 62
     7
100
AcDbLine
 10
39.42631312599579
 20
24.42627658659331
 30
0.0
 11
39.42550192361131
 21
24.42675685955545
 31
0.0
  0
LINE
  5
5844
330
1F
100
AcDbEntity
  8
0
  6
CONTINUOUS
 62
     7
100
AcDbLine
 10
40.28127797737558
 20
24.78513007038017
 30
0.0
 11
40.84788158283578
 21
25.11222336943572
 31
0.0
  0
LINE
  5
5845
330
1F
100
AcDbEntity
  8
0
  6
CONTINUOUS
 62
     7
100
AcDbLine
 10
40.84788158283578
 20
21.88525405950378
 30
0.0
 11
39.59601865212942
 21
21.16256897239161
 31
0.0
  0
LINE
  5
5846
330
1F
100
AcDbEntity
  8
0
  6
CONTINUOUS
 62
     7
100
AcDbLine
 10
40.21763851769565
 20
24.82186834845716
 30
0.0
 11
40.78424212315585
 21
25.1489616475127
 31
0.0
  0
LINE
  5
5847
330
1F
100
AcDbEntity
  8
0
  6
CONTINUOUS
 62
     7
100
AcDbLine
 10
40.84788158283578
 20
25.11222336943572
 30
0.0
 11
40.78424212315585
 21
25.1489616475127
 31
0.0
  0
LINE
  5
5848
330
1F
100
AcDbEntity
  8
0
  6
CONTINUOUS
 62
     7
100
AcDbLine
 10
41.49488434643458
 20
24.79176988902908
 30
0.0
 11
41.43124478304686
 21
24.75503155108286
 31
0.0
  0
ARC
  5
5849
330
1F
100
AcDbEntity
  8
0
  6
CONTINUOUS
 62
     7
100
AcDbCircle
 10
41.27848686638558
 20
24.7484863775174
 30
0.0
 40
0.1528980719292967
100
AcDbArc
 50
2.453434790622659
 51
57.54656535500903
  0
LINE
  5
584A
330
1F
100
AcDbEntity
  8
0
  6
CONTINUOUS
 62
     7
100
AcDbLine
 10
41.36053411096814
 20
24.87750602740108
 30
0.0
 11
41.42417367435586
 21
24.9142443653473
 31
0.0
  0
ARC
  5
584B
330
1F
100
AcDbEntity
  8
0
  6
CONTINUOUS
 62
     7
100
AcDbCircle
 10
41.34212642977334
 20
24.78522471546364
 30
0.0
 40
0.1528980719292716
100
AcDbArc
 50
2.453434790620215
 51
57.54656535501886
  0
LINE
  5
584C
330
1F
100
AcDbEntity
  8
0
  6
CONTINUOUS
 62
     7
100
AcDbLine
 10
41.36053411096814
 20
24.87750602740108
 30
0.0
 11
40.95394769466165
 21
25.11222336943572
 31
0.0
  0
LINE
  5
584D
330
1F
100
AcDbEntity
  8
0
  6
CONTINUOUS
 62
     7
100
AcDbLine
 10
41.43124478304686
 20
21.69137038957866
 30
0.0
 11
41.43124478304686
 21
23.26886613447597
 31
0.0
  0
LINE
  5
584E
330
1F
100
AcDbEntity
  8
0
  6
CONTINUOUS
 62
     7
100
AcDbLine
 10
41.43124478304686
 20
24.12126836423986
 30
0.0
 11
41.43124478304686
 21
24.75503155108286
 31
0.0
  0
LWPOLYLINE
  5
584F
330
1F
100
AcDbEntity
  8
0
  6
CONTINUOUS
 62
     7
100
AcDbPolyline
 90
       15
 70
   128
 43
0.0
 10
41.36053411096814
 20
21.65053671746915
 10
41.36845116415545
 20
21.6464797022182
 10
41.37626865785808
 20
21.64350061880381
 10
41.38388848450053
 20
21.64163670273823
 10
41.3912144032476
 20
21.64091165706214
 10
41.39815452899157
 20
21.64133457475675
 10
41.40462153976776
 20
21.64289993876336
 10
41.41053412866368
 20
21.64558822090917
 10
41.41581804089702
 20
21.64936564248879
 10
41.42040648864681
 20
21.65418465333484
 10
41.42424222520938
 20
21.65998453080234
 10
41.42727671533592
 20
21.66669245751223
 10
41.42947200197292
 20
21.67422412031619
 10
41.43080029143091
 20
21.68248466832123
 10
41.43124478304686
 20
21.69137038957866
  0
LINE
  5
5850
330
1F
100
AcDbEntity
  8
0
  6
CONTINUOUS
 62
     7
100
AcDbLine
 10
40.95394769466165
 20
21.88525405950378
 30
0.0
 11
41.36053411096814
 21
21.65053671746915
 31
0.0
  0
LWPOLYLINE
  5
5851
330
1F
100
AcDbEntity
  8
0
  6
CONTINUOUS
 62
     7
100
AcDbPolyline
 90
       28
 70
   128
 43
0.0
 10
41.34073504811648
 20
24.57375097998552
 10
41.34031129805985
 20
24.5845810096159
 10
41.33904357395504
 20
24.59580795761015
 10
41.33694266141288
 20
24.60733601863184
 10
41.33402639817439
 20
24.61906687308956
 10
41.33031967411071
 20
24.63090052544259
 10
41.32585443122319
 20
24.64273578323254
 10
41.32066841914978
 20
24.65447193357769
 10
41.31480602482738
 20
24.666008623493
 10
41.30831723541392
 20
24.67724741664581
 10
41.30125743087275
 20
24.68809263164203
 10
41.29368696914146
 20
24.69845158150306
 10
41.28567014905388
 20
24.70823601066372
 10
41.27727541775575
 20
24.7173624542655
 10
41.26857474845784
 20
24.72575271712986
 10
41.25964198111129
 20
24.73333566997172
 10
41.25055344465436
 20
24.74004629139422
 10
41.24138671251883
 20
24.74582758389892
 10
41.23221998038331
 20
24.75062997503785
 10
41.22313144392636
 20
24.75441275445023
 10
41.21419867657981
 20
24.75714335525653
 10
41.20549779986631
 20
24.75879879107584
 10
41.19710327598377
 20
24.75936457818495
 10
41.18908645589619
 20
24.7588361724774
 10
41.18151578674931
 20
24.75721801141941
 10
41.17445598220814
 20
24.75452387324587
 10
41.16796719279467
 20
24.75077687688246
 10
41.16547053130096
 20
24.74893189137262
  0
ARC
  5
5852
330
1F
100
AcDbEntity
  8
0
  6
CONTINUOUS
 62
     7
100
AcDbCircle
 10
41.27456377975771
 20
24.56552898202573
 30
0.0
 40
0.0666801170264402
100
AcDbArc
 50
297.6025548725899
 51
7.082887497071977
  0
LINE
  5
5853
330
1F
100
AcDbEntity
  8
0
  6
CONTINUOUS
 62
     7
100
AcDbLine
 10
41.43124478304686
 20
21.69137038957866
 30
0.0
 11
41.49488434643458
 21
21.72810872752489
 31
0.0
  0
LINE
  5
5854
330
1F
100
AcDbEntity
  8
0
  6
CONTINUOUS
 62
     7
100
AcDbLine
 10
41.49488434643458
 20
21.72810872752489
 30
0.0
 11
41.49488434643458
 21
23.23212774137921
 31
0.0
  0
LINE
  5
5855
330
1F
100
AcDbEntity
  8
0
  6
CONTINUOUS
 62
     7
100
AcDbLine
 10
41.49488434643458
 20
24.08452999921137
 30
0.0
 11
41.49488434643458
 21
24.79176988902908
 31
0.0
  0
LINE
  5
5856
330
1F
100
AcDbEntity
  8
0
  6
CONTINUOUS
 62
     7
100
AcDbLine
 10
40.95394769466165
 20
25.11222336943572
 30
0.0
 11
41.01758725804937
 21
25.14896170738194
 31
0.0
  0
LINE
  5
5857
330
1F
100
AcDbEntity
  8
0
  6
CONTINUOUS
 62
     7
100
AcDbLine
 10
41.42417367435586
 20
24.9142443653473
 30
0.0
 11
41.01758725804937
 21
25.14896170738194
 31
0.0
  0
ARC
  5
5858
330
1F
100
AcDbEntity
  8
0
  6
CONTINUOUS
 62
     7
100
AcDbCircle
 10
40.90091463874871
 20
25.00986941714915
 30
0.0
 40
0.1152772161710422
100
AcDbArc
 50
62.60979332866618
 51
117.3902066713338
  0
ARC
  5
5859
330
1F
100
AcDbEntity
  8
0
  6
CONTINUOUS
 62
     7
100
AcDbCircle
 10
40.90091463874871
 20
21.78290010721722
 30
0.0
 40
0.1152772161710374
100
AcDbArc
 50
62.60979332866485
 51
117.3902066713351
  0
ARC
  5
585A
330
1F
100
AcDbEntity
  8
0
  6
CONTINUOUS
 62
     7
100
AcDbCircle
 10
40.9009147480897
 20
24.92490115333642
 30
0.0
 40
0.2526175101996607
100
AcDbArc
 50
62.49316622651268
 51
117.5068631741822
  0
ARC
  5
585B
330
1F
100
AcDbEntity
  8
0
  6
CONTINUOUS
 62
     7
100
AcDbCircle
 10
39.45868829104185
 20
21.17857676522479
 30
0.0
 40
0.0618996705463945
100
AcDbArc
 50
213.660612924282
 51
238.4645202770564
  0
LINE
  5
585C
330
1F
100
AcDbEntity
  8
0
  6
CONTINUOUS
 62
     7
100
AcDbLine
 10
35.824664557277
 20
27.02315089824239
 30
0.0
 11
35.76102494851712
 21
26.98641253410338
 31
0.0
  0
LINE
  5
585D
330
1F
100
AcDbEntity
  8
0
  6
CONTINUOUS
 62
     7
100
AcDbLine
 10
35.2519083830797
 20
27.35379599962762
 30
0.0
 11
35.18826877431981
 21
27.31705763548861
 31
0.0
  0
LINE
  5
585E
330
1F
100
AcDbEntity
  8
0
  6
CONTINUOUS
 62
     7
100
AcDbLine
 10
35.824664557277
 20
27.02315089824239
 30
0.0
 11
35.2519083830797
 21
27.35379599962762
 31
0.0
  0
LINE
  5
585F
330
1F
100
AcDbEntity
  8
0
  6
CONTINUOUS
 62
     7
100
AcDbLine
 10
35.824664557277
 20
26.88842166381371
 30
0.0
 11
35.76102494851712
 21
26.85168329967469
 31
0.0
  0
LINE
  5
5860
330
1F
100
AcDbEntity
  8
0
  6
CONTINUOUS
 62
     7
100
AcDbLine
 10
35.824664557277
 20
26.88842166381371
 30
0.0
 11
35.824664557277
 21
27.02315089824239
 31
0.0
  0
ARC
  5
5861
330
1F
100
AcDbEntity
  8
0
  6
CONTINUOUS
 62
     7
100
AcDbCircle
 10
35.88655336313978
 20
26.89008444067333
 30
0.0
 40
0.0619111388847413
100
AcDbArc
 50
181.5390050190957
 51
206.3208212667709
  0
ARC
  5
5862
330
1F
100
AcDbEntity
  8
0
  6
CONTINUOUS
 62
     7
100
AcDbCircle
 10
41.44603433749041
 20
21.72263217520213
 30
0.0
 40
0.0491560372608547
100
AcDbArc
 50
304.9153252108674
 51
6.396694003252835
  0
ARC
  5
5863
330
1F
100
AcDbEntity
  8
0
  6
CONTINUOUS
 62
     7
100
AcDbCircle
 10
35.22245578163343
 20
27.31129065321647
 30
0.0
 40
0.0517122829266317
100
AcDbArc
 50
55.28132244035566
 51
113.4075561015159
  0
LINE
  5
5864
330
1F
100
AcDbEntity
  8
0
  6
CONTINUOUS
 62
     7
100
AcDbLine
 10
35.46297946855731
 20
25.90506842987148
 30
0.0
 11
35.39933985979743
 21
25.86833006573245
 31
0.0
  0
ARC
  5
5865
330
1F
100
AcDbEntity
  8
0
  6
CONTINUOUS
 62
     7
100
AcDbCircle
 10
35.51496669575179
 20
25.99192067784207
 30
0.0
 40
0.1012224519013322
100
AcDbArc
 50
239.0964888451679
 51
257.9219399207588
  0
LINE
  5
5866
330
1F
100
AcDbEntity
  8
0
  6
CONTINUOUS
 62
     7
100
AcDbLine
 10
35.3745913877284
 20
25.95609378282881
 30
0.0
 11
35.31095177896853
 21
25.9193554186898
 31
0.0
  0
ARC
  5
5867
330
1F
100
AcDbEntity
  8
0
  6
CONTINUOUS
 62
     7
100
AcDbCircle
 10
35.47653875346968
 20
26.12729259765888
 30
0.0
 40
0.1992543590007612
100
AcDbArc
 50
170.2801260938835
 51
239.2265791511626
  0
LINE
  5
5868
330
1F
100
AcDbEntity
  8
0
  6
CONTINUOUS
 62
     7
100
AcDbLine
 10
35.3745913877284
 20
25.95609378282881
 30
0.0
 11
35.46297946855731
 21
25.90506842987148
 31
0.0
  0
LINE
  5
5869
330
1F
100
AcDbEntity
  8
0
  6
CONTINUOUS
 62
     7
100
AcDbLine
 10
35.46297946855731
 20
24.06703507081735
 30
0.0
 11
35.39933985979743
 21
24.03029670667834
 31
0.0
  0
ARC
  5
586A
330
1F
100
AcDbEntity
  8
0
  6
CONTINUOUS
 62
     7
100
AcDbCircle
 10
35.51496858916459
 20
24.15389163910507
 30
0.0
 40
0.1012271313247369
100
AcDbArc
 50
239.0968252129848
 51
257.9214107171088
  0
LINE
  5
586B
330
1F
100
AcDbEntity
  8
0
  6
CONTINUOUS
 62
     7
100
AcDbLine
 10
35.3745913877284
 20
24.1180604237747
 30
0.0
 11
35.31095177896853
 21
24.08132205963569
 31
0.0
  0
ARC
  5
586C
330
1F
100
AcDbEntity
  8
0
  6
CONTINUOUS
 62
     7
100
AcDbCircle
 10
35.47653875346968
 20
24.28925923860477
 30
0.0
 40
0.1992543590007625
100
AcDbArc
 50
170.2801260938848
 51
239.226579151163
  0
LINE
  5
586D
330
1F
100
AcDbEntity
  8
0
  6
CONTINUOUS
 62
     7
100
AcDbLine
 10
35.3745913877284
 20
24.1180604237747
 30
0.0
 11
35.46297946855731
 21
24.06703507081735
 31
0.0
  0
LINE
  5
586E
330
1F
100
AcDbEntity
  8
0
  6
CONTINUOUS
 62
     7
100
AcDbLine
 10
35.824664557277
 20
22.76080788895601
 30
0.0
 11
35.76102494851712
 21
22.72406952481699
 31
0.0
  0
LINE
  5
586F
330
1F
100
AcDbEntity
  8
0
  6
CONTINUOUS
 62
     7
100
AcDbLine
 10
35.824664557277
 20
22.76080788895601
 30
0.0
 11
35.824664557277
 21
22.82206048028894
 31
0.0
  0
LWPOLYLINE
  5
5870
330
1F
100
AcDbEntity
  8
0
  6
CONTINUOUS
 62
     7
100
AcDbPolyline
 90
       69
 70
   128
 43
0.0
 10
41.08440899146589
 20
24.65479801966134
 10
41.09354295193773
 20
24.64903744220443
 10
41.10259913156215
 20
24.64235064957499
 10
41.11150016432295
 20
24.63479463929088
 10
41.1201699286975
 20
24.62643419325257
 10
41.12853479215023
 20
24.61734020124877
 10
41.13652298888596
 20
24.60759073871949
 10
41.14406669400575
 20
24.59726855203403
 10
41.15110140126016
 20
24.58646189673812
 10
41.15756716754279
 20
24.57526298081755
 10
41.16340861289029
 20
24.56376736590846
 10
41.16857616497592
 20
24.5520731291086
 10
41.17302564427836
 20
24.54027990487492
 10
41.17671888632848
 20
24.52848852580811
 10
41.17962477878733
 20
24.51679934613885
 10
41.18171822436814
 20
24.50531236138845
 10
41.1829815927455
 20
24.49412529237804
 10
41.18340389089298
 20
24.48333370490876
 10
41.1829815927455
 20
24.47302981226017
 10
41.18171822436814
 20
24.46330139732994
 10
41.17962477878733
 20
24.45423145339897
 10
41.17671888632848
 20
24.44589734574799
 10
41.17302564427836
 20
24.43837009318776
 10
41.16857616497592
 20
24.43171412840703
 10
41.16340861289029
 20
24.42598622024837
 10
41.15756716754279
 20
24.42123499457915
 10
41.15110140126016
 20
24.41750129350693
 10
41.14406669400575
 20
24.41481673832319
 10
41.13652298888596
 20
24.41320432817624
 10
41.12853479215023
 20
24.41267772152354
 10
41.1201699286975
 20
24.41324171504675
 10
41.11150016432295
 20
24.4148910461307
 10
41.10259913156215
 20
24.41761206927991
 10
41.09354295193773
 20
24.42138131908171
 10
41.08440899146589
 20
24.42616658791091
 10
41.07527482357848
 20
24.43192728510629
 10
41.06621864395407
 20
24.43861407773573
 10
41.05731761119326
 20
24.44616996826189
 10
41.04864784681871
 20
24.45453053405815
 10
41.04028298336598
 20
24.46362440630402
 10
41.03229478663025
 20
24.47337398859123
 10
41.02475108151046
 20
24.48369617527669
 10
41.01771637425605
 20
24.49450283057259
 10
41.01125081538902
 20
24.5057016267547
 10
41.00540916262592
 20
24.51719736140226
 10
41.00024181795588
 20
24.52889147846365
 10
40.99579233865344
 20
24.54068470269733
 10
40.99209888918773
 20
24.55247620150261
 10
40.98919299672888
 20
24.56416538117187
 10
40.98709955114808
 20
24.57565236592228
 10
40.98583618277071
 20
24.58683943493268
 10
40.98541388462323
 20
24.59763090264402
 10
40.98583618277071
 20
24.60793491505055
 10
40.98709955114808
 20
24.61766332998078
 10
40.98919299672888
 20
24.62673327391175
 10
40.99209888918773
 20
24.63506738156273
 10
40.99579233865344
 20
24.64259451438448
 10
41.00024181795588
 20
24.64925047916521
 10
41.00540916262592
 20
24.65497850706235
 10
41.01125081538902
 20
24.6597296129931
 10
41.01771637425605
 20
24.66346343380379
 10
41.02475108151046
 20
24.66614798898753
 10
41.03229478663025
 20
24.66776039913447
 10
41.04028298336598
 20
24.66828688602925
 10
41.04864784681871
 20
24.66772301226397
 10
41.05731761119326
 20
24.66607356142208
 10
41.06621864395407
 20
24.66335265803081
 10
41.07527482357848
 20
24.65958340822901
 10
41.08440899146589
 20
24.65479801966134
  0
LWPOLYLINE
  5
5871
330
1F
100
AcDbEntity
  8
0
  6
CONTINUOUS
 62
     7
100
AcDbPolyline
 90
       27
 70
   128
 43
0.0
 10
41.08440899146589
 20
24.60743866619793
 10
41.07741991564197
 20
24.61098512068638
 10
41.07053268087422
 20
24.61350358261152
 10
41.06384788372532
 20
24.61495717596845
 10
41.05746300952399
 20
24.61532471274992
 10
41.05147098045593
 20
24.61460093232595
 10
41.04595932590139
 20
24.61279638160802
 10
41.04100810827933
 20
24.60993729509653
 10
41.0366901304629
 20
24.60606535538441
 10
41.0330678245456
 20
24.60123709407548
 10
41.03019408150368
 20
24.59552293379879
 10
41.02811100670252
 20
24.58900611027049
 10
41.02684888281872
 20
24.58178171413296
 10
41.02642616984005
 20
24.57395501434381
 10
41.02684888281872
 20
24.56564038029593
 10
41.02811100670252
 20
24.55695876693991
 10
41.03019408150368
 20
24.54803687643948
 10
41.0330678245456
 20
24.53900476307122
 10
41.0366901304629
 20
24.52999427637134
 10
41.04100810827933
 20
24.52113678583231
 10
41.04595932590139
 20
24.51256126489261
 10
41.05147098045593
 20
24.50439297352156
 10
41.05746300952399
 20
24.49675094359467
 10
41.06384788372532
 20
24.48974666153687
 10
41.07053268087422
 20
24.4834821523901
 10
41.07741991564197
 20
24.47804878231191
 10
41.08440899146589
 20
24.47352594137432
  0
LWPOLYLINE
  5
5872
330
1F
100
AcDbEntity
  8
0
  6
CONTINUOUS
 62
     7
100
AcDbPolyline
 90
       27
 70
   128
 43
0.0
 10
41.08440899146589
 20
24.47352594137432
 10
41.09139806728983
 20
24.46997936712793
 10
41.09828509464198
 20
24.46746102494127
 10
41.10496989179089
 20
24.46600743158434
 10
41.11135476599222
 20
24.46563989480286
 10
41.11734679506028
 20
24.46636367522684
 10
41.1228586570304
 20
24.46816822596423
 10
41.12780966723688
 20
24.47102731245625
 10
41.13212785246891
 20
24.47489925218784
 10
41.1357501583862
 20
24.47972751349677
 10
41.13862369401252
 20
24.48544179351193
 10
41.14070676881368
 20
24.49195861704024
 10
41.14196889269749
 20
24.49918301317775
 10
41.14239160567615
 20
24.50700959320898
 10
41.14196889269749
 20
24.51532434701479
 10
41.14070676881368
 20
24.5240059603708
 10
41.13862369401252
 20
24.53292785087123
 10
41.1357501583862
 20
24.54195984450104
 10
41.13212785246891
 20
24.55097033120091
 10
41.12780966723688
 20
24.55982782172047
 10
41.1228586570304
 20
24.56840334267964
 10
41.11734679506028
 20
24.57657163403122
 10
41.11135476599222
 20
24.5842136639581
 10
41.10496989179089
 20
24.59121794601592
 10
41.09828509464198
 20
24.59748245516269
 10
41.09139806728983
 20
24.60291570550241
 10
41.08440899146589
 20
24.60743866619793
  0
ARC
  5
5873
330
1F
100
AcDbEntity
  8
0
  6
CONTINUOUS
 62
     7
100
AcDbCircle
 10
41.16853542475413
 20
24.67092665683985
 30
0.0
 40
0.0693734567152366
100
AcDbArc
 50
53.88424801031511
 51
114.8051208413791
  0
LWPOLYLINE
  5
5874
330
1F
100
AcDbEntity
  8
0
  6
CONTINUOUS
 62
     7
100
AcDbPolyline
 90
       27
 70
   128
 43
0.0
 10
41.27941968015686
 20
24.49140590761024
 10
41.28258359761349
 20
24.49340544346776
 10
41.28842504296098
 20
24.49815666913699
 10
41.29359259504661
 20
24.50388457729565
 10
41.29804207434905
 20
24.51054054207637
 10
41.30173531639917
 20
24.51806779463661
 10
41.30464120885803
 20
24.52640190228759
 10
41.30673465443883
 20
24.53547184621855
 10
41.30799802281619
 20
24.54520026114878
 10
41.30842032096367
 20
24.55550415379737
 10
41.30799802281619
 20
24.56629574126665
 10
41.30673465443883
 20
24.57748281027706
 10
41.30464120885803
 20
24.58896979502746
 10
41.30173531639917
 20
24.60065897469672
 10
41.29804207434905
 20
24.61245035376353
 10
41.29359259504661
 20
24.62424357799722
 10
41.28842504296098
 20
24.63593781479707
 10
41.28258359761349
 20
24.64743342970617
 10
41.27611783133086
 20
24.65863234562674
 10
41.26908312407645
 20
24.66943900092265
 10
41.26153941895665
 20
24.67976118760811
 10
41.25355122222092
 20
24.68951065013738
 10
41.24518635876819
 20
24.69860464214119
 10
41.23651659439365
 20
24.7069650881795
 10
41.22761556163283
 20
24.7145210984636
 10
41.21855938200842
 20
24.72120789109304
 10
41.2094254215366
 20
24.72696846854995
  0
LINE
  5
5875
330
1F
100
AcDbEntity
  8
0
  6
CONTINUOUS
 62
     7
100
AcDbLine
 10
41.09635913715257
 20
24.49422420080074
 30
0.0
 11
41.08440961371267
 21
24.47352701913735
 31
0.0
  0
ARC
  5
5876
330
1F
100
AcDbEntity
  8
0
  6
CONTINUOUS
 62
     7
100
AcDbCircle
 10
41.11430832577061
 20
24.51539036015701
 30
0.0
 40
0.0277521111618817
100
AcDbArc
 50
229.7016058948558
 51
358.1751606782924
  0
LWPOLYLINE
  5
5877
330
1F
100
AcDbEntity
  8
0
  6
CONTINUOUS
 62
     7
100
AcDbPolyline
 90
       24
 70
   128
 43
0.0
 10
41.09073796716491
 20
24.60338494779589
 10
41.09009103793013
 20
24.60366116864999
 10
41.083939506271
 20
24.60573623597282
 10
41.07801965782932
 20
24.60672416249564
 10
41.07244121545383
 20
24.60660663554992
 10
41.06730850918782
 20
24.60538582056811
 10
41.06271674278854
 20
24.60308460024918
 10
41.0587517863115
 20
24.59974573623361
 10
41.05548727229225
 20
24.59543138979916
 10
41.05298438833073
 20
24.59022180450411
 10
41.0512891806886
 20
24.5842143478708
 10
41.05043379878281
 20
24.57752063731189
 10
41.05043379878281
 20
24.57026558181393
 10
41.0512891806886
 20
24.5625842683283
 10
41.05298438833073
 20
24.55461956661252
 10
41.05548727229225
 20
24.54652021300594
 10
41.0587517863115
 20
24.538436738913
 10
41.06271674278854
 20
24.5305199138332
 10
41.06730850918782
 20
24.52291715287613
 10
41.07244121545383
 20
24.51577024138011
 10
41.07801965782932
 20
24.50921210172042
 10
41.083939506271
 20
24.50336499695971
 10
41.09009103793013
 20
24.49833777676584
 10
41.09635913715257
 20
24.49422420080074
  0
ARC
  5
5878
330
1F
100
AcDbEntity
  8
0
  6
CONTINUOUS
 62
     7
100
AcDbCircle
 10
41.17535276566193
 20
24.65761155108421
 30
0.0
 40
0.082120681958839
100
AcDbArc
 50
57.62501358742138
 51
90.35695560773282
  0
ARC
  5
5879
330
1F
100
AcDbEntity
  8
0
  6
CONTINUOUS
 62
     7
100
AcDbCircle
 10
41.13439946901833
 20
24.57268634244491
 30
0.0
 40
0.176110833377647
100
AcDbArc
 50
342.3038903682026
 51
61.1690162137036
  0
LWPOLYLINE
  5
587A
330
1F
100
AcDbEntity
  8
0
  6
CONTINUOUS
 62
     7
100
AcDbPolyline
 90
       28
 70
   128
 43
0.0
 10
41.21932495296243
 20
24.73268334639749
 10
41.22845891343425
 20
24.72692276894057
 10
41.23751509305867
 20
24.72023597631114
 10
41.24641612581948
 20
24.71267996602704
 10
41.25508589019402
 20
24.70431951998873
 10
41.26345075364675
 20
24.69522552798491
 10
41.27143895038249
 20
24.68547606545564
 10
41.27898265550228
 20
24.67515387877019
 10
41.28601736275668
 20
24.66434722347428
 10
41.2924831290393
 20
24.6531483075537
 10
41.29832457438681
 20
24.64165269264461
 10
41.30349212647244
 20
24.62995845584476
 10
41.30794160577488
 20
24.61816523161107
 10
41.311634847825
 20
24.60637385254425
 10
41.31454074028385
 20
24.594684672875
 10
41.31663418586466
 20
24.58319768812459
 10
41.31789755424202
 20
24.57201061911419
 10
41.3183198523895
 20
24.56121903164491
 10
41.31789755424202
 20
24.55091513899631
 10
41.31663418586466
 20
24.54118672406609
 10
41.31454074028385
 20
24.53211678013512
 10
41.311634847825
 20
24.52378267248414
 10
41.30794160577488
 20
24.5162554199239
 10
41.30349212647244
 20
24.50959945514318
 10
41.29832457438681
 20
24.50387154698452
 10
41.2924831290393
 20
24.49912032131529
 10
41.28601736275668
 20
24.49538662024307
 10
41.28419417969364
 20
24.49456682585672
  0
ARC
  5
587B
330
1F
100
AcDbEntity
  8
0
  6
CONTINUOUS
 62
     7
100
AcDbCircle
 10
41.17915541473372
 20
24.67933748792728
 30
0.0
 40
0.0667785326091461
100
AcDbArc
 50
53.02017957351992
 51
121.2063635456965
  0
LINE
  5
587C
330
1F
100
AcDbEntity
  8
0
  6
CONTINUOUS
 62
     8
100
AcDbLine
 10
47.96215273278799
 20
20.00408196672279
 30
0.0
 11
47.96215273278799
 21
20.07755872957648
 31
0.0
  0
LINE
  5
587D
330
1F
100
AcDbEntity
  8
0
  6
CONTINUOUS
 62
     8
100
AcDbLine
 10
47.87730509029363
 20
15.90096345330737
 30
0.0
 11
47.84548011348733
 21
15.88259128525968
 31
0.0
  0
LINE
  5
587E
330
1F
100
AcDbEntity
  8
0
  6
CONTINUOUS
 62
     8
100
AcDbLine
 10
44.339291016244
 20
21.55333645666605
 30
0.0
 11
44.30747121186406
 21
21.53496727459654
 31
0.0
  0
LINE
  5
587F
330
1F
100
AcDbEntity
  8
0
  6
CONTINUOUS
 62
     8
100
AcDbLine
 10
45.62297370595814
 20
21.70143471737558
 30
0.0
 11
45.62297370595814
 21
22.3556213626807
 31
0.0
  0
LINE
  5
5880
330
1F
100
AcDbEntity
  8
0
  6
CONTINUOUS
 62
     8
100
AcDbLine
 10
45.55933424627822
 20
22.45359030378345
 30
0.0
 11
45.55933424627822
 21
22.39235962815274
 31
0.0
  0
LINE
  5
5881
330
1F
100
AcDbEntity
  8
0
  6
CONTINUOUS
 62
     8
100
AcDbLine
 10
44.339291016244
 20
18.2528785278448
 30
0.0
 11
44.30747121186406
 21
18.2345093457753
 31
0.0
  0
LINE
  5
5882
330
1F
100
AcDbEntity
  8
0
  6
CONTINUOUS
 62
     8
100
AcDbLine
 10
39.59601865212942
 20
24.32831958248638
 30
0.0
 11
39.59601865212942
 21
21.16256897239161
 31
0.0
  0
LINE
  5
5883
330
1F
100
AcDbEntity
  8
0
  6
CONTINUOUS
 62
     8
100
AcDbLine
 10
40.84788158283578
 20
25.11222336943572
 30
0.0
 11
40.84788158283578
 21
24.45803672413059
 31
0.0
  0
LINE
  5
5884
330
1F
100
AcDbEntity
  8
0
  6
CONTINUOUS
 62
     8
100
AcDbLine
 10
40.84788158283578
 20
23.60563448313939
 30
0.0
 11
40.84788158283578
 21
21.88525405950378
 31
0.0
  0
LINE
  5
5885
330
1F
100
AcDbEntity
  8
0
  6
CONTINUOUS
 62
     8
100
AcDbLine
 10
40.95394769466165
 20
21.88525405950378
 30
0.0
 11
40.95394769466165
 21
23.54440387861495
 31
0.0
  0
LINE
  5
5886
330
1F
100
AcDbEntity
  8
0
  6
CONTINUOUS
 62
     8
100
AcDbLine
 10
40.95394769466165
 20
24.39680610837885
 30
0.0
 11
40.95394769466165
 21
25.11222336943572
 31
0.0
  0
LINE
  5
5887
330
1F
100
AcDbEntity
  8
0
  6
CONTINUOUS
 62
     8
100
AcDbLine
 10
35.79284992532341
 20
22.87717092729336
 30
0.0
 11
35.76102494851712
 21
22.85879875924567
 31
0.0
  0
LINE
  5
5888
330
1F
100
AcDbEntity
  8
0
  6
CONTINUOUS
 62
     7
100
AcDbLine
 10
30.08326559535571
 20
18.53137886474913
 30
0.0
 11
29.99326559754336
 21
18.53137886474913
 31
0.0
  0
LINE
  5
5889
330
1F
100
AcDbEntity
  8
0
  6
CONTINUOUS
 62
     7
100
AcDbLine
 10
29.99326559754336
 20
18.63137885620735
 30
0.0
 11
30.08326559535571
 21
18.63137885620735
 31
0.0
  0
LINE
  5
588A
330
1F
100
AcDbEntity
  8
0
  6
CONTINUOUS
 62
     7
100
AcDbLine
 10
29.99326559754336
 20
18.53137886474913
 30
0.0
 11
29.99326559754336
 21
18.63137885620735
 31
0.0
  0
LINE
  5
588B
330
1F
100
AcDbEntity
  8
0
  6
CONTINUOUS
 62
     7
100
AcDbLine
 10
30.08326559535571
 20
18.63137885620735
 30
0.0
 11
30.08326559535571
 21
18.53137886474913
 31
0.0
  0
LINE
  5
588C
330
1F
100
AcDbEntity
  8
0
  6
CONTINUOUS
 62
     7
100
AcDbLine
 10
30.08326559535571
 20
13.41137889142572
 30
0.0
 11
29.99326559754336
 21
13.41137889142572
 31
0.0
  0
LINE
  5
588D
330
1F
100
AcDbEntity
  8
0
  6
CONTINUOUS
 62
     7
100
AcDbLine
 10
29.99326559754336
 20
13.51137888288395
 30
0.0
 11
30.08326559535571
 21
13.51137888288395
 31
0.0
  0
LINE
  5
588E
330
1F
100
AcDbEntity
  8
0
  6
CONTINUOUS
 62
     7
100
AcDbLine
 10
29.99326559754336
 20
13.41137889142572
 30
0.0
 11
29.99326559754336
 21
13.51137888288395
 31
0.0
  0
LINE
  5
588F
330
1F
100
AcDbEntity
  8
0
  6
CONTINUOUS
 62
     7
100
AcDbLine
 10
30.08326559535571
 20
13.51137888288395
 30
0.0
 11
30.08326559535571
 21
13.41137889142572
 31
0.0
  0
LINE
  5
5890
330
1F
100
AcDbEntity
  8
0
  6
CONTINUOUS
 62
     7
100
AcDbLine
 10
29.99326559754336
 20
13.51137888288395
 30
0.0
 11
29.99326559754336
 21
18.53137886474913
 31
0.0
  0
LINE
  5
5891
330
1F
100
AcDbEntity
  8
0
  6
CONTINUOUS
 62
     7
100
AcDbLine
 10
30.08326559535571
 20
13.51137888288395
 30
0.0
 11
30.08326559535571
 21
18.53137886474913
 31
0.0
  0
LINE
  5
5892
330
1F
100
AcDbEntity
  8
0
  6
CONTINUOUS
 62
     7
100
AcDbLine
 10
30.39326560004253
 20
13.41137889142572
 30
0.0
 11
30.39326560004253
 21
13.50137897173711
 31
0.0
  0
LINE
  5
5893
330
1F
100
AcDbEntity
  8
0
  6
CONTINUOUS
 62
     7
100
AcDbLine
 10
30.49326559150076
 20
13.50137897173711
 30
0.0
 11
30.49326559150076
 21
13.41137889142572
 31
0.0
  0
LINE
  5
5894
330
1F
100
AcDbEntity
  8
0
  6
CONTINUOUS
 62
     7
100
AcDbLine
 10
30.49326559150076
 20
13.41137889142572
 30
0.0
 11
30.39326560004253
 21
13.41137889142572
 31
0.0
  0
LINE
  5
5895
330
1F
100
AcDbEntity
  8
0
  6
CONTINUOUS
 62
     7
100
AcDbLine
 10
30.39326560004253
 20
13.50137897173711
 30
0.0
 11
30.49326559150076
 21
13.50137897173711
 31
0.0
  0
LINE
  5
5896
330
1F
100
AcDbEntity
  8
0
  6
CONTINUOUS
 62
     7
100
AcDbLine
 10
30.49326559150076
 20
18.63137885620735
 30
0.0
 11
30.49326559150076
 21
18.54137877589596
 31
0.0
  0
LINE
  5
5897
330
1F
100
AcDbEntity
  8
0
  6
CONTINUOUS
 62
     7
100
AcDbLine
 10
30.39326560004253
 20
18.54137877589596
 30
0.0
 11
30.39326560004253
 21
18.63137885620735
 31
0.0
  0
LINE
  5
5898
330
1F
100
AcDbEntity
  8
0
  6
CONTINUOUS
 62
     7
100
AcDbLine
 10
30.39326560004253
 20
18.63137885620735
 30
0.0
 11
30.49326559150076
 21
18.63137885620735
 31
0.0
  0
LINE
  5
5899
330
1F
100
AcDbEntity
  8
0
  6
CONTINUOUS
 62
     7
100
AcDbLine
 10
30.49326559150076
 20
18.54137877589596
 30
0.0
 11
30.39326560004253
 21
18.54137877589596
 31
0.0
  0
LINE
  5
589A
330
1F
100
AcDbEntity
  8
0
  6
CONTINUOUS
 62
     7
100
AcDbLine
 10
30.15826559811594
 20
13.50137897173711
 30
0.0
 11
30.15826559811594
 21
13.41137889142572
 31
0.0
  0
LINE
  5
589B
330
1F
100
AcDbEntity
  8
0
  6
CONTINUOUS
 62
     7
100
AcDbLine
 10
30.15826559811594
 20
13.41137889142572
 30
0.0
 11
30.39326560004253
 21
13.41137889142572
 31
0.0
  0
LINE
  5
589C
330
1F
100
AcDbEntity
  8
0
  6
CONTINUOUS
 62
     7
100
AcDbLine
 10
30.15826559811594
 20
13.50137897173711
 30
0.0
 11
30.39326560004253
 21
13.50137897173711
 31
0.0
  0
ARC
  5
589D
330
1F
100
AcDbEntity
  8
0
  6
CONTINUOUS
 62
     7
100
AcDbCircle
 10
30.15826559754335
 20
18.46637887381653
 30
0.0
 40
0.1649999999999991
100
AcDbArc
 50
90.0
 51
117.0356917893873
  0
LINE
  5
589E
330
1F
100
AcDbEntity
  8
0
  6
CONTINUOUS
 62
     7
100
AcDbLine
 10
30.15826559811594
 20
18.54137877589596
 30
0.0
 11
30.15826559811594
 21
18.63137885620735
 31
0.0
  0
ARC
  5
589F
330
1F
100
AcDbEntity
  8
0
  6
CONTINUOUS
 62
     7
100
AcDbCircle
 10
30.15826559754335
 20
18.46637887381653
 30
0.0
 40
0.0749999999999993
100
AcDbArc
 50
90.0
 51
179.9999999999987
  0
LINE
  5
58A0
330
1F
100
AcDbEntity
  8
0
  6
CONTINUOUS
 62
     7
100
AcDbLine
 10
30.39326560004253
 20
18.63137885620735
 30
0.0
 11
30.15826559811594
 21
18.63137885620735
 31
0.0
  0
LINE
  5
58A1
330
1F
100
AcDbEntity
  8
0
  6
CONTINUOUS
 62
     7
100
AcDbLine
 10
30.39326560004253
 20
18.54137877589596
 30
0.0
 11
30.15826559811594
 21
18.54137877589596
 31
0.0
  0
ARC
  5
58A2
330
1F
100
AcDbEntity
  8
0
  6
CONTINUOUS
 62
     7
100
AcDbCircle
 10
30.15826559754336
 20
13.57637887381653
 30
0.0
 40
0.0749999999999993
100
AcDbArc
 50
180.0000000000028
 51
270.0000000000008
  0
ARC
  5
58A3
330
1F
100
AcDbEntity
  8
0
  6
CONTINUOUS
 62
     7
100
AcDbCircle
 10
30.15826559754336
 20
13.57637887381653
 30
0.0
 40
0.1650000000000003
100
AcDbArc
 50
242.9643082106109
 51
270.0000000000008
  0
LINE
  5
58A4
330
1F
100
AcDbEntity
  8
0
  6
CONTINUOUS
 62
     7
100
AcDbLine
 10
30.15826559811594
 20
14.04537886073731
 30
0.0
 11
30.15826559811594
 21
17.99737888689577
 31
0.0
  0
LINE
  5
58A5
330
1F
100
AcDbEntity
  8
0
  6
CONTINUOUS
 62
     7
100
AcDbLine
 10
30.15826559811594
 20
17.99737888689577
 30
0.0
 11
30.08326559535571
 21
17.99737888689577
 31
0.0
  0
LINE
  5
58A6
330
1F
100
AcDbEntity
  8
0
  6
CONTINUOUS
 62
     7
100
AcDbLine
 10
30.08326559535571
 20
14.04537886073731
 30
0.0
 11
30.15826559811594
 21
14.04537886073731
 31
0.0
  0
LINE
  5
58A7
330
1F
100
AcDbEntity
  8
0
  6
CONTINUOUS
 62
     7
100
AcDbLine
 10
30.15826559811594
 20
14.04537886073731
 30
0.0
 11
31.928667132953
 21
14.04537886073731
 31
0.0
  0
LINE
  5
58A8
330
1F
100
AcDbEntity
  8
0
  6
CONTINUOUS
 62
     7
100
AcDbLine
 10
31.928667132953
 20
17.99737888689577
 30
0.0
 11
30.15826559811594
 21
17.99737888689577
 31
0.0
  0
LINE
  5
58A9
330
1F
100
AcDbEntity
  8
0
  6
CONTINUOUS
 62
     7
100
AcDbLine
 10
31.928667132953
 20
14.04537886073731
 30
0.0
 11
31.928667132953
 21
17.99737888689577
 31
0.0
  0
LINE
  5
58AA
330
1F
100
AcDbEntity
  8
0
  6
CONTINUOUS
 62
     7
100
AcDbLine
 10
31.928667132953
 20
17.99737888689577
 30
0.0
 11
32.09366713352558
 21
17.99737888689577
 31
0.0
  0
LINE
  5
58AB
330
1F
100
AcDbEntity
  8
0
  6
CONTINUOUS
 62
     7
100
AcDbLine
 10
32.09366713352558
 20
17.99737888689577
 30
0.0
 11
32.09366713352558
 21
14.04537886073731
 31
0.0
  0
LINE
  5
58AC
330
1F
100
AcDbEntity
  8
0
  6
CONTINUOUS
 62
     7
100
AcDbLine
 10
32.09366713352558
 20
14.04537886073731
 30
0.0
 11
31.928667132953
 21
14.04537886073731
 31
0.0
  0
LINE
  5
58AD
330
1F
100
AcDbEntity
  8
0
  6
CONTINUOUS
 62
     7
100
AcDbLine
 10
37.94282628853379
 20
12.84385303237942
 30
0.0
 11
37.97994579789996
 21
12.86528399110417
 31
0.0
  0
LINE
  5
58AE
330
1F
100
AcDbEntity
  8
0
  6
CONTINUOUS
 62
     7
100
AcDbLine
 10
47.16602621089517
 20
12.4531182652129
 30
0.0
 11
35.14521071302045
 21
19.39333932878969
 31
0.0
  0
LINE
  5
58AF
330
1F
100
AcDbEntity
  8
0
  6
CONTINUOUS
 62
     7
100
AcDbLine
 10
47.82295508104265
 20
7.841076197684415
 30
0.0
 11
47.88659468980253
 21
7.877818542933056
 31
0.0
  0
LINE
  5
58B0
330
1F
100
AcDbEntity
  8
0
  6
CONTINUOUS
 62
     7
100
AcDbLine
 10
41.61432931776313
 20
13.55425071821296
 30
0.0
 11
41.55068975437541
 21
13.51750839915995
 31
0.0
  0
LINE
  5
58B1
330
1F
100
AcDbEntity
  8
0
  6
CONTINUOUS
 62
     7
100
AcDbLine
 10
37.35356221840781
 20
16.00409477592966
 30
0.0
 11
37.3535622184078
 21
12.77730026674499
 31
0.0
  0
LINE
  5
58B2
330
1F
100
AcDbEntity
  8
0
  6
CONTINUOUS
 62
     7
100
AcDbLine
 10
38.76571958161668
 20
13.59804330275555
 30
0.0
 11
38.76571958161669
 21
16.82483781194022
 31
0.0
  0
LINE
  5
58B3
330
1F
100
AcDbEntity
  8
0
  6
CONTINUOUS
 62
     7
100
AcDbLine
 10
37.8584760707629
 20
12.47024366164745
 30
0.0
 11
37.92211563415062
 21
12.50698598070047
 31
0.0
  0
LINE
  5
58B4
330
1F
100
AcDbEntity
  8
0
  6
CONTINUOUS
 62
     7
100
AcDbLine
 10
34.86725148872784
 20
19.24840371284047
 30
0.0
 11
34.86725148872784
 21
19.17491895498299
 31
0.0
  0
LINE
  5
58B5
330
1F
100
AcDbEntity
  8
0
  6
CONTINUOUS
 62
     7
100
AcDbLine
 10
34.49298747395111
 20
19.82490419057917
 30
0.0
 11
34.42934786519122
 21
19.78816184533053
 31
0.0
  0
LINE
  5
58B6
330
1F
100
AcDbEntity
  8
0
  6
CONTINUOUS
 62
     7
100
AcDbLine
 10
34.86725148872784
 20
15.05977634701088
 30
0.0
 11
34.86725148872784
 21
14.98629158915341
 31
0.0
  0
LINE
  5
58B7
330
1F
100
AcDbEntity
  8
0
  6
CONTINUOUS
 62
     7
100
AcDbLine
 10
37.79963724498446
 20
12.86900652475622
 30
0.0
 11
37.68932865461803
 21
13.00623222436184
 31
0.0
  0
LINE
  5
58B8
330
1F
100
AcDbEntity
  8
0
  6
CONTINUOUS
 62
     7
100
AcDbLine
 10
37.79963724498446
 20
12.72192827472604
 30
0.0
 11
37.79963724498446
 21
12.86900652475622
 31
0.0
  0
LINE
  5
58B9
330
1F
100
AcDbEntity
  8
0
  6
CONTINUOUS
 62
     7
100
AcDbLine
 10
37.68932865461803
 20
12.71207584405294
 30
0.0
 11
37.79963724498446
 21
12.72192827472604
 31
0.0
  0
LINE
  5
58BA
330
1F
100
AcDbEntity
  8
0
  6
CONTINUOUS
 62
     7
100
AcDbLine
 10
37.57901985683602
 20
12.84930178316146
 30
0.0
 11
37.68932865461803
 21
12.71207584405294
 31
0.0
  0
LINE
  5
58BB
330
1F
100
AcDbEntity
  8
0
  6
CONTINUOUS
 62
     7
100
AcDbLine
 10
37.57901985683602
 20
12.99638003319164
 30
0.0
 11
37.57901985683602
 21
12.84930178316146
 31
0.0
  0
LINE
  5
58BC
330
1F
100
AcDbEntity
  8
0
  6
CONTINUOUS
 62
     7
100
AcDbLine
 10
37.68932865461803
 20
13.00623222436184
 30
0.0
 11
37.57901985683602
 21
12.99638003319164
 31
0.0
  0
LWPOLYLINE
  5
58BD
330
1F
100
AcDbEntity
  8
0
  6
CONTINUOUS
 62
     7
100
AcDbPolyline
 90
       53
 70
   128
 43
0.0
 10
37.68932865461803
 20
12.92610676967978
 10
37.69631773044197
 20
12.92158351796739
 10
37.70320475779412
 20
12.91614991574359
 10
37.70988955494302
 20
12.90988511871582
 10
37.71627442914435
 20
12.90288061699071
 10
37.72226645821242
 20
12.8952384388024
 10
37.72777832018254
 20
12.88706995299796
 10
37.73272933038901
 20
12.87849455177156
 10
37.73704751562104
 20
12.86963701613252
 10
37.74066982153834
 20
12.8606266776452
 10
37.74354335716466
 20
12.8515949036486
 10
37.74562643196582
 20
12.84267330098462
 10
37.74688855584963
 20
12.83399203947775
 10
37.7473112688283
 20
12.8256778161605
 10
37.74688855584963
 20
12.81785157999586
 10
37.74562643196582
 20
12.81062769361712
 10
37.74354335716466
 20
12.80411141854752
 10
37.74066982153834
 20
12.79839771768569
 10
37.73704751562104
 20
12.79357005779125
 10
37.73272933038901
 20
12.7896988527159
 10
37.72777832018254
 20
12.78684026588898
 10
37.72226645821242
 20
12.78503644982037
 10
37.71627442914435
 20
12.78431327082294
 10
37.70988955494302
 20
12.7846813867756
 10
37.70320475779412
 20
12.78613552861462
 10
37.69631773044197
 20
12.78865438058216
 10
37.68932865461803
 20
12.792201298735
 10
37.6823395787941
 20
12.79672467019883
 10
37.67545234402636
 20
12.80215839217409
 10
37.66876754687746
 20
12.80842318920186
 10
37.66238267267613
 20
12.81542769092696
 10
37.65639064360807
 20
12.82306986911528
 10
37.65087898905354
 20
12.83123811541681
 10
37.64592777143147
 20
12.83981375614611
 10
37.64160979361504
 20
12.84867105228226
 10
37.63798748769775
 20
12.85768139076958
 10
37.63511374465582
 20
12.86671328451763
 10
37.63303066985466
 20
12.87563488718161
 10
37.63176854597086
 20
12.88431614868848
 10
37.63134583299219
 20
12.89263049175717
 10
37.63176854597086
 20
12.90045660817037
 10
37.63303066985466
 20
12.90768049454911
 10
37.63511374465582
 20
12.91419676961871
 10
37.63798748769775
 20
12.91991035072909
 10
37.64160979361504
 20
12.92473801062353
 10
37.64592777143147
 20
12.92860945520178
 10
37.65087898905354
 20
12.9314678025258
 10
37.65639064360807
 20
12.93327185809731
 10
37.66238267267613
 20
12.93399503709474
 10
37.66876754687746
 20
12.93362692114208
 10
37.67545234402636
 20
12.93217277930306
 10
37.6823395787941
 20
12.92965380758406
 10
37.68932865461803
 20
12.92610676967978
  0
ARC
  5
58BE
330
1F
100
AcDbEntity
  8
0
  6
CONTINUOUS
 62
     7
100
AcDbCircle
 10
37.68254853545551
 20
12.89759526599669
 30
0.0
 40
0.0277503506376161
100
AcDbArc
 50
61.83036331860751
 51
190.3061908055239
  0
LWPOLYLINE
  5
58BF
330
1F
100
AcDbEntity
  8
0
  6
CONTINUOUS
 62
     7
100
AcDbPolyline
 90
       24
 70
   128
 43
0.0
 10
37.74696571445025
 20
12.83317557410194
 10
37.74688254079743
 20
12.83248628476443
 10
37.74560423849737
 20
12.82612125577426
 10
37.74350021472131
 20
12.82050024253357
 10
37.74060987843194
 20
12.81572766830544
 10
37.73698674285227
 20
12.81189250841608
 10
37.73269842546564
 20
12.80906637423171
 10
37.72782478127539
 20
12.8073018366382
 10
37.72245665831126
 20
12.80663170753244
 10
37.71669403088913
 20
12.80706844106509
 10
37.71064434028618
 20
12.80860401388908
 10
37.70442000575389
 20
12.81120980540824
 10
37.69813718002434
 20
12.81483719653446
 10
37.69191305290763
 20
12.81941852769936
 10
37.6858631548891
 20
12.82486865562306
 10
37.68010052746697
 20
12.83108603107723
 10
37.67473240450284
 20
12.83795473465975
 10
37.66985896772818
 20
12.84534675207216
 10
37.66557065034155
 20
12.85312460865162
 10
37.66194751476188
 20
12.86114340514544
 10
37.65905697105692
 20
12.86925357199445
 10
37.65695294728087
 20
12.87730410262212
 10
37.65567464498079
 20
12.88514518796638
 10
37.65524591694993
 20
12.89263049175717
  0
LWPOLYLINE
  5
58C0
330
1F
100
AcDbEntity
  8
0
  6
CONTINUOUS
 62
     7
100
AcDbPolyline
 90
       24
 70
   128
 43
0.0
 10
37.97994579789996
 20
12.86528399110417
 10
37.98310411513557
 20
12.86727976874471
 10
37.98894556048307
 20
12.87203018895488
 10
37.9941131125687
 20
12.87775730197894
 10
37.99856259187115
 20
12.88441248872879
 10
38.00225583392127
 20
12.89193898701786
 10
38.00516172638011
 20
12.90027237056686
 10
38.00725517196092
 20
12.90934162676684
 10
38.00851854033828
 20
12.91906939618206
 10
38.00894083848577
 20
12.92937281081018
 10
38.00851854033828
 20
12.94016373358511
 10
38.00725517196092
 20
12.95135031514584
 10
38.00516172638011
 20
12.96283687408505
 10
38.00225583392127
 20
12.97452569322075
 10
37.99856259187115
 20
12.98631678009346
 10
37.9941131125687
 20
12.99810978298935
 10
37.98894556048307
 20
13.00980387118879
 10
37.98310411513557
 20
13.02129941148663
 10
37.97663834885295
 20
13.03249832744656
 10
37.96960364159854
 20
13.04330505741268
 10
37.96205993647875
 20
13.05362739276967
 10
37.95407173974302
 20
13.06337719645141
 10
37.94570687629029
 20
13.07247136095267
 10
37.94282628853379
 20
13.07536407694241
  0
LINE
  5
58C1
330
1F
100
AcDbEntity
  8
0
  6
CONTINUOUS
 62
     7
100
AcDbLine
 10
41.83014596830228
 20
13.13845027764594
 30
0.0
 11
41.71983717052025
 21
13.27567621675446
 31
0.0
  0
LINE
  5
58C2
330
1F
100
AcDbEntity
  8
0
  6
CONTINUOUS
 62
     7
100
AcDbLine
 10
41.83014596830228
 20
12.99137202761576
 30
0.0
 11
41.83014596830228
 21
13.13845027764594
 31
0.0
  0
LINE
  5
58C3
330
1F
100
AcDbEntity
  8
0
  6
CONTINUOUS
 62
     7
100
AcDbLine
 10
41.71983717052025
 20
12.98151983644556
 30
0.0
 11
41.83014596830228
 21
12.99137202761576
 31
0.0
  0
LINE
  5
58C4
330
1F
100
AcDbEntity
  8
0
  6
CONTINUOUS
 62
     7
100
AcDbLine
 10
41.60952858015384
 20
13.11874553605118
 30
0.0
 11
41.71983717052025
 21
12.98151983644556
 31
0.0
  0
LINE
  5
58C5
330
1F
100
AcDbEntity
  8
0
  6
CONTINUOUS
 62
     7
100
AcDbLine
 10
41.60952858015384
 20
13.26582378608136
 30
0.0
 11
41.60952858015384
 21
13.11874553605118
 31
0.0
  0
LINE
  5
58C6
330
1F
100
AcDbEntity
  8
0
  6
CONTINUOUS
 62
     7
100
AcDbLine
 10
41.71983717052025
 20
13.27567621675446
 30
0.0
 11
41.60952858015384
 21
13.26582378608136
 31
0.0
  0
LWPOLYLINE
  5
58C7
330
1F
100
AcDbEntity
  8
0
  6
CONTINUOUS
 62
     7
100
AcDbPolyline
 90
       53
 70
   128
 43
0.0
 10
41.71983717052025
 20
13.1955507620724
 10
41.72682624634419
 20
13.19102739060857
 10
41.73371348111192
 20
13.18559366863331
 10
41.74039827826083
 20
13.17932887160554
 10
41.74678315246217
 20
13.17232436988043
 10
41.75277518153023
 20
13.16468219169212
 10
41.75828683608476
 20
13.15651394539058
 10
41.76323805370683
 20
13.14793830466128
 10
41.76755603152327
 20
13.13908100852514
 10
41.77117833744055
 20
13.13007067003782
 10
41.77405208048248
 20
13.12103877628977
 10
41.77613515528363
 20
13.11211717362579
 10
41.77739727916743
 20
13.10343591211892
 10
41.77781999214611
 20
13.09512156905023
 10
41.77739727916743
 20
13.08729545263703
 10
41.77613515528363
 20
13.08007156625829
 10
41.77405208048248
 20
13.07355529118868
 10
41.77117833744055
 20
13.06784171007831
 10
41.76755603152327
 20
13.06301405018387
 10
41.76323805370683
 20
13.05914260560562
 10
41.75828683608476
 20
13.0562842582816
 10
41.75277518153023
 20
13.05448020271009
 10
41.74678315246217
 20
13.05375702371266
 10
41.74039827826083
 20
13.05412513966532
 10
41.73371348111192
 20
13.05557928150434
 10
41.72682624634419
 20
13.05809825322333
 10
41.71983717052025
 20
13.06164529112762
 10
41.71284809469633
 20
13.06616854284
 10
41.70596106734419
 20
13.07160214506381
 10
41.69927627019528
 20
13.07786694209158
 10
41.69289139599395
 20
13.08487144381669
 10
41.68689936692588
 20
13.092513622005
 10
41.68138750495575
 20
13.10068210780944
 10
41.67643649474928
 20
13.10925750903584
 10
41.67211830951726
 20
13.11811504467488
 10
41.66849600359996
 20
13.1271253831622
 10
41.66562246797364
 20
13.13615715715879
 10
41.66353939317248
 20
13.14507875982278
 10
41.66227726928868
 20
13.15376002132965
 10
41.66185455631
 20
13.16207424464689
 10
41.66227726928868
 20
13.16990048081154
 10
41.66353939317248
 20
13.17712436719028
 10
41.66562246797364
 20
13.18364064225988
 10
41.66849600359996
 20
13.18935434312171
 10
41.67211830951726
 20
13.19418200301615
 10
41.67643649474928
 20
13.1980532080915
 10
41.68138750495575
 20
13.20091179491842
 10
41.68689936692588
 20
13.20271561098703
 10
41.69289139599395
 20
13.20343878998446
 10
41.69927627019528
 20
13.2030706740318
 10
41.70596106734419
 20
13.20161653219278
 10
41.71284809469633
 20
13.19909768022524
 10
41.71983717052025
 20
13.1955507620724
  0
ARC
  5
58C8
330
1F
100
AcDbEntity
  8
0
  6
CONTINUOUS
 62
     7
100
AcDbCircle
 10
41.7130570501029
 20
13.16703930537804
 30
0.0
 40
0.0277501965915873
100
AcDbArc
 50
61.82970426239297
 51
190.3068498617129
  0
LWPOLYLINE
  5
58C9
330
1F
100
AcDbEntity
  8
0
  6
CONTINUOUS
 62
     7
100
AcDbPolyline
 90
       24
 70
   128
 43
0.0
 10
41.77747443776806
 20
13.10261944674312
 10
41.77739126411523
 20
13.10193003765415
 10
41.77611296181518
 20
13.09556512841544
 10
41.77400893803912
 20
13.08994411517474
 10
41.77111839433417
 20
13.08517154094661
 10
41.76749525875449
 20
13.0813365008087
 10
41.76320694136786
 20
13.07851036662432
 10
41.75833350459321
 20
13.07674570927937
 10
41.75296538162907
 20
13.07607558017362
 10
41.74720275420694
 20
13.07651231370626
 10
41.74115285618841
 20
13.07804788653025
 10
41.7349287290717
 20
13.08065355829796
 10
41.72864590334215
 20
13.08428094942418
 10
41.72242156880986
 20
13.08886240034053
 10
41.71637187820691
 20
13.09431252826423
 10
41.71060925078477
 20
13.10052990371841
 10
41.70524112782065
 20
13.10739860730092
 10
41.7003674836304
 20
13.11479074446479
 10
41.69607916624377
 20
13.12256860104424
 10
41.6924560306641
 20
13.13058727778661
 10
41.68956569437473
 20
13.13869744463562
 10
41.68746167059867
 20
13.14674797526329
 10
41.68618336829861
 20
13.1545889408561
 10
41.68575464026775
 20
13.16207424464689
  0
LINE
  5
58CA
330
1F
100
AcDbEntity
  8
0
  6
CONTINUOUS
 62
     7
100
AcDbLine
 10
47.20019888914982
 20
8.176710048946816
 30
0.0
 11
47.20019888914982
 21
8.311431985267397
 31
0.0
  0
LWPOLYLINE
  5
58CB
330
1F
100
AcDbEntity
  8
0
  6
CONTINUOUS
 62
     7
100
AcDbPolyline
 90
       20
 70
   128
 43
0.0
 10
47.20019888914982
 20
8.311431985267397
 10
47.19976456089793
 20
8.317730312700753
 10
47.19847443590906
 20
8.324357836866006
 10
47.19636377483403
 20
8.331133613324496
 10
47.19348940954533
 20
8.337873344596985
 10
47.18992974313715
 20
8.344393092458602
 10
47.1857826757694
 20
8.35051466675398
 10
47.18116062669352
 20
8.356071373466839
 10
47.17619011942129
 20
8.36091148751192
 10
47.17100638891941
 20
8.364903162544457
 10
47.16575130745351
 20
8.367937185243413
 10
47.16056757695161
 20
8.369931166612225
 10
47.1555970696794
 20
8.37083049999039
 10
47.15097502060352
 20
8.370610875833854
 10
47.14682795323578
 20
8.36927792246071
 10
47.14326870165877
 20
8.366868283814184
 10
47.14039433637007
 20
8.363447583688056
 10
47.13828326046384
 20
8.35910922821214
 10
47.13699313547498
 20
8.353971412066108
 10
47.13655922205429
 20
8.348174364196133
  0
LWPOLYLINE
  5
58CC
330
1F
100
AcDbEntity
  8
0
  6
CONTINUOUS
 62
     7
100
AcDbPolyline
 90
       20
 70
   128
 43
0.0
 10
35.11574372417957
 20
15.28839542777292
 10
35.11530981075888
 20
15.29469351570338
 10
35.11401968577001
 20
15.30132103986864
 10
35.1119086098638
 20
15.30809705583002
 10
35.10903424457509
 20
15.31483678710251
 10
35.10547499299809
 20
15.32135629546123
 10
35.10132792563034
 20
15.32747786975661
 10
35.09670587655447
 20
15.33303457646946
 10
35.09173536928225
 20
15.33787469051455
 10
35.08655163878036
 20
15.34186636554708
 10
35.08129655731446
 20
15.34490038824603
 10
35.07611282681256
 20
15.34689436961485
 10
35.07114231954035
 20
15.34779370299301
 10
35.06652027046447
 20
15.34757407883648
 10
35.06237320309672
 20
15.34624112546333
 10
35.05881353668854
 20
15.34383172631971
 10
35.05593917139983
 20
15.34041102619357
 10
35.0538285103248
 20
15.33607243121477
 10
35.05253838533593
 20
15.33093461506874
 10
35.05210405708405
 20
15.32513780670166
  0
LINE
  5
58CD
330
1F
100
AcDbEntity
  8
0
  6
CONTINUOUS
 62
     7
100
AcDbLine
 10
35.05210405708405
 20
15.32513780670166
 30
0.0
 11
35.05210405708405
 21
15.19041587038107
 31
0.0
  0
LINE
  5
58CE
330
1F
100
AcDbEntity
  8
0
  6
CONTINUOUS
 62
     7
100
AcDbLine
 10
35.05210405708405
 20
15.19041587038107
 30
0.0
 11
34.47934788288675
 21
15.52109680173391
 31
0.0
  0
ARC
  5
58CF
330
1F
100
AcDbEntity
  8
0
  6
CONTINUOUS
 62
     7
100
AcDbCircle
 10
34.56140294471662
 20
15.65012121719922
 30
0.0
 40
0.1529062881573849
100
AcDbArc
 50
182.4550451881825
 51
237.5450518444519
  0
LINE
  5
58D0
330
1F
100
AcDbEntity
  8
0
  6
CONTINUOUS
 62
     7
100
AcDbLine
 10
34.40863700339245
 20
15.64357139816303
 30
0.0
 11
34.40863700339245
 21
19.74238421961319
 31
0.0
  0
LWPOLYLINE
  5
58D1
330
1F
100
AcDbEntity
  8
0
  6
CONTINUOUS
 62
     7
100
AcDbPolyline
 90
       15
 70
   128
 43
0.0
 10
34.47934788288676
 20
19.78320892542096
 10
34.47143082969946
 20
19.78726634399872
 10
34.46361292116563
 20
19.79024647854585
 10
34.45599330193878
 20
19.79211076909595
 10
34.44866738319171
 20
19.7928364628738
 10
34.44172725744774
 20
19.79241421926642
 10
34.43526045408715
 20
19.79084954684044
 10
34.42934786519122
 20
19.78816184533053
 10
34.42406374554229
 20
19.78438536365094
 10
34.41947529779249
 20
19.77956704436947
 10
34.41563976864552
 20
19.77376772122197
 10
34.41260527851898
 20
19.76706020308913
 10
34.41040999188198
 20
19.75952927399646
 10
34.40908170242398
 20
19.75126929808538
 10
34.40863700339245
 20
19.74238421961319
  0
LINE
  5
58D2
330
1F
100
AcDbEntity
  8
0
  6
CONTINUOUS
 62
     7
100
AcDbLine
 10
34.47934788288676
 20
19.78320892542096
 30
0.0
 11
35.05210405708406
 21
19.45252799406813
 31
0.0
  0
LINE
  5
58D3
330
1F
100
AcDbEntity
  8
0
  6
CONTINUOUS
 62
     7
100
AcDbLine
 10
35.05210405708406
 20
19.45252799406813
 30
0.0
 11
35.05210405708406
 21
19.37904323621066
 31
0.0
  0
LWPOLYLINE
  5
58D4
330
1F
100
AcDbEntity
  8
0
  6
CONTINUOUS
 62
     7
100
AcDbPolyline
 90
       20
 70
   128
 43
0.0
 10
47.13655922205429
 20
12.34084261524202
 10
47.136993135475
 20
12.33454452731156
 10
47.13828326046386
 20
12.32791700314631
 10
47.14039433637008
 20
12.32114098718492
 10
47.14326870165878
 20
12.31440125591243
 10
47.14682795323578
 20
12.30788174755372
 10
47.15097502060354
 20
12.30176017325833
 10
47.1555970696794
 20
12.29620346654547
 10
47.16056757695162
 20
12.29136335250039
 10
47.16575130745352
 20
12.28737167746785
 10
47.17100638891942
 20
12.28433765476891
 10
47.17619011942131
 20
12.28234367340009
 10
47.18116062669353
 20
12.28144434002193
 10
47.1857826757694
 20
12.28166396417846
 10
47.18992974313715
 20
12.2829969175516
 10
47.19348940954533
 20
12.28540631669523
 10
47.19636377483403
 20
12.28882701682136
 10
47.19847443590906
 20
12.29316561180017
 10
47.19976456089794
 20
12.2983034279462
 10
47.20019888914982
 20
12.30410023631328
  0
LINE
  5
58D5
330
1F
100
AcDbEntity
  8
0
  6
CONTINUOUS
 62
     7
100
AcDbLine
 10
47.20019888914982
 20
12.30410023631328
 30
0.0
 11
47.20019888914982
 21
12.43882217263386
 31
0.0
  0
LINE
  5
58D6
330
1F
100
AcDbEntity
  8
0
  6
CONTINUOUS
 62
     7
100
AcDbLine
 10
47.20019888914982
 20
12.43882217263386
 30
0.0
 11
47.77295506334712
 21
12.10814124128104
 31
0.0
  0
ARC
  5
58D7
330
1F
100
AcDbEntity
  8
0
  6
CONTINUOUS
 62
     7
100
AcDbCircle
 10
47.6909000015173
 20
11.97911682581576
 30
0.0
 40
0.1529062881573242
100
AcDbArc
 50
2.45504518816705
 51
57.54505184445857
  0
LINE
  5
58D8
330
1F
100
AcDbEntity
  8
0
  6
CONTINUOUS
 62
     7
100
AcDbLine
 10
47.84366594284142
 20
11.98566664485191
 30
0.0
 11
47.84366594284142
 21
7.886853823401757
 31
0.0
  0
LWPOLYLINE
  5
58D9
330
1F
100
AcDbEntity
  8
0
  6
CONTINUOUS
 62
     7
100
AcDbPolyline
 90
       15
 70
   128
 43
0.0
 10
47.77295506334711
 20
7.846029117593978
 10
47.78087211653442
 20
7.841971699016227
 10
47.78869002506824
 20
7.838991564469097
 10
47.79630964429509
 20
7.837127273918994
 10
47.80363556304216
 20
7.836401580141142
 10
47.81057568878613
 20
7.836823823748517
 10
47.81704249214672
 20
7.838388496174495
 10
47.82295508104265
 20
7.841076197684415
 10
47.82823920069158
 20
7.844852679364009
 10
47.83282764844137
 20
7.849670998645471
 10
47.83666317758834
 20
7.855470321792971
 10
47.83969766771489
 20
7.862177839925813
 10
47.84189295435189
 20
7.86970876901848
 10
47.84322124380988
 20
7.87796874492956
 10
47.84366594284142
 20
7.886853823401757
  0
LINE
  5
58DA
330
1F
100
AcDbEntity
  8
0
  6
CONTINUOUS
 62
     7
100
AcDbLine
 10
47.77295506334711
 20
7.846029117593978
 30
0.0
 11
47.20019888914982
 21
8.176710048946816
 31
0.0
  0
LINE
  5
58DB
330
1F
100
AcDbEntity
  8
0
  6
CONTINUOUS
 62
     7
100
AcDbLine
 10
43.59855032043101
 20
10.77378162687423
 30
0.0
 11
43.59855032043102
 21
14.0005761360589
 31
0.0
  0
LWPOLYLINE
  5
58DC
330
1F
100
AcDbEntity
  8
0
  6
CONTINUOUS
 62
     7
100
AcDbPolyline
 90
       20
 70
   128
 43
0.0
 10
43.59855032043102
 20
14.0005761360589
 10
43.60378777157151
 20
13.998053452045
 10
43.60888210595279
 20
13.9966018249864
 10
43.61369497737428
 20
13.9962607728611
 10
43.61809446951879
 20
13.99703975603353
 10
43.62196090358913
 20
13.99891745874586
 10
43.62518870504842
 20
14.00184262737814
 10
43.62769013710077
 20
14.00573538771421
 10
43.62939654518493
 20
14.01048963997073
 10
43.63026146820801
 20
14.01597581308043
 10
43.63026146820801
 20
14.02204421773268
 10
43.62939654518493
 20
14.02852911792278
 10
43.62769013710077
 20
14.03525388026421
 10
43.62518870504842
 20
14.04203492578643
 10
43.62196090358913
 20
14.04868723850152
 10
43.61809446951879
 20
14.05502951471648
 10
43.61369497737428
 20
14.06088859383677
 10
43.60888210595279
 20
14.06610496693302
 10
43.60378777157151
 20
14.07053589027861
 10
43.59855032043102
 20
14.07406077416492
  0
LINE
  5
58DD
330
1F
100
AcDbEntity
  8
0
  6
CONTINUOUS
 62
     7
100
AcDbLine
 10
38.65375262580286
 20
16.92894105424673
 30
0.0
 11
43.59855032043102
 21
14.07406077416492
 31
0.0
  0
LWPOLYLINE
  5
58DE
330
1F
100
AcDbEntity
  8
0
  6
CONTINUOUS
 62
     7
100
AcDbPolyline
 90
       20
 70
   128
 43
0.0
 10
38.65375262580286
 20
16.92894105424673
 10
38.64851517466236
 20
16.93146385801208
 10
38.64342084028109
 20
16.93291536531924
 10
38.63860796885959
 20
16.93325641744453
 10
38.63420847671509
 20
16.9324774342721
 10
38.63034204264474
 20
16.93059973155978
 10
38.62711424118547
 20
16.9276745629275
 10
38.6246128091331
 20
16.92378192234286
 10
38.62290640104895
 20
16.9190275503349
 10
38.62204147802586
 20
16.91354137722521
 10
38.62204147802586
 20
16.90747297257296
 10
38.62290640104895
 20
16.90098807238285
 10
38.6246128091331
 20
16.89426342979287
 10
38.62711424118547
 20
16.8874822645192
 10
38.63034204264474
 20
16.88082995180411
 10
38.63420847671509
 20
16.87448767558916
 10
38.63860796885959
 20
16.86862859646886
 10
38.64342084028109
 20
16.86341222337262
 10
38.64851517466236
 20
16.85898141977848
 10
38.65375262580286
 20
16.85545641614071
  0
LINE
  5
58DF
330
1F
100
AcDbEntity
  8
0
  6
CONTINUOUS
 62
     7
100
AcDbLine
 10
43.59855032043101
 20
10.7002969887682
 30
0.0
 11
43.48187780483815
 21
10.76765789705277
 31
0.0
  0
LINE
  5
58E0
330
1F
100
AcDbEntity
  8
0
  6
CONTINUOUS
 62
     7
100
AcDbLine
 10
41.52997905462006
 20
11.89458716592208
 30
0.0
 11
38.70678568171578
 21
13.52455861974274
 31
0.0
  0
LWPOLYLINE
  5
58E1
330
1F
100
AcDbEntity
  8
0
  6
CONTINUOUS
 62
     7
100
AcDbPolyline
 90
       20
 70
   128
 43
0.0
 10
43.59855032043101
 20
10.7002969887682
 10
43.6037877715715
 20
10.69777418500286
 10
43.60888210595279
 20
10.69632267769571
 10
43.61369497737427
 20
10.69598162557041
 10
43.61809446951879
 20
10.69676060874283
 10
43.62196090358912
 20
10.69863831145517
 10
43.62518870504842
 20
10.70156348008744
 10
43.62769013710077
 20
10.70545612067207
 10
43.62939654518492
 20
10.71021049268004
 10
43.63026146820801
 20
10.71569666578973
 10
43.63026146820801
 20
10.72176507044199
 10
43.62939654518492
 20
10.72824997063209
 10
43.62769013710077
 20
10.73497461322207
 10
43.62518870504842
 20
10.74175577849574
 10
43.62196090358912
 20
10.74840809121083
 10
43.61809446951879
 20
10.75475036742578
 10
43.61369497737427
 20
10.76060944654607
 10
43.60888210595279
 20
10.76582581964232
 10
43.6037877715715
 20
10.77025662323647
 10
43.59855032043101
 20
10.77378162687423
  0
LWPOLYLINE
  5
58E2
330
1F
100
AcDbEntity
  8
0
  6
CONTINUOUS
 62
     7
100
AcDbPolyline
 90
       35
 70
   128
 43
0.0
 10
34.69041896836436
 20
16.7260418041415
 10
34.69958590791548
 20
16.72025990482976
 10
34.70867444437242
 20
16.713548674402
 10
34.71760700430338
 20
16.70596547380207
 10
34.72630808843247
 20
16.69757454968207
 10
34.73470261231502
 20
16.68844799241399
 10
34.74271922498699
 20
16.67866346081218
 10
34.75028989413388
 20
16.66830430188479
 10
34.75734990609064
 20
16.6574588922008
 10
34.7638386955041
 20
16.64621997925708
 10
34.76970108982651
 20
16.63468336421241
 10
34.77488689448432
 20
16.62294754263317
 10
34.77935213737184
 20
16.61111250697886
 10
34.78305865401992
 20
16.599279327472
 10
34.78597491725842
 20
16.5875487749565
 10
34.78807603721617
 20
16.57602102151901
 10
34.78934376132099
 20
16.56479456272593
 10
34.78976771879321
 20
16.55396496023315
 10
34.78934376132099
 20
16.54362496153751
 10
34.78807603721617
 20
16.53386234445078
 10
34.78597491725842
 20
16.52476075535971
 10
34.78305865401992
 20
16.51639761357576
 10
34.77935213737184
 20
16.50884429096223
 10
34.77488689448432
 20
16.50216533354984
 10
34.76970108982651
 20
16.49641756340092
 10
34.7638386955041
 20
16.49165025823651
 10
34.75734990609064
 20
16.48790395392194
 10
34.75028989413388
 20
16.48521080372111
 10
34.74271922498699
 20
16.4835934406578
 10
34.73470261231502
 20
16.48306569602431
 10
34.72630808843247
 20
16.48363224012712
 10
34.71760700430338
 20
16.48528852241119
 10
34.70867444437242
 20
16.48801969369691
 10
34.69958590791548
 20
16.49180312096051
 10
34.69041896836436
 20
16.49660623180802
  0
LINE
  5
58E3
330
1F
100
AcDbEntity
  8
0
  6
CONTINUOUS
 62
     7
100
AcDbLine
 10
34.60203088753547
 20
16.77707268640121
 30
0.0
 11
34.69041896836436
 21
16.7260418041415
 31
0.0
  0
LWPOLYLINE
  5
58E4
330
1F
100
AcDbEntity
  8
0
  6
CONTINUOUS
 62
     7
100
AcDbPolyline
 90
       35
 70
   128
 43
0.0
 10
34.60203088753546
 20
16.54763711406774
 10
34.59286394798434
 20
16.5534190732552
 10
34.5837754115274
 20
16.5601301839315
 10
34.57484285159645
 20
16.56771344440716
 10
34.56614176746735
 20
16.57610430865143
 10
34.55774724358481
 20
16.58523092579524
 10
34.54973063091283
 20
16.59501545739705
 10
34.54215996176595
 20
16.60537467620017
 10
34.53509994980918
 20
16.61622002600842
 10
34.52861116039573
 20
16.62745893895215
 10
34.52274876607333
 20
16.63899555399682
 10
34.5175629614155
 20
16.65073137557606
 10
34.51309771852798
 20
16.66256635135465
 10
34.50939120187991
 20
16.67439959073723
 10
34.50647493864141
 20
16.68613014325273
 10
34.50437381868366
 20
16.69765789669022
 10
34.50310609457885
 20
16.7088843554833
 10
34.50268213710661
 20
16.71971389810036
 10
34.50310609457885
 20
16.73005395667172
 10
34.50437381868366
 20
16.73981657375846
 10
34.50647493864141
 20
16.74891816284952
 10
34.50939120187991
 20
16.75728130463348
 10
34.51309771852798
 20
16.76483456737128
 10
34.5175629614155
 20
16.77151358465939
 10
34.52274876607333
 20
16.77726135480831
 10
34.52861116039573
 20
16.78202865997272
 10
34.53509994980918
 20
16.78577496428729
 10
34.54215996176595
 20
16.78846817436384
 10
34.54973063091283
 20
16.79008547755143
 10
34.55774724358481
 20
16.79061322218493
 10
34.56614176746735
 20
16.79004661820639
 10
34.57484285159645
 20
16.78839039579804
 10
34.5837754115274
 20
16.7856591646366
 10
34.59286394798434
 20
16.78187585712444
 10
34.60203088753547
 20
16.77707268640121
  0
LINE
  5
58E5
330
1F
100
AcDbEntity
  8
0
  6
CONTINUOUS
 62
     7
100
AcDbLine
 10
34.69041896836436
 20
16.49660623180802
 30
0.0
 11
34.60203088753546
 21
16.54763711406774
 31
0.0
  0
LWPOLYLINE
  5
58E6
330
1F
100
AcDbEntity
  8
0
  6
CONTINUOUS
 62
     7
100
AcDbPolyline
 90
       35
 70
   128
 43
0.0
 10
34.69041896836436
 20
18.56397559930956
 10
34.69958590791548
 20
18.5581936401221
 10
34.70867444437242
 20
18.55148252944579
 10
34.71760700430338
 20
18.54389926897014
 10
34.72630808843248
 20
18.53550840472586
 10
34.73470261231502
 20
18.52638178758206
 10
34.74271922498699
 20
18.51659725598025
 10
34.75028989413388
 20
18.50623803717714
 10
34.75734990609065
 20
18.49539268736887
 10
34.7638386955041
 20
18.48415377442515
 10
34.76970108982651
 20
18.47261715938047
 10
34.77488689448433
 20
18.46088133780123
 10
34.77935213737184
 20
18.44904636202265
 10
34.78305865401992
 20
18.43721312264007
 10
34.78597491725842
 20
18.42548257012457
 10
34.78807603721617
 20
18.41395481668708
 10
34.78934376132099
 20
18.402728357894
 10
34.78976771879321
 20
18.39189881527694
 10
34.78934376132099
 20
18.38155875670558
 10
34.78807603721617
 20
18.37179613961885
 10
34.78597491725842
 20
18.36269455052777
 10
34.78305865401992
 20
18.35433140874383
 10
34.77935213737184
 20
18.34677814600601
 10
34.77488689448433
 20
18.3400991287179
 10
34.76970108982651
 20
18.33435135856899
 10
34.7638386955041
 20
18.32958405340458
 10
34.75734990609065
 20
18.32583774909001
 10
34.75028989413388
 20
18.32314453901346
 10
34.74271922498699
 20
18.32152723582587
 10
34.73470261231502
 20
18.32099949119238
 10
34.72630808843248
 20
18.3215660951709
 10
34.71760700430338
 20
18.32322231757926
 10
34.70867444437242
 20
18.3259535487407
 10
34.69958590791548
 20
18.32973685625286
 10
34.69041896836436
 20
18.33454002697608
  0
LINE
  5
58E7
330
1F
100
AcDbEntity
  8
0
  6
CONTINUOUS
 62
     7
100
AcDbLine
 10
34.60203088753547
 20
18.61500648156928
 30
0.0
 11
34.69041896836436
 21
18.56397559930956
 31
0.0
  0
LWPOLYLINE
  5
58E8
330
1F
100
AcDbEntity
  8
0
  6
CONTINUOUS
 62
     7
100
AcDbPolyline
 90
       35
 70
   128
 43
0.0
 10
34.60203088753547
 20
18.38557090923581
 10
34.59286394798434
 20
18.39135280854755
 10
34.58377541152741
 20
18.39806403897529
 10
34.57484285159645
 20
18.40564723957523
 10
34.56614176746735
 20
18.41403816369523
 10
34.55774724358481
 20
18.42316472096331
 10
34.54973063091283
 20
18.43294925256512
 10
34.54215996176595
 20
18.4433084114925
 10
34.53509994980918
 20
18.45415382117649
 10
34.52861116039573
 20
18.46539273412022
 10
34.52274876607333
 20
18.47692934916489
 10
34.5175629614155
 20
18.48866517074413
 10
34.51309771852799
 20
18.50050020639844
 10
34.50939120187991
 20
18.5123333859053
 10
34.50647493864142
 20
18.5240639384208
 10
34.50437381868366
 20
18.53559169185829
 10
34.50310609457885
 20
18.54681815065137
 10
34.50268213710661
 20
18.55764775314415
 10
34.50310609457885
 20
18.56798775183979
 10
34.50437381868366
 20
18.57775036892652
 10
34.50647493864142
 20
18.58685195801759
 10
34.50939120187991
 20
18.59521509980154
 10
34.51309771852799
 20
18.60276842241508
 10
34.5175629614155
 20
18.60944737982746
 10
34.52274876607333
 20
18.61519514997638
 10
34.52861116039573
 20
18.61996245514078
 10
34.53509994980918
 20
18.62370875945536
 10
34.54215996176595
 20
18.62640190965618
 10
34.54973063091283
 20
18.6280192727195
 10
34.55774724358481
 20
18.628547017353
 10
34.56614176746735
 20
18.62798047325019
 10
34.57484285159645
 20
18.62632419096611
 10
34.58377541152741
 20
18.62359301968039
 10
34.59286394798434
 20
18.61980959241678
 10
34.60203088753547
 20
18.61500648156928
  0
LINE
  5
58E9
330
1F
100
AcDbEntity
  8
0
  6
CONTINUOUS
 62
     7
100
AcDbLine
 10
34.69041896836436
 20
18.33454002697608
 30
0.0
 11
34.60203088753547
 21
18.38557090923581
 31
0.0
  0
LWPOLYLINE
  5
58EA
330
1F
100
AcDbEntity
  8
0
  6
CONTINUOUS
 62
     7
100
AcDbPolyline
 90
       35
 70
   128
 43
0.0
 10
47.65027205869841
 20
11.0816009289472
 10
47.65943899824953
 20
11.07581896975974
 10
47.66852753470646
 20
11.06910785908343
 10
47.67746009463742
 20
11.06152459860778
 10
47.68616117876652
 20
11.0531337343635
 10
47.69455570264906
 20
11.0440071172197
 10
47.70257231532104
 20
11.03422258561789
 10
47.71014298446792
 20
11.02386336681478
 10
47.71720299642469
 20
11.01301801700651
 10
47.72369178583814
 20
11.00177910406279
 10
47.72955418016056
 20
10.99024248901812
 10
47.73473998481836
 20
10.97850666743888
 10
47.73920522770588
 20
10.96667169166029
 10
47.74291174435396
 20
10.95483845227771
 10
47.74582800759246
 20
10.94310789976221
 10
47.74792912755021
 20
10.93158014632472
 10
47.74919685165503
 20
10.92035368753164
 10
47.74962080912725
 20
10.90952414491458
 10
47.74919685165503
 20
10.89918408634322
 10
47.74792912755021
 20
10.88942146925649
 10
47.74582800759246
 20
10.88031988016542
 10
47.74291174435396
 20
10.87195673838147
 10
47.73920522770588
 20
10.86440347564366
 10
47.73473998481836
 20
10.85772445835555
 10
47.72955418016056
 20
10.85197668820663
 10
47.72369178583814
 20
10.84720938304222
 10
47.71720299642469
 20
10.84346307872765
 10
47.71014298446792
 20
10.8407698686511
 10
47.70257231532104
 20
10.83915256546351
 10
47.69455570264906
 20
10.83862482083002
 10
47.68616117876652
 20
10.83919142480854
 10
47.67746009463742
 20
10.84084764721689
 10
47.66852753470646
 20
10.84357887837834
 10
47.65943899824953
 20
10.8473621858905
 10
47.65027205869841
 20
10.85216535661373
  0
LINE
  5
58EB
330
1F
100
AcDbEntity
  8
0
  6
CONTINUOUS
 62
     7
100
AcDbLine
 10
47.5618839778695
 20
11.13263181120692
 30
0.0
 11
47.65027205869841
 21
11.0816009289472
 31
0.0
  0
LWPOLYLINE
  5
58EC
330
1F
100
AcDbEntity
  8
0
  6
CONTINUOUS
 62
     7
100
AcDbPolyline
 90
       35
 70
   128
 43
0.0
 10
47.5618839778695
 20
10.90319623887344
 10
47.55271703831839
 20
10.90897813818519
 10
47.54362850186145
 20
10.91568936861293
 10
47.53469594193049
 20
10.92327256921286
 10
47.52599485780139
 20
10.93166349333287
 10
47.51760033391885
 20
10.94079005060095
 10
47.50958372124688
 20
10.95057458220276
 10
47.50201305209999
 20
10.96093374113015
 10
47.49495304014323
 20
10.97177915081413
 10
47.48846425072977
 20
10.98301806375786
 10
47.48260185640737
 20
10.99455467880253
 10
47.47741605174954
 20
11.00629050038177
 10
47.47295080886203
 20
11.01812553603608
 10
47.46924429221395
 20
11.02995871554294
 10
47.46632802897545
 20
11.04168926805844
 10
47.4642269090177
 20
11.05321702149593
 10
47.46295918491289
 20
11.06444348028901
 10
47.46253522744066
 20
11.07527308278179
 10
47.46295918491289
 20
11.08561308147743
 10
47.4642269090177
 20
11.09537569856416
 10
47.46632802897545
 20
11.10447728765523
 10
47.46924429221395
 20
11.11284042943918
 10
47.47295080886203
 20
11.12039375205272
 10
47.47741605174954
 20
11.1270727094651
 10
47.48260185640737
 20
11.13282047961402
 10
47.48846425072977
 20
11.13758778477842
 10
47.49495304014323
 20
11.141334089093
 10
47.50201305209999
 20
11.14402723929382
 10
47.50958372124688
 20
11.14564460235713
 10
47.51760033391885
 20
11.14617234699063
 10
47.52599485780139
 20
11.14560580288783
 10
47.53469594193049
 20
11.14394952060376
 10
47.54362850186145
 20
11.14121834931803
 10
47.55271703831839
 20
11.13743492205443
 10
47.5618839778695
 20
11.13263181120692
  0
LINE
  5
58ED
330
1F
100
AcDbEntity
  8
0
  6
CONTINUOUS
 62
     7
100
AcDbLine
 10
47.65027205869841
 20
10.85216535661373
 30
0.0
 11
47.5618839778695
 21
10.90319623887344
 31
0.0
  0
LWPOLYLINE
  5
58EE
330
1F
100
AcDbEntity
  8
0
  6
CONTINUOUS
 62
     7
100
AcDbPolyline
 90
       35
 70
   128
 43
0.0
 10
47.65027205869841
 20
9.24366713377914
 10
47.65943899824953
 20
9.237885234467398
 10
47.66852753470646
 20
9.231174004039651
 10
47.67746009463741
 20
9.223590803439712
 10
47.68616117876652
 20
9.215199879319712
 10
47.69455570264906
 20
9.206073322051636
 10
47.70257231532103
 20
9.196288790449827
 10
47.71014298446792
 20
9.185929631522434
 10
47.71720299642469
 20
9.175084221838446
 10
47.72369178583814
 20
9.163845308894721
 10
47.72955418016054
 20
9.152308693850052
 10
47.73473998481836
 20
9.140572872270816
 10
47.73920522770588
 20
9.128737836616501
 10
47.74291174435396
 20
9.116904657109643
 10
47.74582800759246
 20
9.105174104594141
 10
47.74792912755021
 20
9.093646351156657
 10
47.74919685165503
 20
9.082419892363574
 10
47.74962080912725
 20
9.07159028987079
 10
47.74919685165503
 20
9.061250291175156
 10
47.74792912755021
 20
9.05148767408842
 10
47.74582800759246
 20
9.042386084997353
 10
47.74291174435396
 20
9.0340229432134
 10
47.73920522770588
 20
9.026469620599868
 10
47.73473998481836
 20
9.019790663187485
 10
47.72955418016054
 20
9.014042893038563
 10
47.72369178583814
 20
9.009275587874157
 10
47.71720299642469
 20
9.005529283559582
 10
47.71014298446792
 20
9.002836133358755
 10
47.70257231532103
 20
9.001218770295444
 10
47.69455570264906
 20
9.00069102566195
 10
47.68616117876652
 20
9.00125756976476
 10
47.67746009463741
 20
9.002913852048827
 10
47.66852753470646
 20
9.005645023334551
 10
47.65943899824953
 20
9.009428450598157
 10
47.65027205869841
 20
9.014231561445662
  0
LINE
  5
58EF
330
1F
100
AcDbEntity
  8
0
  6
CONTINUOUS
 62
     7
100
AcDbLine
 10
47.5618839778695
 20
9.294698016038857
 30
0.0
 11
47.65027205869841
 21
9.24366713377914
 31
0.0
  0
LWPOLYLINE
  5
58F0
330
1F
100
AcDbEntity
  8
0
  6
CONTINUOUS
 62
     7
100
AcDbPolyline
 90
       35
 70
   128
 43
0.0
 10
47.5618839778695
 20
9.065262443705378
 10
47.55271703831839
 20
9.071044402892844
 10
47.54362850186145
 20
9.077755513569144
 10
47.53469594193049
 20
9.085338774044807
 10
47.52599485780139
 20
9.093729638289083
 10
47.51760033391885
 20
9.102856255432882
 10
47.50958372124688
 20
9.112640787034692
 10
47.50201305209998
 20
9.123000005837809
 10
47.49495304014323
 20
9.133845355646066
 10
47.48846425072976
 20
9.145084268589798
 10
47.48260185640737
 20
9.156620883634467
 10
47.47741605174954
 20
9.168356705213703
 10
47.47295080886202
 20
9.180191680992294
 10
47.46924429221395
 20
9.192024920374876
 10
47.46632802897545
 20
9.203755472890378
 10
47.46422690901769
 20
9.215283226327862
 10
47.46295918491288
 20
9.226509685120944
 10
47.46253522744065
 20
9.237339227738004
 10
47.46295918491288
 20
9.247679286309363
 10
47.46422690901769
 20
9.257441903396099
 10
47.46632802897545
 20
9.266543492487166
 10
47.46924429221395
 20
9.274906634271118
 10
47.47295080886202
 20
9.282459897008926
 10
47.47741605174954
 20
9.289138914297033
 10
47.48260185640737
 20
9.294886684445955
 10
47.48846425072976
 20
9.299653989610362
 10
47.49495304014323
 20
9.303400293924937
 10
47.50201305209998
 20
9.306093504001488
 10
47.50958372124688
 20
9.307710807189074
 10
47.51760033391885
 20
9.308238551822569
 10
47.52599485780139
 20
9.307671947844035
 10
47.53469594193049
 20
9.306015725435692
 10
47.54362850186145
 20
9.303284494274244
 10
47.55271703831839
 20
9.299501186762086
 10
47.5618839778695
 20
9.294698016038857
  0
LINE
  5
58F1
330
1F
100
AcDbEntity
  8
0
  6
CONTINUOUS
 62
     7
100
AcDbLine
 10
47.65027205869841
 20
9.014231561445662
 30
0.0
 11
47.5618839778695
 21
9.065262443705378
 31
0.0
  0
LINE
  5
58F2
330
1F
100
AcDbEntity
  8
0
  6
CONTINUOUS
 62
     7
100
AcDbLine
 10
47.77295506334712
 20
12.10814124128104
 30
0.0
 11
47.836594672107
 21
12.14488358652968
 31
0.0
  0
ARC
  5
58F3
330
1F
100
AcDbEntity
  8
0
  6
CONTINUOUS
 62
     7
100
AcDbCircle
 10
47.75453961027714
 20
12.01585917106437
 30
0.0
 40
0.1529062881573845
100
AcDbArc
 50
2.455045188181719
 51
57.5450518444511
  0
LINE
  5
58F4
330
1F
100
AcDbEntity
  8
0
  6
CONTINUOUS
 62
     7
100
AcDbLine
 10
47.90730555160131
 20
12.02240899010055
 30
0.0
 11
47.84366594284142
 21
11.98566664485191
 31
0.0
  0
LINE
  5
58F5
330
1F
100
AcDbEntity
  8
0
  6
CONTINUOUS
 62
     7
100
AcDbLine
 10
47.20019888914982
 20
12.43882217263386
 30
0.0
 11
47.2638384979097
 21
12.47556451788251
 31
0.0
  0
LINE
  5
58F6
330
1F
100
AcDbEntity
  8
0
  6
CONTINUOUS
 62
     7
100
AcDbLine
 10
47.2638384979097
 20
12.47556451788251
 30
0.0
 11
47.836594672107
 21
12.14488358652968
 31
0.0
  0
LINE
  5
58F7
330
1F
100
AcDbEntity
  8
0
  6
CONTINUOUS
 62
     7
100
AcDbLine
 10
47.84366594284142
 20
7.886853823401757
 30
0.0
 11
47.9073055516013
 21
7.923596168650398
 31
0.0
  0
LINE
  5
58F8
330
1F
100
AcDbEntity
  8
0
  6
CONTINUOUS
 62
     7
100
AcDbLine
 10
47.90730555160131
 20
12.02240899010055
 30
0.0
 11
47.9073055516013
 21
7.923596168650398
 31
0.0
  0
LWPOLYLINE
  5
58F9
330
1F
100
AcDbEntity
  8
0
  6
CONTINUOUS
 62
     7
100
AcDbPolyline
 90
       15
 70
   128
 43
0.0
 10
34.89654061869767
 20
19.28922864318221
 10
34.88906823861494
 20
19.28440096831883
 10
34.88257900844335
 20
19.27912063298016
 10
34.87715464992655
 20
19.27345397946867
 10
34.87286316945213
 20
19.26747236467871
 10
34.86975857285512
 20
19.26125103742673
 10
34.86788039873297
 20
19.25486791099891
 10
34.86725148872784
 20
19.24840371284047
 10
34.86788024317128
 20
19.24193945480629
 10
34.86975844322038
 20
19.23555661278817
 10
34.87286288425569
 20
19.22933519572261
 10
34.87715470178045
 20
19.22335335639869
 10
34.8825791380781
 20
19.21768677773184
 10
34.88906839417664
 20
19.21240648729996
 10
34.89654082611326
 20
19.20757887231231
  0
LINE
  5
58FA
330
1F
100
AcDbEntity
  8
0
  6
CONTINUOUS
 62
     7
100
AcDbLine
 10
34.89654061869767
 20
19.28922864318221
 30
0.0
 11
35.0627107136388
 21
19.38516699222774
 31
0.0
  0
LINE
  5
58FB
330
1F
100
AcDbEntity
  8
0
  6
CONTINUOUS
 62
     7
100
AcDbLine
 10
47.08352621151353
 20
12.44494592865096
 30
0.0
 11
35.0627107136388
 21
19.38516699222774
 31
0.0
  0
LINE
  5
58FC
330
1F
100
AcDbEntity
  8
0
  6
CONTINUOUS
 62
     7
100
AcDbLine
 10
47.08352621151353
 20
12.44494592865096
 30
0.0
 11
46.91735611657238
 21
12.34900757960541
 31
0.0
  0
ARC
  5
58FD
330
1F
100
AcDbEntity
  8
0
  6
CONTINUOUS
 62
     7
100
AcDbCircle
 10
46.84664545558614
 20
12.48458202716334
 30
0.0
 40
0.1529066002753049
100
AcDbArc
 50
242.4550091547364
 51
297.5448938126258
  0
LINE
  5
58FE
330
1F
100
AcDbEntity
  8
0
  6
CONTINUOUS
 62
     7
100
AcDbLine
 10
46.77593456499937
 20
12.34900769935686
 30
0.0
 11
34.89654082611326
 21
19.20757887231231
 31
0.0
  0
LINE
  5
58FF
330
1F
100
AcDbEntity
  8
0
  6
CONTINUOUS
 62
     7
100
AcDbLine
 10
46.91735611657238
 20
12.34900757960541
 30
0.0
 11
46.91735611657238
 21
12.27552282174794
 31
0.0
  0
ARC
  5
5900
330
1F
100
AcDbEntity
  8
0
  6
CONTINUOUS
 62
     7
100
AcDbCircle
 10
46.84664545558611
 20
12.41109726930587
 30
0.0
 40
0.1529066002753046
100
AcDbArc
 50
242.4550091547438
 51
297.5448938126327
  0
LINE
  5
5901
330
1F
100
AcDbEntity
  8
0
  6
CONTINUOUS
 62
     7
100
AcDbLine
 10
46.77593456499937
 20
12.27552294149939
 30
0.0
 11
46.77593456499937
 21
12.34900769935686
 31
0.0
  0
LINE
  5
5902
330
1F
100
AcDbEntity
  8
0
  6
CONTINUOUS
 62
     7
100
AcDbLine
 10
34.89654082611326
 20
19.20757887231231
 30
0.0
 11
34.89654082611326
 21
19.13409411445483
 31
0.0
  0
LINE
  5
5903
330
1F
100
AcDbEntity
  8
0
  6
CONTINUOUS
 62
     7
100
AcDbLine
 10
46.77593456499937
 20
12.27552294149939
 30
0.0
 11
34.89654082611326
 21
19.13409411445483
 31
0.0
  0
LINE
  5
5904
330
1F
100
AcDbEntity
  8
0
  6
CONTINUOUS
 62
     7
100
AcDbLine
 10
47.08352621151353
 20
12.37146117079348
 30
0.0
 11
47.08352621151353
 21
12.44494592865096
 31
0.0
  0
LINE
  5
5905
330
1F
100
AcDbEntity
  8
0
  6
CONTINUOUS
 62
     7
100
AcDbLine
 10
47.08352621151353
 20
12.37146117079348
 30
0.0
 11
46.91735611657238
 21
12.27552282174794
 31
0.0
  0
LWPOLYLINE
  5
5906
330
1F
100
AcDbEntity
  8
0
  6
CONTINUOUS
 62
     7
100
AcDbPolyline
 90
       19
 70
   128
 43
0.0
 10
47.20019883081419
 20
12.37758496049066
 10
47.1997548562687
 20
12.38907038094326
 10
47.19842631164294
 20
12.39995587979275
 10
47.19622330789004
 20
12.41015831927445
 10
47.19316261088433
 20
12.4196002001159
 10
47.18926751457174
 20
12.42820970805172
 10
47.18456766439303
 20
12.43592133038569
 10
47.17909882657457
 20
12.44267620179638
 10
47.17290262440251
 20
12.44842314958965
 10
47.16602621089517
 20
12.4531182652129
 10
47.15852192446067
 20
12.45672590296347
 10
47.15044687568621
 20
12.45921844142133
 10
47.14186252116386
 20
12.46057699540882
 10
47.13283419356453
 20
12.46079162368462
 10
47.12343059930346
 20
12.45986008090904
 10
47.11372330972372
 20
12.45778967940492
 10
47.10378619718513
 20
12.45459624507464
 10
47.09369490356177
 20
12.45030428954278
 10
47.08352621151353
 20
12.44494592865096
  0
ARC
  5
5907
330
1F
100
AcDbEntity
  8
0
  6
CONTINUOUS
 62
     7
100
AcDbCircle
 10
35.11099947062737
 20
19.3181966801118
 30
0.0
 40
0.0825640766702264
100
AcDbArc
 50
65.52098731574229
 51
125.7933835447511
  0
LINE
  5
5908
330
1F
100
AcDbEntity
  8
0
  6
CONTINUOUS
 62
     7
100
AcDbLine
 10
47.13655922205429
 20
12.34084261524202
 30
0.0
 11
47.20019883081419
 21
12.37758496049066
 31
0.0
  0
ARC
  5
5909
330
1F
100
AcDbEntity
  8
0
  6
CONTINUOUS
 62
     7
100
AcDbCircle
 10
47.10423073170137
 20
12.34608521741554
 30
0.0
 40
0.0327508193187373
100
AcDbArc
 50
350.7887243065446
 51
129.2113848553692
  0
LINE
  5
590A
330
1F
100
AcDbEntity
  8
0
  6
CONTINUOUS
 62
     7
100
AcDbLine
 10
47.65027205869841
 20
10.85216535661373
 30
0.0
 11
47.71391166745829
 21
10.88890770186237
 31
0.0
  0
ARC
  5
590B
330
1F
100
AcDbEntity
  8
0
  6
CONTINUOUS
 62
     7
100
AcDbCircle
 10
47.76590931409934
 20
10.97576835465702
 30
0.0
 40
0.101235014990468
100
AcDbArc
 50
239.0938720537662
 51
257.9195916757216
  0
LINE
  5
590C
330
1F
100
AcDbEntity
  8
0
  6
CONTINUOUS
 62
     7
100
AcDbLine
 10
47.5618839778695
 20
10.90319623887344
 30
0.0
 11
47.62552358662939
 21
10.93993858412208
 31
0.0
  0
ARC
  5
590D
330
1F
100
AcDbEntity
  8
0
  6
CONTINUOUS
 62
     7
100
AcDbCircle
 10
47.72672496596839
 20
11.11079477982009
 30
0.0
 40
0.1985788477872424
100
AcDbArc
 50
170.1503518633119
 51
239.3609329699369
  0
LINE
  5
590E
330
1F
100
AcDbEntity
  8
0
  6
CONTINUOUS
 62
     7
100
AcDbLine
 10
47.71391166745829
 20
10.88890770186237
 30
0.0
 11
47.62552358662939
 21
10.93993858412208
 31
0.0
  0
LINE
  5
590F
330
1F
100
AcDbEntity
  8
0
  6
CONTINUOUS
 62
     7
100
AcDbLine
 10
47.65027205869841
 20
9.014231561445662
 30
0.0
 11
47.71391166745829
 21
9.050973906694302
 31
0.0
  0
ARC
  5
5910
330
1F
100
AcDbEntity
  8
0
  6
CONTINUOUS
 62
     7
100
AcDbCircle
 10
47.7659094140582
 20
9.137834813336766
 30
0.0
 40
0.1012352841366101
100
AcDbArc
 50
239.0938973065814
 51
257.9195664229089
  0
LINE
  5
5911
330
1F
100
AcDbEntity
  8
0
  6
CONTINUOUS
 62
     7
100
AcDbLine
 10
47.5618839778695
 20
9.065262443705378
 30
0.0
 11
47.62552358662938
 21
9.102004788954019
 31
0.0
  0
ARC
  5
5912
330
1F
100
AcDbEntity
  8
0
  6
CONTINUOUS
 62
     7
100
AcDbCircle
 10
47.72672496596841
 20
9.272860984652034
 30
0.0
 40
0.1985788477872711
100
AcDbArc
 50
170.1503518633148
 51
239.3609329699268
  0
LINE
  5
5913
330
1F
100
AcDbEntity
  8
0
  6
CONTINUOUS
 62
     7
100
AcDbLine
 10
47.71391166745829
 20
9.050973906694302
 30
0.0
 11
47.62552358662938
 21
9.102004788954019
 31
0.0
  0
ARC
  5
5914
330
1F
100
AcDbEntity
  8
0
  6
CONTINUOUS
 62
     7
100
AcDbCircle
 10
42.12394869833771
 20
10.27505209141513
 30
0.0
 40
0.2525938679912596
100
AcDbArc
 50
242.4903737049146
 51
297.5096556989677
  0
LINE
  5
5915
330
1F
100
AcDbEntity
  8
0
  6
CONTINUOUS
 62
     7
100
AcDbLine
 10
42.00727618837745
 20
10.05101819316231
 30
0.0
 11
42.00727618837745
 21
13.27781270234698
 31
0.0
  0
ARC
  5
5916
330
1F
100
AcDbEntity
  8
0
  6
CONTINUOUS
 62
     7
100
AcDbCircle
 10
42.12394869833771
 20
13.50184660059984
 30
0.0
 40
0.2525938679912933
100
AcDbArc
 50
242.4903737049183
 51
297.5096556989654
  0
LINE
  5
5917
330
1F
100
AcDbEntity
  8
0
  6
CONTINUOUS
 62
     7
100
AcDbLine
 10
42.24062132327095
 20
13.2778127622227
 30
0.0
 11
42.24062132327095
 21
10.05101825303803
 31
0.0
  0
LINE
  5
5918
330
1F
100
AcDbEntity
  8
0
  6
CONTINUOUS
 62
     7
100
AcDbLine
 10
42.17698186359103
 20
13.31455502139999
 30
0.0
 11
42.24062132327095
 21
13.2778127622227
 31
0.0
  0
LINE
  5
5919
330
1F
100
AcDbEntity
  8
0
  6
CONTINUOUS
 62
     7
100
AcDbLine
 10
42.07091575176517
 20
13.31455502139999
 30
0.0
 11
42.00727618837745
 21
13.27781270234698
 31
0.0
  0
ARC
  5
591A
330
1F
100
AcDbEntity
  8
0
  6
CONTINUOUS
 62
     7
100
AcDbCircle
 10
42.1239488076781
 20
13.4168967473912
 30
0.0
 40
0.1152663606535922
100
AcDbArc
 50
242.6069974513709
 51
297.3930025486274
  0
LINE
  5
591B
330
1F
100
AcDbEntity
  8
0
  6
CONTINUOUS
 62
     7
100
AcDbLine
 10
43.49248425397732
 20
14.00057616225453
 30
0.0
 11
42.24062132327095
 21
13.2778127622227
 31
0.0
  0
LINE
  5
591C
330
1F
100
AcDbEntity
  8
0
  6
CONTINUOUS
 62
     7
100
AcDbLine
 10
43.49248425397732
 20
14.00057616225453
 30
0.0
 11
43.49248425397731
 21
10.77378165306986
 31
0.0
  0
LINE
  5
591D
330
1F
100
AcDbEntity
  8
0
  6
CONTINUOUS
 62
     7
100
AcDbLine
 10
42.24062132327095
 20
10.05101825303803
 30
0.0
 11
43.49248425397731
 21
10.77378165306986
 31
0.0
  0
LINE
  5
591E
330
1F
100
AcDbEntity
  8
0
  6
CONTINUOUS
 62
     7
100
AcDbLine
 10
43.49248425397732
 20
14.00057616225453
 30
0.0
 11
43.42884479429739
 21
14.03731842143182
 31
0.0
  0
LINE
  5
591F
330
1F
100
AcDbEntity
  8
0
  6
CONTINUOUS
 62
     7
100
AcDbLine
 10
43.42884479429739
 20
14.03731842143182
 30
0.0
 11
42.17698186359103
 21
13.31455502139999
 31
0.0
  0
LWPOLYLINE
  5
5920
330
1F
100
AcDbEntity
  8
0
  6
CONTINUOUS
 62
     7
100
AcDbPolyline
 90
       15
 70
   128
 43
0.0
 10
41.60068977207094
 20
13.51255547925038
 10
41.59277271888364
 20
13.51661301757958
 10
41.584955225181
 20
13.51959267312092
 10
41.57733539853856
 20
13.52145720317392
 10
41.57000947979149
 20
13.52218289695177
 10
41.56306935404752
 20
13.52176065334439
 10
41.55660234327132
 20
13.52019598091841
 10
41.55068975437541
 20
13.51750839915995
 10
41.54540584214207
 20
13.51373167797745
 10
41.54081739439227
 20
13.50891335869599
 10
41.53698165782971
 20
13.50311415529994
 10
41.53394716770317
 20
13.49640687666999
 10
41.53175188106616
 20
13.48887582782587
 10
41.53042359160816
 20
13.4806158519148
 10
41.52997909999223
 20
13.47173065369116
  0
LINE
  5
5921
330
1F
100
AcDbEntity
  8
0
  6
CONTINUOUS
 62
     7
100
AcDbLine
 10
41.60068977207094
 20
13.51255547925038
 30
0.0
 11
42.00727618837745
 21
13.27781270234698
 31
0.0
  0
LINE
  5
5922
330
1F
100
AcDbEntity
  8
0
  6
CONTINUOUS
 62
     7
100
AcDbLine
 10
42.00727618837745
 20
10.05101819316231
 30
0.0
 11
41.60068977207094
 21
10.28576097006571
 31
0.0
  0
ARC
  5
5923
330
1F
100
AcDbEntity
  8
0
  6
CONTINUOUS
 62
     7
100
AcDbCircle
 10
41.68274399202266
 20
10.41478464716142
 30
0.0
 40
0.152905213328988
100
AcDbArc
 50
182.4548304381402
 51
237.5451695618589
  0
LINE
  5
5924
330
1F
100
AcDbEntity
  8
0
  6
CONTINUOUS
 62
     7
100
AcDbLine
 10
41.52997909999223
 20
10.40823544674338
 30
0.0
 11
41.52997909999223
 21
13.47173065369116
 31
0.0
  0
LWPOLYLINE
  5
5925
330
1F
100
AcDbEntity
  8
0
  6
CONTINUOUS
 62
     7
100
AcDbPolyline
 90
       69
 70
   128
 43
0.0
 10
41.81918571353352
 20
13.07123905867199
 10
41.81876196347689
 20
13.06089888034918
 10
41.81749423937207
 20
13.05113638301389
 10
41.81539311941432
 20
13.04203479392283
 10
41.81247685617581
 20
13.03367159226315
 10
41.80877033952774
 20
13.02611826964961
 10
41.80430509664022
 20
13.01943925236151
 10
41.7991190845668
 20
13.01369166183976
 10
41.79325669024441
 20
13.00892435667535
 10
41.78676790083094
 20
13.00517805236078
 10
41.77970809628978
 20
13.00248472253278
 10
41.77213742714289
 20
13.00086747922092
 10
41.76412060705533
 20
13.00033985433887
 10
41.75572608317278
 20
13.00090639844168
 10
41.74702520645928
 20
13.00256244122285
 10
41.73809243911272
 20
13.00529385201147
 10
41.72900390265579
 20
13.00907715952363
 10
41.71983717052025
 20
13.01388027037114
 10
41.71067043838473
 20
13.0196619900557
 10
41.70158190192778
 20
13.02637322048345
 10
41.69264913458125
 20
13.03395648095911
 10
41.68394846528333
 20
13.04234722545194
 10
41.6755537339852
 20
13.05147396234718
 10
41.66753691389764
 20
13.06125861370045
 10
41.65996645216633
 20
13.07161759300066
 10
41.65290664762517
 20
13.0824628829332
 10
41.6464178582117
 20
13.09370179587693
 10
41.6405554638893
 20
13.1052384109216
 10
41.63536945181589
 20
13.11697429237656
 10
41.63090420892838
 20
13.12880932803087
 10
41.62719748486471
 20
13.1406426871649
 10
41.62428122162621
 20
13.15237329955613
 10
41.62218030908404
 20
13.16390093324216
 10
41.62091258497922
 20
13.1751272722838
 10
41.6204888349226
 20
13.18595675502513
 10
41.62091258497922
 20
13.19629693334794
 10
41.62218030908404
 20
13.20605955043468
 10
41.62428122162621
 20
13.21516125927719
 10
41.62719748486471
 20
13.22352434118542
 10
41.63090420892838
 20
13.23107754404751
 10
41.63536945181589
 20
13.23775656133561
 10
41.6405554638893
 20
13.24350427160881
 10
41.6464178582117
 20
13.24827157677322
 10
41.65290664762517
 20
13.25201776133634
 10
41.65996645216633
 20
13.25471109116434
 10
41.66753691389764
 20
13.2563285739791
 10
41.6755537339852
 20
13.25685619886115
 10
41.68394846528333
 20
13.25628953500689
 10
41.69264913458125
 20
13.25463349222572
 10
41.70158190192778
 20
13.25190220118855
 10
41.71067043838473
 20
13.24811877392494
 10
41.71983717052025
 20
13.24331578282888
 10
41.72900390265579
 20
13.23753394339287
 10
41.73809243911272
 20
13.23082283271657
 10
41.74702520645928
 20
13.22323945248946
 10
41.75572608317278
 20
13.21484870799663
 10
41.76412060705533
 20
13.20572209085283
 10
41.77213742714289
 20
13.19593743949958
 10
41.77970809628978
 20
13.18557822069646
 10
41.78676790083094
 20
13.17473293076392
 10
41.79325669024441
 20
13.16349413757164
 10
41.79911908456682
 20
13.15195752252697
 10
41.80430509664022
 20
13.14022152132056
 10
41.80877033952774
 20
13.12838648566625
 10
41.81247685617581
 20
13.11655324628367
 10
41.81539311941432
 20
13.10482275364389
 10
41.81749423937207
 20
13.09329500020641
 10
41.81876196347689
 20
13.08206854141332
 10
41.81918571353352
 20
13.07123905867199
  0
LINE
  5
5926
330
1F
100
AcDbEntity
  8
0
  6
CONTINUOUS
 62
     7
100
AcDbLine
 10
41.66432933545866
 20
13.5492977983034
 30
0.0
 11
41.60068977207094
 21
13.51255547925038
 31
0.0
  0
LINE
  5
5927
330
1F
100
AcDbEntity
  8
0
  6
CONTINUOUS
 62
     7
100
AcDbLine
 10
41.66432933545866
 20
13.5492977983034
 30
0.0
 11
42.07091575176517
 21
13.31455502139999
 31
0.0
  0
ARC
  5
5928
330
1F
100
AcDbEntity
  8
0
  6
CONTINUOUS
 62
     7
100
AcDbCircle
 10
47.85846217962428
 20
7.918120194838905
 30
0.0
 40
0.0491493771605486
100
AcDbArc
 50
304.9169116960109
 51
6.396885798396836
  0
ARC
  5
5929
330
1F
100
AcDbEntity
  8
0
  6
CONTINUOUS
 62
     7
100
AcDbCircle
 10
41.63487370578899
 20
13.50679450409144
 30
0.0
 40
0.0517123209506659
100
AcDbArc
 50
55.27726959278463
 51
113.4083893463143
  0
LWPOLYLINE
  5
592A
330
1F
100
AcDbEntity
  8
0
  6
CONTINUOUS
 62
     7
100
AcDbPolyline
 90
       15
 70
   128
 43
0.0
 10
34.89654061869766
 20
15.10060127735262
 10
34.88906823861494
 20
15.09577360248925
 10
34.88257900844334
 20
15.09049326715058
 10
34.87715464992654
 20
15.08482661363908
 10
34.87286316945212
 20
15.07884499884912
 10
34.86975857285512
 20
15.07262367159714
 10
34.86788039873296
 20
15.06624054516932
 10
34.86725148872784
 20
15.05977634701088
 10
34.86788024317127
 20
15.05331208897671
 10
34.86975844322037
 20
15.04692924695859
 10
34.87286288425568
 20
15.04070782989302
 10
34.87715470178045
 20
15.0347259905691
 10
34.88257913807808
 20
15.02905941190226
 10
34.88906839417662
 20
15.02377912147038
 10
34.89654082611325
 20
15.01895150648272
  0
LINE
  5
592B
330
1F
100
AcDbEntity
  8
0
  6
CONTINUOUS
 62
     7
100
AcDbLine
 10
35.0627107136388
 20
15.19653962639816
 30
0.0
 11
34.89654061869766
 21
15.10060127735262
 31
0.0
  0
LINE
  5
592C
330
1F
100
AcDbEntity
  8
0
  6
CONTINUOUS
 62
     7
100
AcDbLine
 10
46.91735611657238
 20
8.160380213775837
 30
0.0
 11
47.08352621151352
 21
8.25631856282137
 31
0.0
  0
ARC
  5
592D
330
1F
100
AcDbEntity
  8
0
  6
CONTINUOUS
 62
     7
100
AcDbCircle
 10
46.84664545558611
 20
8.295954661333794
 30
0.0
 40
0.1529066002753312
100
AcDbArc
 50
242.4550091547465
 51
297.5448938126275
  0
LINE
  5
592E
330
1F
100
AcDbEntity
  8
0
  6
CONTINUOUS
 62
     7
100
AcDbLine
 10
34.89654082611325
 20
15.01895150648272
 30
0.0
 11
37.35356229618865
 21
13.60038949933001
 31
0.0
  0
LINE
  5
592F
330
1F
100
AcDbEntity
  8
0
  6
CONTINUOUS
 62
     7
100
AcDbLine
 10
38.09584545706611
 20
13.17183211658248
 30
0.0
 11
41.52997902221137
 21
11.18913417831273
 31
0.0
  0
LINE
  5
5930
330
1F
100
AcDbEntity
  8
0
  6
CONTINUOUS
 62
     7
100
AcDbLine
 10
42.87093737277289
 20
10.41493151364397
 30
0.0
 11
46.77593456499936
 21
8.160380333527285
 31
0.0
  0
LINE
  5
5931
330
1F
100
AcDbEntity
  8
0
  6
CONTINUOUS
 62
     7
100
AcDbLine
 10
46.77593456499936
 20
8.086895575669814
 30
0.0
 11
46.77593456499936
 21
8.160380333527285
 31
0.0
  0
LINE
  5
5932
330
1F
100
AcDbEntity
  8
0
  6
CONTINUOUS
 62
     7
100
AcDbLine
 10
46.91735611657238
 20
8.160380213775837
 30
0.0
 11
46.91735611657238
 21
8.086895455918366
 31
0.0
  0
ARC
  5
5933
330
1F
100
AcDbEntity
  8
0
  6
CONTINUOUS
 62
     7
100
AcDbCircle
 10
46.84664545558611
 20
8.222469903476323
 30
0.0
 40
0.1529066002753312
100
AcDbArc
 50
242.4550091547465
 51
297.5448938126275
  0
LINE
  5
5934
330
1F
100
AcDbEntity
  8
0
  6
CONTINUOUS
 62
     7
100
AcDbLine
 10
34.89654082611325
 20
15.01895150648272
 30
0.0
 11
34.89654082611325
 21
14.94546674862525
 31
0.0
  0
LINE
  5
5935
330
1F
100
AcDbEntity
  8
0
  6
CONTINUOUS
 62
     7
100
AcDbLine
 10
34.89654082611325
 20
14.94546674862525
 30
0.0
 11
37.35356229618865
 21
13.52690474147253
 31
0.0
  0
LINE
  5
5936
330
1F
100
AcDbEntity
  8
0
  6
CONTINUOUS
 62
     7
100
AcDbLine
 10
38.03220578997059
 20
13.13508973765374
 30
0.0
 11
41.52997902221137
 21
11.11564942045525
 31
0.0
  0
LINE
  5
5937
330
1F
100
AcDbEntity
  8
0
  6
CONTINUOUS
 62
     7
100
AcDbLine
 10
42.80729791309297
 20
10.37818901496378
 30
0.0
 11
46.77593456499936
 21
8.086895575669814
 31
0.0
  0
LINE
  5
5938
330
1F
100
AcDbEntity
  8
0
  6
CONTINUOUS
 62
     7
100
AcDbLine
 10
47.08352621151352
 20
8.25631856282137
 30
0.0
 11
47.08352621151352
 21
8.182833804963898
 31
0.0
  0
LINE
  5
5939
330
1F
100
AcDbEntity
  8
0
  6
CONTINUOUS
 62
     7
100
AcDbLine
 10
46.91735611657238
 20
8.086895455918366
 30
0.0
 11
47.08352621151352
 21
8.182833804963898
 31
0.0
  0
ARC
  5
593A
330
1F
100
AcDbEntity
  8
0
  6
CONTINUOUS
 62
     7
100
AcDbCircle
 10
47.02141281698048
 20
8.353416997543135
 30
0.0
 40
0.115265692232488
100
AcDbArc
 50
302.6068488152852
 51
357.393114797409
  0
ARC
  5
593B
330
1F
100
AcDbEntity
  8
0
  6
CONTINUOUS
 62
     7
100
AcDbCircle
 10
35.00059731910578
 20
15.2936380611199
 30
0.0
 40
0.1152656922324573
100
AcDbArc
 50
302.6068488152824
 51
357.3931147974192
  0
ARC
  5
593C
330
1F
100
AcDbEntity
  8
0
  6
CONTINUOUS
 62
     7
100
AcDbCircle
 10
46.94219379105123
 20
8.400359780818583
 30
0.0
 40
0.2594077933394891
100
AcDbArc
 50
303.0128555494468
 51
345.9134556570613
  0
ARC
  5
593D
330
1F
100
AcDbEntity
  8
0
  6
CONTINUOUS
 62
     7
100
AcDbCircle
 10
43.54633833213351
 20
13.80846122022163
 30
0.0
 40
0.2572554177835906
100
AcDbArc
 50
73.89807121704105
 51
117.1756175764526
  0
ARC
  5
593E
330
1F
100
AcDbEntity
  8
0
  6
CONTINUOUS
 62
     7
100
AcDbCircle
 10
43.54551726192839
 20
13.89823456925494
 30
0.0
 40
0.1152662205072779
100
AcDbArc
 50
62.60695990244458
 51
117.3930117963435
  0
ARC
  5
593F
330
1F
100
AcDbEntity
  8
0
  6
CONTINUOUS
 62
     7
100
AcDbCircle
 10
43.54551726192839
 20
10.67144006007026
 30
0.0
 40
0.1152662205072947
100
AcDbArc
 50
62.60695990244844
 51
117.3930117963426
  0
LINE
  5
5940
330
1F
100
AcDbEntity
  8
0
  6
CONTINUOUS
 62
     7
100
AcDbLine
 10
41.52997904813832
 20
11.9680718601616
 30
0.0
 11
38.75767566138553
 21
13.56866196677864
 31
0.0
  0
LINE
  5
5941
330
1F
100
AcDbEntity
  8
0
  6
CONTINUOUS
 62
     7
100
AcDbLine
 10
37.80847605306735
 20
15.70199109074169
 30
0.0
 11
37.87211561645508
 21
15.7387334097947
 31
0.0
  0
ARC
  5
5942
330
1F
100
AcDbEntity
  8
0
  6
CONTINUOUS
 62
     7
100
AcDbCircle
 10
37.79006139650336
 20
15.60970973269899
 30
0.0
 40
0.152905213328988
100
AcDbArc
 50
2.454830438139485
 51
57.54516956185815
  0
LINE
  5
5943
330
1F
100
AcDbEntity
  8
0
  6
CONTINUOUS
 62
     7
100
AcDbLine
 10
37.94282628853379
 20
15.61625893311703
 30
0.0
 11
37.87918672514607
 21
15.57951661406401
 31
0.0
  0
ARC
  5
5944
330
1F
100
AcDbEntity
  8
0
  6
CONTINUOUS
 62
     7
100
AcDbCircle
 10
37.72642183311565
 20
15.57296741364598
 30
0.0
 40
0.1529052133289815
100
AcDbArc
 50
2.454830438139077
 51
57.54516956185994
  0
LWPOLYLINE
  5
5945
330
1F
100
AcDbEntity
  8
0
  6
CONTINUOUS
 62
     7
100
AcDbPolyline
 90
       15
 70
   128
 43
0.0
 10
37.80847605306735
 20
12.47519658155702
 10
37.81639310625466
 20
12.47113904322782
 10
37.8242105999573
 20
12.46815938768648
 10
37.83183042659974
 20
12.46629485763348
 10
37.83915634534681
 20
12.46556916385563
 10
37.84609647109078
 20
12.46599140746301
 10
37.85256348186697
 20
12.46755607988898
 10
37.8584760707629
 20
12.47024366164745
 10
37.86375998299623
 20
12.47402038282994
 10
37.86834843074602
 20
12.47883870211141
 10
37.87218416730858
 20
12.48463790550746
 10
37.87521865743513
 20
12.49134518413741
 10
37.87741394407214
 20
12.49887623298152
 10
37.87874223353013
 20
12.5071362088926
 10
37.87918672514607
 20
12.51602140711624
  0
LINE
  5
5946
330
1F
100
AcDbEntity
  8
0
  6
CONTINUOUS
 62
     7
100
AcDbLine
 10
37.80847605306735
 20
12.47519658155702
 30
0.0
 11
37.40188963676086
 21
12.70993935846042
 31
0.0
  0
LINE
  5
5947
330
1F
100
AcDbEntity
  8
0
  6
CONTINUOUS
 62
     7
100
AcDbLine
 10
37.40188963676087
 20
15.93673386764509
 30
0.0
 11
37.40188963676086
 21
12.70993935846042
 31
0.0
  0
LINE
  5
5948
330
1F
100
AcDbEntity
  8
0
  6
CONTINUOUS
 62
     7
100
AcDbLine
 10
37.40188963676087
 20
15.93673386764509
 30
0.0
 11
37.80847605306735
 21
15.70199109074169
 31
0.0
  0
LINE
  5
5949
330
1F
100
AcDbEntity
  8
0
  6
CONTINUOUS
 62
     7
100
AcDbLine
 10
37.87918672514607
 20
15.57951661406401
 30
0.0
 11
37.87918672514607
 21
12.51602140711624
 31
0.0
  0
LWPOLYLINE
  5
594A
330
1F
100
AcDbEntity
  8
0
  6
CONTINUOUS
 62
     7
100
AcDbPolyline
 90
       69
 70
   128
 43
0.0
 10
37.7886769902157
 20
12.80179530578226
 10
37.78825324015907
 20
12.79145512745946
 10
37.78698551605426
 20
12.78169251037272
 10
37.78488460351209
 20
12.77259080153021
 10
37.7819683402736
 20
12.76422771962198
 10
37.77826161620992
 20
12.75667451675989
 10
37.77379637332241
 20
12.74999549947179
 10
37.76861036124899
 20
12.74424778919859
 10
37.76274796692659
 20
12.73948048403418
 10
37.75625917751313
 20
12.73573429947106
 10
37.74919937297197
 20
12.73304096964306
 10
37.74162891124067
 20
12.7314234868283
 10
37.7336120911531
 20
12.73089586194625
 10
37.72521735985496
 20
12.7314625258005
 10
37.71651669055705
 20
12.73311856858168
 10
37.70758392321051
 20
12.73584985961885
 10
37.69849538675357
 20
12.73963328688246
 10
37.68932865461803
 20
12.74443627797851
 10
37.68016192248252
 20
12.75021811741453
 10
37.67107338602557
 20
12.75692922809083
 10
37.66214061867902
 20
12.76451260831794
 10
37.65343974196552
 20
12.77290335281077
 10
37.64504521808298
 20
12.78202996995457
 10
37.6370283979954
 20
12.79181462130782
 10
37.62945772884852
 20
12.80217384011094
 10
37.62239792430735
 20
12.81301913004348
 10
37.61590913489389
 20
12.82425792323576
 10
37.61004674057149
 20
12.83579453828043
 10
37.60486072849808
 20
12.84753053948683
 10
37.60039548561056
 20
12.85936557514115
 10
37.59668896896249
 20
12.87119881452373
 10
37.59377270572398
 20
12.88292930716351
 10
37.59167158576623
 20
12.89445706060099
 10
37.59040386166142
 20
12.90568351939408
 10
37.58998011160478
 20
12.91651300213541
 10
37.59040386166142
 20
12.92685318045822
 10
37.59167158576623
 20
12.93661567779351
 10
37.59377270572398
 20
12.94571726688457
 10
37.59668896896249
 20
12.95408046854425
 10
37.60039548561056
 20
12.96163379115778
 10
37.60486072849808
 20
12.96831280844589
 10
37.61004674057149
 20
12.97406039896764
 10
37.61590913489389
 20
12.97882770413204
 10
37.62239792430735
 20
12.98257400844661
 10
37.62945772884852
 20
12.98526733827462
 10
37.6370283979954
 20
12.98688458158648
 10
37.64504521808298
 20
12.98741220646853
 10
37.65343974196552
 20
12.98684566236572
 10
37.66214061867902
 20
12.98518961958455
 10
37.67107338602557
 20
12.98245820879593
 10
37.68016192248252
 20
12.97867490128377
 10
37.68932865461803
 20
12.97387179043627
 10
37.69849538675357
 20
12.9680900707517
 10
37.70758392321051
 20
12.96137884032395
 10
37.71651669055705
 20
12.95379557984829
 10
37.72521735985496
 20
12.94540483535546
 10
37.7336120911531
 20
12.93627809846021
 10
37.74162891124067
 20
12.92649344710695
 10
37.74919937297197
 20
12.91613446780674
 10
37.75625917751313
 20
12.9052891778742
 10
37.76274796692659
 20
12.89405026493047
 10
37.76861036124899
 20
12.8825136498858
 10
37.77379637332241
 20
12.87077776843084
 10
37.77826161620992
 20
12.85894273277653
 10
37.7819683402736
 20
12.8471093736425
 10
37.78488460351209
 20
12.83537876125127
 10
37.78698551605426
 20
12.82385112756523
 10
37.78825324015907
 20
12.8126247885236
 10
37.7886769902157
 20
12.80179530578226
  0
LINE
  5
594B
330
1F
100
AcDbEntity
  8
0
  6
CONTINUOUS
 62
     7
100
AcDbLine
 10
37.87918672514607
 20
12.51602140711624
 30
0.0
 11
37.94282628853379
 21
12.55276372616926
 31
0.0
  0
LINE
  5
594C
330
1F
100
AcDbEntity
  8
0
  6
CONTINUOUS
 62
     7
100
AcDbLine
 10
37.94282628853379
 20
15.61625893311703
 30
0.0
 11
37.94282628853379
 21
12.55276372616926
 31
0.0
  0
LINE
  5
594D
330
1F
100
AcDbEntity
  8
0
  6
CONTINUOUS
 62
     7
100
AcDbLine
 10
37.46552920014858
 20
15.9734761866981
 30
0.0
 11
37.40188963676087
 21
15.93673386764509
 31
0.0
  0
LINE
  5
594E
330
1F
100
AcDbEntity
  8
0
  6
CONTINUOUS
 62
     7
100
AcDbLine
 10
37.46552920014858
 20
15.9734761866981
 30
0.0
 11
37.87211561645508
 21
15.7387334097947
 31
0.0
  0
LWPOLYLINE
  5
594F
330
1F
100
AcDbEntity
  8
0
  6
CONTINUOUS
 62
     7
100
AcDbPolyline
 90
       19
 70
   128
 43
0.0
 10
37.40188974046866
 20
16.07145574408995
 10
37.3921648529722
 20
16.06532854147649
 10
37.38340206270417
 20
16.05873532610123
 10
37.37566815748553
 20
16.05172615406963
 10
37.36902152480575
 20
16.04435461415491
 10
37.36351298148512
 20
16.03667663028349
 10
37.35918442547343
 20
16.02875064116226
 10
37.3560690432656
 20
16.02063700152123
 10
37.35419006540801
 20
16.01239750310784
 10
37.35356221840781
 20
16.00409477592966
 10
37.35419016911581
 20
15.9957921086272
 10
37.3560690432656
 20
15.98755255033808
 10
37.35918452918123
 20
15.97943897057279
 10
37.36351308519292
 20
15.97151298145155
 10
37.36902152480575
 20
15.96383493770441
 10
37.37566815748553
 20
15.95646339778969
 10
37.38340216641196
 20
15.94945428563382
 10
37.39216506038779
 20
15.94286101038283
 10
37.40188963676087
 20
15.93673386764509
  0
ARC
  5
5950
330
1F
100
AcDbEntity
  8
0
  6
CONTINUOUS
 62
     7
100
AcDbCircle
 10
37.43574338307099
 20
12.78524386302731
 30
0.0
 40
0.0825641844100387
100
AcDbArc
 50
185.5210337381395
 51
245.7933158011262
  0
LINE
  5
5951
330
1F
100
AcDbEntity
  8
0
  6
CONTINUOUS
 62
     7
100
AcDbLine
 10
37.46552920014858
 20
16.03471348491266
 30
0.0
 11
37.40188974046866
 21
16.07145574408995
 31
0.0
  0
ARC
  5
5952
330
1F
100
AcDbEntity
  8
0
  6
CONTINUOUS
 62
     7
100
AcDbCircle
 10
37.4771533658331
 20
16.00409483580539
 30
0.0
 40
0.0327509221399322
100
AcDbArc
 50
110.7889314161171
 51
249.2110685838825
  0
LINE
  5
5953
330
1F
100
AcDbEntity
  8
0
  6
CONTINUOUS
 62
     7
100
AcDbLine
 10
37.40188974046866
 20
16.07145574408995
 30
0.0
 11
38.65375267117502
 21
16.79421914412178
 31
0.0
  0
LINE
  5
5954
330
1F
100
AcDbEntity
  8
0
  6
CONTINUOUS
 62
     7
100
AcDbLine
 10
38.65375267117502
 20
16.79421914412178
 30
0.0
 11
38.71739213085494
 21
16.75747688494449
 31
0.0
  0
LINE
  5
5955
330
1F
100
AcDbEntity
  8
0
  6
CONTINUOUS
 62
     7
100
AcDbLine
 10
37.46552920014858
 20
16.03471348491266
 30
0.0
 11
38.71739213085494
 21
16.75747688494449
 31
0.0
  0
LINE
  5
5956
330
1F
100
AcDbEntity
  8
0
  6
CONTINUOUS
 62
     7
100
AcDbLine
 10
38.71739213085493
 20
13.53068237575982
 30
0.0
 11
38.71739213085494
 21
16.75747688494449
 31
0.0
  0
LINE
  5
5957
330
1F
100
AcDbEntity
  8
0
  6
CONTINUOUS
 62
     7
100
AcDbLine
 10
38.71739213085493
 20
13.53068237575982
 30
0.0
 11
37.94282628853379
 21
13.08348657819062
 31
0.0
  0
ARC
  5
5958
330
1F
100
AcDbEntity
  8
0
  6
CONTINUOUS
 62
     7
100
AcDbCircle
 10
38.68249434497117
 20
13.606735953834
 30
0.0
 40
0.0836779672164324
100
AcDbArc
 50
294.6483981187152
 51
354.0372310207891
  0
LWPOLYLINE
  5
5959
330
1F
100
AcDbEntity
  8
0
  6
CONTINUOUS
 62
     7
100
AcDbPolyline
 90
       19
 70
   128
 43
0.0
 10
38.71739213085494
 20
16.75747688494449
 10
38.72711695353403
 20
16.76360405013562
 10
38.73587975028381
 20
16.77019726925312
 10
38.74361369439286
 20
16.77720646373811
 10
38.75026035948133
 20
16.784578022364
 10
38.75576889632022
 20
16.79225600249319
 10
38.76009739399627
 20
16.80018195793432
 10
38.76321282157627
 20
16.80829562377098
 10
38.76509174433909
 20
16.81653509037539
 10
38.76571958161669
 20
16.82483781194022
 10
38.76509169896692
 20
16.83314051853613
 10
38.76321279726976
 20
16.84138006092075
 10
38.76009732593803
 20
16.84949364910607
 10
38.75576879018177
 20
16.85741964992179
 10
38.75026028575156
 20
16.8650976562466
 10
38.74361372558622
 20
16.87246923802755
 10
38.73587965569095
 20
16.87947831498304
 10
38.72711701688289
 20
16.88607149805231
 10
38.71739223456274
 20
16.89219876138935
  0
LINE
  5
595A
330
1F
100
AcDbEntity
  8
0
  6
CONTINUOUS
 62
     7
100
AcDbLine
 10
38.65375262580286
 20
16.85545641614071
 30
0.0
 11
38.71739223456274
 21
16.89219876138935
 31
0.0
  0
ARC
  5
595B
330
1F
100
AcDbEntity
  8
0
  6
CONTINUOUS
 62
     7
100
AcDbCircle
 10
38.64212851139946
 20
16.82483777151864
 30
0.0
 40
0.0327508997457441
100
AcDbArc
 50
290.7889352322571
 51
69.21114967135942
  0
ARC
  5
595C
330
1F
100
AcDbEntity
  8
0
  6
CONTINUOUS
 62
     7
100
AcDbCircle
 10
37.89398224217621
 20
12.54728782456603
 30
0.0
 40
0.049150039297541
100
AcDbArc
 50
304.9176265024316
 51
6.396714558469531
  0
ARC
  5
595D
330
1F
100
AcDbEntity
  8
0
  6
CONTINUOUS
 62
     7
100
AcDbCircle
 10
34.9162203771683
 20
19.17913207249634
 30
0.0
 40
0.0491497954652537
100
AcDbArc
 50
184.9174254932065
 51
246.3968476219234
  0
LINE
  5
595E
330
1F
100
AcDbEntity
  8
0
  6
CONTINUOUS
 62
     7
100
AcDbLine
 10
35.05210405708406
 20
19.45252799406813
 30
0.0
 11
35.11574366584394
 21
19.48927033931677
 31
0.0
  0
LINE
  5
595F
330
1F
100
AcDbEntity
  8
0
  6
CONTINUOUS
 62
     7
100
AcDbLine
 10
35.11574366584394
 20
19.48927033931677
 30
0.0
 11
35.11574366584394
 21
19.40106381738767
 31
0.0
  0
LINE
  5
5960
330
1F
100
AcDbEntity
  8
0
  6
CONTINUOUS
 62
     7
100
AcDbLine
 10
34.54298749164665
 20
19.8199512706696
 30
0.0
 11
34.47934788288676
 21
19.78320892542096
 31
0.0
  0
LINE
  5
5961
330
1F
100
AcDbEntity
  8
0
  6
CONTINUOUS
 62
     7
100
AcDbLine
 10
34.54298749164665
 20
19.8199512706696
 30
0.0
 11
35.11574366584394
 21
19.48927033931677
 31
0.0
  0
ARC
  5
5962
330
1F
100
AcDbEntity
  8
0
  6
CONTINUOUS
 62
     7
100
AcDbCircle
 10
34.51353186612704
 20
19.77744801835291
 30
0.0
 40
0.0517122841522941
100
AcDbArc
 50
55.27724693169112
 51
113.4084120073966
  0
LINE
  5
5963
330
1F
100
AcDbEntity
  8
0
  6
CONTINUOUS
 62
     7
100
AcDbLine
 10
34.69041896836436
 20
18.33454002697608
 30
0.0
 11
34.75405857712425
 21
18.37128237222472
 31
0.0
  0
ARC
  5
5964
330
1F
100
AcDbEntity
  8
0
  6
CONTINUOUS
 62
     7
100
AcDbCircle
 10
34.80605622376525
 20
18.45814302501923
 30
0.0
 40
0.1012350149903149
100
AcDbArc
 50
239.0938720537519
 51
257.919591675736
  0
LINE
  5
5965
330
1F
100
AcDbEntity
  8
0
  6
CONTINUOUS
 62
     7
100
AcDbLine
 10
34.60203088753547
 20
18.38557090923581
 30
0.0
 11
34.66567049629535
 21
18.42231325448445
 31
0.0
  0
ARC
  5
5966
330
1F
100
AcDbEntity
  8
0
  6
CONTINUOUS
 62
     7
100
AcDbCircle
 10
34.76687187563435
 20
18.59316945018245
 30
0.0
 40
0.1985788477872443
100
AcDbArc
 50
170.1503518633115
 51
239.3609329699347
  0
LINE
  5
5967
330
1F
100
AcDbEntity
  8
0
  6
CONTINUOUS
 62
     7
100
AcDbLine
 10
34.75405857712425
 20
18.37128237222472
 30
0.0
 11
34.66567049629535
 21
18.42231325448445
 31
0.0
  0
LINE
  5
5968
330
1F
100
AcDbEntity
  8
0
  6
CONTINUOUS
 62
     7
100
AcDbLine
 10
34.69041896836436
 20
16.49660623180802
 30
0.0
 11
34.75405857712424
 21
16.53334857705666
 31
0.0
  0
ARC
  5
5969
330
1F
100
AcDbEntity
  8
0
  6
CONTINUOUS
 62
     7
100
AcDbCircle
 10
34.80605632372419
 20
16.62020948369919
 30
0.0
 40
0.1012352841366845
100
AcDbArc
 50
239.0938973065879
 51
257.9195664229055
  0
LINE
  5
596A
330
1F
100
AcDbEntity
  8
0
  6
CONTINUOUS
 62
     7
100
AcDbLine
 10
34.60203088753546
 20
16.54763711406774
 30
0.0
 11
34.66567049629535
 21
16.58437945931638
 31
0.0
  0
ARC
  5
596B
330
1F
100
AcDbEntity
  8
0
  6
CONTINUOUS
 62
     7
100
AcDbCircle
 10
34.76687187563437
 20
16.7552356550144
 30
0.0
 40
0.1985788477872736
100
AcDbArc
 50
170.1503518633177
 51
239.3609329699304
  0
LINE
  5
596C
330
1F
100
AcDbEntity
  8
0
  6
CONTINUOUS
 62
     7
100
AcDbLine
 10
34.75405857712424
 20
16.53334857705666
 30
0.0
 11
34.66567049629535
 21
16.58437945931638
 31
0.0
  0
ARC
  5
596D
330
1F
100
AcDbEntity
  8
0
  6
CONTINUOUS
 62
     7
100
AcDbCircle
 10
34.91622037716824
 20
14.9905047066667
 30
0.0
 40
0.04914979546518
100
AcDbArc
 50
184.9174254931489
 51
246.396847621958
  0
LINE
  5
596E
330
1F
100
AcDbEntity
  8
0
  6
CONTINUOUS
 62
     8
100
AcDbLine
 10
47.13655922205429
 20
8.348174364196133
 30
0.0
 11
43.21388420624646
 21
10.61293184051621
 31
0.0
  0
LINE
  5
596F
330
1F
100
AcDbEntity
  8
0
  6
CONTINUOUS
 62
     8
100
AcDbLine
 10
41.52997905462006
 20
11.5851349330975
 30
0.0
 11
38.43879208312408
 21
13.36983256320617
 31
0.0
  0
LINE
  5
5970
330
1F
100
AcDbEntity
  8
0
  6
CONTINUOUS
 62
     8
100
AcDbLine
 10
37.35356217303564
 20
13.99639034392836
 30
0.0
 11
35.11574372417957
 21
15.28839542777292
 31
0.0
  0
LINE
  5
5971
330
1F
100
AcDbEntity
  8
0
  6
CONTINUOUS
 62
     8
100
AcDbLine
 10
47.08352595872577
 20
12.37146138410075
 30
0.0
 11
47.13655922205429
 21
12.34084261524202
 31
0.0
  0
LINE
  5
5972
330
1F
100
AcDbEntity
  8
0
  6
CONTINUOUS
 62
     8
100
AcDbLine
 10
38.65375262580286
 20
16.85545641614071
 30
0.0
 11
38.65375262580286
 21
16.79421911792615
 31
0.0
  0
LINE
  5
5973
330
1F
100
AcDbEntity
  8
0
  6
CONTINUOUS
 62
     8
100
AcDbLine
 10
35.0627107136388
 20
15.19653962639816
 30
0.0
 11
37.35356242582339
 21
13.87391577369487
 31
0.0
  0
LINE
  5
5974
330
1F
100
AcDbEntity
  8
0
  6
CONTINUOUS
 62
     8
100
AcDbLine
 10
38.33272622408597
 20
13.30859529118723
 30
0.0
 11
41.52997904813832
 21
11.46266051255331
 31
0.0
  0
LINE
  5
5975
330
1F
100
AcDbEntity
  8
0
  6
CONTINUOUS
 62
     8
100
AcDbLine
 10
43.10781813979274
 20
10.55169468824873
 30
0.0
 11
47.08352621151352
 21
8.25631856282137
 31
0.0
  0
LINE
  5
5976
330
1F
100
AcDbEntity
  8
0
  6
CONTINUOUS
 62
     8
100
AcDbLine
 10
47.13655922205429
 20
8.348174364196133
 30
0.0
 11
47.16837902643423
 21
8.366545536820453
 31
0.0
  0
LINE
  5
5977
330
1F
100
AcDbEntity
  8
0
  6
CONTINUOUS
 62
     8
100
AcDbLine
 10
43.59855032043102
 20
14.0005761360589
 30
0.0
 11
43.63037012481096
 21
14.01894730868322
 31
0.0
  0
LINE
  5
5978
330
1F
100
AcDbEntity
  8
0
  6
CONTINUOUS
 62
     8
100
AcDbLine
 10
43.59855032043101
 20
10.7002969887682
 30
0.0
 11
43.63037012481096
 21
10.71866816139252
 31
0.0
  0
LINE
  5
5979
330
1F
100
AcDbEntity
  8
0
  6
CONTINUOUS
 62
     8
100
AcDbLine
 10
37.46552920014858
 20
15.9734761866981
 30
0.0
 11
37.46552920014858
 21
16.03471348491266
 31
0.0
  0
LINE
  5
597A
330
1F
100
AcDbEntity
  8
0
  6
CONTINUOUS
 62
     8
100
AcDbLine
 10
35.05210405708405
 20
15.32513780670166
 30
0.0
 11
35.08392386146399
 21
15.34350897932598
 31
0.0
  0
DIMENSION
  5
59B8
330
1F
100
AcDbEntity
  8
DIM
100
AcDbDimension
  2
*D73
 10
29.99326559754336
 20
11.89480287559939
 30
0.0
 11
28.24326559754336
 21
11.89480287559939
 31
0.0
 70
    32
  3
STANDARD
100
AcDbAlignedDimension
 13
32.09366713352558
 23
14.04537886073731
 33
0.0
 14
29.99326559754336
 24
13.41137889142572
 34
0.0
100
AcDbRotatedDimension
1001
ACAD
1000
DSTYLE
1002
{
1070
    41
1040
0.25
1070
    42
1040
0.25
1070
    43
1040
0.25
1070
    44
1040
0.25
1070
    78
1070
     4
1070
    79
1070
     1
1070
   140
1040
0.25
1070
   141
1040
0.25
1070
   147
1040
0.25
1070
   170
1070
     1
1070
   179
1070
     1
1070
   271
1070
     3
1070
   272
1070
     3
1070
   285
1070
     4
1002
}
  0
DIMENSION
  5
59C6
330
1F
100
AcDbEntity
  8
DIM
100
AcDbDimension
  2
*D74
 10
24.90371910155829
 20
10.76673451594621
 30
0.0
 11
15.40371903303642
 21
10.76673451594621
 31
0.0
 70
    32
  3
STANDARD
100
AcDbAlignedDimension
 13
5.903718964514542
 23
13.51137888288395
 33
0.0
 14
24.90371910155829
 24
13.51137888288395
 34
0.0
100
AcDbRotatedDimension
1001
ACAD
1000
DSTYLE
1002
{
1070
    41
1040
0.25
1070
    42
1040
0.25
1070
    43
1040
0.25
1070
    44
1040
0.25
1070
    78
1070
     4
1070
    79
1070
     1
1070
   140
1040
0.25
1070
   141
1040
0.25
1070
   147
1040
0.25
1070
   170
1070
     1
1070
   179
1070
     1
1070
   271
1070
     3
1070
   272
1070
     3
1070
   285
1070
     4
1002
}
  0
DIMENSION
  5
59D5
330
1F
100
AcDbEntity
  8
DIM
100
AcDbDimension
  2
*D75
 10
24.56771903639305
 20
11.63108521686561
 30
0.0
 11
15.40371903303642
 21
11.63108521686561
 31
0.0
 70
    32
  3
STANDARD
100
AcDbAlignedDimension
 13
6.239719029679785
 23
14.75537885875674
 33
0.0
 14
24.56771903639305
 24
14.75537885875674
 34
0.0
100
AcDbRotatedDimension
1001
ACAD
1000
DSTYLE
1002
{
1070
    41
1040
0.25
1070
    42
1040
0.25
1070
    43
1040
0.25
1070
    44
1040
0.25
1070
    78
1070
     4
1070
    79
1070
     1
1070
   140
1040
0.25
1070
   141
1040
0.25
1070
   147
1040
0.25
1070
   170
1070
     1
1070
   179
1070
     1
1070
   271
1070
     3
1070
   272
1070
     3
1070
   285
1070
     4
1002
}
  0
DIMENSION
  5
59E3
330
1F
100
AcDbEntity
  8
DIM
100
AcDbDimension
  2
*D76
 10
5.903718964514542
 20
11.63108521686561
 30
0.0
 11
4.070385631181209
 21
11.63108521686561
 31
0.0
 70
    32
  3
STANDARD
100
AcDbAlignedDimension
 13
6.239719029679785
 23
14.75537885875674
 33
0.0
 14
5.903718964514542
 24
13.51137888288395
 34
0.0
100
AcDbRotatedDimension
1001
ACAD
1000
DSTYLE
1002
{
1070
    41
1040
0.25
1070
    42
1040
0.25
1070
    43
1040
0.25
1070
    44
1040
0.25
1070
    78
1070
     4
1070
    79
1070
     1
1070
   140
1040
0.25
1070
   141
1040
0.25
1070
   147
1040
0.25
1070
   170
1070
     1
1070
   179
1070
     1
1070
   271
1070
     3
1070
   272
1070
     3
1070
   285
1070
     4
1002
}
  0
DIMENSION
  5
59F1
330
1F
100
AcDbEntity
  8
DIM
100
AcDbDimension
  2
*D77
 10
3.74913110542383
 20
13.41137889142572
 30
0.0
 11
3.749131105423828
 21
14.15362888262113
 31
0.0
 70
   160
  3
STANDARD
100
AcDbAlignedDimension
 13
6.177219033036418
 23
14.89587887381654
 33
0.0
 14
6.00371924930272
 24
13.41137889142572
 34
0.0
 50
90.0
100
AcDbRotatedDimension
1001
ACAD
1000
DSTYLE
1002
{
1070
    41
1040
0.25
1070
    42
1040
0.25
1070
    43
1040
0.25
1070
    44
1040
0.25
1070
    78
1070
     4
1070
    79
1070
     1
1070
   140
1040
0.25
1070
   141
1040
0.25
1070
   147
1040
0.25
1070
   170
1070
     1
1070
   179
1070
     1
1070
   271
1070
     3
1070
   272
1070
     3
1070
   285
1070
     4
1002
}
  0
DIMENSION
  5
5A0B
330
1F
100
AcDbEntity
  8
DIM
100
AcDbDimension
  2
*D78
 10
3.749131105423828
 20
17.14687887381654
 30
0.0
 11
3.749131105423825
 21
16.02137887381654
 31
0.0
 70
    32
  3
STANDARD
100
AcDbAlignedDimension
 13
6.177219033036418
 23
14.89587887381654
 33
0.0
 14
6.177219033036418
 24
17.14687887381654
 34
0.0
 50
90.0
100
AcDbRotatedDimension
1001
ACAD
1000
DSTYLE
1002
{
1070
    41
1040
0.25
1070
    42
1040
0.25
1070
    43
1040
0.25
1070
    44
1040
0.25
1070
    78
1070
     4
1070
    79
1070
     1
1070
   140
1040
0.25
1070
   141
1040
0.25
1070
   147
1040
0.25
1070
   170
1070
     1
1070
   179
1070
     1
1070
   271
1070
     3
1070
   272
1070
     3
1070
   285
1070
     4
1002
}
  0
DIMENSION
  5
5AAA
330
1F
100
AcDbEntity
  8
DIM
100
AcDbDimension
  2
*D80
 10
27.11430213102978
 20
18.63137885620735
 30
0.0
 11
27.11430213102978
 21
16.02137887381654
 31
0.0
 70
    32
  3
STANDARD
100
AcDbAlignedDimension
 13
24.80371881677012
 23
13.41137889142572
 33
0.0
 14
24.80371881677012
 24
18.63137885620735
 34
0.0
 50
90.0
100
AcDbRotatedDimension
1001
ACAD
1000
DSTYLE
1002
{
1070
    41
1040
0.25
1070
    42
1040
0.25
1070
    43
1040
0.25
1070
    44
1040
0.25
1070
    78
1070
     4
1070
    79
1070
     1
1070
   140
1040
0.25
1070
   141
1040
0.25
1070
   147
1040
0.25
1070
   170
1070
     1
1070
   179
1070
     1
1070
   271
1070
     3
1070
   272
1070
     3
1070
   285
1070
     4
1002
}
  0
ENDSEC
  0
SECTION
  2
OBJECTS
  0
DICTIONARY
  5
C
330
0
100
AcDbDictionary
  3
ACAD_GROUP
350
D
  3
ACAD_LAYOUT
350
1A
  3
ACAD_MLINESTYLE
350
17
  3
ACAD_PLOTSETTINGS
350
19
  3
ACAD_PLOTSTYLENAME
350
E
  3
ACAD_SCALELIST
350
1454
  3
ACDBHEADERROUNDTRIPXREC
350
5B17
  3
ACDBVARIABLEDICTIONARY
350
1476
  0
DICTIONARY
  5
5B3A
330
1F
100
AcDbDictionary
280
     1
  3
ACAD_LAYOUTSELFREF
360
5B3B
  0
DICTIONARY
  5
5B38
330
1B
100
AcDbDictionary
280
     1
  3
ACAD_LAYOUTSELFREF
360
5B39
  0
DICTIONARY
  5
D
102
{ACAD_REACTORS
330
C
102
}
330
C
100
AcDbDictionary
  0
DICTIONARY
  5
1A
102
{ACAD_REACTORS
330
C
102
}
330
C
100
AcDbDictionary
  0
DICTIONARY
  5
17
102
{ACAD_REACTORS
330
C
102
}
330
C
100
AcDbDictionary
  3
STANDARD
350
18
  0
DICTIONARY
  5
19
102
{ACAD_REACTORS
330
C
102
}
330
C
100
AcDbDictionary
  0
ACDBDICTIONARYWDFLT
  5
E
102
{ACAD_REACTORS
330
C
102
}
330
C
100
AcDbDictionary
281
     1
  3
Normal
350
F
100
AcDbDictionaryWithDefault
340
F
  0
DICTIONARY
  5
1454
102
{ACAD_REACTORS
330
C
102
}
330
C
100
AcDbDictionary
  3
A0
350
1455
  3
A1
350
1456
  3
A2
350
1457
  3
A3
350
1458
  3
A4
350
1459
  3
A5
350
145A
  3
A6
350
145B
  3
A7
350
145C
  3
A8
350
145D
  3
A9
350
145E
  3
B0
350
145F
  3
B1
350
1460
  3
B2
350
1461
  3
B3
350
1462
  3
B4
350
1463
  3
B5
350
1464
  3
B6
350
1465
  3
B7
350
1466
  3
B8
350
1467
  3
B9
350
1468
  3
C0
350
1469
  3
C1
350
146A
  3
C2
350
146B
  3
C3
350
146C
  3
C4
350
146D
  3
C5
350
146E
  3
C6
350
146F
  3
C7
350
1470
  3
C8
350
1471
  3
C9
350
1472
  3
D0
350
1473
  3
D1
350
1474
  3
D2
350
1475
  0
DICTIONARY
  5
5B17
102
{ACAD_REACTORS
330
C
102
}
330
C
100
AcDbDictionary
  3
CEPSNTYPE
350
5B21
  3
DIMSTYLEDATA
350
5B25
  3
FINGERPRINTGUID
350
5B22
  3
HYPERLINKBASE
350
5B1A
  3
INSUNITS
350
5B20
  3
LAYOUTDICT
350
5B1C
  3
LWETCUNION
350
5B1F
  3
PLOTSETDICT
350
5B1D
  3
PLOTSTYLNAMDICT
350
5B1E
  3
PSVPSCALE
350
5B24
  3
PUCSBASE
350
5B28
  3
PUCSORGBACK
350
5B2E
  3
PUCSORGBOTTOM
350
5B2A
  3
PUCSORGFRONT
350
5B2D
  3
PUCSORGLEFT
350
5B2B
  3
PUCSORGRIGHT
350
5B2C
  3
PUCSORGTOP
350
5B29
  3
PUCSORTHOREF
350
5B26
  3
PUCSORTHOVIEW
350
5B27
  3
STYLESHEET
350
5B1B
  3
TSTACKALIGN
350
5B18
  3
TSTACKSIZE
350
5B19
  3
UCSBASE
350
5B31
  3
UCSORGBACK
350
5B37
  3
UCSORGBOTTOM
350
5B33
  3
UCSORGFRONT
350
5B36
  3
UCSORGLEFT
350
5B34
  3
UCSORGRIGHT
350
5B35
  3
UCSORGTOP
350
5B32
  3
UCSORTHOREF
350
5B2F
  3
UCSORTHOVIEW
350
5B30
  3
VERSIONGUID
350
5B23
  0
DICTIONARY
  5
1476
102
{ACAD_REACTORS
330
C
102
}
330
C
100
AcDbDictionary
  3
CANNOSCALE
350
1477
  3
DIMASSOC
350
1629
  0
XRECORD
  5
5B3B
102
{ACAD_REACTORS
330
5B3A
102
}
330
5B3A
100
AcDbXrecord
340
1F
  0
XRECORD
  5
5B39
102
{ACAD_REACTORS
330
5B38
102
}
330
5B38
100
AcDbXrecord
340
1B
  0
MLINESTYLE
  5
18
102
{ACAD_REACTORS
330
17
102
}
330
17
100
AcDbMlineStyle
  2
STANDARD
 70
     0
  3

 62
   256
 51
90.0
 52
90.0
 71
     2
 49
0.5
 62
   256
  6
BYLAYER
 49
-0.5
 62
   256
  6
BYLAYER
  0
ACDBPLACEHOLDER
  5
F
102
{ACAD_REACTORS
330
E
102
}
330
E
100
AcDbPlaceHolder
280
     0
  0
ACAD_PROXY_OBJECT
  5
1455
102
{ACAD_REACTORS
330
1454
102
}
330
1454
100
AcDbProxyObject
 90
      499
 91
      507
 93
       41
310
903313A31580
 94
        0
1001
ACAD
1000
AcadProxyRoundTripData
1071
      503
1071
   851991
1070
     0
  0
ACAD_PROXY_OBJECT
  5
1456
102
{ACAD_REACTORS
330
1454
102
}
330
1454
100
AcDbProxyObject
 90
      499
 91
      507
 93
      105
310
903313A324000000000000004040
 94
        0
1001
ACAD
1000
AcadProxyRoundTripData
1071
      503
1071
   851991
1070
     0
  0
ACAD_PROXY_OBJECT
  5
1457
102
{ACAD_REACTORS
330
1454
102
}
330
1454
100
AcDbProxyObject
 90
      499
 91
      507
 93
      105
310
903313A344000000000000104040
 94
        0
1001
ACAD
1000
AcadProxyRoundTripData
1071
      503
1071
   851991
1070
     0
  0
ACAD_PROXY_OBJECT
  5
1458
102
{ACAD_REACTORS
330
1454
102
}
330
1454
100
AcDbProxyObject
 90
      499
 91
      507
 93
      105
310
903313A354000000000000144040
 94
        0
1001
ACAD
1000
AcadProxyRoundTripData
1071
      503
1071
   851991
1070
     0
  0
ACAD_PROXY_OBJECT
  5
1459
102
{ACAD_REACTORS
330
1454
102
}
330
1454
100
AcDbProxyObject
 90
      499
 91
      507
 93
      105
310
903313A384000000000000204040
 94
        0
1001
ACAD
1000
AcadProxyRoundTripData
1071
      503
1071
   851991
1070
     0
  0
ACAD_PROXY_OBJECT
  5
145A
102
{ACAD_REACTORS
330
1454
102
}
330
1454
100
AcDbProxyObject
 90
      499
 91
      507
 93
      113
310
904313A31304000000000000244040
 94
        0
1001
ACAD
1000
AcadProxyRoundTripData
1071
      503
1071
   851991
1070
     0
  0
ACAD_PROXY_OBJECT
  5
145B
102
{ACAD_REACTORS
330
1454
102
}
330
1454
100
AcDbProxyObject
 90
      499
 91
      507
 93
      113
310
904313A31364000000000000304001
 94
        0
1001
ACAD
1000
AcadProxyRoundTripData
1071
      503
1071
   851991
1070
     0
  0
ACAD_PROXY_OBJECT
  5
145C
102
{ACAD_REACTORS
330
1454
102
}
330
1454
100
AcDbProxyObject
 90
      499
 91
      507
 93
      113
310
904313A32304000000000000344040
 94
        0
1001
ACAD
1000
AcadProxyRoundTripData
1071
      503
1071
   851991
1070
     0
  0
ACAD_PROXY_OBJECT
  5
145D
102
{ACAD_REACTORS
330
1454
102
}
330
1454
100
AcDbProxyObject
 90
      499
 91
      507
 93
      113
310
904313A333040000000000003E4001
 94
        0
1001
ACAD
1000
AcadProxyRoundTripData
1071
      503
1071
   851991
1070
     0
  0
ACAD_PROXY_OBJECT
  5
145E
102
{ACAD_REACTORS
330
1454
102
}
330
1454
100
AcDbProxyObject
 90
      499
 91
      507
 93
      113
310
904313A34304000000000000444040
 94
        0
1001
ACAD
1000
AcadProxyRoundTripData
1071
      503
1071
   851991
1070
     0
  0
ACAD_PROXY_OBJECT
  5
145F
102
{ACAD_REACTORS
330
1454
102
}
330
1454
100
AcDbProxyObject
 90
      499
 91
      507
 93
      113
310
904313A35304000000000000494001
 94
        0
1001
ACAD
1000
AcadProxyRoundTripData
1071
      503
1071
   851991
1070
     0
  0
ACAD_PROXY_OBJECT
  5
1460
102
{ACAD_REACTORS
330
1454
102
}
330
1454
100
AcDbProxyObject
 90
      499
 91
      507
 93
      121
310
905313A3130304000000000000594020
 94
        0
1001
ACAD
1000
AcadProxyRoundTripData
1071
      503
1071
   851991
1070
     0
  0
ACAD_PROXY_OBJECT
  5
1461
102
{ACAD_REACTORS
330
1454
102
}
330
1454
100
AcDbProxyObject
 90
      499
 91
      507
 93
      105
310
903323A310000000000000010165
 94
        0
1001
ACAD
1000
AcadProxyRoundTripData
1071
      503
1071
   851991
1070
     0
  0
ACAD_PROXY_OBJECT
  5
1462
102
{ACAD_REACTORS
330
1454
102
}
330
1454
100
AcDbProxyObject
 90
      499
 91
      507
 93
      105
310
903343A310000000000000410101
 94
        0
1001
ACAD
1000
AcadProxyRoundTripData
1071
      503
1071
   851991
1070
     0
  0
ACAD_PROXY_OBJECT
  5
1463
102
{ACAD_REACTORS
330
1454
102
}
330
1454
100
AcDbProxyObject
 90
      499
 91
      507
 93
      105
310
903383A310000000000000810165
 94
        0
1001
ACAD
1000
AcadProxyRoundTripData
1071
      503
1071
   851991
1070
     0
  0
ACAD_PROXY_OBJECT
  5
1464
102
{ACAD_REACTORS
330
1454
102
}
330
1454
100
AcDbProxyObject
 90
      499
 91
      507
 93
      113
310
90431303A310000000000000910102
 94
        0
1001
ACAD
1000
AcadProxyRoundTripData
1071
      503
1071
   851991
1070
     0
  0
ACAD_PROXY_OBJECT
  5
1465
102
{ACAD_REACTORS
330
1454
102
}
330
1454
100
AcDbProxyObject
 90
      499
 91
      507
 93
      121
310
9053130303A310000000000001650100
 94
        0
1001
ACAD
1000
AcadProxyRoundTripData
1071
      503
1071
   851991
1070
     0
  0
ACAD_PROXY_OBJECT
  5
1466
102
{ACAD_REACTORS
330
1454
102
}
330
1454
100
AcDbProxyObject
 90
      499
 91
      507
 93
      257
310
90E312F31323822203D2031272D3022000000000000200FC000000000000284000
 94
        0
1001
ACAD
1000
AcadProxyRoundTripData
1071
      503
1071
   851991
1070
     0
  0
ACAD_PROXY_OBJECT
  5
1467
102
{ACAD_REACTORS
330
1454
102
}
330
1454
100
AcDbProxyObject
 90
      499
 91
      507
 93
      249
310
90D312F363422203D2031272D3022000000000000240FC000000000000284040
 94
        0
1001
ACAD
1000
AcadProxyRoundTripData
1071
      503
1071
   851991
1070
     0
  0
ACAD_PROXY_OBJECT
  5
1468
102
{ACAD_REACTORS
330
1454
102
}
330
1454
100
AcDbProxyObject
 90
      499
 91
      507
 93
      249
310
90D312F333222203D2031272D3022000000000000280FC000000000000284040
 94
        0
1001
ACAD
1000
AcadProxyRoundTripData
1071
      503
1071
   851991
1070
     0
  0
ACAD_PROXY_OBJECT
  5
1469
102
{ACAD_REACTORS
330
1454
102
}
330
1454
100
AcDbProxyObject
 90
      499
 91
      507
 93
      249
310
90D312F313622203D2031272D30220000000000002C0FC000000000000284040
 94
        0
1001
ACAD
1000
AcadProxyRoundTripData
1071
      503
1071
   851991
1070
     0
  0
ACAD_PROXY_OBJECT
  5
146A
102
{ACAD_REACTORS
330
1454
102
}
330
1454
100
AcDbProxyObject
 90
      499
 91
      507
 93
      249
310
90D332F333222203D2031272D30220000000000002E0FC000000000000284040
 94
        0
1001
ACAD
1000
AcadProxyRoundTripData
1071
      503
1071
   851991
1070
     0
  0
ACAD_PROXY_OBJECT
  5
146B
102
{ACAD_REACTORS
330
1454
102
}
330
1454
100
AcDbProxyObject
 90
      499
 91
      507
 93
      241
310
90C312F3822203D2031272D3022000000000000300FC000000000000284040
 94
        0
1001
ACAD
1000
AcadProxyRoundTripData
1071
      503
1071
   851991
1070
     0
  0
ACAD_PROXY_OBJECT
  5
146C
102
{ACAD_REACTORS
330
1454
102
}
330
1454
100
AcDbProxyObject
 90
      499
 91
      507
 93
      249
310
90D332F313622203D2031272D3022000000000000320FC000000000000284040
 94
        0
1001
ACAD
1000
AcadProxyRoundTripData
1071
      503
1071
   851991
1070
     0
  0
ACAD_PROXY_OBJECT
  5
146D
102
{ACAD_REACTORS
330
1454
102
}
330
1454
100
AcDbProxyObject
 90
      499
 91
      507
 93
      241
310
90C312F3422203D2031272D3022000000000000340FC000000000000284040
 94
        0
1001
ACAD
1000
AcadProxyRoundTripData
1071
      503
1071
   851991
1070
     0
  0
ACAD_PROXY_OBJECT
  5
146E
102
{ACAD_REACTORS
330
1454
102
}
330
1454
100
AcDbProxyObject
 90
      499
 91
      507
 93
      241
310
90C332F3822203D2031272D3022000000000000360FC000000000000284028
 94
        0
1001
ACAD
1000
AcadProxyRoundTripData
1071
      503
1071
   851991
1070
     0
  0
ACAD_PROXY_OBJECT
  5
146F
102
{ACAD_REACTORS
330
1454
102
}
330
1454
100
AcDbProxyObject
 90
      499
 91
      507
 93
      241
310
90C312F3222203D2031272D3022000000000000380FC000000000000284040
 94
        0
1001
ACAD
1000
AcadProxyRoundTripData
1071
      503
1071
   851991
1070
     0
  0
ACAD_PROXY_OBJECT
  5
1470
102
{ACAD_REACTORS
330
1454
102
}
330
1454
100
AcDbProxyObject
 90
      499
 91
      507
 93
      241
310
90C332F3422203D2031272D30220000000000003A0FC000000000000284028
 94
        0
1001
ACAD
1000
AcadProxyRoundTripData
1071
      503
1071
   851991
1070
     0
  0
ACAD_PROXY_OBJECT
  5
1471
102
{ACAD_REACTORS
330
1454
102
}
330
1454
100
AcDbProxyObject
 90
      499
 91
      507
 93
      161
310
90A3122203D2031272D30224000000000000284000
 94
        0
1001
ACAD
1000
AcadProxyRoundTripData
1071
      503
1071
   851991
1070
     0
  0
ACAD_PROXY_OBJECT
  5
1472
102
{ACAD_REACTORS
330
1454
102
}
330
1454
100
AcDbProxyObject
 90
      499
 91
      507
 93
      257
310
90E312D312F3222203D2031272D30220000000000003E0FC000000000000284000
 94
        0
1001
ACAD
1000
AcadProxyRoundTripData
1071
      503
1071
   851991
1070
     0
  0
ACAD_PROXY_OBJECT
  5
1473
102
{ACAD_REACTORS
330
1454
102
}
330
1454
100
AcDbProxyObject
 90
      499
 91
      507
 93
      225
310
90A3322203D2031272D302200000000000002100000000000000284000
 94
        0
1001
ACAD
1000
AcadProxyRoundTripData
1071
      503
1071
   851991
1070
     0
  0
ACAD_PROXY_OBJECT
  5
1474
102
{ACAD_REACTORS
330
1454
102
}
330
1454
100
AcDbProxyObject
 90
      499
 91
      507
 93
      225
310
90A3622203D2031272D302200000000000006100000000000000284000
 94
        0
1001
ACAD
1000
AcadProxyRoundTripData
1071
      503
1071
   851991
1070
     0
  0
ACAD_PROXY_OBJECT
  5
1475
102
{ACAD_REACTORS
330
1454
102
}
330
1454
100
AcDbProxyObject
 90
      499
 91
      507
 93
      249
310
90D31272D3022203D2031272D30220000000000000A100000000000000284040
 94
        0
1001
ACAD
1000
AcadProxyRoundTripData
1071
      503
1071
   851991
1070
     0
  0
XRECORD
  5
5B21
102
{ACAD_REACTORS
330
5B17
102
}
330
5B17
100
AcDbXrecord
 90
        0
  0
XRECORD
  5
5B25
102
{ACAD_REACTORS
330
5B17
102
}
330
5B17
100
AcDbXrecord
1000
DSTYLE
1002
{
1070
    79
 70
     1
1070
   179
 70
     1
1002
}
  0
XRECORD
  5
5B22
102
{ACAD_REACTORS
330
5B17
102
}
330
5B17
100
AcDbXrecord
  1
{32377D59-A20B-4C09-8E10-FF2C3873D64F}
  0
XRECORD
  5
5B1A
102
{ACAD_REACTORS
330
5B17
102
}
330
5B17
100
AcDbXrecord
  1

  0
XRECORD
  5
5B20
102
{ACAD_REACTORS
330
5B17
102
}
330
5B17
100
AcDbXrecord
 90
        1
  0
XRECORD
  5
5B1C
102
{ACAD_REACTORS
330
5B17
102
}
330
5B17
100
AcDbXrecord
340
1A
  0
XRECORD
  5
5B1F
102
{ACAD_REACTORS
330
5B17
102
}
330
5B17
100
AcDbXrecord
 90
    10269
  0
XRECORD
  5
5B1D
102
{ACAD_REACTORS
330
5B17
102
}
330
5B17
100
AcDbXrecord
340
19
  0
XRECORD
  5
5B1E
102
{ACAD_REACTORS
330
5B17
102
}
330
5B17
100
AcDbXrecord
340
E
  0
XRECORD
  5
5B24
102
{ACAD_REACTORS
330
5B17
102
}
330
5B17
100
AcDbXrecord
 40
0.0
  0
XRECORD
  5
5B28
102
{ACAD_REACTORS
330
5B17
102
}
330
5B17
100
AcDbXrecord
340
0
  0
XRECORD
  5
5B2E
102
{ACAD_REACTORS
330
5B17
102
}
330
5B17
100
AcDbXrecord
 10
0.0
 20
0.0
 30
0.0
  0
XRECORD
  5
5B2A
102
{ACAD_REACTORS
330
5B17
102
}
330
5B17
100
AcDbXrecord
 10
0.0
 20
0.0
 30
0.0
  0
XRECORD
  5
5B2D
102
{ACAD_REACTORS
330
5B17
102
}
330
5B17
100
AcDbXrecord
 10
0.0
 20
0.0
 30
0.0
  0
XRECORD
  5
5B2B
102
{ACAD_REACTORS
330
5B17
102
}
330
5B17
100
AcDbXrecord
 10
0.0
 20
0.0
 30
0.0
  0
XRECORD
  5
5B2C
102
{ACAD_REACTORS
330
5B17
102
}
330
5B17
100
AcDbXrecord
 10
0.0
 20
0.0
 30
0.0
  0
XRECORD
  5
5B29
102
{ACAD_REACTORS
330
5B17
102
}
330
5B17
100
AcDbXrecord
 10
0.0
 20
0.0
 30
0.0
  0
XRECORD
  5
5B26
102
{ACAD_REACTORS
330
5B17
102
}
330
5B17
100
AcDbXrecord
340
0
  0
XRECORD
  5
5B27
102
{ACAD_REACTORS
330
5B17
102
}
330
5B17
100
AcDbXrecord
 70
     0
  0
XRECORD
  5
5B1B
102
{ACAD_REACTORS
330
5B17
102
}
330
5B17
100
AcDbXrecord
  1
monochrome.ctb
  0
XRECORD
  5
5B18
102
{ACAD_REACTORS
330
5B17
102
}
330
5B17
100
AcDbXrecord
 90
        1
  0
XRECORD
  5
5B19
102
{ACAD_REACTORS
330
5B17
102
}
330
5B17
100
AcDbXrecord
 90
       70
  0
XRECORD
  5
5B31
102
{ACAD_REACTORS
330
5B17
102
}
330
5B17
100
AcDbXrecord
340
0
  0
XRECORD
  5
5B37
102
{ACAD_REACTORS
330
5B17
102
}
330
5B17
100
AcDbXrecord
 10
0.0
 20
0.0
 30
0.0
  0
XRECORD
  5
5B33
102
{ACAD_REACTORS
330
5B17
102
}
330
5B17
100
AcDbXrecord
 10
0.0
 20
0.0
 30
0.0
  0
XRECORD
  5
5B36
102
{ACAD_REACTORS
330
5B17
102
}
330
5B17
100
AcDbXrecord
 10
0.0
 20
0.0
 30
0.0
  0
XRECORD
  5
5B34
102
{ACAD_REACTORS
330
5B17
102
}
330
5B17
100
AcDbXrecord
 10
0.0
 20
0.0
 30
0.0
  0
XRECORD
  5
5B35
102
{ACAD_REACTORS
330
5B17
102
}
330
5B17
100
AcDbXrecord
 10
0.0
 20
0.0
 30
0.0
  0
XRECORD
  5
5B32
102
{ACAD_REACTORS
330
5B17
102
}
330
5B17
100
AcDbXrecord
 10
0.0
 20
0.0
 30
0.0
  0
XRECORD
  5
5B2F
102
{ACAD_REACTORS
330
5B17
102
}
330
5B17
100
AcDbXrecord
340
0
  0
XRECORD
  5
5B30
102
{ACAD_REACTORS
330
5B17
102
}
330
5B17
100
AcDbXrecord
 70
     0
  0
XRECORD
  5
5B23
102
{ACAD_REACTORS
330
5B17
102
}
330
5B17
100
AcDbXrecord
  1
{1C15DE94-95C6-45AB-8CD9-3DA0A6D9F3A6}
  0
DICTIONARYVAR
  5
1477
102
{ACAD_REACTORS
330
1476
102
}
330
1476
100
DictionaryVariables
280
     0
  1
1:1
  0
DICTIONARYVAR
  5
1629
102
{ACAD_REACTORS
330
1476
102
}
330
1476
100
DictionaryVariables
280
     0
  1
1
  0
ENDSEC
  0
EOF
