  0
SECTION
  2
HEADER
  9
$ACADVER
  1
AC1014
  9
$ACADMAINTVER
 70
     9
  9
$DWGCODEPAGE
  3
ANSI_1252
  9
$INSBASE
 10
0.0
 20
0.0
 30
0.0
  9
$EXTMIN
 10
-0.001537549010294
 20
-0.0011713660120378
 30
-0.0015258207003583
  9
$EXTMAX
 10
34.00153770733977
 20
22.00117146846217
 30
0.0000000349246037
  9
$LIMMIN
 10
0.0
 20
0.0
  9
$LIMMAX
 10
34.0
 20
22.0
  9
$ORTHOMODE
 70
     0
  9
$REGENMODE
 70
     1
  9
$FILLMODE
 70
     1
  9
$QTEXTMODE
 70
     0
  9
$MIRRTEXT
 70
     1
  9
$DRAGMODE
 70
     2
  9
$LTSCALE
 40
1.0
  9
$OSMODE
 70
   383
  9
$ATTMODE
 70
     1
  9
$TEXTSIZE
 40
0.156
  9
$TRACEWID
 40
0.05
  9
$TEXTSTYLE
  7
STANDARD
  9
$CLAYER
  8
DIM
  9
$CELTYPE
  6
BYLAYER
  9
$CECOLOR
 62
   256
  9
$CELTSCALE
 40
1.0
  9
$DELOBJ
 70
     1
  9
$DISPSILH
 70
     0
  9
$DIMSCALE
 40
1.0
  9
$DIMASZ
 40
0.2
  9
$DIMEXO
 40
0.2
  9
$DIMDLI
 40
0.2
  9
$DIMRND
 40
0.0
  9
$DIMDLE
 40
0.0
  9
$DIMEXE
 40
0.2
  9
$DIMTP
 40
0.0
  9
$DIMTM
 40
0.0
  9
$DIMTXT
 40
0.2
  9
$DIMCEN
 40
0.2
  9
$DIMTSZ
 40
0.0
  9
$DIMTOL
 70
     0
  9
$DIMLIM
 70
     0
  9
$DIMTIH
 70
     1
  9
$DIMTOH
 70
     1
  9
$DIMSE1
 70
     0
  9
$DIMSE2
 70
     0
  9
$DIMTAD
 70
     0
  9
$DIMZIN
 70
     4
  9
$DIMBLK
  1

  9
$DIMASO
 70
     1
  9
$DIMSHO
 70
     1
  9
$DIMPOST
  1

  9
$DIMAPOST
  1

  9
$DIMALT
 70
     1
  9
$DIMALTD
 70
     2
  9
$DIMALTF
 40
25.4
  9
$DIMLFAC
 40
1.0
  9
$DIMTOFL
 70
     0
  9
$DIMTVP
 40
0.0
  9
$DIMTIX
 70
     0
  9
$DIMSOXD
 70
     0
  9
$DIMSAH
 70
     0
  9
$DIMBLK1
  1

  9
$DIMBLK2
  1

  9
$DIMSTYLE
  2
STANDARD
  9
$DIMCLRD
 70
     0
  9
$DIMCLRE
 70
     0
  9
$DIMCLRT
 70
     0
  9
$DIMTFAC
 40
1.0
  9
$DIMGAP
 40
0.2
  9
$DIMJUST
 70
     0
  9
$DIMSD1
 70
     0
  9
$DIMSD2
 70
     0
  9
$DIMTOLJ
 70
     1
  9
$DIMTZIN
 70
     0
  9
$DIMALTZ
 70
     4
  9
$DIMALTTZ
 70
     0
  9
$DIMFIT
 70
     3
  9
$DIMUPT
 70
     0
  9
$DIMUNIT
 70
     2
  9
$DIMDEC
 70
     3
  9
$DIMTDEC
 70
     3
  9
$DIMALTU
 70
     2
  9
$DIMALTTD
 70
     2
  9
$DIMTXSTY
  7
STANDARD
  9
$DIMAUNIT
 70
     0
  9
$LUNITS
 70
     2
  9
$LUPREC
 70
     3
  9
$SKETCHINC
 40
0.1
  9
$FILLETRAD
 40
0.5
  9
$AUNITS
 70
     0
  9
$AUPREC
 70
     1
  9
$MENU
  1
.
  9
$ELEVATION
 40
0.0
  9
$PELEVATION
 40
0.0
  9
$THICKNESS
 40
0.0
  9
$LIMCHECK
 70
     0
  9
$BLIPMODE
 70
     0
  9
$CHAMFERA
 40
0.5
  9
$CHAMFERB
 40
0.5
  9
$CHAMFERC
 40
1.0
  9
$CHAMFERD
 40
0.0
  9
$SKPOLY
 70
     0
  9
$TDCREATE
 40
2456454.594322905
  9
$TDUPDATE
 40
2456454.728976724
  9
$TDINDWG
 40
0.0800346065
  9
$TDUSRTIMER
 40
0.0800346065
  9
$USRTIMER
 70
     1
  9
$ANGBASE
 50
0.0
  9
$ANGDIR
 70
     0
  9
$PDMODE
 70
     0
  9
$PDSIZE
 40
-1.0
  9
$PLINEWID
 40
0.0
  9
$COORDS
 70
     2
  9
$SPLFRAME
 70
     0
  9
$SPLINETYPE
 70
     6
  9
$SPLINESEGS
 70
     8
  9
$ATTDIA
 70
     0
  9
$ATTREQ
 70
     1
  9
$HANDLING
 70
 22529
  9
$HANDSEED
  5
78AD
  9
$SURFTAB1
 70
     6
  9
$SURFTAB2
 70
     6
  9
$SURFTYPE
 70
     6
  9
$SURFU
 70
     6
  9
$SURFV
 70
     6
  9
$UCSNAME
  2

  9
$UCSORG
 10
0.0
 20
0.0
 30
0.0
  9
$UCSXDIR
 10
1.0
 20
0.0
 30
0.0
  9
$UCSYDIR
 10
0.0
 20
1.0
 30
0.0
  9
$PUCSNAME
  2

  9
$PUCSORG
 10
0.0
 20
0.0
 30
0.0
  9
$PUCSXDIR
 10
1.0
 20
0.0
 30
0.0
  9
$PUCSYDIR
 10
0.0
 20
1.0
 30
0.0
  9
$USERI1
 70
     0
  9
$USERI2
 70
     0
  9
$USERI3
 70
     0
  9
$USERI4
 70
     0
  9
$USERI5
 70
     0
  9
$USERR1
 40
0.0
  9
$USERR2
 40
0.0
  9
$USERR3
 40
0.0
  9
$USERR4
 40
0.0
  9
$USERR5
 40
0.0
  9
$WORLDVIEW
 70
     1
  9
$SHADEDGE
 70
     3
  9
$SHADEDIF
 70
    70
  9
$TILEMODE
 70
     1
  9
$MAXACTVP
 70
    64
  9
$PINSBASE
 10
0.0
 20
0.0
 30
0.0
  9
$PLIMCHECK
 70
     0
  9
$PEXTMIN
 10
1.000000000000000E+20
 20
1.000000000000000E+20
 30
1.000000000000000E+20
  9
$PEXTMAX
 10
-1.000000000000000E+20
 20
-1.000000000000000E+20
 30
-1.000000000000000E+20
  9
$PLIMMIN
 10
0.0
 20
0.0
  9
$PLIMMAX
 10
12.0
 20
9.0
  9
$UNITMODE
 70
     0
  9
$VISRETAIN
 70
     1
  9
$PLINEGEN
 70
     0
  9
$PSLTSCALE
 70
     1
  9
$TREEDEPTH
 70
  3020
  9
$PICKSTYLE
 70
     1
  9
$CMLSTYLE
  2
STANDARD
  9
$CMLJUST
 70
     0
  9
$CMLSCALE
 40
1.0
  9
$PROXYGRAPHICS
 70
     1
  9
$MEASUREMENT
 70
     0
  0
ENDSEC
  0
SECTION
  2
CLASSES
  0
CLASS
  1
ACDBDICTIONARYWDFLT
  2
AcDbDictionaryWithDefault
  3
AutoCAD 2000
 90
        0
280
     0
281
     0
  0
CLASS
  1
VISUALSTYLE
  2
AcDbVisualStyle
  3
ObjectDBX Classes
 90
     4095
280
     0
281
     0
  0
CLASS
  1
MATERIAL
  2
AcDbMaterial
  3
ObjectDBX Classes
 90
     1153
280
     0
281
     0
  0
CLASS
  1
SCALE
  2
AcDbScale
  3
ObjectDBX Classes
 90
     1153
280
     0
281
     0
  0
CLASS
  1
DICTIONARYVAR
  2
AcDbDictionaryVar
  3
AutoCAD 2000
 90
        0
280
     0
281
     0
  0
CLASS
  1
ACDBPLACEHOLDER
  2
AcDbPlaceHolder
  3
AutoCAD 2000
 90
        0
280
     0
281
     0
  0
CLASS
  1
LAYOUT
  2
AcDbLayout
  3
AutoCAD 2000
 90
        0
280
     0
281
     0
  0
CLASS
  1
ACAD_PROXY_OBJECT_WRAPPER
  2
AcDbProxyObjectWrapper
  3
AutoCAD 2000
 90
        0
280
     0
281
     0
  0
CLASS
  1
LONG_TRANSACTION
  2
AcDbLongTransaction
  3
AutoCAD 2000
 90
        0
280
     0
281
     0
  0
CLASS
  1
LWPOLYLINE
  2
AcDbPolyline
  3
AutoCAD 2000
 90
        0
280
     0
281
     1
  0
CLASS
  1
HATCH
  2
AcDbHatch
  3
AutoCAD 2000
 90
        0
280
     0
281
     1
  0
CLASS
  1
XRECORD
  2
AcDbXrecord
  3
AutoCAD 2000
 90
        0
280
     0
281
     0
  0
ENDSEC
  0
SECTION
  2
TABLES
  0
TABLE
  2
VPORT
  5
8
330
0
100
AcDbSymbolTable
 70
     3
  0
VPORT
  5
7884
330
8
100
AcDbSymbolTableRecord
100
AcDbViewportTableRecord
  2
*ACTIVE
 70
     0
 10
0.0
 20
0.0
 11
1.0
 21
1.0
 12
17.00000007916473
 22
11.00000005122506
 13
0.0
 23
0.0
 14
0.5
 24
0.5
 15
0.5
 25
0.5
 16
0.0
 26
0.0
 36
1.0
 17
0.0
 27
0.0
 37
0.0
 40
23.50056654002324
 41
1.454106280193236
 42
50.0
 43
0.0
 44
0.0
 50
0.0
 51
0.0
 71
     0
 72
  2000
 73
     1
 74
     3
 75
     0
 76
     0
 77
     0
 78
     0
  0
ENDTAB
  0
TABLE
  2
LTYPE
  5
5
330
0
100
AcDbSymbolTable
 70
     6
  0
LTYPE
  5
14
330
5
100
AcDbSymbolTableRecord
100
AcDbLinetypeTableRecord
  2
BYBLOCK
 70
     0
  3

 72
    65
 73
     0
 40
0.0
  0
LTYPE
  5
15
330
5
100
AcDbSymbolTableRecord
100
AcDbLinetypeTableRecord
  2
BYLAYER
 70
     0
  3

 72
    65
 73
     0
 40
0.0
  0
LTYPE
  5
16
330
5
100
AcDbSymbolTableRecord
100
AcDbLinetypeTableRecord
  2
CONTINUOUS
 70
     0
  3
Solid line
 72
    65
 73
     0
 40
0.0
  0
LTYPE
  5
40
330
5
100
AcDbSymbolTableRecord
100
AcDbLinetypeTableRecord
  2
PHANTOM
 70
     0
  3
Phantom ______  __  __  ______  __  __  ______
 72
    65
 73
     6
 40
0.5
 49
0.25
 74
     0
 49
-0.05
 74
     0
 49
0.05
 74
     0
 49
-0.05
 74
     0
 49
0.05
 74
     0
 49
-0.05
 74
     0
  0
LTYPE
  5
41
330
5
100
AcDbSymbolTableRecord
100
AcDbLinetypeTableRecord
  2
CENTER
 70
     0
  3
Center ____ _ ____ _ ____ _ ____ _ ____ _ ____
 72
    65
 73
     4
 40
0.4
 49
0.25
 74
     0
 49
-0.05
 74
     0
 49
0.05
 74
     0
 49
-0.05
 74
     0
  0
LTYPE
  5
73D6
330
5
100
AcDbSymbolTableRecord
100
AcDbLinetypeTableRecord
  2
HIDDEN
 70
     0
  3
Hidden __ __ __ __ __ __ __ __ __ __ __ __ __ __
 72
    65
 73
     2
 40
0.075
 49
0.05
 74
     0
 49
-0.025
 74
     0
  0
LTYPE
  5
73D7
330
5
100
AcDbSymbolTableRecord
100
AcDbLinetypeTableRecord
  2
CENTERX2
 70
     0
  3
Center (2x) ________  __  ________  __  _____
 72
    65
 73
     4
 40
0.8
 49
0.5
 74
     0
 49
-0.1
 74
     0
 49
0.1
 74
     0
 49
-0.1
 74
     0
  0
LTYPE
  5
73D8
330
5
100
AcDbSymbolTableRecord
100
AcDbLinetypeTableRecord
  2
DOT2
 70
     0
  3
Dot (.5x) ........................................
 72
    65
 73
     2
 40
0.025
 49
0.0
 74
     0
 49
-0.025
 74
     0
  0
ENDTAB
  0
TABLE
  2
LAYER
  5
2
330
0
100
AcDbSymbolTable
 70
     7
  0
LAYER
  5
10
330
2
100
AcDbSymbolTableRecord
100
AcDbLayerTableRecord
  2
0
 70
     0
 62
     7
  6
CONTINUOUS
  0
LAYER
  5
45
330
2
100
AcDbSymbolTableRecord
100
AcDbLayerTableRecord
  2
FORMAT
 70
     0
 62
     7
  6
CONTINUOUS
  0
LAYER
  5
46
330
2
100
AcDbSymbolTableRecord
100
AcDbLayerTableRecord
  2
TXT
 70
     0
 62
     3
  6
CONTINUOUS
  0
LAYER
  5
47
330
2
100
AcDbSymbolTableRecord
100
AcDbLayerTableRecord
  2
TB-TXT
 70
     0
 62
     3
  6
CONTINUOUS
  0
LAYER
  5
147B
330
2
100
AcDbSymbolTableRecord
100
AcDbLayerTableRecord
  2
DEFPOINTS
 70
     0
 62
     7
  6
CONTINUOUS
  0
LAYER
  5
14CF
330
2
100
AcDbSymbolTableRecord
100
AcDbLayerTableRecord
  2
DIM
 70
     0
 62
     1
  6
CONTINUOUS
  0
LAYER
  5
73D9
330
2
100
AcDbSymbolTableRecord
100
AcDbLayerTableRecord
  2
SLD-0
 70
     0
 62
     9
  6
CONTINUOUS
  0
ENDTAB
  0
TABLE
  2
STYLE
  5
3
330
0
100
AcDbSymbolTable
 70
    10
  0
STYLE
  5
11
330
3
100
AcDbSymbolTableRecord
100
AcDbTextStyleTableRecord
  2
STANDARD
 70
     0
 40
0.0
 41
1.0
 50
0.0
 71
     0
 42
0.156
  3
txt
  4

  0
STYLE
  5
14D3
330
3
100
AcDbSymbolTableRecord
100
AcDbTextStyleTableRecord
  2
ROMANS
 70
     0
 40
0.0
 41
1.0
 50
0.0
 71
     0
 42
4.0
  3
ROMANS.SHX
  4

  0
STYLE
  5
14D4
330
3
100
AcDbSymbolTableRecord
100
AcDbTextStyleTableRecord
  2
ARIAL
 70
     0
 40
0.0
 41
1.0
 50
0.0
 71
     0
 42
0.12
  3
arial.ttf
  4

1001
ACAD
1000
Arial
1071
       34
  0
STYLE
  5
73DA
330
3
100
AcDbSymbolTableRecord
100
AcDbTextStyleTableRecord
  2
SLDTEXTSTYLE0
 70
     0
 40
0.0
 41
0.75
 50
0.0
 71
     0
 42
0.2
  3
TXT
  4

  0
STYLE
  5
73DB
330
3
100
AcDbSymbolTableRecord
100
AcDbTextStyleTableRecord
  2
SLDTEXTSTYLE1
 70
     0
 40
0.0
 41
0.6381856540084389
 50
0.0
 71
     0
 42
0.2
  3
TXT
  4

  0
STYLE
  5
73DC
330
3
100
AcDbSymbolTableRecord
100
AcDbTextStyleTableRecord
  2
SLDTEXTSTYLE2
 70
     0
 40
0.0
 41
0.6457397730096305
 50
0.0
 71
     0
 42
0.2
  3
TXT
  4

  0
STYLE
  5
73DD
330
3
100
AcDbSymbolTableRecord
100
AcDbTextStyleTableRecord
  2
SLDTEXTSTYLE3
 70
     0
 40
0.0
 41
0.6502377399469584
 50
0.0
 71
     0
 42
0.2
  3
TXT
  4

  0
STYLE
  5
73DE
330
3
100
AcDbSymbolTableRecord
100
AcDbTextStyleTableRecord
  2
SLDTEXTSTYLE4
 70
     0
 40
0.0
 41
0.57
 50
0.0
 71
     0
 42
0.2
  3
TXT
  4

  0
STYLE
  5
73DF
330
3
100
AcDbSymbolTableRecord
100
AcDbTextStyleTableRecord
  2
SLDTEXTSTYLE5
 70
     0
 40
0.0
 41
0.59
 50
0.0
 71
     0
 42
0.2
  3
TXT
  4

  0
STYLE
  5
73E0
330
3
100
AcDbSymbolTableRecord
100
AcDbTextStyleTableRecord
  2
SLDTEXTSTYLE6
 70
     0
 40
0.0
 41
0.7
 50
0.0
 71
     0
 42
0.2
  3
TXT
  4

  0
ENDTAB
  0
TABLE
  2
VIEW
  5
6
330
0
100
AcDbSymbolTable
 70
     0
  0
ENDTAB
  0
TABLE
  2
UCS
  5
7
330
0
100
AcDbSymbolTable
 70
     0
  0
ENDTAB
  0
TABLE
  2
APPID
  5
9
330
0
100
AcDbSymbolTable
 70
     2
  0
APPID
  5
12
330
9
100
AcDbSymbolTableRecord
100
AcDbRegAppTableRecord
  2
ACAD
 70
     0
  0
APPID
  5
78AC
330
9
100
AcDbSymbolTableRecord
100
AcDbRegAppTableRecord
  2
CONTENTBLOCKICON
 70
     0
  0
ENDTAB
  0
TABLE
  2
DIMSTYLE
  5
A
330
0
100
AcDbSymbolTable
 70
     1
  0
DIMSTYLE
105
27
102
{ACAD_REACTORS
330
77A6
330
77B4
330
77D6
330
77E4
330
77F2
330
7800
330
7810
330
7865
102
}
330
A
100
AcDbSymbolTableRecord
100
AcDbDimStyleTableRecord
  2
STANDARD
 70
     0
  3

  4

  5

  6

  7

 40
1.0
 41
0.18
 42
0.0625
 43
0.38
 44
0.18
 45
0.0
 46
0.0
 47
0.0
 48
0.0
140
0.18
141
0.09
142
0.0
143
25.4
144
1.0
145
0.0
146
1.0
147
0.09
 71
     0
 72
     0
 73
     1
 74
     1
 75
     0
 76
     0
 77
     0
 78
     0
170
     0
171
     2
172
     0
173
     0
174
     0
175
     0
176
     0
177
     0
178
     0
270
     2
271
     4
272
     4
273
     2
274
     2
340
11
275
     0
280
     0
281
     0
282
     0
283
     1
284
     0
285
     0
286
     0
287
     3
288
     0
  0
ENDTAB
  0
TABLE
  2
BLOCK_RECORD
  5
1
330
0
100
AcDbSymbolTable
 70
    22
  0
BLOCK_RECORD
  5
1F
102
{ACAD_XDICTIONARY
360
78A8
102
}
330
1
100
AcDbSymbolTableRecord
100
AcDbBlockTableRecord
  2
*MODEL_SPACE
  0
BLOCK_RECORD
  5
1B
102
{ACAD_XDICTIONARY
360
78A6
102
}
330
1
100
AcDbSymbolTableRecord
100
AcDbBlockTableRecord
  2
*PAPER_SPACE
  0
BLOCK_RECORD
  5
14B9
330
1
100
AcDbSymbolTableRecord
100
AcDbBlockTableRecord
  2
REV-BLOCK
  0
BLOCK_RECORD
  5
14C2
330
1
100
AcDbSymbolTableRecord
100
AcDbBlockTableRecord
  2
TITLE-BLOCK
  0
BLOCK_RECORD
  5
5C7C
330
1
100
AcDbSymbolTableRecord
100
AcDbBlockTableRecord
  2
D1
1001
CONTENTBLOCKICON
1071
        0
1004
2800000020000000200000000100080000000000000400000000000000000000000000000000000000000000000080000080000000808000800000008000800080800000C0C0C000C0DCC000F0CAA6000020400000206000002080000020A0000020C0000020E00000400000004020000040400000406000004080000040A0
1004
000040C0000040E00000600000006020000060400000606000006080000060A0000060C0000060E00000800000008020000080400000806000008080000080A0000080C0000080E00000A0000000A0200000A0400000A0600000A0800000A0A00000A0C00000A0E00000C0000000C0200000C0400000C0600000C0800000C0
1004
A00000C0C00000C0E00000E0000000E0200000E0400000E0600000E0800000E0A00000E0C00000E0E00040000000400020004000400040006000400080004000A0004000C0004000E00040200000402020004020400040206000402080004020A0004020C0004020E000404000004040200040404000404060004040800040
1004
40A0004040C0004040E00040600000406020004060400040606000406080004060A0004060C0004060E00040800000408020004080400040806000408080004080A0004080C0004080E00040A0000040A0200040A0400040A0600040A0800040A0A00040A0C00040A0E00040C0000040C0200040C0400040C0600040C08000
1004
40C0A00040C0C00040C0E00040E0000040E0200040E0400040E0600040E0800040E0A00040E0C00040E0E00080000000800020008000400080006000800080008000A0008000C0008000E00080200000802020008020400080206000802080008020A0008020C0008020E00080400000804020008040400080406000804080
1004
008040A0008040C0008040E00080600000806020008060400080606000806080008060A0008060C0008060E00080800000808020008080400080806000808080008080A0008080C0008080E00080A0000080A0200080A0400080A0600080A0800080A0A00080A0C00080A0E00080C0000080C0200080C0400080C0600080C0
1004
800080C0A00080C0C00080C0E00080E0000080E0200080E0400080E0600080E0800080E0A00080E0C00080E0E000C0000000C0002000C0004000C0006000C0008000C000A000C000C000C000E000C0200000C0202000C0204000C0206000C0208000C020A000C020C000C020E000C0400000C0402000C0404000C0406000C0
1004
408000C040A000C040C000C040E000C0600000C0602000C0604000C0606000C0608000C060A000C060C000C060E000C0800000C0802000C0804000C0806000C0808000C080A000C080C000C080E000C0A00000C0A02000C0A04000C0A06000C0A08000C0A0A000C0A0C000C0A0E000C0C00000C0C02000C0C04000C0C06000
1004
C0C08000C0C0A000F0FBFF00A4A0A000808080000000FF0000FF000000FFFF00FF000000FF00FF00FFFF0000FFFFFF0000000000000000000000000000000000000000000000000000000000000000000000000000000000000000000000000000000000000000000000000000000000000000000000000000000000000000
1004
000000000000000000000000000000000000000000000000000000000000000000000000000000000000000000000000000000000000000000000000000000000000000000000000000000000000000000000000000000000000000000000000000000000000000000000000000000000000FFFFFFFFFFFFFFFFFFFFFFFFFF
1004
FFFFFFFFFFFFFFFFFFFFFFFFFFFFFFFFFF0000FFFFFFFFFFFFFFFFFFFFFFFFFAFFFFFFFFFFFFFFFFFFFFFFFFFFFFFFFFFF0000FFFF000000000000000000FAFAFAFAFAFAFFFFFFFFFFFFFFFFFFFFFFFFFF0000FFFF000000000000000000000000000000FFFFFFFFFFFFFFFFFFFFFFFFFF0000FFFF00000000000000000000
1004
00000000000000000000000000000000FFFF0000FFFF0000000000000000000000000000000000000000000000000000FFFF0000FFFF0000000000000000000000000000000000000000000000000000FFFF0000FFFF0000000000000000000000000000000000000000000000000000FFFF0000FFFF000000000000000000
1004
0000000000000000000000000000000000FFFF0000FFFF0000000000000000000000000000000000000000000000000000FFFF0000FFFF0000000000000000000000000000000000000000000000000000FFFF0000FFFF0000000000000000000000000000000000000000000000000000FFFF0000FFFF0000000000000000
1004
000000000000000000000000000000000000FFFF0000FFFF0000000000000000000000000000000000000000000000000000FFFF0000FFFF0000000000000000000000000000000000000000000000000000FFFF0000FFFF0000000000000000000000000000000000000000000000000000FFFF0000FFFF00000000000000
1004
00000000000000000000000000000000000000FFFF0000FFFF0000000000000000000000000000000000000000FFFF0000FFFFFFFF0000FFFFFFFFFFFFFFFFFFFFFFFFFFFFFFFFFFFFFFFFFFFFFFFFFFFFFFFFFFFF0000FFFFFFFFFFFFFFFFFFFFFFFFFFFFFFFFFFFFFFFFFFFFFFFFFFFFFFFFFFFF00000000000000000000
1004
00000000000000000000000000000000000000000000000000000000000000000000000000000000000000000000000000000000000000000000000000000000000000000000000000000000000000000000000000000000000000000000000000000000000000000000000000000000000000000000000000000000000000
1004
0000000000000000000000000000000000000000000000000000000000000000000000000000000000000000000000000000000000000000
  0
BLOCK_RECORD
  5
737F
330
1
100
AcDbSymbolTableRecord
100
AcDbBlockTableRecord
  2
SW_NOTE_0
  0
BLOCK_RECORD
  5
7384
330
1
100
AcDbSymbolTableRecord
100
AcDbBlockTableRecord
  2
SW_NOTE_1
  0
BLOCK_RECORD
  5
7389
330
1
100
AcDbSymbolTableRecord
100
AcDbBlockTableRecord
  2
SW_NOTE_2
  0
BLOCK_RECORD
  5
738E
330
1
100
AcDbSymbolTableRecord
100
AcDbBlockTableRecord
  2
SW_NOTE_3
  0
BLOCK_RECORD
  5
7394
330
1
100
AcDbSymbolTableRecord
100
AcDbBlockTableRecord
  2
SW_NOTE_4
  0
BLOCK_RECORD
  5
7399
330
1
100
AcDbSymbolTableRecord
100
AcDbBlockTableRecord
  2
SW_NOTE_5
  0
BLOCK_RECORD
  5
73A8
330
1
100
AcDbSymbolTableRecord
100
AcDbBlockTableRecord
  2
SW_TABLEANNOTATION_0
  0
BLOCK_RECORD
  5
73C0
330
1
100
AcDbSymbolTableRecord
100
AcDbBlockTableRecord
  2
SW_CENTERMARKSYMBOL_0
  0
BLOCK_RECORD
  5
73CB
330
1
100
AcDbSymbolTableRecord
100
AcDbBlockTableRecord
  2
SW_CENTERMARKSYMBOL_1
  0
BLOCK_RECORD
  5
73E1
330
1
100
AcDbSymbolTableRecord
100
AcDbBlockTableRecord
  2
95-2265-17
1001
ACAD
1000
DesignCenter Data
1002
{
1070
     1
1070
     1
1002
}
  0
BLOCK_RECORD
  5
77A7
330
1
100
AcDbSymbolTableRecord
100
AcDbBlockTableRecord
  2
*D14
  0
BLOCK_RECORD
  5
77B5
330
1
100
AcDbSymbolTableRecord
100
AcDbBlockTableRecord
  2
*D15
  0
BLOCK_RECORD
  5
77D7
330
1
100
AcDbSymbolTableRecord
100
AcDbBlockTableRecord
  2
*D16
  0
BLOCK_RECORD
  5
77E5
330
1
100
AcDbSymbolTableRecord
100
AcDbBlockTableRecord
  2
*D17
  0
BLOCK_RECORD
  5
77F3
330
1
100
AcDbSymbolTableRecord
100
AcDbBlockTableRecord
  2
*D18
  0
BLOCK_RECORD
  5
7801
330
1
100
AcDbSymbolTableRecord
100
AcDbBlockTableRecord
  2
*D19
  0
BLOCK_RECORD
  5
7811
330
1
100
AcDbSymbolTableRecord
100
AcDbBlockTableRecord
  2
*D20
  0
BLOCK_RECORD
  5
7866
330
1
100
AcDbSymbolTableRecord
100
AcDbBlockTableRecord
  2
*D21
  0
ENDTAB
  0
ENDSEC
  0
SECTION
  2
BLOCKS
  0
BLOCK
  5
20
330
1F
100
AcDbEntity
  8
0
100
AcDbBlockBegin
  2
*MODEL_SPACE
 70
     0
 10
0.0
 20
0.0
 30
0.0
  3
*MODEL_SPACE
  1

  0
ENDBLK
  5
21
330
1F
100
AcDbEntity
  8
0
100
AcDbBlockEnd
  0
BLOCK
  5
1C
330
1B
100
AcDbEntity
 67
     1
  8
0
100
AcDbBlockBegin
  2
*PAPER_SPACE
 70
     0
 10
0.0
 20
0.0
 30
0.0
  3
*PAPER_SPACE
  1

  0
ENDBLK
  5
1D
330
1B
100
AcDbEntity
 67
     1
  8
0
100
AcDbBlockEnd
  0
BLOCK
  5
14C0
330
14B9
100
AcDbEntity
  8
0
100
AcDbBlockBegin
  2
REV-BLOCK
 70
     2
 10
0.0
 20
0.0
 30
0.0
  3
REV-BLOCK
  1

  0
ATTDEF
  5
14BA
330
14B9
100
AcDbEntity
  8
TB-TXT
100
AcDbText
 10
-7.419585413768534
 20
-0.2641364156046726
 30
0.0
 40
0.12
  1
--
  7
ARIAL
 72
     1
 11
-7.363760038598002
 21
-0.2041364156046725
 31
0.0
100
AcDbAttributeDefinition
  3
REV
  2
REV
 70
     0
 74
     2
  0
ATTDEF
  5
14BB
330
14B9
100
AcDbEntity
  8
TB-TXT
100
AcDbText
 10
-7.021598876369779
 20
-0.2621627084294076
 30
0.0
 40
0.12
  1

  7
ARIAL
100
AcDbAttributeDefinition
  3
ECN N0,
  2
ECN
 70
     0
  0
ATTDEF
  5
14BC
330
14B9
100
AcDbEntity
  8
TB-TXT
100
AcDbText
 10
-6.3841325538651
 20
-0.2621627084294076
 30
0.0
 40
0.12
  1

  7
ARIAL
100
AcDbAttributeDefinition
  3
DESCRIPTION
  2
DESCRIPTION
 70
     0
  0
ATTDEF
  5
14BD
330
14B9
100
AcDbEntity
  8
TB-TXT
100
AcDbText
 10
-1.912314371261913
 20
-0.2641364156046726
 30
0.0
 40
0.12
  1

  7
ARIAL
 72
     1
 11
-1.912314371261913
 21
-0.2041364156046725
 31
0.0
100
AcDbAttributeDefinition
  3
REV DATE
  2
REV-DATE
 70
     0
 74
     2
  0
ATTDEF
  5
14BE
330
14B9
100
AcDbEntity
  8
TB-TXT
100
AcDbText
 10
-0.7008820905977871
 20
-0.2641364156046726
 30
0.0
 40
0.12
  1

  7
ARIAL
 72
     1
 11
-0.7008820905977871
 21
-0.2041364156046725
 31
0.0
100
AcDbAttributeDefinition
  3
APPR
  2
APPR
 70
     0
 74
     2
  0
LWPOLYLINE
  5
14BF
330
14B9
100
AcDbEntity
  8
FORMAT
100
AcDbPolyline
 90
        2
 70
     0
 43
0.0198
 10
-7.66263347794009
 20
-0.4059699235454915
 10
0.0
 20
-0.4059699235454915
  0
ENDBLK
  5
14C1
330
14B9
100
AcDbEntity
  8
0
100
AcDbBlockEnd
  0
BLOCK
  5
14CC
330
14C2
100
AcDbEntity
  8
0
100
AcDbBlockBegin
  2
TITLE-BLOCK
 70
     2
 10
0.0
 20
0.0
 30
0.0
  3
TITLE-BLOCK
  1

  0
ATTDEF
  5
14C3
330
14C2
100
AcDbEntity
  8
TB-TXT
100
AcDbText
 10
-5.452069740892156
 20
1.724637434505384
 30
0.0
 40
0.15996
  1

  7
ARIAL
100
AcDbAttributeDefinition
  3
TITLE (LINE 1)
  2
LINE1
 70
     0
  0
ATTDEF
  5
14C4
330
14C2
100
AcDbEntity
  8
TB-TXT
100
AcDbText
 10
-5.452069740892156
 20
1.465654577362527
 30
0.0
 40
0.15996
  1

  7
ARIAL
100
AcDbAttributeDefinition
  3
TITLE (LINE 2)
  2
LINE2
 70
     0
  0
ATTDEF
  5
14C5
330
14C2
100
AcDbEntity
  8
TB-TXT
100
AcDbText
 10
-5.452069740892156
 20
1.20667172021967
 30
0.0
 40
0.15996
  1

  7
ARIAL
100
AcDbAttributeDefinition
  3
TITLE (LINE 3)
  2
LINE3
 70
     0
  0
ATTDEF
  5
14C6
330
14C2
100
AcDbEntity
  8
TB-TXT
100
AcDbText
 10
-5.452069740892156
 20
0.9476888630768137
 30
0.0
 40
0.15996
  1

  7
ARIAL
100
AcDbAttributeDefinition
  3
TITLE (LINE 4)
  2
LINE4
 70
     0
  0
ATTDEF
  5
14C7
330
14C2
100
AcDbEntity
  8
TB-TXT
100
AcDbText
 10
-2.607663526262058
 20
0.495823930069566
 30
0.0
 40
0.12
  1

  7
ARIAL
100
AcDbAttributeDefinition
  3
DWG NO.
  2
DWG#
 70
     0
  0
ATTDEF
  5
14C8
330
14C2
100
AcDbEntity
  8
TB-TXT
100
AcDbText
 10
-5.506905230490374
 20
0.1136078675417114
 30
0.0
 40
0.12
  1

  7
ARIAL
100
AcDbAttributeDefinition
  3
FILE NO.
  2
FILE#
 70
     0
  0
ATTDEF
  5
14C9
330
14C2
100
AcDbEntity
  8
TB-TXT
100
AcDbText
 10
-0.2425360425092862
 20
0.4881363695403174
 30
0.0
 40
0.12
  1

  7
ARIAL
 72
     4
 11
-0.2425360425092862
 21
0.4881363695403174
 31
0.0
100
AcDbAttributeDefinition
  3
REV
  2
REV
 70
     0
  0
ATTDEF
  5
14CA
330
14C2
100
AcDbEntity
  8
TB-TXT
100
AcDbText
 10
-4.485055143223689
 20
0.495823930069566
 30
0.0
 40
0.12
  1
FULL
  7
ARIAL
100
AcDbAttributeDefinition
  3
SCALE
  2
SCALE
 70
     0
  0
ATTDEF
  5
14CB
330
14C2
100
AcDbEntity
  8
TB-TXT
100
AcDbText
 10
-1.004564496465349
 20
0.0916846763858388
 30
0.0
 40
0.12
  1
1 OF 1
  7
ARIAL
100
AcDbAttributeDefinition
  3
SHEET N0.
  2
SHT#
 70
     0
  0
ENDBLK
  5
14CD
330
14C2
100
AcDbEntity
  8
0
100
AcDbBlockEnd
  0
BLOCK
  5
5D0D
330
5C7C
100
AcDbEntity
  8
0
100
AcDbBlockBegin
  2
D1
 70
     0
 10
0.0
 20
0.0
 30
0.0
  3
D1
  1

  0
LWPOLYLINE
  5
5C7D
330
5C7C
100
AcDbEntity
  8
FORMAT
100
AcDbPolyline
 90
        4
 70
     1
 43
0.0290909090909091
 10
0.5
 20
0.5
 10
33.5
 20
0.5
 10
33.5
 20
21.49999999999999
 10
0.5
 20
21.49999999999999
  0
TEXT
  5
5C7E
330
5C7C
100
AcDbEntity
  8
TXT
100
AcDbText
 10
13.25165097349319
 20
1.481541553666282
 30
0.0
 40
0.2
  1
UNLESS OTHERWISE STATED, THE ARTICLE
  7
ARIAL
100
AcDbText
  0
TEXT
  5
5C7F
330
5C7C
100
AcDbEntity
  8
TXT
100
AcDbText
 10
13.25165097349319
 20
1.131541553666281
 30
0.0
 40
0.2
  1
SPECIFIED SHALL BE RoHS COMPLIANT
  7
ARIAL
100
AcDbText
  0
TEXT
  5
5C80
330
5C7C
100
AcDbEntity
  8
TXT
100
AcDbText
 10
13.25165097349319
 20
0.7815415536662798
 30
0.0
 40
0.2
  1
PER EU DIRECTIVE 2002/95/EC
  7
ARIAL
100
AcDbText
  0
LWPOLYLINE
  5
5C81
330
5C7C
100
AcDbEntity
  8
FORMAT
  6
PHANTOM
 48
10.0
100
AcDbPolyline
 90
        2
 70
     0
 43
0.001
 10
34.0
 20
22.0
 10
0.0
 20
22.0
  0
HATCH
  5
5C82
330
5C7C
100
AcDbEntity
  8
FORMAT
  6
CONTINUOUS
100
AcDbHatch
 10
0.0
 20
0.0
 30
0.0
210
0.0
220
0.0
230
1.0
  2
ARROW_TOP
 70
     1
 71
     0
 91
        1
 92
        1
 93
        3
 72
     1
 10
17.11349099999999
 20
21.696573
 11
16.88650799999999
 21
21.696573
 72
     1
 10
16.88650799999999
 20
21.696573
 11
16.99999999999999
 21
21.49999999999999
 72
     1
 10
17.0
 20
21.49999999999999
 11
17.113491
 21
21.696573
 97
        0
 75
     0
 76
     1
 98
        1
 10
0.0
 20
0.0
  0
HATCH
  5
5C83
330
5C7C
100
AcDbEntity
  8
FORMAT
  6
CONTINUOUS
100
AcDbHatch
 10
0.0
 20
0.0
 30
0.0
210
0.0
220
0.0
230
1.0
  2
ARROW_BOTTOM
 70
     1
 71
     0
 91
        1
 92
        1
 93
        3
 72
     1
 10
17.11349199999999
 20
0.3034269999999992
 11
16.99999999999999
 21
0.5
 72
     1
 10
17.0
 20
0.5
 11
16.886509
 21
0.3034269999999992
 72
     1
 10
16.88650899999998
 20
0.3034269999999992
 11
17.11349199999999
 21
0.3034269999999992
 97
        0
 75
     0
 76
     1
 98
        1
 10
0.0
 20
0.0
  0
LWPOLYLINE
  5
5C84
330
5C7C
100
AcDbEntity
  8
FORMAT
  6
PHANTOM
 48
10.0
100
AcDbPolyline
 90
        2
 70
     0
 43
0.001
 10
0.0
 20
0.0
 10
34.0
 20
0.0
  0
LINE
  5
5C85
330
5C7C
100
AcDbEntity
  8
FORMAT
  6
CONTINUOUS
100
AcDbLine
 10
16.88650899999998
 20
0.3034269999999992
 30
0.0
 11
17.11349199999999
 21
0.3034269999999992
 31
0.0
  0
LINE
  5
5C86
330
5C7C
100
AcDbEntity
  8
FORMAT
  6
CONTINUOUS
100
AcDbLine
 10
17.11349099999999
 20
21.696573
 30
0.0
 11
16.88650799999999
 21
21.696573
 31
0.0
  0
LINE
  5
5C87
330
5C7C
100
AcDbEntity
  8
FORMAT
  6
CONTINUOUS
100
AcDbLine
 10
17.0
 20
0.5
 30
0.0
 11
16.88650899999998
 21
0.3034269999999992
 31
0.0
  0
LINE
  5
5C88
330
5C7C
100
AcDbEntity
  8
FORMAT
  6
CONTINUOUS
100
AcDbLine
 10
16.88650799999999
 20
21.696573
 30
0.0
 11
17.0
 21
21.49999999999999
 31
0.0
  0
HATCH
  5
5C89
330
5C7C
100
AcDbEntity
  8
FORMAT
  6
CONTINUOUS
100
AcDbHatch
 10
0.0
 20
0.0
 30
0.0
210
0.0
220
0.0
230
1.0
  2
ARROW_LEFT
 70
     1
 71
     0
 91
        1
 92
        1
 93
        3
 72
     1
 10
0.3034269999999992
 20
10.88650799999999
 11
0.4999999999999992
 21
10.99999999999999
 72
     1
 10
0.5
 20
10.99999999999999
 11
0.3034270000000001
 21
11.11349099999999
 72
     1
 10
0.3034269999999992
 20
11.11349099999999
 11
0.3034269999999992
 21
10.88650799999999
 97
        0
 75
     0
 76
     1
 98
        1
 10
-0.25
 20
0.0
  0
LWPOLYLINE
  5
5C8A
330
5C7C
100
AcDbEntity
  8
FORMAT
  6
PHANTOM
 48
10.0
100
AcDbPolyline
 90
        2
 70
     0
 43
0.001
 10
0.0
 20
22.0
 10
0.0
 20
0.0
  0
LINE
  5
5C8B
330
5C7C
100
AcDbEntity
  8
FORMAT
  6
CONTINUOUS
100
AcDbLine
 10
0.3034269999999992
 20
11.11349099999999
 30
0.0
 11
0.3034269999999992
 21
10.88650799999999
 31
0.0
  0
LINE
  5
5C8C
330
5C7C
100
AcDbEntity
  8
FORMAT
  6
CONTINUOUS
100
AcDbLine
 10
0.3034269999999992
 20
10.88650799999999
 30
0.0
 11
0.5
 21
11.0
 31
0.0
  0
TEXT
  5
5C8D
330
5C7C
100
AcDbEntity
  8
FORMAT
  6
CONTINUOUS
100
AcDbText
 10
6.258526603001364
 20
0.1499999999999986
 30
0.0
 40
0.25
  1
B
  7
ARIAL
 72
     1
 11
6.375
 21
0.1499999999999986
 31
0.0
100
AcDbText
  0
TEXT
  5
5C8E
330
5C7C
100
AcDbEntity
  8
FORMAT
  6
CONTINUOUS
100
AcDbText
 10
0.1057639836289194
 20
2.625
 30
0.0
 40
0.25
  1
4
  7
ARIAL
 72
     2
 11
0.2999999999999971
 21
2.625
 31
0.0
100
AcDbText
  0
TEXT
  5
5C8F
330
5C7C
100
AcDbEntity
  8
FORMAT
  6
CONTINUOUS
100
AcDbText
 10
2.008526603001364
 20
0.1499999999999986
 30
0.0
 40
0.25
  1
A
  7
ARIAL
 72
     1
 11
2.125
 21
0.1499999999999986
 31
0.0
100
AcDbText
  0
LINE
  5
5C90
330
5C7C
100
AcDbEntity
  8
FORMAT
  6
CONTINUOUS
100
AcDbLine
 10
4.25
 20
0.0
 30
0.0
 11
4.25
 21
0.5
 31
0.0
  0
LINE
  5
5C91
330
5C7C
100
AcDbEntity
  8
FORMAT
  6
CONTINUOUS
100
AcDbLine
 10
0.0
 20
5.5
 30
0.0
 11
0.5
 21
5.5
 31
0.0
  0
TEXT
  5
5C92
330
5C7C
100
AcDbEntity
  8
FORMAT
  6
CONTINUOUS
100
AcDbText
 10
0.1057639836289194
 20
8.125
 30
0.0
 40
0.25
  1
3
  7
ARIAL
 72
     2
 11
0.2999999999999971
 21
8.125
 31
0.0
100
AcDbText
  0
LINE
  5
5C93
330
5C7C
100
AcDbEntity
  8
FORMAT
  6
CONTINUOUS
100
AcDbLine
 10
8.5
 20
0.0
 30
0.0
 11
8.5
 21
0.5
 31
0.0
  0
TEXT
  5
5C94
330
5C7C
100
AcDbEntity
  8
FORMAT
  6
CONTINUOUS
100
AcDbText
 10
10.49889154160982
 20
0.1499999999999986
 30
0.0
 40
0.25
  1
C
  7
ARIAL
 72
     1
 11
10.625
 21
0.1499999999999986
 31
0.0
100
AcDbText
  0
LINE
  5
5C95
330
5C7C
100
AcDbEntity
  8
FORMAT
  6
CONTINUOUS
100
AcDbLine
 10
12.75
 20
0.0
 30
0.0
 11
12.75
 21
0.5
 31
0.0
  0
TEXT
  5
5C96
330
5C7C
100
AcDbEntity
  8
FORMAT
  6
CONTINUOUS
100
AcDbText
 10
14.74889154160982
 20
0.1499999999999986
 30
0.0
 40
0.25
  1
D
  7
ARIAL
 72
     1
 11
14.875
 21
0.1499999999999986
 31
0.0
100
AcDbText
  0
TEXT
  5
5C97
330
5C7C
100
AcDbEntity
  8
FORMAT
  6
CONTINUOUS
100
AcDbText
 10
6.258526603001364
 20
21.59999999999999
 30
0.0
 40
0.25
  1
B
  7
ARIAL
 72
     1
 11
6.375
 21
21.59999999999999
 31
0.0
100
AcDbText
  0
LINE
  5
5C98
330
5C7C
100
AcDbEntity
  8
FORMAT
  6
CONTINUOUS
100
AcDbLine
 10
0.5
 20
11.0
 30
0.0
 11
0.3034269999999992
 21
11.11349099999999
 31
0.0
  0
LINE
  5
5C99
330
5C7C
100
AcDbEntity
  8
FORMAT
  6
CONTINUOUS
100
AcDbLine
 10
0.0
 20
11.0
 30
0.0
 11
0.5
 21
11.0
 31
0.0
  0
TEXT
  5
5C9A
330
5C7C
100
AcDbEntity
  8
FORMAT
  6
CONTINUOUS
100
AcDbText
 10
0.1057639836289194
 20
13.625
 30
0.0
 40
0.25
  1
2
  7
ARIAL
 72
     2
 11
0.2999999999999971
 21
13.625
 31
0.0
100
AcDbText
  0
LINE
  5
5C9B
330
5C7C
100
AcDbEntity
  8
FORMAT
  6
CONTINUOUS
100
AcDbLine
 10
0.0
 20
16.5
 30
0.0
 11
0.5
 21
16.5
 31
0.0
  0
TEXT
  5
5C9C
330
5C7C
100
AcDbEntity
  8
FORMAT
  6
CONTINUOUS
100
AcDbText
 10
0.1057639836289194
 20
19.125
 30
0.0
 40
0.25
  1
1
  7
ARIAL
 72
     2
 11
0.2999999999999971
 21
19.125
 31
0.0
100
AcDbText
  0
TEXT
  5
5C9D
330
5C7C
100
AcDbEntity
  8
FORMAT
  6
CONTINUOUS
100
AcDbText
 10
2.008526603001364
 20
21.59999999999999
 30
0.0
 40
0.25
  1
A
  7
ARIAL
 72
     1
 11
2.125
 21
21.59999999999999
 31
0.0
100
AcDbText
  0
LINE
  5
5C9E
330
5C7C
100
AcDbEntity
  8
FORMAT
  6
CONTINUOUS
100
AcDbLine
 10
4.25
 20
21.49999999999999
 30
0.0
 11
4.25
 21
22.0
 31
0.0
  0
LINE
  5
5C9F
330
5C7C
100
AcDbEntity
  8
FORMAT
  6
CONTINUOUS
100
AcDbLine
 10
8.5
 20
21.49999999999999
 30
0.0
 11
8.5
 21
22.0
 31
0.0
  0
TEXT
  5
5CA0
330
5C7C
100
AcDbEntity
  8
FORMAT
  6
CONTINUOUS
100
AcDbText
 10
10.49889154160982
 20
21.59999999999999
 30
0.0
 40
0.25
  1
C
  7
ARIAL
 72
     1
 11
10.625
 21
21.59999999999999
 31
0.0
100
AcDbText
  0
LINE
  5
5CA1
330
5C7C
100
AcDbEntity
  8
FORMAT
  6
CONTINUOUS
100
AcDbLine
 10
12.75
 20
21.49999999999999
 30
0.0
 11
12.75
 21
22.0
 31
0.0
  0
TEXT
  5
5CA2
330
5C7C
100
AcDbEntity
  8
FORMAT
  6
CONTINUOUS
100
AcDbText
 10
14.74889154160982
 20
21.59999999999999
 30
0.0
 40
0.25
  1
D
  7
ARIAL
 72
     1
 11
14.875
 21
21.59999999999999
 31
0.0
100
AcDbText
  0
LWPOLYLINE
  5
5CA3
330
5C7C
100
AcDbEntity
  8
FORMAT
  6
PHANTOM
 48
10.0
100
AcDbPolyline
 90
        2
 70
     0
 43
0.001
 10
34.0
 20
0.0
 10
34.0
 20
22.0
  0
HATCH
  5
5CA4
330
5C7C
100
AcDbEntity
  8
FORMAT
  6
CONTINUOUS
100
AcDbHatch
 10
0.0
 20
0.0
 30
0.0
210
0.0
220
0.0
230
1.0
  2
ARROW_RIGHT
 70
     1
 71
     0
 91
        1
 92
        1
 93
        3
 72
     1
 10
33.5
 20
10.99999999999999
 11
33.696573
 21
10.88650899999999
 72
     1
 10
33.696573
 20
10.88650899999999
 11
33.696573
 21
11.11349199999999
 72
     1
 10
33.696573
 20
11.11349199999999
 11
33.5
 21
10.99999999999999
 97
        0
 75
     0
 76
     1
 98
        1
 10
0.25
 20
0.0
  0
LINE
  5
5CA5
330
5C7C
100
AcDbEntity
  8
FORMAT
  6
CONTINUOUS
100
AcDbLine
 10
33.696573
 20
10.88650899999999
 30
0.0
 11
33.696573
 21
11.113492
 31
0.0
  0
LINE
  5
5CA6
330
5C7C
100
AcDbEntity
  8
FORMAT
  6
CONTINUOUS
100
AcDbLine
 10
33.5
 20
11.0
 30
0.0
 11
33.696573
 21
10.88650899999999
 31
0.0
  0
HATCH
  5
5CA7
330
5C7C
100
AcDbEntity
  8
FORMAT
100
AcDbHatch
 10
0.0
 20
0.0
 30
0.0
210
0.0
220
0.0
230
1.0
  2
SOLID
 70
     1
 71
     1
 91
        5
 92
        1
 93
        4
 72
     1
 10
27.89524244557755
 20
3.009898395795563
 11
27.99604627712901
 21
2.75012602185323
 72
     2
 10
28.42523413703466
 20
0.4867236379588187
 40
2.303734483509177
 50
100.7369884767685
 51
115.8445848643794
 73
     1
 72
     1
 10
27.42096358594918
 20
2.560038189765119
 11
27.72221440253551
 21
3.009898395795563
 72
     1
 10
27.72221440253551
 20
3.009898395795563
 11
27.89524244557755
 21
3.009898395795563
 97
        1
330
5CA8
 92
       16
 93
        4
 72
     1
 10
27.82625138631124
 20
2.746301120733491
 11
27.82647137730056
 21
2.746087929262984
 72
     1
 10
27.82647137730056
 20
2.746087929262984
 11
27.78730301109048
 21
2.857448970448498
 72
     1
 10
27.78730301109048
 20
2.857448970448498
 11
27.71638256267897
 21
2.746087929262984
 72
     1
 10
27.71638256267897
 20
2.746087929262984
 11
27.82625138631124
 21
2.746301120733491
 97
        1
330
5CE9
 92
        1
 93
        7
 72
     1
 10
27.85379733476327
 20
2.669165529635449
 11
27.89252030058969
 21
2.560038189765117
 72
     1
 10
27.89252030058969
 20
2.560038189765117
 11
28.22439509774364
 21
2.560038189765117
 72
     1
 10
28.22439509774364
 20
2.560038189765117
 11
28.2534481466875
 21
2.734356483428371
 72
     2
 10
28.84418016139653
 20
-2.211762160162989
 40
4.98127031485787
 50
96.81077116038439
 51
98.7658188097698
 73
     1
 72
     1
 10
28.08505320817211
 20
2.711324292315012
 11
28.06284416794594
 21
2.577987260808255
 72
     1
 10
28.06284416794594
 20
2.577987260808255
 11
28.01571075607803
 21
2.699450484025899
 72
     2
 10
28.4520446382265
 20
-0.0812992519853255
 40
2.814774653686729
 50
98.91769894924955
 51
102.2711423007092
 73
     1
 97
        1
330
5CEA
 92
        1
 93
       13
 72
     1
 10
29.38348614891178
 20
3.009898395795563
 11
29.19279654184188
 21
2.849663121732444
 72
     2
 10
29.75206810599112
 20
-32.64549153385557
 40
35.49956040159622
 50
90.90269359832781
 51
91.4276731912744
 73
     1
 72
     1
 10
28.86759586955777
 20
2.843048835812439
 11
28.73192948971407
 21
2.999019518033357
 72
     1
 10
28.73192948971407
 20
2.999019518033357
 11
28.70471702376885
 21
2.835744722362004
 72
     2
 10
29.00055122292874
 20
-2.744979632338445
 40
5.588559939424407
 50
93.03440911951204
 51
99.32746877910854
 73
     1
 72
     1
 10
28.09477463227537
 20
2.769689076148374
 11
28.13478466086577
 21
3.009898395795563
 72
     1
 10
28.13478466086577
 20
3.009898395795563
 11
28.27250800784915
 21
3.009898395795563
 72
     1
 10
28.27250800784915
 20
3.009898395795563
 11
28.40846516441128
 21
2.86109542429461
 72
     1
 10
28.40846516441128
 20
2.86109542429461
 11
28.59422335947938
 21
3.009898395795563
 72
     1
 10
28.59422335947938
 20
3.009898395795563
 11
28.93608238153996
 21
3.009898395795563
 72
     1
 10
28.93608238153996
 20
3.009898395795563
 11
29.03481323325339
 21
2.896391141339901
 72
     1
 10
29.03481323325339
 20
2.896391141339901
 11
29.16989368840465
 21
3.009898395795563
 72
     1
 10
29.16989368840465
 20
3.009898395795563
 11
29.38348614891178
 21
3.009898395795563
 97
        1
330
5CE7
 92
        1
 93
       10
 72
     1
 10
28.84812546490569
 20
2.560038189765117
 11
29.00159362169353
 21
2.6889965139272
 72
     1
 10
29.00159362169353
 20
2.6889965139272
 11
29.11376411899891
 21
2.560038189765117
 72
     1
 10
29.11376411899891
 20
2.560038189765117
 11
29.32737967356207
 21
2.560038189765117
 72
     1
 10
29.32737967356207
 20
2.560038189765117
 11
29.13999480838106
 21
2.775467725762407
 72
     2
 10
29.05510266338243
 20
-3.190012262200435
 40
5.966083988938442
 50
89.18470377236856
 51
91.59664224690869
 73
     1
 72
     1
 10
28.88886932108983
 20
2.773755392477088
 11
28.66271243457582
 21
2.58371718720382
 72
     1
 10
28.66271243457582
 20
2.58371718720382
 11
28.69329665119762
 21
2.76722248693467
 72
     2
 10
28.84418016139635
 20
-2.211762160162928
 40
4.981270314857797
 50
91.73576423011793
 51
93.6434845729463
 73
     1
 72
     1
 10
28.52763063088184
 20
2.75943994238878
 11
28.49439700544456
 21
2.560038189765117
 72
     1
 10
28.49439700544456
 20
2.560038189765117
 11
28.84812546490569
 21
2.560038189765117
 97
        1
330
5CE8
 75
     0
 76
     1
 98
        1
 10
27.40349142259076
 20
2.321955963782295
  0
LWPOLYLINE
  5
5CA8
102
{ACAD_REACTORS
330
5CA7
102
}
330
5C7C
100
AcDbEntity
  8
FORMAT
100
AcDbPolyline
 90
        4
 70
     1
 43
0.0
 10
27.89524244557755
 20
3.009898395795563
 10
27.99604627712901
 20
2.75012602185323
 42
0.0660149720166298
 10
27.42096358594918
 20
2.560038189765119
 10
27.72221440253551
 20
3.009898395795563
  0
TEXT
  5
5CA9
330
5C7C
100
AcDbEntity
  8
FORMAT
100
AcDbText
 10
27.17012525851521
 20
0.6672081632976301
 30
0.0
 40
0.1088
  1
SCALE
  7
ARIAL
100
AcDbText
  0
LWPOLYLINE
  5
5CAA
330
5C7C
100
AcDbEntity
  8
FORMAT
100
AcDbPolyline
 90
        3
 70
     0
 43
0.02
 10
19.55365650994497
 20
0.5
 10
19.55365654839636
 20
3.113341420836697
 10
33.5
 20
3.113341435521647
  0
LWPOLYLINE
  5
5CAB
330
5C7C
100
AcDbEntity
  8
FORMAT
100
AcDbPolyline
 90
        2
 70
     0
 43
0.02
 10
27.12431506274814
 20
2.441891417892239
 10
33.5
 20
2.441891417892239
  0
LWPOLYLINE
  5
5CAC
330
5C7C
100
AcDbEntity
  8
FORMAT
100
AcDbPolyline
 90
        2
 70
     0
 43
0.02
 10
27.12431506274814
 20
1.272892106623777
 10
33.5
 20
1.272892106623777
  0
LWPOLYLINE
  5
5CAD
330
5C7C
100
AcDbEntity
  8
FORMAT
100
AcDbPolyline
 90
        2
 70
     0
 43
0.02
 10
27.12431506274814
 20
0.8236485696487072
 10
33.5
 20
0.8236485696487072
  0
LWPOLYLINE
  5
5CAE
330
5C7C
100
AcDbEntity
  8
FORMAT
100
AcDbPolyline
 90
        2
 70
     0
 43
0.02
 10
27.61703378072079
 20
1.272892106623777
 10
27.61703378072079
 20
0.8236485696487072
  0
TEXT
  5
5CAF
330
5C7C
100
AcDbEntity
  8
FORMAT
  6
CONTINUOUS
100
AcDbText
 10
27.48917121418827
 20
0.1499999999999986
 30
0.0
 40
0.25
  1
G
  7
ARIAL
 72
     1
 11
27.625
 21
0.1499999999999986
 31
0.0
100
AcDbText
  0
TEXT
  5
5CB0
330
5C7C
100
AcDbEntity
  8
FORMAT
100
AcDbText
 10
19.74330820663874
 20
2.408766580706362
 30
0.0
 40
0.131328
  1
All information contained herein
  7
ARIAL
100
AcDbText
  0
TEXT
  5
5CB1
330
5C7C
100
AcDbEntity
  8
FORMAT
100
AcDbText
 10
19.74357695425132
 20
1.091007453830492
 30
0.0
 40
0.131328
  1
reproduced, or used as the basis
  7
ARIAL
100
AcDbText
  0
TEXT
  5
5CB2
330
5C7C
100
AcDbEntity
  8
FORMAT
100
AcDbText
 10
19.75119146994023
 20
1.309887453830505
 30
0.0
 40
0.131328
  1
This drawing may not be copied,
  7
ARIAL
100
AcDbText
  0
TEXT
  5
5CB3
330
5C7C
100
AcDbEntity
  8
FORMAT
100
AcDbText
 10
19.74339778917627
 20
1.528767453830504
 30
0.0
 40
0.131328
  1
has been previously established.
  7
ARIAL
100
AcDbText
  0
TEXT
  5
5CB4
330
5C7C
100
AcDbEntity
  8
FORMAT
100
AcDbText
 10
19.75495393651598
 20
0.6510078903925703
 30
0.0
 40
0.131328
  1
written permission.
  7
ARIAL
100
AcDbText
  0
LINE
  5
5CB5
330
5C7C
100
AcDbEntity
  8
FORMAT
  6
CONTINUOUS
100
AcDbLine
 10
17.0
 20
0.0
 30
0.0
 11
17.0
 21
0.5
 31
0.0
  0
LINE
  5
5CB6
330
5C7C
100
AcDbEntity
  8
FORMAT
  6
CONTINUOUS
100
AcDbLine
 10
17.11349199999999
 20
0.3034269999999992
 30
0.0
 11
17.0
 21
0.5
 31
0.0
  0
TEXT
  5
5CB7
330
5C7C
100
AcDbEntity
  8
FORMAT
  6
CONTINUOUS
100
AcDbText
 10
19.00852660300136
 20
0.1499999999999986
 30
0.0
 40
0.25
  1
E
  7
ARIAL
 72
     1
 11
19.125
 21
0.1499999999999986
 31
0.0
100
AcDbText
  0
LINE
  5
5CB8
330
5C7C
100
AcDbEntity
  8
FORMAT
  6
CONTINUOUS
100
AcDbLine
 10
21.25
 20
0.0
 30
0.0
 11
21.25
 21
0.5
 31
0.0
  0
TEXT
  5
5CB9
330
5C7C
100
AcDbEntity
  8
FORMAT
100
AcDbText
 10
19.75378936352825
 20
0.869887890392583
 30
0.0
 40
0.131328
  1
for manufacture or sale without
  7
ARIAL
100
AcDbText
  0
TEXT
  5
5CBA
330
5C7C
100
AcDbEntity
  8
FORMAT
100
AcDbText
 10
19.75226646039044
 20
1.747647453830502
 30
0.0
 40
0.131328
  1
to the extent the information
  7
ARIAL
100
AcDbText
  0
TEXT
  5
5CBB
330
5C7C
100
AcDbEntity
  8
FORMAT
100
AcDbText
 10
19.75226646039044
 20
2.18988658070635
 30
0.0
 40
0.131328
  1
that is not generally known 
  7
ARIAL
100
AcDbText
  0
TEXT
  5
5CBC
330
5C7C
100
AcDbEntity
  8
FORMAT
100
AcDbText
 10
19.74984773187751
 20
1.96876701726844
 30
0.0
 40
0.131328
  1
shall be confidential except
  7
ARIAL
100
AcDbText
  0
TEXT
  5
5CBD
330
5C7C
100
AcDbEntity
  8
FORMAT
100
AcDbText
 10
19.74339778917627
 20
2.629886144144286
 30
0.0
 40
0.131328
  1
property of AMX LLC.
  7
ARIAL
100
AcDbText
  0
TEXT
  5
5CBE
330
5C7C
100
AcDbEntity
  8
FORMAT
100
AcDbText
 10
19.7415165558884
 20
2.85100570758221
 30
0.0
 40
0.131328
  1
NOTICE:   This drawing is the 
  7
ARIAL
100
AcDbText
  0
LWPOLYLINE
  5
5CBF
330
5C7C
100
AcDbEntity
  8
FORMAT
100
AcDbPolyline
 90
        4
 70
     1
 43
0.0128
 10
26.0118528121386
 20
0.8777602925574115
 10
26.35745281213861
 20
0.9689602925574121
 10
26.3574528121386
 20
0.6372473945541799
 10
26.0118528121386
 20
0.7241602925574142
  0
LWPOLYLINE
  5
5CC0
330
5C7C
100
AcDbEntity
  8
FORMAT
100
AcDbPolyline
 90
        2
 70
     0
 43
0.0128
 10
25.57967152181811
 20
0.7440071438953453
 10
25.57967152181811
 20
0.5836946164949382
  0
LWPOLYLINE
  5
5CC1
330
5C7C
100
AcDbEntity
  8
FORMAT
100
AcDbPolyline
 90
        2
 70
     1
 43
0.0128
 10
25.7476715218181
 20
0.8009602925574199
 42
0.9999999999999998
 10
25.4116715218181
 20
0.8009602925574199
 42
1.0
  0
TEXT
  5
5CC2
330
5C7C
100
AcDbEntity
  8
FORMAT
  6
CONTINUOUS
100
AcDbText
 10
23.21154877296527
 20
0.6043942372759084
 30
0.0
 40
0.124
  1
          PROJECTION 
  7
ARIAL
100
AcDbText
  0
LWPOLYLINE
  5
5CC3
330
5C7C
100
AcDbEntity
  8
FORMAT
100
AcDbPolyline
 90
        2
 70
     0
 43
0.02
 10
27.12431506274814
 20
3.113341435521647
 10
27.12431506274814
 20
0.5
  0
LWPOLYLINE
  5
5CC4
330
5C7C
100
AcDbEntity
  8
FORMAT
100
AcDbPolyline
 90
        2
 70
     0
 43
0.02
 10
22.60089513581397
 20
3.113332721452977
 10
22.60089726348933
 20
0.5
  0
TEXT
  5
5CC5
330
5C7C
100
AcDbEntity
  8
FORMAT
  6
CONTINUOUS
100
AcDbText
 10
23.26833219645293
 20
0.1499999999999986
 30
0.0
 40
0.25
  1
F
  7
ARIAL
 72
     1
 11
23.37499999999999
 21
0.1499999999999986
 31
0.0
100
AcDbText
  0
LINE
  5
5CC6
330
5C7C
100
AcDbEntity
  8
FORMAT
  6
CONTINUOUS
100
AcDbLine
 10
25.5
 20
0.0
 30
0.0
 11
25.5
 21
0.5
 31
0.0
  0
TEXT
  5
5CC7
330
5C7C
100
AcDbEntity
  8
FORMAT
  6
CONTINUOUS
100
AcDbText
 10
22.75440355659141
 20
2.741378395140287
 30
0.0
 40
0.1899233025254706
  1
%%uUNLESS OTHERWISE SPECIFIED
  7
ARIAL
 72
     1
 11
24.86260403544338
 21
2.741378395140287
 31
0.0
100
AcDbText
  0
TEXT
  5
5CC8
330
5C7C
100
AcDbEntity
  8
FORMAT
  6
CONTINUOUS
100
AcDbText
 10
22.6639747858911
 20
2.422802171107882
 30
0.0
 40
0.12
  1
TOLERANCE ON DECIMAL DIMENSIONS:   .X = %%p
  7
ARIAL
 72
     2
 11
26.51461598643681
 21
2.422802171107882
 31
0.0
100
AcDbText
  0
TEXT
  5
5CC9
330
5C7C
100
AcDbEntity
  8
FORMAT
  6
CONTINUOUS
100
AcDbText
 10
22.84782049927794
 20
1.598364381162374
 30
0.0
 40
0.12
  1
SURFACE FLATNESS .003 TIR PER LINEAR INCH  
  7
ARIAL
 72
     2
 11
26.84416429191095
 21
1.598364381162374
 31
0.0
100
AcDbText
  0
TEXT
  5
5CCA
330
5C7C
100
AcDbEntity
  8
FORMAT
  6
CONTINUOUS
100
AcDbText
 10
23.66571454021828
 20
1.398362308673736
 30
0.0
 40
0.12
  1
ALL DIMENSIONS IN INCHES. 
  7
ARIAL
 72
     1
 11
24.86260403544338
 21
1.398362308673736
 31
0.0
100
AcDbText
  0
TEXT
  5
5CCB
330
5C7C
100
AcDbEntity
  8
FORMAT
  6
CONTINUOUS
100
AcDbText
 10
23.23123432193724
 20
1.12281556394616
 30
0.0
 40
0.186
  1
DO NOT SCALE DRAWING
  7
ARIAL
 72
     1
 11
24.86260403544338
 21
1.12281556394616
 31
0.0
100
AcDbText
  0
LWPOLYLINE
  5
5CCC
330
5C7C
100
AcDbEntity
  8
FORMAT
100
AcDbPolyline
 90
        2
 70
     0
 43
0.02
 10
22.60089726348933
 20
1.055516201635839
 10
27.12431293507279
 20
1.055507487567172
  0
TEXT
  5
5CCD
330
5C7C
100
AcDbEntity
  8
FORMAT
  6
CONTINUOUS
100
AcDbText
 10
23.21154877296527
 20
0.8019109791499126
 30
0.0
 40
0.124
  1
          THIRD ANGLE
  7
ARIAL
100
AcDbText
  0
TEXT
  5
5CCE
330
5C7C
100
AcDbEntity
  8
FORMAT
  6
CONTINUOUS
100
AcDbText
 10
26.54694158954057
 20
2.422802171107882
 30
0.0
 40
0.12
  1
0.1
  7
ARIAL
 72
     2
 11
26.77998388149146
 21
2.422802171107882
 31
0.0
100
AcDbText
  0
LWPOLYLINE
  5
5CCF
330
5C7C
100
AcDbEntity
  8
FORMAT
  6
CENTER
100
AcDbPolyline
 90
        2
 70
     0
 43
0.0128
 10
25.81066408562731
 20
0.8009602925574199
 10
26.43894105695028
 20
0.8009602925574199
  0
TEXT
  5
5CD0
330
5C7C
100
AcDbEntity
  8
FORMAT
  6
CONTINUOUS
100
AcDbText
 10
25.6027469550589
 20
1.865328344468428
 30
0.0
 40
0.12
  1
ANGLES:  %%p
  7
ARIAL
 72
     2
 11
26.51461598643681
 21
1.865328344468428
 31
0.0
100
AcDbText
  0
TEXT
  5
5CD1
330
5C7C
100
AcDbEntity
  8
FORMAT
  6
CONTINUOUS
100
AcDbText
 10
25.96135541344908
 20
2.236977562228064
 30
0.0
 40
0.12
  1
.XX = %%p
  7
ARIAL
 72
     2
 11
26.51461598643681
 21
2.236977562228064
 31
0.0
100
AcDbText
  0
TEXT
  5
5CD2
330
5C7C
100
AcDbEntity
  8
FORMAT
  6
CONTINUOUS
100
AcDbText
 10
25.84954095233039
 20
2.051152953348244
 30
0.0
 40
0.12
  1
.XXX = %%p
  7
ARIAL
 72
     2
 11
26.51461598643681
 21
2.051152953348244
 31
0.0
100
AcDbText
  0
LWPOLYLINE
  5
5CD3
330
5C7C
100
AcDbEntity
  8
FORMAT
100
AcDbPolyline
 90
        2
 70
     1
 43
0.0128
 10
25.6564715218181
 20
0.8009602925574199
 42
0.9999999999999998
 10
25.50287152181811
 20
0.8009602925574199
 42
1.0
  0
LWPOLYLINE
  5
5CD4
330
5C7C
100
AcDbEntity
  8
FORMAT
100
AcDbPolyline
 90
        2
 70
     0
 43
0.0128
 10
25.3654010850568
 20
0.8009602925574199
 10
25.52271837315531
 20
0.8009602925574199
  0
LWPOLYLINE
  5
5CD5
330
5C7C
100
AcDbEntity
  8
FORMAT
100
AcDbPolyline
 90
        2
 70
     0
 43
0.0128
 10
25.57967152181811
 20
0.8259134412194555
 10
25.57967152181811
 20
0.7760071438963081
  0
LWPOLYLINE
  5
5CD6
330
5C7C
100
AcDbEntity
  8
FORMAT
100
AcDbPolyline
 90
        2
 70
     0
 43
0.0128
 10
25.55471837315534
 20
0.8009602925574199
 10
25.60462467048087
 20
0.8009602925574199
  0
LWPOLYLINE
  5
5CD7
330
5C7C
100
AcDbEntity
  8
FORMAT
100
AcDbPolyline
 90
        2
 70
     0
 43
0.0128
 10
25.57967152181811
 20
1.023234780957793
 10
25.57967152181811
 20
0.8579134412198783
  0
LWPOLYLINE
  5
5CD8
330
5C7C
100
AcDbEntity
  8
FORMAT
100
AcDbPolyline
 90
        2
 70
     0
 43
0.0128
 10
25.63662467048089
 20
0.8009602925574199
 10
25.78320002298025
 20
0.8009602925574199
  0
TEXT
  5
5CD9
330
5C7C
100
AcDbEntity
  8
FORMAT
100
AcDbText
 10
27.18997948867459
 20
1.112168497683782
 30
0.0
 40
0.1088
  1
SIZE
  7
ARIAL
100
AcDbText
  0
TEXT
  5
5CDA
330
5C7C
100
AcDbEntity
  8
FORMAT
100
AcDbText
 10
27.2922243621056
 20
0.8984635216691145
 30
0.0
 40
0.16
  1
D
  7
ARIAL
100
AcDbText
  0
TEXT
  5
5CDB
330
5C7C
100
AcDbEntity
  8
FORMAT
  6
CONTINUOUS
100
AcDbText
 10
26.57169898372832
 20
2.051152953348244
 30
0.0
 40
0.12
  1
0.005
  7
ARIAL
 72
     2
 11
26.99120785139544
 21
2.051152953348244
 31
0.0
100
AcDbText
  0
TEXT
  5
5CDC
330
5C7C
100
AcDbEntity
  8
FORMAT
  6
CONTINUOUS
100
AcDbText
 10
26.56637366390401
 20
1.865328344468428
 30
0.0
 40
0.12
  1
0.5%%d
 51
1.0
  7
ARIAL
 72
     2
 11
26.86645551929283
 21
1.865328344468428
 31
0.0
100
AcDbText
  0
TEXT
  5
5CDD
330
5C7C
100
AcDbEntity
  8
FORMAT
  6
CONTINUOUS
100
AcDbText
 10
26.5491223910726
 20
2.236977562228064
 30
0.0
 40
0.12
  1
0.01
  7
ARIAL
 72
     2
 11
26.8753979708816
 21
2.236977562228064
 31
0.0
100
AcDbText
  0
TEXT
  5
5CDE
330
5C7C
100
AcDbEntity
  8
FORMAT
  6
BYBLOCK
100
AcDbText
 10
31.4299650373904
 20
2.556087548643318
 30
0.0
 40
0.1035906873199564
  1
RICHARDSON, TX 75082
 41
1.018884921437547
  7
ARIAL
100
AcDbText
  0
TEXT
  5
5CDF
330
5C7C
100
AcDbEntity
  8
FORMAT
  6
BYBLOCK
100
AcDbText
 10
31.43486788649962
 20
2.733670985046202
 30
0.0
 40
0.1035906873199564
  1
3000 RESEARCH DRIVE
 41
1.011836867459718
  7
ARIAL
100
AcDbText
  0
TEXT
  5
5CE0
330
5C7C
100
AcDbEntity
  8
FORMAT
100
AcDbText
 10
31.85237387102683
 20
0.6672081632976301
 30
0.0
 40
0.1163636363636364
  1
SHEET
  7
ARIAL
100
AcDbText
  0
LWPOLYLINE
  5
5CE1
330
5C7C
100
AcDbEntity
  8
FORMAT
100
AcDbPolyline
 90
        2
 70
     0
 43
0.02
 10
31.81895966809327
 20
0.8236485696487072
 10
31.81895966809327
 20
0.5
  0
LWPOLYLINE
  5
5CE2
330
5C7C
100
AcDbEntity
  8
FORMAT
100
AcDbPolyline
 90
        2
 70
     0
 43
0.02
 10
28.42063372699124
 20
0.8236485696487072
 10
28.42063372699124
 20
0.5
  0
TEXT
  5
5CE3
330
5C7C
100
AcDbEntity
  8
FORMAT
100
AcDbText
 10
28.46644392275831
 20
0.6672081632976301
 30
0.0
 40
0.1088
  1
ACAD FILE NO.
  7
ARIAL
100
AcDbText
  0
LINE
  5
5CE4
330
5C7C
100
AcDbEntity
  8
FORMAT
  6
CONTINUOUS
100
AcDbLine
 10
29.75
 20
0.0
 30
0.0
 11
29.75
 21
0.5
 31
0.0
  0
TEXT
  5
5CE5
330
5C7C
100
AcDbEntity
  8
FORMAT
  6
CONTINUOUS
100
AcDbText
 10
31.74889154160982
 20
0.1499999999999986
 30
0.0
 40
0.25
  1
H
  7
ARIAL
 72
     1
 11
31.875
 21
0.1499999999999986
 31
0.0
100
AcDbText
  0
TEXT
  5
5CE6
330
5C7C
100
AcDbEntity
  8
FORMAT
100
AcDbText
 10
27.68095276043268
 20
1.112168497683782
 30
0.0
 40
0.1088
  1
DWG. NO.
  7
ARIAL
100
AcDbText
  0
LWPOLYLINE
  5
5CE7
102
{ACAD_REACTORS
330
5CA7
102
}
330
5C7C
100
AcDbEntity
  8
FORMAT
100
AcDbPolyline
 90
       13
 70
     1
 43
0.0
 10
29.38348614891178
 20
3.009898395795563
 10
29.19279654184188
 20
2.849663121732444
 42
0.0022906596071181
 10
28.86759586955777
 20
2.843048835812439
 10
28.73192948971407
 20
2.999019518033357
 10
28.70471702376885
 20
2.835744722362004
 42
0.0274655559228494
 10
28.09477463227537
 20
2.769689076148374
 10
28.13478466086577
 20
3.009898395795563
 10
28.27250800784915
 20
3.009898395795563
 10
28.40846516441128
 20
2.86109542429461
 10
28.59422335947938
 20
3.009898395795563
 10
28.93608238153996
 20
3.009898395795563
 10
29.03481323325339
 20
2.896391141339901
 10
29.16989368840465
 20
3.009898395795563
  0
LWPOLYLINE
  5
5CE8
102
{ACAD_REACTORS
330
5CA7
102
}
330
5C7C
100
AcDbEntity
  8
FORMAT
100
AcDbPolyline
 90
       10
 70
     1
 43
0.0
 10
28.84812546490569
 20
2.560038189765117
 10
29.00159362169353
 20
2.6889965139272
 10
29.11376411899891
 20
2.560038189765117
 10
29.32737967356207
 20
2.560038189765117
 10
29.13999480838106
 20
2.775467725762407
 42
0.0105244554857435
 10
28.88886932108983
 20
2.773755392477088
 10
28.66271243457582
 20
2.58371718720382
 10
28.69329665119762
 20
2.76722248693467
 42
0.0083241925565687
 10
28.52763063088184
 20
2.75943994238878
 10
28.49439700544456
 20
2.560038189765117
  0
LWPOLYLINE
  5
5CE9
102
{ACAD_REACTORS
330
5CA7
102
}
330
5C7C
100
AcDbEntity
  8
FORMAT
100
AcDbPolyline
 90
        4
 70
     1
 43
0.0
 10
27.82625138631124
 20
2.746301120733491
 10
27.82647137730056
 20
2.746087929262984
 10
27.78730301109048
 20
2.857448970448498
 10
27.71638256267897
 20
2.746087929262984
  0
LWPOLYLINE
  5
5CEA
102
{ACAD_REACTORS
330
5CA7
102
}
330
5C7C
100
AcDbEntity
  8
FORMAT
100
AcDbPolyline
 90
        7
 70
     1
 43
0.0
 10
27.85379733476327
 20
2.669165529635449
 10
27.89252030058969
 20
2.560038189765117
 10
28.22439509774364
 20
2.560038189765117
 10
28.2534481466875
 20
2.734356483428371
 42
0.0085307115550227
 10
28.08505320817211
 20
2.711324292315012
 10
28.06284416794594
 20
2.577987260808255
 10
28.01571075607803
 20
2.699450484025899
 42
0.014633201278307
  0
TEXT
  5
5CEB
330
5C7C
100
AcDbEntity
  8
FORMAT
100
AcDbText
 10
29.37565033606138
 20
2.561556359369892
 30
0.0
 40
0.0583271326082317
  1
TM
  7
ARIAL
 11
29.37565033606138
 21
2.590719925674008
 31
0.0
100
AcDbText
 73
     2
  0
TEXT
  5
5CEC
330
5C7C
100
AcDbEntity
  8
FORMAT
  6
BYBLOCK
100
AcDbText
 10
31.43486788649962
 20
2.911254421449086
 30
0.0
 40
0.1035906873199564
  1
AMX LLC
 41
1.011836867459718
  7
ARIAL
100
AcDbText
  0
TEXT
  5
5CED
330
5C7C
100
AcDbEntity
  8
FORMAT
100
AcDbText
 10
33.0763005219085
 20
1.112168497683782
 30
0.0
 40
0.1088
  1
REV.
  7
ARIAL
 72
     1
 11
33.25367569244056
 21
1.112168497683782
 31
0.0
100
AcDbText
  0
LWPOLYLINE
  5
5CEE
330
5C7C
100
AcDbEntity
  8
FORMAT
100
AcDbPolyline
 90
        2
 70
     0
 43
0.02
 10
32.94931437403055
 20
1.272892106623777
 10
32.94931437403055
 20
0.8236485696487072
  0
TEXT
  5
5CEF
330
5C7C
100
AcDbEntity
  8
FORMAT
  6
CONTINUOUS
100
AcDbText
 10
33.62586108649741
 20
2.625
 30
0.0
 40
0.25
  1
4
  7
ARIAL
 72
     2
 11
33.82009710286848
 21
2.625
 31
0.0
100
AcDbText
  0
LINE
  5
5CF0
330
5C7C
100
AcDbEntity
  8
FORMAT
  6
CONTINUOUS
100
AcDbLine
 10
33.5
 20
5.5
 30
0.0
 11
34.0
 21
5.5
 31
0.0
  0
TEXT
  5
5CF1
330
5C7C
100
AcDbEntity
  8
FORMAT
  6
CONTINUOUS
100
AcDbText
 10
33.62586108649741
 20
8.125
 30
0.0
 40
0.25
  1
3
  7
ARIAL
 72
     2
 11
33.82009710286848
 21
8.125
 31
0.0
100
AcDbText
  0
LWPOLYLINE
  5
5CF2
330
5C7C
100
AcDbEntity
  8
FORMAT
100
AcDbPolyline
 90
        2
 70
     0
 43
0.0192
 10
26.06956753654294
 20
20.80009599999999
 10
33.5
 20
20.80009599999999
  0
LWPOLYLINE
  5
5CF3
330
5C7C
100
AcDbEntity
  8
FORMAT
100
AcDbPolyline
 90
        2
 70
     0
 43
0.0192
 10
26.06956753654294
 20
21.14083199999999
 10
33.5
 20
21.14083199999999
  0
TEXT
  5
5CF4
330
5C7C
100
AcDbEntity
  8
FORMAT
  6
CONTINUOUS
100
AcDbText
 10
27.48917121418827
 20
21.59999999999999
 30
0.0
 40
0.25
  1
G
  7
ARIAL
 72
     1
 11
27.625
 21
21.59999999999999
 31
0.0
100
AcDbText
  0
LINE
  5
5CF5
330
5C7C
100
AcDbEntity
  8
FORMAT
  6
CONTINUOUS
100
AcDbLine
 10
17.0
 20
21.49999999999999
 30
0.0
 11
17.0
 21
22.0
 31
0.0
  0
LINE
  5
5CF6
330
5C7C
100
AcDbEntity
  8
FORMAT
  6
CONTINUOUS
100
AcDbLine
 10
17.0
 20
21.49999999999999
 30
0.0
 11
17.11349099999999
 21
21.696573
 31
0.0
  0
TEXT
  5
5CF7
330
5C7C
100
AcDbEntity
  8
FORMAT
  6
CONTINUOUS
100
AcDbText
 10
19.00852660300136
 20
21.59999999999999
 30
0.0
 40
0.25
  1
E
  7
ARIAL
 72
     1
 11
19.125
 21
21.59999999999999
 31
0.0
100
AcDbText
  0
LINE
  5
5CF8
330
5C7C
100
AcDbEntity
  8
FORMAT
  6
CONTINUOUS
100
AcDbLine
 10
21.25
 20
21.49999999999999
 30
0.0
 11
21.25
 21
22.0
 31
0.0
  0
LWPOLYLINE
  5
5CF9
330
5C7C
100
AcDbEntity
  8
FORMAT
100
AcDbPolyline
 90
        2
 70
     0
 43
0.0256
 10
26.06956753654294
 20
21.49999999999999
 10
26.06956753654294
 20
20.24009599999999
  0
TEXT
  5
5CFA
330
5C7C
100
AcDbEntity
  8
FORMAT
100
AcDbText
 10
26.16349601547895
 20
20.92767073851941
 30
0.0
 40
0.1152
  1
REV
  7
ARIAL
 72
     1
 11
26.32894867577908
 21
20.92767073851941
 31
0.0
100
AcDbText
  0
LWPOLYLINE
  5
5CFB
330
5C7C
100
AcDbEntity
  8
FORMAT
100
AcDbPolyline
 90
        2
 70
     0
 43
0.0192
 10
26.60557396589689
 20
20.24009599999999
 10
26.60557396589689
 20
21.14083199999999
  0
LWPOLYLINE
  5
5CFC
330
5C7C
100
AcDbEntity
  8
FORMAT
100
AcDbPolyline
 90
        2
 70
     0
 43
0.0192
 10
27.36053643752221
 20
20.24009599999999
 10
27.36053643752221
 20
21.14083199999999
  0
TEXT
  5
5CFD
330
5C7C
100
AcDbEntity
  8
FORMAT
100
AcDbText
 10
26.85315286877121
 20
20.92767073851941
 30
0.0
 40
0.1152
  1
ECN
  7
ARIAL
 72
     1
 11
27.02304536536057
 21
20.92767073851941
 31
0.0
100
AcDbText
  0
TEXT
  5
5CFE
330
5C7C
100
AcDbEntity
  8
FORMAT
  6
CONTINUOUS
100
AcDbText
 10
23.26833219645293
 20
21.59999999999999
 30
0.0
 40
0.25
  1
F
  7
ARIAL
 72
     1
 11
23.37499999999999
 21
21.59999999999999
 31
0.0
100
AcDbText
  0
LINE
  5
5CFF
330
5C7C
100
AcDbEntity
  8
FORMAT
  6
CONTINUOUS
100
AcDbLine
 10
25.5
 20
21.49999999999999
 30
0.0
 11
25.5
 21
22.0
 31
0.0
  0
LINE
  5
5D00
330
5C7C
100
AcDbEntity
  8
FORMAT
  6
CONTINUOUS
100
AcDbLine
 10
33.696573
 20
11.113492
 30
0.0
 11
33.5
 21
11.0
 31
0.0
  0
LINE
  5
5D01
330
5C7C
100
AcDbEntity
  8
FORMAT
  6
CONTINUOUS
100
AcDbLine
 10
33.5
 20
11.0
 30
0.0
 11
34.0
 21
11.0
 31
0.0
  0
TEXT
  5
5D02
330
5C7C
100
AcDbEntity
  8
FORMAT
  6
CONTINUOUS
100
AcDbText
 10
33.62586108649741
 20
13.625
 30
0.0
 40
0.25
  1
2
  7
ARIAL
 72
     2
 11
33.82009710286848
 21
13.625
 31
0.0
100
AcDbText
  0
LINE
  5
5D03
330
5C7C
100
AcDbEntity
  8
FORMAT
  6
CONTINUOUS
100
AcDbLine
 10
33.5
 20
16.5
 30
0.0
 11
34.0
 21
16.5
 31
0.0
  0
TEXT
  5
5D04
330
5C7C
100
AcDbEntity
  8
FORMAT
100
AcDbText
 10
32.36793583690554
 20
20.92767073851941
 30
0.0
 40
0.1152
  1
APPROVED
  7
ARIAL
 72
     1
 11
32.81498413158493
 21
20.92767073851941
 31
0.0
100
AcDbText
  0
TEXT
  5
5D05
330
5C7C
100
AcDbEntity
  8
FORMAT
100
AcDbText
 10
29.2080590200652
 20
21.23746077739912
 30
0.0
 40
0.1536
  1
REVISIONS
  7
ARIAL
 72
     1
 11
29.79233623698198
 21
21.23746077739912
 31
0.0
100
AcDbText
  0
TEXT
  5
5D06
330
5C7C
100
AcDbEntity
  8
FORMAT
100
AcDbText
 10
28.60366222122361
 20
20.92767073851941
 30
0.0
 40
0.1152
  1
DESCRIPTION
  7
ARIAL
 72
     1
 11
29.1535732717011
 21
20.92767073851941
 31
0.0
100
AcDbText
  0
TEXT
  5
5D07
330
5C7C
100
AcDbEntity
  8
FORMAT
100
AcDbText
 10
31.40037894741029
 20
20.92767073851941
 30
0.0
 40
0.1152
  1
DATE
  7
ARIAL
 72
     1
 11
31.61498413158492
 21
20.92767073851941
 31
0.0
100
AcDbText
  0
LWPOLYLINE
  5
5D08
330
5C7C
100
AcDbEntity
  8
FORMAT
100
AcDbPolyline
 90
        2
 70
     0
 43
0.0192
 10
31.07495213158492
 20
20.24009599999999
 10
31.07495213158492
 20
21.14083199999999
  0
LWPOLYLINE
  5
5D09
330
5C7C
100
AcDbEntity
  8
FORMAT
100
AcDbPolyline
 90
        2
 70
     0
 43
0.0192
 10
32.19495213158492
 20
20.24009599999999
 10
32.19495213158492
 20
21.14083199999999
  0
LINE
  5
5D0A
330
5C7C
100
AcDbEntity
  8
FORMAT
  6
CONTINUOUS
100
AcDbLine
 10
29.75
 20
21.49999999999999
 30
0.0
 11
29.75
 21
22.0
 31
0.0
  0
TEXT
  5
5D0B
330
5C7C
100
AcDbEntity
  8
FORMAT
  6
CONTINUOUS
100
AcDbText
 10
31.74889154160982
 20
21.59999999999999
 30
0.0
 40
0.25
  1
H
  7
ARIAL
 72
     1
 11
31.875
 21
21.59999999999999
 31
0.0
100
AcDbText
  0
TEXT
  5
5D0C
330
5C7C
100
AcDbEntity
  8
FORMAT
  6
CONTINUOUS
100
AcDbText
 10
33.62586108649741
 20
19.125
 30
0.0
 40
0.25
  1
1
  7
ARIAL
 72
     2
 11
33.82009710286848
 21
19.125
 31
0.0
100
AcDbText
  0
ENDBLK
  5
5D0E
330
5C7C
100
AcDbEntity
  8
0
100
AcDbBlockEnd
  0
BLOCK
  5
7382
330
737F
100
AcDbEntity
  8
0
100
AcDbBlockBegin
  2
SW_NOTE_0
 70
     0
 10
0.0
 20
0.0
 30
0.0
  3
SW_NOTE_0
  1

  0
MTEXT
  5
7380
330
737F
100
AcDbEntity
  8
FORMAT
 62
     0
100
AcDbMText
 10
0.0
 20
0.1611334674714938
 30
0.0
 40
0.125
 41
0.0
 71
     1
 72
     1
  1
NOTES:
  7
SLDTEXTSTYLE0
1001
ACAD
1000
MTEXTBEGIN
1070
    73
1070
     1
1070
    44
1040
1.0
1070
    74
1070
     0
1000
MTEXTEND
  0
MTEXT
  5
7381
330
737F
100
AcDbEntity
  8
FORMAT
 62
     0
100
AcDbMText
 10
0.0
 20
-0.1676066815609187
 30
0.0
 40
0.125
 41
0.0
 71
     1
 72
     1
  1
1. UNLESS OTHERWISE SPECIFIED, DIMENSIONS IN [ ] ARE IN MILLIMETERS
  7
SLDTEXTSTYLE0
1001
ACAD
1000
MTEXTBEGIN
1070
    73
1070
     1
1070
    44
1040
1.0
1070
    74
1070
     0
1000
MTEXTEND
  0
ENDBLK
  5
7383
330
737F
100
AcDbEntity
  8
0
100
AcDbBlockEnd
  0
BLOCK
  5
7387
330
7384
100
AcDbEntity
  8
0
100
AcDbBlockBegin
  2
SW_NOTE_1
 70
     0
 10
0.0
 20
0.0
 30
0.0
  3
SW_NOTE_1
  1

  0
MTEXT
  5
7385
330
7384
100
AcDbEntity
  8
FORMAT
 62
     0
100
AcDbMText
 10
1.985759493670884
 20
0.1546881287726359
 30
0.0
 40
0.12
 41
0.0
 71
     2
 72
     1
  1
SURFACE FLATNESS .003 TIR PER LINEAR INCH
  7
SLDTEXTSTYLE1
1001
ACAD
1000
MTEXTBEGIN
1070
    73
1070
     1
1070
    44
1040
1.0
1070
    74
1070
     0
1000
MTEXTEND
  0
MTEXT
  5
7386
330
7384
100
AcDbEntity
  8
FORMAT
 62
     0
100
AcDbMText
 10
1.996421167584461
 20
-0.0003118689874967
 30
0.0
 40
0.12
 41
0.0
 71
     2
 72
     1
  1
ALL DIMENSIONS ARE IN INCHES
  7
SLDTEXTSTYLE1
1001
ACAD
1000
MTEXTBEGIN
1070
    73
1070
     1
1070
    44
1040
1.0
1070
    74
1070
     0
1000
MTEXTEND
  0
ENDBLK
  5
7388
330
7384
100
AcDbEntity
  8
0
100
AcDbBlockEnd
  0
BLOCK
  5
738C
330
7389
100
AcDbEntity
  8
0
100
AcDbBlockBegin
  2
SW_NOTE_2
 70
     0
 10
0.0
 20
0.0
 30
0.0
  3
SW_NOTE_2
  1

  0
MTEXT
  5
738A
330
7389
100
AcDbEntity
  8
FORMAT
 62
     0
100
AcDbMText
 10
1.181302742616035
 20
0.1598443997317237
 30
0.0
 40
0.124
 41
0.0
 71
     3
 72
     1
  1
THIRD ANGLE
  7
SLDTEXTSTYLE1
1001
ACAD
1000
MTEXTBEGIN
1070
    73
1070
     1
1070
    44
1040
1.0
1070
    74
1070
     0
1000
MTEXTEND
  0
MTEXT
  5
738B
330
7389
100
AcDbEntity
  8
FORMAT
 62
     0
100
AcDbMText
 10
1.182368704086798
 20
-0.0003222750091821
 30
0.0
 40
0.124
 41
0.0
 71
     3
 72
     1
  1
PROJECTION
  7
SLDTEXTSTYLE1
1001
ACAD
1000
MTEXTBEGIN
1070
    73
1070
     1
1070
    44
1040
1.0
1070
    74
1070
     0
1000
MTEXTEND
  0
ENDBLK
  5
738D
330
7389
100
AcDbEntity
  8
0
100
AcDbBlockEnd
  0
BLOCK
  5
7392
330
738E
100
AcDbEntity
  8
0
100
AcDbBlockBegin
  2
SW_NOTE_3
 70
     0
 10
0.0
 20
0.0
 30
0.0
  3
SW_NOTE_3
  1

  0
MTEXT
  5
738F
330
738E
100
AcDbEntity
  8
TXT
 62
     0
100
AcDbMText
 10
6.15110759493671
 20
0.2578135479543929
 30
0.0
 40
0.2
 41
0.0
 71
     3
 72
     1
  1
UNLESS OTHERWISE STATED, THE ARTICLE
  7
SLDTEXTSTYLE1
1001
ACAD
1000
MTEXTBEGIN
1070
    73
1070
     1
1070
    44
1040
1.0
1070
    74
1070
     0
1000
MTEXTEND
  0
MTEXT
  5
7390
330
738E
100
AcDbEntity
  8
TXT
 62
     0
100
AcDbMText
 10
6.144701041606238
 20
-0.0421864447534245
 30
0.0
 40
0.2
 41
0.0
 71
     3
 72
     1
  1
SPECIFIED SHALL BE RoHS COMPLIANT PER
  7
SLDTEXTSTYLE1
1001
ACAD
1000
MTEXTBEGIN
1070
    73
1070
     1
1070
    44
1040
1.0
1070
    74
1070
     0
1000
MTEXTEND
  0
MTEXT
  5
7391
330
738E
100
AcDbEntity
  8
TXT
 62
     0
100
AcDbMText
 10
6.194700460453129
 20
-0.3421864374612421
 30
0.0
 40
0.2
 41
0.0
 71
     3
 72
     1
  1
EU DIRECTIVE 2002/95/EC
  7
SLDTEXTSTYLE1
1001
ACAD
1000
MTEXTBEGIN
1070
    73
1070
     1
1070
    44
1040
1.0
1070
    74
1070
     0
1000
MTEXTEND
  0
ENDBLK
  5
7393
330
738E
100
AcDbEntity
  8
0
100
AcDbBlockEnd
  0
BLOCK
  5
7397
330
7394
100
AcDbEntity
  8
0
100
AcDbBlockBegin
  2
SW_NOTE_4
 70
     0
 10
0.0
 20
0.0
 30
0.0
  3
SW_NOTE_4
  1

  0
MTEXT
  5
7395
330
7394
100
AcDbEntity
  8
FORMAT
 62
     0
100
AcDbMText
 10
1.386718749999999
 20
0.2685557791191595
 30
0.0
 40
0.2083333333333333
 41
0.0
 71
     2
 72
     1
  1
PICTORAL DRAWING,
  7
SLDTEXTSTYLE0
1001
ACAD
1000
MTEXTBEGIN
1070
    73
1070
     1
1070
    44
1040
1.0
1070
    74
1070
     0
1000
MTEXTEND
  0
MTEXT
  5
7396
330
7394
100
AcDbEntity
  8
FORMAT
 62
     0
100
AcDbMText
 10
1.374083638113002
 20
-0.0092219953016201
 30
0.0
 40
0.2083333333333333
 41
0.0
 71
     2
 72
     1
  1
TABLE MOUNT KIT, 7.0" MODERO S
  7
SLDTEXTSTYLE0
1001
ACAD
1000
MTEXTBEGIN
1070
    73
1070
     1
1070
    44
1040
1.0
1070
    74
1070
     0
1000
MTEXTEND
  0
ENDBLK
  5
7398
330
7394
100
AcDbEntity
  8
0
100
AcDbBlockEnd
  0
BLOCK
  5
73A6
330
7399
100
AcDbEntity
  8
0
100
AcDbBlockBegin
  2
SW_NOTE_5
 70
     0
 10
0.0
 20
0.0
 30
0.0
  3
SW_NOTE_5
  1

  0
MTEXT
  5
739A
330
7399
100
AcDbEntity
  8
FORMAT
 62
     0
100
AcDbMText
 10
0.0
 20
0.1692906881287727
 30
0.0
 40
0.131328
 41
0.0
 71
     1
 72
     1
  1
NOTICE:
  7
SLDTEXTSTYLE1
1001
ACAD
1000
MTEXTBEGIN
1070
    73
1070
     1
1070
    44
1040
1.0
1070
    74
1070
     0
1000
MTEXTEND
  0
MTEXT
  5
739B
330
7399
100
AcDbEntity
  8
FORMAT
 62
     0
100
AcDbMText
 10
0.9284159284610456
 20
0.1692906409777757
 30
0.0
 40
0.1313279527559055
 41
0.0
 71
     1
 72
     1
  1
This drawing is the
  7
SLDTEXTSTYLE1
1001
ACAD
1000
MTEXTBEGIN
1070
    73
1070
     1
1070
    44
1040
1.0
1070
    74
1070
     0
1000
MTEXTEND
  0
MTEXT
  5
739C
330
7399
100
AcDbEntity
  8
FORMAT
 62
     0
100
AcDbMText
 10
0.0
 20
-0.0620373467015707
 30
0.0
 40
0.1313279527559055
 41
0.0
 71
     1
 72
     1
  1
property of AMX LLC.
  7
SLDTEXTSTYLE1
1001
ACAD
1000
MTEXTBEGIN
1070
    73
1070
     1
1070
    44
1040
1.0
1070
    74
1070
     0
1000
MTEXTEND
  0
MTEXT
  5
739D
330
7399
100
AcDbEntity
  8
FORMAT
 62
     0
100
AcDbMText
 10
0.0
 20
-0.2933652977146739
 30
0.0
 40
0.1313279527559055
 41
0.0
 71
     1
 72
     1
  1
All information contained herein
  7
SLDTEXTSTYLE1
1001
ACAD
1000
MTEXTBEGIN
1070
    73
1070
     1
1070
    44
1040
1.0
1070
    74
1070
     0
1000
MTEXTEND
  0
MTEXT
  5
739E
330
7399
100
AcDbEntity
  8
FORMAT
 62
     0
100
AcDbMText
 10
0.0
 20
-0.5246932487277772
 30
0.0
 40
0.1313279527559055
 41
0.0
 71
     1
 72
     1
  1
that is not generally known
  7
SLDTEXTSTYLE1
1001
ACAD
1000
MTEXTBEGIN
1070
    73
1070
     1
1070
    44
1040
1.0
1070
    74
1070
     0
1000
MTEXTEND
  0
MTEXT
  5
739F
330
7399
100
AcDbEntity
  8
FORMAT
 62
     0
100
AcDbMText
 10
0.0
 20
-0.7560211997408805
 30
0.0
 40
0.1313279527559055
 41
0.0
 71
     1
 72
     1
  1
shall be confidential except to
  7
SLDTEXTSTYLE1
1001
ACAD
1000
MTEXTBEGIN
1070
    73
1070
     1
1070
    44
1040
1.0
1070
    74
1070
     0
1000
MTEXTEND
  0
MTEXT
  5
73A0
330
7399
100
AcDbEntity
  8
FORMAT
 62
     0
100
AcDbMText
 10
0.0
 20
-0.9873491507539837
 30
0.0
 40
0.1313279527559055
 41
0.0
 71
     1
 72
     1
  1
the extent the information has
  7
SLDTEXTSTYLE1
1001
ACAD
1000
MTEXTBEGIN
1070
    73
1070
     1
1070
    44
1040
1.0
1070
    74
1070
     0
1000
MTEXTEND
  0
MTEXT
  5
73A1
330
7399
100
AcDbEntity
  8
FORMAT
 62
     0
100
AcDbMText
 10
0.0
 20
-1.218677101767086
 30
0.0
 40
0.1313279527559055
 41
0.0
 71
     1
 72
     1
  1
been previously established.
  7
SLDTEXTSTYLE1
1001
ACAD
1000
MTEXTBEGIN
1070
    73
1070
     1
1070
    44
1040
1.0
1070
    74
1070
     0
1000
MTEXTEND
  0
MTEXT
  5
73A2
330
7399
100
AcDbEntity
  8
FORMAT
 62
     0
100
AcDbMText
 10
0.0
 20
-1.45000505278019
 30
0.0
 40
0.1313279527559055
 41
0.0
 71
     1
 72
     1
  1
This drawing may not be copied,
  7
SLDTEXTSTYLE1
1001
ACAD
1000
MTEXTBEGIN
1070
    73
1070
     1
1070
    44
1040
1.0
1070
    74
1070
     0
1000
MTEXTEND
  0
MTEXT
  5
73A3
330
7399
100
AcDbEntity
  8
FORMAT
 62
     0
100
AcDbMText
 10
0.0
 20
-1.681333003793293
 30
0.0
 40
0.1313279527559055
 41
0.0
 71
     1
 72
     1
  1
reproduced, or used as the basis
  7
SLDTEXTSTYLE1
1001
ACAD
1000
MTEXTBEGIN
1070
    73
1070
     1
1070
    44
1040
1.0
1070
    74
1070
     0
1000
MTEXTEND
  0
MTEXT
  5
73A4
330
7399
100
AcDbEntity
  8
FORMAT
 62
     0
100
AcDbMText
 10
0.0
 20
-1.912660954806396
 30
0.0
 40
0.1313279527559055
 41
0.0
 71
     1
 72
     1
  1
for manufacture or sale without
  7
SLDTEXTSTYLE1
1001
ACAD
1000
MTEXTBEGIN
1070
    73
1070
     1
1070
    44
1040
1.0
1070
    74
1070
     0
1000
MTEXTEND
  0
MTEXT
  5
73A5
330
7399
100
AcDbEntity
  8
FORMAT
 62
     0
100
AcDbMText
 10
0.0
 20
-2.1439889058195
 30
0.0
 40
0.1313279527559055
 41
0.0
 71
     1
 72
     1
  1
written permission.
  7
SLDTEXTSTYLE1
1001
ACAD
1000
MTEXTBEGIN
1070
    73
1070
     1
1070
    44
1040
1.0
1070
    74
1070
     0
1000
MTEXTEND
  0
ENDBLK
  5
73A7
330
7399
100
AcDbEntity
  8
0
100
AcDbBlockEnd
  0
BLOCK
  5
73BE
330
73A8
100
AcDbEntity
  8
0
100
AcDbBlockBegin
  2
SW_TABLEANNOTATION_0
 70
     0
 10
0.0
 20
0.0
 30
0.0
  3
SW_TABLEANNOTATION_0
  1

  0
LINE
  5
73A9
330
73A8
100
AcDbEntity
  8
FORMAT
 62
     0
100
AcDbLine
 10
0.0
 20
0.0
 30
0.0
 11
0.0
 21
-1.082899745257337
 31
0.0
  0
LINE
  5
73AA
330
73A8
100
AcDbEntity
  8
FORMAT
 62
     0
100
AcDbLine
 10
0.0
 20
-1.082899745257337
 30
0.0
 11
12.00740362592097
 21
-1.082899745257337
 31
0.0
  0
LINE
  5
73AB
330
73A8
100
AcDbEntity
  8
FORMAT
 62
     0
100
AcDbLine
 10
12.00740362592097
 20
-1.082899745257337
 30
0.0
 11
12.00740362592097
 21
0.0
 31
0.0
  0
LINE
  5
73AC
330
73A8
100
AcDbEntity
  8
FORMAT
 62
     0
100
AcDbLine
 10
12.00740362592097
 20
0.0
 30
0.0
 11
0.0
 21
0.0
 31
0.0
  0
LINE
  5
73AD
330
73A8
100
AcDbEntity
  8
FORMAT
 62
     0
100
AcDbLine
 10
0.9353259116352523
 20
-0.3744000000000013
 30
0.0
 11
0.9353259116352523
 21
-1.082899745257342
 31
0.0
  0
LINE
  5
73AE
330
73A8
100
AcDbEntity
  8
FORMAT
 62
     0
100
AcDbLine
 10
2.158009340206679
 20
-0.3744000000000013
 30
0.0
 11
2.158009340206679
 21
-1.082899745257342
 31
0.0
  0
LINE
  5
73AF
330
73A8
100
AcDbEntity
  8
FORMAT
 62
     0
100
AcDbLine
 10
9.08654876877811
 20
-0.3744000000000013
 30
0.0
 11
9.08654876877811
 21
-1.082899745257342
 31
0.0
  0
LINE
  5
73B0
330
73A8
100
AcDbEntity
  8
FORMAT
 62
     0
100
AcDbLine
 10
10.30923219734953
 20
-0.3744000000000013
 30
0.0
 11
10.30923219734953
 21
-1.082899745257342
 31
0.0
  0
LINE
  5
73B1
330
73A8
100
AcDbEntity
  8
FORMAT
 62
     0
100
AcDbLine
 10
0.0
 20
-0.7432654595430571
 30
0.0
 11
12.00740362592096
 21
-0.7432654595430571
 31
0.0
  0
LINE
  5
73B2
330
73A8
100
AcDbEntity
  8
FORMAT
 62
     0
100
AcDbLine
 10
0.0
 20
-0.3744000000000013
 30
0.0
 11
12.00740362592097
 21
-0.3744000000000013
 31
0.0
  0
MTEXT
  5
73B3
330
73A8
100
AcDbEntity
  8
FORMAT
 62
     0
100
AcDbMText
 10
5.291163190934114
 20
-0.1304810646780546
 30
0.0
 40
0.1145833333333333
 41
0.0
 71
     1
 72
     1
  1
R  E  V  I  S  I  O  N  S
  7
SLDTEXTSTYLE5
1001
ACAD
1000
MTEXTBEGIN
1070
    73
1070
     1
1070
    44
1040
1.0
1070
    74
1070
     0
1000
MTEXTEND
  0
MTEXT
  5
73B4
330
73A8
100
AcDbEntity
  8
FORMAT
 62
     0
100
AcDbMText
 10
0.3651166587745314
 20
-0.5175825995752157
 30
0.0
 40
0.0833333333333333
 41
0.0
 71
     1
 72
     1
  1
REV
  7
SLDTEXTSTYLE0
1001
ACAD
1000
MTEXTBEGIN
1070
    73
1070
     1
1070
    44
1040
1.0
1070
    74
1070
     0
1000
MTEXTEND
  0
MTEXT
  5
73B5
330
73A8
100
AcDbEntity
  8
FORMAT
 62
     0
100
AcDbMText
 10
1.430618242366678
 20
-0.5175825995752157
 30
0.0
 40
0.0833333333333333
 41
0.0
 71
     1
 72
     1
  1
ECN
  7
SLDTEXTSTYLE0
1001
ACAD
1000
MTEXTBEGIN
1070
    73
1070
     1
1070
    44
1040
1.0
1070
    74
1070
     0
1000
MTEXTEND
  0
MTEXT
  5
73B6
330
73A8
100
AcDbEntity
  8
FORMAT
 62
     0
100
AcDbMText
 10
5.273436454351877
 20
-0.5175825995752157
 30
0.0
 40
0.0833333333333333
 41
0.0
 71
     1
 72
     1
  1
DESCRIPTION
  7
SLDTEXTSTYLE0
1001
ACAD
1000
MTEXTBEGIN
1070
    73
1070
     1
1070
    44
1040
1.0
1070
    74
1070
     0
1000
MTEXTEND
  0
MTEXT
  5
73B7
330
73A8
100
AcDbEntity
  8
FORMAT
 62
     0
100
AcDbMText
 10
9.561933694481577
 20
-0.5175825995752157
 30
0.0
 40
0.0833333333333333
 41
0.0
 71
     1
 72
     1
  1
DATE
  7
SLDTEXTSTYLE0
1001
ACAD
1000
MTEXTBEGIN
1070
    73
1070
     1
1070
    44
1040
1.0
1070
    74
1070
     0
1000
MTEXTEND
  0
MTEXT
  5
73B8
330
73A8
100
AcDbEntity
  8
FORMAT
 62
     0
100
AcDbMText
 10
10.85924383323118
 20
-0.5175825995752157
 30
0.0
 40
0.0833333333333333
 41
0.0
 71
     1
 72
     1
  1
APPROVED
  7
SLDTEXTSTYLE0
1001
ACAD
1000
MTEXTBEGIN
1070
    73
1070
     1
1070
    44
1040
1.0
1070
    74
1070
     0
1000
MTEXTEND
  0
MTEXT
  5
73B9
330
73A8
100
AcDbEntity
  8
FORMAT
 62
     0
100
AcDbMText
 10
0.3907462893655184
 20
-0.8314254579268725
 30
0.0
 40
0.156
 41
0.0
 71
     1
 72
     1
  1
A
  7
SLDTEXTSTYLE0
1001
ACAD
1000
MTEXTBEGIN
1070
    73
1070
     1
1070
    44
1040
1.0
1070
    74
1070
     0
1000
MTEXTEND
  0
MTEXT
  5
73BA
330
73A8
100
AcDbEntity
  8
FORMAT
 62
     0
100
AcDbMText
 10
1.315764856662791
 20
-0.8486900357699532
 30
0.0
 40
0.125
 41
0.0
 71
     1
 72
     1
  1
20978
  7
SLDTEXTSTYLE0
1001
ACAD
1000
MTEXTBEGIN
1070
    73
1070
     1
1070
    44
1040
1.0
1070
    74
1070
     0
1000
MTEXTEND
  0
MTEXT
  5
73BB
330
73A8
100
AcDbEntity
  8
FORMAT
 62
     0
100
AcDbMText
 10
2.177694379576756
 20
-0.8314254579268725
 30
0.0
 40
0.156
 41
0.0
 71
     1
 72
     1
  1
INITIAL RELEASE
  7
SLDTEXTSTYLE0
1001
ACAD
1000
MTEXTBEGIN
1070
    73
1070
     1
1070
    44
1040
1.0
1070
    74
1070
     0
1000
MTEXTEND
  0
MTEXT
  5
73BC
330
73A8
100
AcDbEntity
  8
FORMAT
 62
     0
100
AcDbMText
 10
9.347890476293766
 20
-0.8486900357699532
 30
0.0
 40
0.125
 41
0.0
 71
     1
 72
     1
  1
06/10/13
  7
SLDTEXTSTYLE0
1001
ACAD
1000
MTEXTBEGIN
1070
    73
1070
     1
1070
    44
1040
1.0
1070
    74
1070
     0
1000
MTEXTEND
  0
MTEXT
  5
73BD
330
73A8
100
AcDbEntity
  8
FORMAT
 62
     0
100
AcDbMText
 10
10.97967207370054
 20
-0.8486900357699532
 30
0.0
 40
0.125
 41
0.0
 71
     1
 72
     1
  1
P. LE
  7
SLDTEXTSTYLE6
1001
ACAD
1000
MTEXTBEGIN
1070
    73
1070
     1
1070
    44
1040
1.0
1070
    74
1070
     0
1000
MTEXTEND
  0
ENDBLK
  5
73BF
330
73A8
100
AcDbEntity
  8
0
100
AcDbBlockEnd
  0
BLOCK
  5
73C9
330
73C0
100
AcDbEntity
  8
0
100
AcDbBlockBegin
  2
SW_CENTERMARKSYMBOL_0
 70
     0
 10
0.0
 20
0.0
 30
0.0
  3
SW_CENTERMARKSYMBOL_0
  1

  0
LINE
  5
73C1
330
73C0
100
AcDbEntity
  8
FORMAT
 62
     0
100
AcDbLine
 10
0.0
 20
0.0
 30
0.0
 11
0.0
 21
0.1000000000000006
 31
0.0
  0
LINE
  5
73C2
330
73C0
100
AcDbEntity
  8
FORMAT
 62
     0
100
AcDbLine
 10
0.0
 20
0.0
 30
0.0
 11
-0.0999999999999995
 21
0.0
 31
0.0
  0
LINE
  5
73C3
330
73C0
100
AcDbEntity
  8
FORMAT
 62
     0
100
AcDbLine
 10
0.0
 20
0.0
 30
0.0
 11
0.0
 21
-0.0999999999999995
 31
0.0
  0
LINE
  5
73C4
330
73C0
100
AcDbEntity
  8
FORMAT
 62
     0
100
AcDbLine
 10
0.0
 20
0.0
 30
0.0
 11
0.0999999999999995
 21
0.0
 31
0.0
  0
LINE
  5
73C5
330
73C0
100
AcDbEntity
  8
FORMAT
 62
     0
100
AcDbLine
 10
0.0
 20
0.1000000000000006
 30
0.0
 11
0.0
 21
0.1720000000000002
 31
0.0
  0
LINE
  5
73C6
330
73C0
100
AcDbEntity
  8
FORMAT
 62
     0
100
AcDbLine
 10
-0.0999999999999995
 20
0.0
 30
0.0
 11
-0.1720000000000002
 21
0.0
 31
0.0
  0
LINE
  5
73C7
330
73C0
100
AcDbEntity
  8
FORMAT
 62
     0
100
AcDbLine
 10
0.0
 20
-0.0999999999999995
 30
0.0
 11
0.0
 21
-0.1720000000000002
 31
0.0
  0
LINE
  5
73C8
330
73C0
100
AcDbEntity
  8
FORMAT
 62
     0
100
AcDbLine
 10
0.0999999999999995
 20
0.0
 30
0.0
 11
0.1720000000000002
 21
0.0
 31
0.0
  0
ENDBLK
  5
73CA
330
73C0
100
AcDbEntity
  8
0
100
AcDbBlockEnd
  0
BLOCK
  5
73D4
330
73CB
100
AcDbEntity
  8
0
100
AcDbBlockBegin
  2
SW_CENTERMARKSYMBOL_1
 70
     0
 10
0.0
 20
0.0
 30
0.0
  3
SW_CENTERMARKSYMBOL_1
  1

  0
LINE
  5
73CC
330
73CB
100
AcDbEntity
  8
FORMAT
 62
     0
100
AcDbLine
 10
0.0
 20
0.0
 30
0.0
 11
0.0
 21
0.0999999999999995
 31
0.0
  0
LINE
  5
73CD
330
73CB
100
AcDbEntity
  8
FORMAT
 62
     0
100
AcDbLine
 10
0.0
 20
0.0
 30
0.0
 11
-0.0999999999999995
 21
0.0
 31
0.0
  0
LINE
  5
73CE
330
73CB
100
AcDbEntity
  8
FORMAT
 62
     0
100
AcDbLine
 10
0.0
 20
0.0
 30
0.0
 11
0.0
 21
-0.1000000000000006
 31
0.0
  0
LINE
  5
73CF
330
73CB
100
AcDbEntity
  8
FORMAT
 62
     0
100
AcDbLine
 10
0.0
 20
0.0
 30
0.0
 11
0.0999999999999995
 21
0.0
 31
0.0
  0
LINE
  5
73D0
330
73CB
100
AcDbEntity
  8
FORMAT
 62
     0
100
AcDbLine
 10
0.0
 20
0.0999999999999995
 30
0.0
 11
0.0
 21
0.1720000000000002
 31
0.0
  0
LINE
  5
73D1
330
73CB
100
AcDbEntity
  8
FORMAT
 62
     0
100
AcDbLine
 10
-0.0999999999999995
 20
0.0
 30
0.0
 11
-0.1720000000000002
 21
0.0
 31
0.0
  0
LINE
  5
73D2
330
73CB
100
AcDbEntity
  8
FORMAT
 62
     0
100
AcDbLine
 10
0.0
 20
-0.1000000000000006
 30
0.0
 11
0.0
 21
-0.1720000000000002
 31
0.0
  0
LINE
  5
73D3
330
73CB
100
AcDbEntity
  8
FORMAT
 62
     0
100
AcDbLine
 10
0.0999999999999995
 20
0.0
 30
0.0
 11
0.1720000000000002
 21
0.0
 31
0.0
  0
ENDBLK
  5
73D5
330
73CB
100
AcDbEntity
  8
0
100
AcDbBlockEnd
  0
BLOCK
  5
75C2
330
73E1
100
AcDbEntity
  8
0
100
AcDbBlockBegin
  2
95-2265-17
 70
     0
 10
0.0
 20
0.0
 30
0.0
  3
95-2265-17
  1

  0
HATCH
  5
73E2
330
73E1
100
AcDbEntity
  8
FORMAT
 62
     7
100
AcDbHatch
 10
0.0
 20
0.0
 30
0.0
210
0.0
220
0.0
230
1.0
  2
SOLID
 70
     1
 71
     0
 91
        1
 92
        0
 93
        3
 72
     1
 10
33.696573
 20
11.11349199999999
 11
33.5
 21
10.99999999999999
 72
     1
 10
33.5
 20
10.99999999999999
 11
33.696573
 21
10.88650899999999
 72
     1
 10
33.696573
 20
10.88650899999999
 11
33.696573
 21
11.11349199999999
 97
        0
 75
     0
 76
     1
 98
        1
 10
0.0
 20
0.0
  0
HATCH
  5
73E3
330
73E1
100
AcDbEntity
  8
FORMAT
 62
     7
100
AcDbHatch
 10
0.0
 20
0.0
 30
0.0
210
0.0
220
0.0
230
1.0
  2
SOLID
 70
     1
 71
     0
 91
        1
 92
        0
 93
        3
 72
     1
 10
0.3034270000000001
 20
11.11349099999999
 11
0.3034269999999992
 21
10.88650799999999
 72
     1
 10
0.3034269999999992
 20
10.88650799999999
 11
0.4999999999999992
 21
10.99999999999999
 72
     1
 10
0.4999999999999992
 20
10.99999999999999
 11
0.3034270000000001
 21
11.11349099999999
 97
        0
 75
     0
 76
     1
 98
        1
 10
0.0
 20
0.0
  0
HATCH
  5
73E4
330
73E1
100
AcDbEntity
  8
FORMAT
 62
     7
100
AcDbHatch
 10
0.0
 20
0.0
 30
0.0
210
0.0
220
0.0
230
1.0
  2
SOLID
 70
     1
 71
     0
 91
        1
 92
        0
 93
        3
 72
     1
 10
16.886509
 20
0.3034269999999992
 11
17.11349199999999
 21
0.3034269999999992
 72
     1
 10
17.11349199999999
 20
0.3034269999999992
 11
16.99999999999999
 21
0.4999999999999999
 72
     1
 10
16.99999999999999
 20
0.4999999999999999
 11
16.886509
 21
0.3034269999999992
 97
        0
 75
     0
 76
     1
 98
        1
 10
0.0
 20
0.0
  0
HATCH
  5
73E5
330
73E1
100
AcDbEntity
  8
FORMAT
 62
     7
100
AcDbHatch
 10
0.0
 20
0.0
 30
0.0
210
0.0
220
0.0
230
1.0
  2
SOLID
 70
     1
 71
     0
 91
        1
 92
        0
 93
        3
 72
     1
 10
16.99999999999999
 20
21.5
 11
17.11349099999999
 21
21.696573
 72
     1
 10
17.11349099999999
 20
21.696573
 11
16.88650799999999
 21
21.696573
 72
     1
 10
16.88650799999999
 20
21.696573
 11
16.99999999999999
 21
21.5
 97
        0
 75
     0
 76
     1
 98
        1
 10
0.0
 20
0.0
  0
HATCH
  5
73E6
330
73E1
100
AcDbEntity
  8
FORMAT
100
AcDbHatch
 10
0.0
 20
0.0
 30
0.0
210
0.0
220
0.0
230
1.0
  2
SOLID
 70
     1
 71
     0
 91
        2
 92
        0
 93
        4
 72
     2
 10
28.42523413703466
 20
0.4867236379588187
 40
2.303734483509176
 50
100.7369884767684
 51
115.8445848643793
 73
     1
 72
     1
 10
27.42096358594918
 20
2.560038189765119
 11
27.72221440253551
 21
3.009898395795562
 72
     1
 10
27.72221440253551
 20
3.009898395795562
 11
27.89524244557755
 21
3.009898395795562
 72
     1
 10
27.89524244557755
 20
3.009898395795562
 11
27.99604627712901
 21
2.75012602185323
 97
        0
 92
        0
 93
        3
 72
     1
 10
27.78730301109048
 20
2.857448970448498
 11
27.71638256267897
 21
2.746087929262984
 72
     1
 10
27.71638256267897
 20
2.746087929262984
 11
27.82639629381618
 21
2.746301401914658
 72
     1
 10
27.82639629381618
 20
2.746301401914658
 11
27.78730301109048
 21
2.857448970448498
 97
        0
 75
     0
 76
     1
 98
        1
 10
0.0
 20
0.0
  0
HATCH
  5
73E7
330
73E1
100
AcDbEntity
  8
FORMAT
 62
     7
100
AcDbHatch
 10
0.0
 20
0.0
 30
0.0
210
0.0
220
0.0
230
1.0
  2
ANSI31
 70
     0
 71
     0
 91
        1
 92
        0
 93
        7
 72
     2
 10
28.4520446382265
 20
-0.0812992519853255
 40
2.814774653686729
 50
98.91769894924955
 51
102.2711423007093
 73
     1
 72
     1
 10
27.85379733476327
 20
2.669165529635449
 11
27.89252030058969
 21
2.560038189765117
 72
     1
 10
27.89252030058969
 20
2.560038189765117
 11
28.22439509774364
 21
2.560038189765117
 72
     1
 10
28.22439509774364
 20
2.560038189765117
 11
28.2534481466875
 21
2.734356483428371
 72
     2
 10
28.84418016139653
 20
-2.211762160162989
 40
4.98127031485787
 50
96.81077116038439
 51
98.7658188097698
 73
     1
 72
     1
 10
28.08505320817211
 20
2.711324292315012
 11
28.06284416794593
 21
2.577987260808255
 72
     1
 10
28.06284416794593
 20
2.577987260808255
 11
28.01571075607803
 21
2.699450484025899
 97
        0
 75
     0
 76
     1
 52
0.0
 41
1.0
 77
     0
 78
     1
 53
45.0
 43
0.0
 44
0.0
 45
-0.0883883476483184
 46
0.0883883476483185
 79
     0
 98
        1
 10
0.0
 20
0.0
  0
HATCH
  5
73E8
330
73E1
100
AcDbEntity
  8
FORMAT
 62
     7
100
AcDbHatch
 10
0.0
 20
0.0
 30
0.0
210
0.0
220
0.0
230
1.0
  2
ANSI31
 70
     0
 71
     0
 91
        1
 92
        0
 93
       13
 72
     1
 10
29.16989368840465
 20
3.009898395795562
 11
29.38348614891178
 21
3.009898395795562
 72
     1
 10
29.38348614891178
 20
3.009898395795562
 11
29.19279654184188
 21
2.849663121732444
 72
     2
 10
29.75206810599112
 20
-32.64549153385557
 40
35.49956040159621
 50
90.90269359832783
 51
91.4276731912744
 73
     1
 72
     1
 10
28.86759586955777
 20
2.843048835812443
 11
28.73192948971407
 21
2.999019518033357
 72
     1
 10
28.73192948971407
 20
2.999019518033357
 11
28.70471702376885
 21
2.835744722362004
 72
     2
 10
29.00055122292874
 20
-2.744979632338445
 40
5.588559939424406
 50
93.03440911951202
 51
99.32746877910856
 73
     1
 72
     1
 10
28.09477463227537
 20
2.769689076148373
 11
28.13478466086577
 21
3.009898395795562
 72
     1
 10
28.13478466086577
 20
3.009898395795562
 11
28.27250800784915
 21
3.009898395795562
 72
     1
 10
28.27250800784915
 20
3.009898395795562
 11
28.40846516441128
 21
2.86109542429461
 72
     1
 10
28.40846516441128
 20
2.86109542429461
 11
28.59422335947938
 21
3.009898395795562
 72
     1
 10
28.59422335947938
 20
3.009898395795562
 11
28.93608238153996
 21
3.009898395795562
 72
     1
 10
28.93608238153996
 20
3.009898395795562
 11
29.03481323325338
 21
2.896391141339901
 72
     1
 10
29.03481323325338
 20
2.896391141339901
 11
29.16989368840465
 21
3.009898395795562
 97
        0
 75
     0
 76
     1
 52
0.0
 41
1.0
 77
     0
 78
     1
 53
45.0
 43
0.0
 44
0.0
 45
-0.0883883476483184
 46
0.0883883476483185
 79
     0
 98
        1
 10
0.0
 20
0.0
  0
HATCH
  5
73E9
330
73E1
100
AcDbEntity
  8
FORMAT
 62
     7
100
AcDbHatch
 10
0.0
 20
0.0
 30
0.0
210
0.0
220
0.0
230
1.0
  2
ANSI31
 70
     0
 71
     0
 91
        1
 92
        0
 93
       10
 72
     1
 10
28.49439700544456
 20
2.560038189765117
 11
28.84812546490569
 21
2.560038189765117
 72
     1
 10
28.84812546490569
 20
2.560038189765117
 11
29.00159362169353
 21
2.6889965139272
 72
     1
 10
29.00159362169353
 20
2.6889965139272
 11
29.11376411899891
 21
2.560038189765117
 72
     1
 10
29.11376411899891
 20
2.560038189765117
 11
29.32737967356207
 21
2.560038189765117
 72
     1
 10
29.32737967356207
 20
2.560038189765117
 11
29.13999480838106
 21
2.775467725762407
 72
     2
 10
29.05510266338243
 20
-3.190012262200435
 40
5.966083988938442
 50
89.18470377236852
 51
91.59664224690867
 73
     1
 72
     1
 10
28.88886932108983
 20
2.773755392477088
 11
28.66271243457582
 21
2.58371718720382
 72
     1
 10
28.66271243457582
 20
2.58371718720382
 11
28.69329665119762
 21
2.76722248693467
 72
     2
 10
28.84418016139653
 20
-2.211762160162989
 40
4.981270314857866
 50
91.73576423011992
 51
93.64348457294825
 73
     1
 72
     1
 10
28.52763063088184
 20
2.759439942388777
 11
28.49439700544456
 21
2.560038189765117
 97
        0
 75
     0
 76
     1
 52
0.0
 41
1.0
 77
     0
 78
     1
 53
45.0
 43
0.0
 44
0.0
 45
-0.0883883476483184
 46
0.0883883476483185
 79
     0
 98
        1
 10
0.0
 20
0.0
  0
LINE
  5
73EA
330
73E1
100
AcDbEntity
  8
FORMAT
 62
     7
100
AcDbLine
 10
33.5
 20
10.99999999999999
 30
0.0
 11
33.696573
 21
10.88650899999999
 31
0.0
  0
LINE
  5
73EB
330
73E1
100
AcDbEntity
  8
FORMAT
 62
     7
100
AcDbLine
 10
33.696573
 20
10.88650899999999
 30
0.0
 11
33.696573
 21
11.11349199999999
 31
0.0
  0
LINE
  5
73EC
330
73E1
100
AcDbEntity
  8
FORMAT
 62
     7
100
AcDbLine
 10
33.696573
 20
11.11349199999999
 30
0.0
 11
33.5
 21
10.99999999999999
 31
0.0
  0
LINE
  5
73ED
330
73E1
100
AcDbEntity
  8
FORMAT
 62
     7
100
AcDbLine
 10
0.3034269999999992
 20
10.88650799999999
 30
0.0
 11
0.4999999999999992
 21
10.99999999999999
 31
0.0
  0
LINE
  5
73EE
330
73E1
100
AcDbEntity
  8
FORMAT
 62
     7
100
AcDbLine
 10
0.4999999999999992
 20
10.99999999999999
 30
0.0
 11
0.3034270000000001
 21
11.11349099999999
 31
0.0
  0
LINE
  5
73EF
330
73E1
100
AcDbEntity
  8
FORMAT
 62
     7
100
AcDbLine
 10
0.3034270000000001
 20
11.11349099999999
 30
0.0
 11
0.3034269999999992
 21
10.88650799999999
 31
0.0
  0
LINE
  5
73F0
330
73E1
100
AcDbEntity
  8
FORMAT
 62
     7
100
AcDbLine
 10
17.11349199999999
 20
0.3034269999999992
 30
0.0
 11
16.99999999999999
 21
0.4999999999999999
 31
0.0
  0
LINE
  5
73F1
330
73E1
100
AcDbEntity
  8
FORMAT
 62
     7
100
AcDbLine
 10
16.99999999999999
 20
0.4999999999999999
 30
0.0
 11
16.886509
 21
0.3034269999999992
 31
0.0
  0
LINE
  5
73F2
330
73E1
100
AcDbEntity
  8
FORMAT
 62
     7
100
AcDbLine
 10
16.886509
 20
0.3034269999999992
 30
0.0
 11
17.11349199999999
 21
0.3034269999999992
 31
0.0
  0
LINE
  5
73F3
330
73E1
100
AcDbEntity
  8
FORMAT
 62
     7
100
AcDbLine
 10
17.11349099999999
 20
21.696573
 30
0.0
 11
16.88650799999999
 21
21.696573
 31
0.0
  0
LINE
  5
73F4
330
73E1
100
AcDbEntity
  8
FORMAT
 62
     7
100
AcDbLine
 10
16.88650799999999
 20
21.696573
 30
0.0
 11
16.99999999999999
 21
21.5
 31
0.0
  0
LINE
  5
73F5
330
73E1
100
AcDbEntity
  8
FORMAT
 62
     7
100
AcDbLine
 10
16.99999999999999
 20
21.5
 30
0.0
 11
17.11349099999999
 21
21.696573
 31
0.0
  0
LINE
  5
73F6
330
73E1
100
AcDbEntity
  8
FORMAT
 62
     7
100
AcDbLine
 10
27.85379733476327
 20
2.669165529635449
 30
0.0
 11
27.89252030058969
 21
2.560038189765117
 31
0.0
  0
LINE
  5
73F7
330
73E1
100
AcDbEntity
  8
FORMAT
 62
     7
100
AcDbLine
 10
27.89252030058969
 20
2.560038189765117
 30
0.0
 11
28.22439509774364
 21
2.560038189765117
 31
0.0
  0
LINE
  5
73F8
330
73E1
100
AcDbEntity
  8
FORMAT
 62
     7
100
AcDbLine
 10
28.22439509774364
 20
2.560038189765117
 30
0.0
 11
28.2534481466875
 21
2.734356483428371
 31
0.0
  0
LINE
  5
73F9
330
73E1
100
AcDbEntity
  8
FORMAT
 62
     7
100
AcDbLine
 10
28.08505320817211
 20
2.711324292315012
 30
0.0
 11
28.06284416794593
 21
2.577987260808255
 31
0.0
  0
LINE
  5
73FA
330
73E1
100
AcDbEntity
  8
FORMAT
 62
     7
100
AcDbLine
 10
28.06284416794593
 20
2.577987260808255
 30
0.0
 11
28.01571075607803
 21
2.699450484025899
 31
0.0
  0
LINE
  5
73FB
330
73E1
100
AcDbEntity
  8
FORMAT
 62
     7
100
AcDbLine
 10
29.38348614891178
 20
3.009898395795562
 30
0.0
 11
29.19279654184188
 21
2.849663121732444
 31
0.0
  0
LINE
  5
73FC
330
73E1
100
AcDbEntity
  8
FORMAT
 62
     7
100
AcDbLine
 10
28.86759586955777
 20
2.843048835812439
 30
0.0
 11
28.73192948971407
 21
2.999019518033357
 31
0.0
  0
LINE
  5
73FD
330
73E1
100
AcDbEntity
  8
FORMAT
 62
     7
100
AcDbLine
 10
28.73192948971407
 20
2.999019518033357
 30
0.0
 11
28.70471702376885
 21
2.835744722362004
 31
0.0
  0
LINE
  5
73FE
330
73E1
100
AcDbEntity
  8
FORMAT
 62
     7
100
AcDbLine
 10
28.09477463227537
 20
2.769689076148374
 30
0.0
 11
28.13478466086577
 21
3.009898395795562
 31
0.0
  0
LINE
  5
73FF
330
73E1
100
AcDbEntity
  8
FORMAT
 62
     7
100
AcDbLine
 10
28.13478466086577
 20
3.009898395795562
 30
0.0
 11
28.27250800784915
 21
3.009898395795562
 31
0.0
  0
LINE
  5
7400
330
73E1
100
AcDbEntity
  8
FORMAT
 62
     7
100
AcDbLine
 10
28.27250800784915
 20
3.009898395795562
 30
0.0
 11
28.40846516441128
 21
2.86109542429461
 31
0.0
  0
LINE
  5
7401
330
73E1
100
AcDbEntity
  8
FORMAT
 62
     7
100
AcDbLine
 10
28.40846516441128
 20
2.86109542429461
 30
0.0
 11
28.59422335947938
 21
3.009898395795562
 31
0.0
  0
LINE
  5
7402
330
73E1
100
AcDbEntity
  8
FORMAT
 62
     7
100
AcDbLine
 10
28.59422335947938
 20
3.009898395795562
 30
0.0
 11
28.93608238153996
 21
3.009898395795562
 31
0.0
  0
LINE
  5
7403
330
73E1
100
AcDbEntity
  8
FORMAT
 62
     7
100
AcDbLine
 10
28.93608238153996
 20
3.009898395795562
 30
0.0
 11
29.03481323325338
 21
2.896391141339901
 31
0.0
  0
LINE
  5
7404
330
73E1
100
AcDbEntity
  8
FORMAT
 62
     7
100
AcDbLine
 10
29.03481323325338
 20
2.896391141339901
 30
0.0
 11
29.16989368840465
 21
3.009898395795562
 31
0.0
  0
LINE
  5
7405
330
73E1
100
AcDbEntity
  8
FORMAT
 62
     7
100
AcDbLine
 10
29.16989368840465
 20
3.009898395795562
 30
0.0
 11
29.38348614891178
 21
3.009898395795562
 31
0.0
  0
LINE
  5
7406
330
73E1
100
AcDbEntity
  8
FORMAT
 62
     7
100
AcDbLine
 10
28.84812546490569
 20
2.560038189765117
 30
0.0
 11
29.00159362169353
 21
2.6889965139272
 31
0.0
  0
LINE
  5
7407
330
73E1
100
AcDbEntity
  8
FORMAT
 62
     7
100
AcDbLine
 10
29.00159362169353
 20
2.6889965139272
 30
0.0
 11
29.11376411899891
 21
2.560038189765117
 31
0.0
  0
LINE
  5
7408
330
73E1
100
AcDbEntity
  8
FORMAT
 62
     7
100
AcDbLine
 10
29.11376411899891
 20
2.560038189765117
 30
0.0
 11
29.32737967356207
 21
2.560038189765117
 31
0.0
  0
LINE
  5
7409
330
73E1
100
AcDbEntity
  8
FORMAT
 62
     7
100
AcDbLine
 10
29.32737967356207
 20
2.560038189765117
 30
0.0
 11
29.13999480838106
 21
2.775467725762407
 31
0.0
  0
LINE
  5
740A
330
73E1
100
AcDbEntity
  8
FORMAT
 62
     7
100
AcDbLine
 10
28.88886932108983
 20
2.773755392477088
 30
0.0
 11
28.66271243457582
 21
2.58371718720382
 31
0.0
  0
LINE
  5
740B
330
73E1
100
AcDbEntity
  8
FORMAT
 62
     7
100
AcDbLine
 10
28.66271243457582
 20
2.58371718720382
 30
0.0
 11
28.69329665119762
 21
2.76722248693467
 31
0.0
  0
LINE
  5
740C
330
73E1
100
AcDbEntity
  8
FORMAT
 62
     7
100
AcDbLine
 10
28.52763063088184
 20
2.75943994238878
 30
0.0
 11
28.49439700544456
 21
2.560038189765117
 31
0.0
  0
LINE
  5
740D
330
73E1
100
AcDbEntity
  8
FORMAT
 62
     7
100
AcDbLine
 10
28.49439700544456
 20
2.560038189765117
 30
0.0
 11
28.84812546490569
 21
2.560038189765117
 31
0.0
  0
LINE
  5
740E
330
73E1
100
AcDbEntity
  8
FORMAT
 62
     7
100
AcDbLine
 10
27.61703378072079
 20
1.272892106623776
 30
0.0
 11
27.61703378072079
 21
0.8236485696487072
 31
0.0
  0
LINE
  5
740F
330
73E1
100
AcDbEntity
  8
FORMAT
 62
     7
100
AcDbLine
 10
28.42063372699124
 20
0.8236485696487072
 30
0.0
 11
28.42063372699124
 21
0.5
 31
0.0
  0
LINE
  5
7410
330
73E1
100
AcDbEntity
  8
FORMAT
 62
     7
100
AcDbLine
 10
31.81895966809327
 20
0.8236485696487072
 30
0.0
 11
31.81895966809327
 21
0.5
 31
0.0
  0
LINE
  5
7411
330
73E1
100
AcDbEntity
  8
FORMAT
 62
     7
100
AcDbLine
 10
32.94931437403055
 20
1.272892106623776
 30
0.0
 11
32.94931437403055
 21
0.8236485696487072
 31
0.0
  0
LINE
  5
7412
330
73E1
100
AcDbEntity
  8
FORMAT
 62
     7
100
AcDbLine
 10
27.12431506274814
 20
0.8236485696487072
 30
0.0
 11
33.5
 21
0.8236485696487072
 31
0.0
  0
LINE
  5
7413
330
73E1
100
AcDbEntity
  8
FORMAT
 62
     7
100
AcDbLine
 10
27.12431506274814
 20
1.272892106623776
 30
0.0
 11
33.5
 21
1.272892106623776
 31
0.0
  0
LINE
  5
7414
330
73E1
100
AcDbEntity
  8
FORMAT
 62
     7
100
AcDbLine
 10
27.12431506274814
 20
2.441891417892239
 30
0.0
 11
33.5
 21
2.441891417892239
 31
0.0
  0
LINE
  5
7415
330
73E1
100
AcDbEntity
  8
FORMAT
 62
     7
100
AcDbLine
 10
22.46247449734403
 20
1.055507487567172
 30
0.0
 11
27.12431293507279
 21
1.055507487567172
 31
0.0
  0
LINE
  5
7416
330
73E1
100
AcDbEntity
  8
FORMAT
 62
     7
100
AcDbLine
 10
22.46247282194167
 20
3.113332608754833
 30
0.0
 11
22.46247494961703
 21
0.4999998873018564
 31
0.0
  0
LINE
  5
7417
330
73E1
100
AcDbEntity
  8
FORMAT
 62
     7
100
AcDbLine
 10
27.12431506274814
 20
3.113341435521647
 30
0.0
 11
27.12431506274814
 21
0.5
 31
0.0
  0
LINE
  5
7418
330
73E1
100
AcDbEntity
  8
FORMAT
 62
     7
100
AcDbLine
 10
19.55365650994497
 20
0.5
 30
0.0
 11
19.55365654839636
 21
3.113341420836696
 31
0.0
  0
LINE
  5
7419
330
73E1
100
AcDbEntity
  8
FORMAT
 62
     7
100
AcDbLine
 10
19.55365654839636
 20
3.113341420836696
 30
0.0
 11
33.5
 21
3.113341420836696
 31
0.0
  0
LINE
  5
741A
330
73E1
100
AcDbEntity
  8
FORMAT
  6
CONTINUOUS
 62
     7
100
AcDbLine
 10
29.74999999999999
 20
21.5
 30
0.0
 11
29.74999999999999
 21
22.0
 31
0.0
  0
LINE
  5
741B
330
73E1
100
AcDbEntity
  8
FORMAT
  6
CONTINUOUS
 62
     7
100
AcDbLine
 10
33.5
 20
16.5
 30
0.0
 11
34.0
 21
16.5
 31
0.0
  0
LINE
  5
741C
330
73E1
100
AcDbEntity
  8
FORMAT
  6
CONTINUOUS
 62
     7
100
AcDbLine
 10
25.5
 20
21.5
 30
0.0
 11
25.5
 21
22.0
 31
0.0
  0
LINE
  5
741D
330
73E1
100
AcDbEntity
  8
FORMAT
  6
CONTINUOUS
 62
     7
100
AcDbLine
 10
21.25
 20
21.5
 30
0.0
 11
21.25
 21
22.0
 31
0.0
  0
LINE
  5
741E
330
73E1
100
AcDbEntity
  8
FORMAT
  6
CONTINUOUS
 62
     7
100
AcDbLine
 10
33.5
 20
10.99999999999999
 30
0.0
 11
33.696573
 21
10.88650899999999
 31
0.0
  0
LINE
  5
741F
330
73E1
100
AcDbEntity
  8
FORMAT
  6
CONTINUOUS
 62
     7
100
AcDbLine
 10
33.5
 20
10.99999999999999
 30
0.0
 11
34.0
 21
11.0
 31
0.0
  0
LINE
  5
7420
330
73E1
100
AcDbEntity
  8
FORMAT
  6
CONTINUOUS
 62
     7
100
AcDbLine
 10
33.5
 20
5.5
 30
0.0
 11
34.0
 21
5.5
 31
0.0
  0
LINE
  5
7421
330
73E1
100
AcDbEntity
  8
FORMAT
  6
CONTINUOUS
 62
     7
100
AcDbLine
 10
29.74999999999999
 20
0.0
 30
0.0
 11
29.74999999999999
 21
0.5
 31
0.0
  0
LINE
  5
7422
330
73E1
100
AcDbEntity
  8
FORMAT
  6
CONTINUOUS
 62
     7
100
AcDbLine
 10
25.5
 20
0.0
 30
0.0
 11
25.5
 21
0.5
 31
0.0
  0
LINE
  5
7423
330
73E1
100
AcDbEntity
  8
FORMAT
  6
CONTINUOUS
 62
     7
100
AcDbLine
 10
21.25
 20
0.0
 30
0.0
 11
21.25
 21
0.5
 31
0.0
  0
LINE
  5
7424
330
73E1
100
AcDbEntity
  8
FORMAT
  6
CONTINUOUS
 62
     7
100
AcDbLine
 10
33.696573
 20
10.88650899999999
 30
0.0
 11
33.696573
 21
11.11349199999999
 31
0.0
  0
LINE
  5
7425
330
73E1
100
AcDbEntity
  8
FORMAT
  6
CONTINUOUS
 62
     7
100
AcDbLine
 10
33.696573
 20
11.11349199999999
 30
0.0
 11
33.5
 21
10.99999999999999
 31
0.0
  0
LINE
  5
7426
330
73E1
100
AcDbEntity
  8
FORMAT
  6
PHANTOM
 62
     7
100
AcDbLine
 10
34.0
 20
0.0
 30
0.0
 11
34.0
 21
22.0
 31
0.0
  0
LINE
  5
7427
330
73E1
100
AcDbEntity
  8
FORMAT
  6
CONTINUOUS
 62
     7
100
AcDbLine
 10
16.88650799999999
 20
21.696573
 30
0.0
 11
16.99999999999999
 21
21.5
 31
0.0
  0
LINE
  5
7428
330
73E1
100
AcDbEntity
  8
FORMAT
  6
CONTINUOUS
 62
     7
100
AcDbLine
 10
16.99999999999999
 20
21.5
 30
0.0
 11
17.0
 21
22.0
 31
0.0
  0
LINE
  5
7429
330
73E1
100
AcDbEntity
  8
FORMAT
  6
CONTINUOUS
 62
     7
100
AcDbLine
 10
12.75
 20
21.5
 30
0.0
 11
12.75
 21
22.0
 31
0.0
  0
LINE
  5
742A
330
73E1
100
AcDbEntity
  8
FORMAT
  6
CONTINUOUS
 62
     7
100
AcDbLine
 10
8.5
 20
21.5
 30
0.0
 11
8.5
 21
22.0
 31
0.0
  0
LINE
  5
742B
330
73E1
100
AcDbEntity
  8
FORMAT
  6
CONTINUOUS
 62
     7
100
AcDbLine
 10
4.25
 20
21.5
 30
0.0
 11
4.25
 21
22.0
 31
0.0
  0
LINE
  5
742C
330
73E1
100
AcDbEntity
  8
FORMAT
  6
CONTINUOUS
 62
     7
100
AcDbLine
 10
0.0
 20
16.5
 30
0.0
 11
0.5
 21
16.5
 31
0.0
  0
LINE
  5
742D
330
73E1
100
AcDbEntity
  8
FORMAT
  6
CONTINUOUS
 62
     7
100
AcDbLine
 10
16.99999999999999
 20
0.4999999999999999
 30
0.0
 11
16.886509
 21
0.3034269999999992
 31
0.0
  0
LINE
  5
742E
330
73E1
100
AcDbEntity
  8
FORMAT
  6
CONTINUOUS
 62
     7
100
AcDbLine
 10
17.0
 20
0.0
 30
0.0
 11
16.99999999999999
 21
0.4999999999999999
 31
0.0
  0
LINE
  5
742F
330
73E1
100
AcDbEntity
  8
FORMAT
  6
CONTINUOUS
 62
     7
100
AcDbLine
 10
12.75
 20
0.0
 30
0.0
 11
12.75
 21
0.5
 31
0.0
  0
LINE
  5
7430
330
73E1
100
AcDbEntity
  8
FORMAT
  6
CONTINUOUS
 62
     7
100
AcDbLine
 10
8.5
 20
0.0
 30
0.0
 11
8.5
 21
0.5
 31
0.0
  0
LINE
  5
7431
330
73E1
100
AcDbEntity
  8
FORMAT
  6
CONTINUOUS
 62
     7
100
AcDbLine
 10
0.3034269999999992
 20
10.88650799999999
 30
0.0
 11
0.4999999999999992
 21
10.99999999999999
 31
0.0
  0
LINE
  5
7432
330
73E1
100
AcDbEntity
  8
FORMAT
  6
CONTINUOUS
 62
     7
100
AcDbLine
 10
0.0
 20
11.0
 30
0.0
 11
0.4999999999999992
 21
10.99999999999999
 31
0.0
  0
LINE
  5
7433
330
73E1
100
AcDbEntity
  8
FORMAT
  6
CONTINUOUS
 62
     7
100
AcDbLine
 10
0.0
 20
5.5
 30
0.0
 11
0.5
 21
5.5
 31
0.0
  0
LINE
  5
7434
330
73E1
100
AcDbEntity
  8
FORMAT
  6
CONTINUOUS
 62
     7
100
AcDbLine
 10
4.25
 20
0.0
 30
0.0
 11
4.25
 21
0.5
 31
0.0
  0
LINE
  5
7435
330
73E1
100
AcDbEntity
  8
FORMAT
  6
CONTINUOUS
 62
     7
100
AcDbLine
 10
0.4999999999999992
 20
10.99999999999999
 30
0.0
 11
0.3034270000000001
 21
11.11349099999999
 31
0.0
  0
LINE
  5
7436
330
73E1
100
AcDbEntity
  8
FORMAT
  6
CONTINUOUS
 62
     7
100
AcDbLine
 10
0.3034270000000001
 20
11.11349099999999
 30
0.0
 11
0.3034269999999992
 21
10.88650799999999
 31
0.0
  0
LINE
  5
7437
330
73E1
100
AcDbEntity
  8
FORMAT
  6
PHANTOM
 62
     7
100
AcDbLine
 10
0.0
 20
22.0
 30
0.0
 11
0.0
 21
0.0
 31
0.0
  0
LINE
  5
7438
330
73E1
100
AcDbEntity
  8
FORMAT
  6
CONTINUOUS
 62
     7
100
AcDbLine
 10
17.11349099999999
 20
21.696573
 30
0.0
 11
16.88650799999999
 21
21.696573
 31
0.0
  0
LINE
  5
7439
330
73E1
100
AcDbEntity
  8
FORMAT
  6
CONTINUOUS
 62
     7
100
AcDbLine
 10
16.99999999999999
 20
21.5
 30
0.0
 11
17.11349099999999
 21
21.696573
 31
0.0
  0
LINE
  5
743A
330
73E1
100
AcDbEntity
  8
FORMAT
  6
CONTINUOUS
 62
     7
100
AcDbLine
 10
17.11349199999999
 20
0.3034269999999992
 30
0.0
 11
16.99999999999999
 21
0.4999999999999999
 31
0.0
  0
LINE
  5
743B
330
73E1
100
AcDbEntity
  8
FORMAT
  6
CONTINUOUS
 62
     7
100
AcDbLine
 10
16.886509
 20
0.3034269999999992
 30
0.0
 11
17.11349199999999
 21
0.3034269999999992
 31
0.0
  0
LINE
  5
743C
330
73E1
100
AcDbEntity
  8
FORMAT
  6
PHANTOM
 62
     7
100
AcDbLine
 10
0.0
 20
0.0
 30
0.0
 11
34.0
 21
0.0
 31
0.0
  0
LINE
  5
743D
330
73E1
100
AcDbEntity
  8
FORMAT
  6
PHANTOM
 62
     7
100
AcDbLine
 10
34.0
 20
22.0
 30
0.0
 11
0.0
 21
22.0
 31
0.0
  0
LINE
  5
743E
330
73E1
100
AcDbEntity
  8
FORMAT
 62
     7
100
AcDbLine
 10
28.84812546490569
 20
2.560038189765117
 30
0.0
 11
29.00159362169353
 21
2.6889965139272
 31
0.0
  0
LINE
  5
743F
330
73E1
100
AcDbEntity
  8
FORMAT
 62
     7
100
AcDbLine
 10
29.00159362169353
 20
2.6889965139272
 30
0.0
 11
29.11376411899891
 21
2.560038189765117
 31
0.0
  0
LINE
  5
7440
330
73E1
100
AcDbEntity
  8
FORMAT
 62
     7
100
AcDbLine
 10
29.11376411899891
 20
2.560038189765117
 30
0.0
 11
29.32737967356207
 21
2.560038189765117
 31
0.0
  0
LINE
  5
7441
330
73E1
100
AcDbEntity
  8
FORMAT
 62
     7
100
AcDbLine
 10
29.32737967356207
 20
2.560038189765117
 30
0.0
 11
29.13999480838106
 21
2.775467725762407
 31
0.0
  0
LINE
  5
7442
330
73E1
100
AcDbEntity
  8
FORMAT
 62
     7
100
AcDbLine
 10
28.88886932108983
 20
2.773755392477088
 30
0.0
 11
28.66271243457582
 21
2.58371718720382
 31
0.0
  0
LINE
  5
7443
330
73E1
100
AcDbEntity
  8
FORMAT
 62
     7
100
AcDbLine
 10
28.66271243457582
 20
2.58371718720382
 30
0.0
 11
28.69329665119762
 21
2.76722248693467
 31
0.0
  0
LINE
  5
7444
330
73E1
100
AcDbEntity
  8
FORMAT
 62
     7
100
AcDbLine
 10
28.52763063088184
 20
2.75943994238878
 30
0.0
 11
28.49439700544456
 21
2.560038189765117
 31
0.0
  0
LINE
  5
7445
330
73E1
100
AcDbEntity
  8
FORMAT
 62
     7
100
AcDbLine
 10
28.49439700544456
 20
2.560038189765117
 30
0.0
 11
28.84812546490569
 21
2.560038189765117
 31
0.0
  0
LINE
  5
7446
330
73E1
100
AcDbEntity
  8
FORMAT
 62
     7
100
AcDbLine
 10
27.85379733476327
 20
2.669165529635449
 30
0.0
 11
27.89252030058969
 21
2.560038189765117
 31
0.0
  0
LINE
  5
7447
330
73E1
100
AcDbEntity
  8
FORMAT
 62
     7
100
AcDbLine
 10
27.89252030058969
 20
2.560038189765117
 30
0.0
 11
28.22439509774364
 21
2.560038189765117
 31
0.0
  0
LINE
  5
7448
330
73E1
100
AcDbEntity
  8
FORMAT
 62
     7
100
AcDbLine
 10
28.22439509774364
 20
2.560038189765117
 30
0.0
 11
28.2534481466875
 21
2.734356483428371
 31
0.0
  0
LINE
  5
7449
330
73E1
100
AcDbEntity
  8
FORMAT
 62
     7
100
AcDbLine
 10
28.08505320817211
 20
2.711324292315012
 30
0.0
 11
28.06284416794593
 21
2.577987260808255
 31
0.0
  0
LINE
  5
744A
330
73E1
100
AcDbEntity
  8
FORMAT
 62
     7
100
AcDbLine
 10
28.06284416794593
 20
2.577987260808255
 30
0.0
 11
28.01571075607803
 21
2.699450484025899
 31
0.0
  0
LINE
  5
744B
330
73E1
100
AcDbEntity
  8
FORMAT
 62
     7
100
AcDbLine
 10
27.82639629381618
 20
2.746301401914658
 30
0.0
 11
27.78730301109048
 21
2.857448970448498
 31
0.0
  0
LINE
  5
744C
330
73E1
100
AcDbEntity
  8
FORMAT
 62
     7
100
AcDbLine
 10
27.78730301109048
 20
2.857448970448498
 30
0.0
 11
27.71638256267897
 21
2.746087929262984
 31
0.0
  0
LINE
  5
744D
330
73E1
100
AcDbEntity
  8
FORMAT
 62
     7
100
AcDbLine
 10
27.71638256267897
 20
2.746087929262984
 30
0.0
 11
27.82639629381618
 21
2.746301401914658
 31
0.0
  0
LINE
  5
744E
330
73E1
100
AcDbEntity
  8
FORMAT
 62
     7
100
AcDbLine
 10
27.89524244557755
 20
3.009898395795562
 30
0.0
 11
27.99604627712901
 21
2.75012602185323
 31
0.0
  0
LINE
  5
744F
330
73E1
100
AcDbEntity
  8
FORMAT
 62
     7
100
AcDbLine
 10
27.42096358594918
 20
2.560038189765119
 30
0.0
 11
27.72221440253551
 21
3.009898395795562
 31
0.0
  0
LINE
  5
7450
330
73E1
100
AcDbEntity
  8
FORMAT
 62
     7
100
AcDbLine
 10
27.72221440253551
 20
3.009898395795562
 30
0.0
 11
27.89524244557755
 21
3.009898395795562
 31
0.0
  0
LINE
  5
7451
330
73E1
100
AcDbEntity
  8
FORMAT
 62
     7
100
AcDbLine
 10
29.38348614891178
 20
3.009898395795562
 30
0.0
 11
29.19279654184188
 21
2.849663121732444
 31
0.0
  0
LINE
  5
7452
330
73E1
100
AcDbEntity
  8
FORMAT
 62
     7
100
AcDbLine
 10
28.86759586955777
 20
2.843048835812439
 30
0.0
 11
28.73192948971407
 21
2.999019518033357
 31
0.0
  0
LINE
  5
7453
330
73E1
100
AcDbEntity
  8
FORMAT
 62
     7
100
AcDbLine
 10
28.73192948971407
 20
2.999019518033357
 30
0.0
 11
28.70471702376885
 21
2.835744722362004
 31
0.0
  0
LINE
  5
7454
330
73E1
100
AcDbEntity
  8
FORMAT
 62
     7
100
AcDbLine
 10
28.09477463227537
 20
2.769689076148374
 30
0.0
 11
28.13478466086577
 21
3.009898395795562
 31
0.0
  0
LINE
  5
7455
330
73E1
100
AcDbEntity
  8
FORMAT
 62
     7
100
AcDbLine
 10
28.13478466086577
 20
3.009898395795562
 30
0.0
 11
28.27250800784915
 21
3.009898395795562
 31
0.0
  0
LINE
  5
7456
330
73E1
100
AcDbEntity
  8
FORMAT
 62
     7
100
AcDbLine
 10
28.27250800784915
 20
3.009898395795562
 30
0.0
 11
28.40846516441128
 21
2.86109542429461
 31
0.0
  0
LINE
  5
7457
330
73E1
100
AcDbEntity
  8
FORMAT
 62
     7
100
AcDbLine
 10
28.40846516441128
 20
2.86109542429461
 30
0.0
 11
28.59422335947938
 21
3.009898395795562
 31
0.0
  0
LINE
  5
7458
330
73E1
100
AcDbEntity
  8
FORMAT
 62
     7
100
AcDbLine
 10
28.59422335947938
 20
3.009898395795562
 30
0.0
 11
28.93608238153996
 21
3.009898395795562
 31
0.0
  0
LINE
  5
7459
330
73E1
100
AcDbEntity
  8
FORMAT
 62
     7
100
AcDbLine
 10
28.93608238153996
 20
3.009898395795562
 30
0.0
 11
29.03481323325338
 21
2.896391141339901
 31
0.0
  0
LINE
  5
745A
330
73E1
100
AcDbEntity
  8
FORMAT
 62
     7
100
AcDbLine
 10
29.03481323325338
 20
2.896391141339901
 30
0.0
 11
29.16989368840465
 21
3.009898395795562
 31
0.0
  0
LINE
  5
745B
330
73E1
100
AcDbEntity
  8
FORMAT
 62
     7
100
AcDbLine
 10
29.16989368840465
 20
3.009898395795562
 30
0.0
 11
29.38348614891178
 21
3.009898395795562
 31
0.0
  0
LINE
  5
745C
330
73E1
100
AcDbEntity
  8
FORMAT
 62
     7
100
AcDbLine
 10
25.36111085954462
 20
0.7726915987260293
 30
0.0
 11
25.50768621204397
 21
0.7726915987260293
 31
0.0
  0
LINE
  5
745D
330
73E1
100
AcDbEntity
  8
FORMAT
 62
     7
100
AcDbLine
 10
25.30415771088184
 20
0.9949660871264022
 30
0.0
 11
25.30415771088184
 21
0.8296447473884875
 31
0.0
  0
LINE
  5
745E
330
73E1
100
AcDbEntity
  8
FORMAT
 62
     7
100
AcDbLine
 10
25.27920456221906
 20
0.7726915987260293
 30
0.0
 11
25.32911085954459
 21
0.7726915987260293
 31
0.0
  0
LINE
  5
745F
330
73E1
100
AcDbEntity
  8
FORMAT
 62
     7
100
AcDbLine
 10
25.30415771088184
 20
0.7157384500639546
 30
0.0
 11
25.30415771088184
 21
0.5554259226635474
 31
0.0
  0
LINE
  5
7460
330
73E1
100
AcDbEntity
  8
FORMAT
 62
     7
100
AcDbLine
 10
25.30415771088184
 20
0.7976447473880647
 30
0.0
 11
25.30415771088184
 21
0.7477384500649174
 31
0.0
  0
LINE
  5
7461
330
73E1
100
AcDbEntity
  8
FORMAT
 62
     7
100
AcDbLine
 10
25.08988727412052
 20
0.7726915987260293
 30
0.0
 11
25.24720456221903
 21
0.7726915987260293
 31
0.0
  0
LINE
  5
7462
330
73E1
100
AcDbEntity
  8
FORMAT
  6
CENTER
 62
     7
100
AcDbLine
 10
25.53515027469103
 20
0.7726915987260293
 30
0.0
 11
26.16342724601401
 21
0.7726915987260293
 31
0.0
  0
LINE
  5
7463
330
73E1
100
AcDbEntity
  8
FORMAT
 62
     7
100
AcDbLine
 10
25.73633900120232
 20
0.8494915987260206
 30
0.0
 11
26.08193900120234
 21
0.9406915987260212
 31
0.0
  0
LINE
  5
7464
330
73E1
100
AcDbEntity
  8
FORMAT
 62
     7
100
AcDbLine
 10
26.08193900120234
 20
0.9406915987260212
 30
0.0
 11
26.08193900120232
 21
0.6089787007227892
 31
0.0
  0
LINE
  5
7465
330
73E1
100
AcDbEntity
  8
FORMAT
 62
     7
100
AcDbLine
 10
26.08193900120232
 20
0.6089787007227892
 30
0.0
 11
25.73633900120232
 21
0.6958915987260235
 31
0.0
  0
LINE
  5
7466
330
73E1
100
AcDbEntity
  8
FORMAT
 62
     7
100
AcDbLine
 10
25.73633900120232
 20
0.6958915987260235
 30
0.0
 11
25.73633900120232
 21
0.8494915987260206
 31
0.0
  0
LINE
  5
7467
330
73E1
100
AcDbEntity
  8
FORMAT
 62
     7
100
AcDbLine
 10
0.5
 20
0.5
 30
0.0
 11
33.5
 21
0.5
 31
0.0
  0
LINE
  5
7468
330
73E1
100
AcDbEntity
  8
FORMAT
 62
     7
100
AcDbLine
 10
33.5
 20
0.5
 30
0.0
 11
33.5
 21
21.5
 31
0.0
  0
LINE
  5
7469
330
73E1
100
AcDbEntity
  8
FORMAT
 62
     7
100
AcDbLine
 10
33.5
 20
21.5
 30
0.0
 11
0.5
 21
21.5
 31
0.0
  0
LINE
  5
746A
330
73E1
100
AcDbEntity
  8
FORMAT
 62
     7
100
AcDbLine
 10
0.5
 20
21.5
 30
0.0
 11
0.5
 21
0.5
 31
0.0
  0
ARC
  5
746B
330
73E1
100
AcDbEntity
  8
FORMAT
 62
     7
100
AcDbCircle
 10
28.84418016139653
 20
-2.211762160162989
 30
0.0
 40
4.98127031485787
100
AcDbArc
 50
96.81077116038439
 51
98.7658188097698
  0
ARC
  5
746C
330
73E1
100
AcDbEntity
  8
FORMAT
 62
     7
100
AcDbCircle
 10
28.4520446382265
 20
-0.0812992519853255
 30
0.0
 40
2.814774653686729
100
AcDbArc
 50
98.91769894924955
 51
102.2711423007093
  0
ARC
  5
746D
330
73E1
100
AcDbEntity
  8
FORMAT
 62
     7
100
AcDbCircle
 10
29.75206810599112
 20
-32.64549153385557
 30
0.0
 40
35.49956040159622
100
AcDbArc
 50
90.90269359832783
 51
91.4276731912744
  0
ARC
  5
746E
330
73E1
100
AcDbEntity
  8
FORMAT
 62
     7
100
AcDbCircle
 10
29.00055122292874
 20
-2.744979632338445
 30
0.0
 40
5.588559939424406
100
AcDbArc
 50
93.03440911951202
 51
99.32746877910856
  0
ARC
  5
746F
330
73E1
100
AcDbEntity
  8
FORMAT
 62
     7
100
AcDbCircle
 10
29.05510266338243
 20
-3.190012262200435
 30
0.0
 40
5.966083988938442
100
AcDbArc
 50
89.18470377236852
 51
91.59664224690867
  0
ARC
  5
7470
330
73E1
100
AcDbEntity
  8
FORMAT
 62
     7
100
AcDbCircle
 10
28.84418016139653
 20
-2.211762160162989
 30
0.0
 40
4.981270314857868
100
AcDbArc
 50
91.73576423011992
 51
93.64348457294825
  0
ARC
  5
7471
330
73E1
100
AcDbEntity
  8
FORMAT
 62
     7
100
AcDbCircle
 10
29.05510266338243
 20
-3.190012262200435
 30
0.0
 40
5.966083988938442
100
AcDbArc
 50
89.18470377236852
 51
91.59664224690867
  0
ARC
  5
7472
330
73E1
100
AcDbEntity
  8
FORMAT
 62
     7
100
AcDbCircle
 10
28.84418016139653
 20
-2.211762160162989
 30
0.0
 40
4.981270314857868
100
AcDbArc
 50
91.73576423011992
 51
93.64348457294825
  0
ARC
  5
7473
330
73E1
100
AcDbEntity
  8
FORMAT
 62
     7
100
AcDbCircle
 10
28.84418016139653
 20
-2.211762160162989
 30
0.0
 40
4.98127031485787
100
AcDbArc
 50
96.81077116038439
 51
98.7658188097698
  0
ARC
  5
7474
330
73E1
100
AcDbEntity
  8
FORMAT
 62
     7
100
AcDbCircle
 10
28.4520446382265
 20
-0.0812992519853255
 30
0.0
 40
2.814774653686729
100
AcDbArc
 50
98.91769894924955
 51
102.2711423007093
  0
ARC
  5
7475
330
73E1
100
AcDbEntity
  8
FORMAT
 62
     7
100
AcDbCircle
 10
28.42523413703466
 20
0.4867236379588187
 30
0.0
 40
2.303734483509176
100
AcDbArc
 50
100.7369884767684
 51
115.8445848643793
  0
ARC
  5
7476
330
73E1
100
AcDbEntity
  8
FORMAT
 62
     7
100
AcDbCircle
 10
29.75206810599112
 20
-32.64549153385557
 30
0.0
 40
35.49956040159622
100
AcDbArc
 50
90.90269359832783
 51
91.4276731912744
  0
ARC
  5
7477
330
73E1
100
AcDbEntity
  8
FORMAT
 62
     7
100
AcDbCircle
 10
29.00055122292874
 20
-2.744979632338445
 30
0.0
 40
5.588559939424406
100
AcDbArc
 50
93.03440911951202
 51
99.32746877910856
  0
CIRCLE
  5
7478
330
73E1
100
AcDbEntity
  8
FORMAT
 62
     7
100
AcDbCircle
 10
25.30415771088183
 20
0.7726915987260293
 30
0.0
 40
0.1679999999999957
  0
CIRCLE
  5
7479
330
73E1
100
AcDbEntity
  8
FORMAT
 62
     7
100
AcDbCircle
 10
25.30415771088183
 20
0.7726915987260293
 30
0.0
 40
0.0767999999999951
  0
INSERT
  5
747A
330
73E1
100
AcDbEntity
  8
FORMAT
100
AcDbBlockReference
  2
SW_NOTE_0
 10
1.636802973977691
 20
20.7765221165007
 30
0.0
  0
MTEXT
  5
747B
330
73E1
100
AcDbEntity
  8
FORMAT
 62
     7
100
AcDbMText
 10
27.37645279819662
 20
1.045142761688826
 30
0.0
 40
0.16
 41
0.0
 71
     2
 72
     1
  1
D
  7
SLDTEXTSTYLE1
1001
ACAD
1000
MTEXTBEGIN
1070
    73
1070
     1
1070
    44
1040
1.0
1070
    74
1070
     0
1000
MTEXTEND
  0
MTEXT
  5
747C
330
73E1
100
AcDbEntity
  8
FORMAT
 62
     7
100
AcDbMText
 10
31.87200686006786
 20
0.3993502698871933
 30
0.0
 40
0.25
 41
0.0
 71
     2
 72
     1
  1
H
  7
SLDTEXTSTYLE1
1001
ACAD
1000
MTEXTBEGIN
1070
    73
1070
     1
1070
    44
1040
1.0
1070
    74
1070
     0
1000
MTEXTEND
  0
MTEXT
  5
747D
330
73E1
100
AcDbEntity
  8
FORMAT
 62
     7
100
AcDbMText
 10
27.62017844514627
 20
0.3993502698871933
 30
0.0
 40
0.25
 41
0.0
 71
     2
 72
     1
  1
G
  7
SLDTEXTSTYLE1
1001
ACAD
1000
MTEXTBEGIN
1070
    73
1070
     1
1070
    44
1040
1.0
1070
    74
1070
     0
1000
MTEXTEND
  0
MTEXT
  5
747E
330
73E1
100
AcDbEntity
  8
FORMAT
 62
     7
100
AcDbMText
 10
23.37154316386685
 20
0.3993502698871933
 30
0.0
 40
0.25
 41
0.0
 71
     2
 72
     1
  1
F
  7
SLDTEXTSTYLE1
1001
ACAD
1000
MTEXTBEGIN
1070
    73
1070
     1
1070
    44
1040
1.0
1070
    74
1070
     0
1000
MTEXTEND
  0
MTEXT
  5
747F
330
73E1
100
AcDbEntity
  8
FORMAT
 62
     7
100
AcDbMText
 10
19.12383526582289
 20
0.3993502698871933
 30
0.0
 40
0.25
 41
0.0
 71
     2
 72
     1
  1
E
  7
SLDTEXTSTYLE1
1001
ACAD
1000
MTEXTBEGIN
1070
    73
1070
     1
1070
    44
1040
1.0
1070
    74
1070
     0
1000
MTEXTEND
  0
MTEXT
  5
7480
330
73E1
100
AcDbEntity
  8
FORMAT
 62
     7
100
AcDbMText
 10
14.87200686006786
 20
0.3993502698871933
 30
0.0
 40
0.25
 41
0.0
 71
     2
 72
     1
  1
D
  7
SLDTEXTSTYLE1
1001
ACAD
1000
MTEXTBEGIN
1070
    73
1070
     1
1070
    44
1040
1.0
1070
    74
1070
     0
1000
MTEXTEND
  0
MTEXT
  5
7481
330
73E1
100
AcDbEntity
  8
FORMAT
 62
     7
100
AcDbMText
 10
6.3738352658229
 20
0.3993502698871933
 30
0.0
 40
0.25
 41
0.0
 71
     2
 72
     1
  1
B
  7
SLDTEXTSTYLE1
1001
ACAD
1000
MTEXTBEGIN
1070
    73
1070
     1
1070
    44
1040
1.0
1070
    74
1070
     0
1000
MTEXTEND
  0
MTEXT
  5
7482
330
73E1
100
AcDbEntity
  8
FORMAT
 62
     7
100
AcDbMText
 10
10.62200686006786
 20
0.3993502698871933
 30
0.0
 40
0.25
 41
0.0
 71
     2
 72
     1
  1
C
  7
SLDTEXTSTYLE1
1001
ACAD
1000
MTEXTBEGIN
1070
    73
1070
     1
1070
    44
1040
1.0
1070
    74
1070
     0
1000
MTEXTEND
  0
MTEXT
  5
7483
330
73E1
100
AcDbEntity
  8
FORMAT
 62
     7
100
AcDbMText
 10
2.1238352658229
 20
0.3993502698871933
 30
0.0
 40
0.25
 41
0.0
 71
     2
 72
     1
  1
A
  7
SLDTEXTSTYLE1
1001
ACAD
1000
MTEXTBEGIN
1070
    73
1070
     1
1070
    44
1040
1.0
1070
    74
1070
     0
1000
MTEXTEND
  0
MTEXT
  5
7484
330
73E1
100
AcDbEntity
  8
FORMAT
 62
     7
100
AcDbMText
 10
33.84467090978963
 20
19.37435026988719
 30
0.0
 40
0.25
 41
0.0
 71
     3
 72
     1
  1
1
  7
SLDTEXTSTYLE1
1001
ACAD
1000
MTEXTBEGIN
1070
    73
1070
     1
1070
    44
1040
1.0
1070
    74
1070
     0
1000
MTEXTEND
  0
MTEXT
  5
7485
330
73E1
100
AcDbEntity
  8
FORMAT
 62
     7
100
AcDbMText
 10
33.83977935719152
 20
13.87435026988719
 30
0.0
 40
0.25
 41
0.0
 71
     3
 72
     1
  1
2
  7
SLDTEXTSTYLE1
1001
ACAD
1000
MTEXTBEGIN
1070
    73
1070
     1
1070
    44
1040
1.0
1070
    74
1070
     0
1000
MTEXTEND
  0
MTEXT
  5
7486
330
73E1
100
AcDbEntity
  8
FORMAT
 62
     7
100
AcDbMText
 10
33.8621143204562
 20
8.346993938089379
 30
0.0
 40
0.25
 41
0.0
 71
     3
 72
     1
  1
3
  7
SLDTEXTSTYLE1
1001
ACAD
1000
MTEXTBEGIN
1070
    73
1070
     1
1070
    44
1040
1.0
1070
    74
1070
     0
1000
MTEXTEND
  0
MTEXT
  5
7487
330
73E1
100
AcDbEntity
  8
FORMAT
 62
     7
100
AcDbMText
 10
33.85305097759315
 20
2.876765694292969
 30
0.0
 40
0.25
 41
0.0
 71
     3
 72
     1
  1
4
  7
SLDTEXTSTYLE1
1001
ACAD
1000
MTEXTBEGIN
1070
    73
1070
     1
1070
    44
1040
1.0
1070
    74
1070
     0
1000
MTEXTEND
  0
MTEXT
  5
7488
330
73E1
100
AcDbEntity
  8
FORMAT
 62
     7
100
AcDbMText
 10
27.62017844514627
 20
21.84935026988718
 30
0.0
 40
0.25
 41
0.0
 71
     2
 72
     1
  1
G
  7
SLDTEXTSTYLE1
1001
ACAD
1000
MTEXTBEGIN
1070
    73
1070
     1
1070
    44
1040
1.0
1070
    74
1070
     0
1000
MTEXTEND
  0
MTEXT
  5
7489
330
73E1
100
AcDbEntity
  8
FORMAT
 62
     7
100
AcDbMText
 10
27.17012525851521
 20
0.7757253995462181
 30
0.0
 40
0.1088
 41
0.0
 71
     1
 72
     1
  1
SCALE
  7
SLDTEXTSTYLE1
1001
ACAD
1000
MTEXTBEGIN
1070
    73
1070
     1
1070
    44
1040
1.0
1070
    74
1070
     0
1000
MTEXTEND
  0
MTEXT
  5
748A
330
73E1
100
AcDbEntity
  8
FORMAT
 62
     7
100
AcDbMText
 10
31.87200686006786
 20
21.84935026988718
 30
0.0
 40
0.25
 41
0.0
 71
     2
 72
     1
  1
H
  7
SLDTEXTSTYLE1
1001
ACAD
1000
MTEXTBEGIN
1070
    73
1070
     1
1070
    44
1040
1.0
1070
    74
1070
     0
1000
MTEXTEND
  0
MTEXT
  5
748B
330
73E1
100
AcDbEntity
  8
FORMAT
 62
     7
100
AcDbMText
 10
23.37154316386685
 20
21.84935026988718
 30
0.0
 40
0.25
 41
0.0
 71
     2
 72
     1
  1
F
  7
SLDTEXTSTYLE1
1001
ACAD
1000
MTEXTBEGIN
1070
    73
1070
     1
1070
    44
1040
1.0
1070
    74
1070
     0
1000
MTEXTEND
  0
MTEXT
  5
748C
330
73E1
100
AcDbEntity
  8
FORMAT
 62
     7
100
AcDbMText
 10
19.12383526582289
 20
21.84935026988718
 30
0.0
 40
0.25
 41
0.0
 71
     2
 72
     1
  1
E
  7
SLDTEXTSTYLE1
1001
ACAD
1000
MTEXTBEGIN
1070
    73
1070
     1
1070
    44
1040
1.0
1070
    74
1070
     0
1000
MTEXTEND
  0
MTEXT
  5
748D
330
73E1
100
AcDbEntity
  8
FORMAT
 62
     7
100
AcDbMText
 10
26.4231734579102
 20
2.254150003138092
 30
0.0
 40
0.12
 41
0.0
 71
     2
 72
     1
  1
.XXX = ± 0.005
  7
SLDTEXTSTYLE1
1001
ACAD
1000
MTEXTBEGIN
1070
    73
1070
     1
1070
    44
1040
1.0
1070
    74
1070
     0
1000
MTEXTEND
  0
MTEXT
  5
748E
330
73E1
100
AcDbEntity
  8
FORMAT
 62
     7
100
AcDbMText
 10
26.43487690060741
 20
2.437486617602949
 30
0.0
 40
0.12
 41
0.0
 71
     2
 72
     1
  1
.XX = ± 0.01
  7
SLDTEXTSTYLE1
1001
ACAD
1000
MTEXTBEGIN
1070
    73
1070
     1
1070
    44
1040
1.0
1070
    74
1070
     0
1000
MTEXTEND
  0
MTEXT
  5
748F
330
73E1
100
AcDbEntity
  8
FORMAT
 62
     7
100
AcDbMText
 10
26.20378167187963
 20
2.062920761488352
 30
0.0
 40
0.12
 41
0.0
 71
     2
 72
     1
  1
ANGLES = ± 0.5°
  7
SLDTEXTSTYLE1
1001
ACAD
1000
MTEXTBEGIN
1070
    73
1070
     1
1070
    44
1040
1.0
1070
    74
1070
     0
1000
MTEXTEND
  0
MTEXT
  5
7490
330
73E1
100
AcDbEntity
  8
FORMAT
 62
     7
100
AcDbMText
 10
24.75227158239167
 20
1.358119267790981
 30
0.0
 40
0.186
 41
0.0
 71
     2
 72
     1
  1
DO NOT SCALE DRAWING
  7
SLDTEXTSTYLE1
1001
ACAD
1000
MTEXTBEGIN
1070
    73
1070
     1
1070
    44
1040
1.0
1070
    74
1070
     0
1000
MTEXTEND
  0
INSERT
  5
7491
330
73E1
100
AcDbEntity
  8
FORMAT
 62
     7
100
AcDbBlockReference
  2
SW_NOTE_1
 10
22.76179685179231
 20
1.630825738753635
 30
0.0
  0
MTEXT
  5
7492
330
73E1
100
AcDbEntity
  8
FORMAT
 62
     7
100
AcDbMText
 10
26.73620017768212
 20
2.629222452519391
 30
0.0
 40
0.12
 41
0.0
 71
     3
 72
     1
  1
TOLERANCE ON DECIMAL DIMENSIONS:   .X = ± 0.1
  7
SLDTEXTSTYLE1
1001
ACAD
1000
MTEXTBEGIN
1070
    73
1070
     1
1070
    44
1040
1.0
1070
    74
1070
     0
1000
MTEXTEND
  0
MTEXT
  5
7493
330
73E1
100
AcDbEntity
  8
FORMAT
 62
     7
100
AcDbMText
 10
24.8629833161715
 20
3.002199277376382
 30
0.0
 40
0.1899233025254706
 41
0.0
 71
     2
 72
     1
  1
\LUNLESS OTHERWISE SPECIFIED
  7
SLDTEXTSTYLE1
1001
ACAD
1000
MTEXTBEGIN
1070
    73
1070
     1
1070
    44
1040
1.0
1070
    74
1070
     0
1000
MTEXTEND
  0
INSERT
  5
7494
330
73E1
100
AcDbEntity
  8
FORMAT
 62
     7
100
AcDbBlockReference
  2
SW_NOTE_2
 10
23.59123015932102
 20
0.7554571403254299
 30
0.0
  0
MTEXT
  5
7495
330
73E1
100
AcDbEntity
  8
FORMAT
 62
     7
100
AcDbMText
 10
14.87200686006786
 20
21.84935026988718
 30
0.0
 40
0.25
 41
0.0
 71
     2
 72
     1
  1
D
  7
SLDTEXTSTYLE1
1001
ACAD
1000
MTEXTBEGIN
1070
    73
1070
     1
1070
    44
1040
1.0
1070
    74
1070
     0
1000
MTEXTEND
  0
MTEXT
  5
7496
330
73E1
100
AcDbEntity
  8
FORMAT
 62
     7
100
AcDbMText
 10
10.62200686006786
 20
21.84935026988718
 30
0.0
 40
0.25
 41
0.0
 71
     2
 72
     1
  1
C
  7
SLDTEXTSTYLE1
1001
ACAD
1000
MTEXTBEGIN
1070
    73
1070
     1
1070
    44
1040
1.0
1070
    74
1070
     0
1000
MTEXTEND
  0
MTEXT
  5
7497
330
73E1
100
AcDbEntity
  8
FORMAT
 62
     7
100
AcDbMText
 10
2.1238352658229
 20
21.84935026988718
 30
0.0
 40
0.25
 41
0.0
 71
     2
 72
     1
  1
A
  7
SLDTEXTSTYLE1
1001
ACAD
1000
MTEXTBEGIN
1070
    73
1070
     1
1070
    44
1040
1.0
1070
    74
1070
     0
1000
MTEXTEND
  0
MTEXT
  5
7498
330
73E1
100
AcDbEntity
  8
FORMAT
 62
     7
100
AcDbMText
 10
0.3499801860580638
 20
19.37435026988719
 30
0.0
 40
0.25
 41
0.0
 71
     3
 72
     1
  1
1
  7
SLDTEXTSTYLE1
1001
ACAD
1000
MTEXTBEGIN
1070
    73
1070
     1
1070
    44
1040
1.0
1070
    74
1070
     0
1000
MTEXTEND
  0
MTEXT
  5
7499
330
73E1
100
AcDbEntity
  8
FORMAT
 62
     7
100
AcDbMText
 10
0.3431632675846363
 20
13.86949059501054
 30
0.0
 40
0.25
 41
0.0
 71
     3
 72
     1
  1
2
  7
SLDTEXTSTYLE1
1001
ACAD
1000
MTEXTBEGIN
1070
    73
1070
     1
1070
    44
1040
1.0
1070
    74
1070
     0
1000
MTEXTEND
  0
MTEXT
  5
749A
330
73E1
100
AcDbEntity
  8
FORMAT
 62
     7
100
AcDbMText
 10
6.3738352658229
 20
21.84935026988718
 30
0.0
 40
0.25
 41
0.0
 71
     2
 72
     1
  1
B
  7
SLDTEXTSTYLE1
1001
ACAD
1000
MTEXTBEGIN
1070
    73
1070
     1
1070
    44
1040
1.0
1070
    74
1070
     0
1000
MTEXTEND
  0
MTEXT
  5
749B
330
73E1
100
AcDbEntity
  8
FORMAT
 62
     7
100
AcDbMText
 10
0.3491262023660843
 20
8.378445968113766
 30
0.0
 40
0.25
 41
0.0
 71
     3
 72
     1
  1
3
  7
SLDTEXTSTYLE1
1001
ACAD
1000
MTEXTBEGIN
1070
    73
1070
     1
1070
    44
1040
1.0
1070
    74
1070
     0
1000
MTEXTEND
  0
MTEXT
  5
749C
330
73E1
100
AcDbEntity
  8
FORMAT
 62
     7
100
AcDbMText
 10
0.3454489424994284
 20
2.874350269887194
 30
0.0
 40
0.25
 41
0.0
 71
     3
 72
     1
  1
4
  7
SLDTEXTSTYLE1
1001
ACAD
1000
MTEXTBEGIN
1070
    73
1070
     1
1070
    44
1040
1.0
1070
    74
1070
     0
1000
MTEXTEND
  0
INSERT
  5
749D
330
73E1
100
AcDbEntity
  8
TXT
 62
     7
100
AcDbBlockReference
  2
SW_NOTE_3
 10
13.14581209165779
 20
1.205858215638198
 30
0.0
  0
MTEXT
  5
749E
330
73E1
100
AcDbEntity
  8
FORMAT
 62
     7
100
AcDbMText
 10
29.37565033606138
 20
2.619731903343488
 30
0.0
 40
0.0583271326082317
 41
0.0
 71
     1
 72
     1
  1
TM
  7
SLDTEXTSTYLE1
1001
ACAD
1000
MTEXTBEGIN
1070
    73
1070
     1
1070
    44
1040
1.0
1070
    74
1070
     0
1000
MTEXTEND
  0
MTEXT
  5
749F
330
73E1
100
AcDbEntity
  8
FORMAT
 62
     7
100
AcDbMText
 10
31.43486788649961
 20
3.014575881406629
 30
0.0
 40
0.1035906873199564
 41
0.0
 71
     1
 72
     1
  1
AMX LLC
  7
SLDTEXTSTYLE2
1001
ACAD
1000
MTEXTBEGIN
1070
    73
1070
     1
1070
    44
1040
1.0
1070
    74
1070
     0
1000
MTEXTEND
  0
MTEXT
  5
74A0
330
73E1
100
AcDbEntity
  8
FORMAT
 62
     7
100
AcDbMText
 10
31.43486788649961
 20
2.836992445003745
 30
0.0
 40
0.1035906873199564
 41
0.0
 71
     1
 72
     1
  1
3000 RESEARCH DRIVE
  7
SLDTEXTSTYLE2
1001
ACAD
1000
MTEXTBEGIN
1070
    73
1070
     1
1070
    44
1040
1.0
1070
    74
1070
     0
1000
MTEXTEND
  0
MTEXT
  5
74A1
330
73E1
100
AcDbEntity
  8
FORMAT
 62
     7
100
AcDbMText
 10
31.4299650373904
 20
2.659409008600861
 30
0.0
 40
0.1035906873199564
 41
0.0
 71
     1
 72
     1
  1
RICHARDSON, TX 75082
  7
SLDTEXTSTYLE3
1001
ACAD
1000
MTEXTBEGIN
1070
    73
1070
     1
1070
    44
1040
1.0
1070
    74
1070
     0
1000
MTEXTEND
  0
MTEXT
  5
74A2
330
73E1
100
AcDbEntity
  8
FORMAT
 62
     7
100
AcDbMText
 10
33.25096716781517
 20
1.22068573393237
 30
0.0
 40
0.1088
 41
0.0
 71
     2
 72
     1
  1
REV.
  7
SLDTEXTSTYLE1
1001
ACAD
1000
MTEXTBEGIN
1070
    73
1070
     1
1070
    44
1040
1.0
1070
    74
1070
     0
1000
MTEXTEND
  0
MTEXT
  5
74A3
330
73E1
100
AcDbEntity
  8
FORMAT
 62
     7
100
AcDbMText
 10
31.86451643693898
 20
0.7860888013571869
 30
0.0
 40
0.1145833333333333
 41
0.0
 71
     1
 72
     1
  1
SHEET
  7
SLDTEXTSTYLE1
1001
ACAD
1000
MTEXTBEGIN
1070
    73
1070
     1
1070
    44
1040
1.0
1070
    74
1070
     0
1000
MTEXTEND
  0
MTEXT
  5
74A4
330
73E1
100
AcDbEntity
  8
FORMAT
 62
     7
100
AcDbMText
 10
27.68095276043268
 20
1.22068573393237
 30
0.0
 40
0.1088
 41
0.0
 71
     1
 72
     1
  1
DWG. NO.
  7
SLDTEXTSTYLE1
1001
ACAD
1000
MTEXTBEGIN
1070
    73
1070
     1
1070
    44
1040
1.0
1070
    74
1070
     0
1000
MTEXTEND
  0
MTEXT
  5
74A5
330
73E1
100
AcDbEntity
  8
FORMAT
 62
     7
100
AcDbMText
 10
27.18997948867459
 20
1.22068573393237
 30
0.0
 40
0.1088
 41
0.0
 71
     1
 72
     1
  1
SIZE
  7
SLDTEXTSTYLE1
1001
ACAD
1000
MTEXTBEGIN
1070
    73
1070
     1
1070
    44
1040
1.0
1070
    74
1070
     0
1000
MTEXTEND
  0
INSERT
  5
74A6
330
73E1
100
AcDbEntity
  8
FORMAT
 62
     7
100
AcDbBlockReference
  2
SW_NOTE_4
 10
28.92012377037045
 20
1.981479402240285
 30
0.0
  0
MTEXT
  5
74A7
330
73E1
100
AcDbEntity
  8
FORMAT
 62
     7
100
AcDbMText
 10
30.40590826513845
 20
1.154259698179859
 30
0.0
 40
0.2083333333333333
 41
0.0
 71
     2
 72
     1
  1
95-2265-17
  7
SLDTEXTSTYLE0
1001
ACAD
1000
MTEXTBEGIN
1070
    73
1070
     1
1070
    44
1040
1.0
1070
    74
1070
     0
1000
MTEXTEND
  0
MTEXT
  5
74A8
330
73E1
100
AcDbEntity
  8
FORMAT
 62
     7
100
AcDbMText
 10
33.22559409532556
 20
1.032237268967473
 30
0.0
 40
0.125
 41
0.0
 71
     2
 72
     1
  1
A
  7
SLDTEXTSTYLE0
1001
ACAD
1000
MTEXTBEGIN
1070
    73
1070
     1
1070
    44
1040
1.0
1070
    74
1070
     0
1000
MTEXTEND
  0
MTEXT
  5
74A9
330
73E1
100
AcDbEntity
  8
FORMAT
 62
     7
100
AcDbMText
 10
32.91874359385507
 20
0.7422124429424956
 30
0.0
 40
0.1666666666666666
 41
0.0
 71
     2
 72
     1
  1
1 of 1
  7
SLDTEXTSTYLE4
1001
ACAD
1000
MTEXTBEGIN
1070
    73
1070
     1
1070
    44
1040
1.0
1070
    74
1070
     0
1000
MTEXTEND
  0
MTEXT
  5
74AA
330
73E1
100
AcDbEntity
  8
FORMAT
100
AcDbMText
 10
28.01278024896783
 20
0.7467052347042436
 30
0.0
 40
0.1666666666666666
 41
0.0
 71
     2
 72
     1
  1
1:1
  7
SLDTEXTSTYLE0
1001
ACAD
1000
MTEXTBEGIN
1070
    73
1070
     1
1070
    44
1040
1.0
1070
    74
1070
     0
1000
MTEXTEND
  0
INSERT
  5
74AB
330
73E1
100
AcDbEntity
  8
FORMAT
 62
     7
100
AcDbBlockReference
  2
SW_NOTE_5
 10
19.62651639143994
 20
2.860489483989779
 30
0.0
  0
INSERT
  5
74AC
330
73E1
100
AcDbEntity
  8
FORMAT
100
AcDbBlockReference
  2
SW_TABLEANNOTATION_0
 10
21.49259637407903
 20
21.5
 30
0.0
  0
LINE
  5
74AD
330
73E1
100
AcDbEntity
  8
0
  6
CONTINUOUS
 62
     7
100
AcDbLine
 10
9.98810425654228
 20
16.32628209514277
 30
0.0
 11
9.98810425654228
 21
14.7012820574902
 31
0.0
  0
LINE
  5
74AE
330
73E1
100
AcDbEntity
  8
0
  6
CONTINUOUS
 62
     7
100
AcDbLine
 10
9.98810425654228
 20
14.7012820574902
 30
0.0
 11
9.938104260813164
 21
14.7012820574902
 31
0.0
  0
LINE
  5
74AF
330
73E1
100
AcDbEntity
  8
0
  6
CONTINUOUS
 62
     7
100
AcDbLine
 10
9.938104260813164
 20
14.7012820574902
 30
0.0
 11
9.938104260813164
 21
16.32628209514277
 31
0.0
  0
LINE
  5
74B0
330
73E1
100
AcDbEntity
  8
0
  6
CONTINUOUS
 62
     7
100
AcDbLine
 10
9.938104260813164
 20
16.32628209514277
 30
0.0
 11
9.98810425654228
 21
16.32628209514277
 31
0.0
  0
LINE
  5
74B1
330
73E1
100
AcDbEntity
  8
0
  6
CONTINUOUS
 62
     7
100
AcDbLine
 10
10.78810426154062
 20
14.7012820574902
 30
0.0
 11
10.78810426154062
 21
16.32628209514277
 31
0.0
  0
LINE
  5
74B2
330
73E1
100
AcDbEntity
  8
0
  6
CONTINUOUS
 62
     7
100
AcDbLine
 10
10.78810426154062
 20
16.32628209514277
 30
0.0
 11
10.83810425726974
 21
16.32628209514277
 31
0.0
  0
LINE
  5
74B3
330
73E1
100
AcDbEntity
  8
0
  6
CONTINUOUS
 62
     7
100
AcDbLine
 10
10.83810425726974
 20
16.32628209514277
 30
0.0
 11
10.83810425726974
 21
14.7012820574902
 31
0.0
  0
LINE
  5
74B4
330
73E1
100
AcDbEntity
  8
0
  6
CONTINUOUS
 62
     7
100
AcDbLine
 10
10.78810426154062
 20
14.7012820574902
 30
0.0
 11
10.83810425726974
 21
14.7012820574902
 31
0.0
  0
LINE
  5
74B5
330
73E1
100
AcDbEntity
  8
0
  6
CONTINUOUS
 62
     7
100
AcDbLine
 10
10.78810426154062
 20
16.32628209514277
 30
0.0
 11
9.98810425654228
 21
16.32628209514277
 31
0.0
  0
ARC
  5
74B6
330
73E1
100
AcDbEntity
  8
0
  6
CONTINUOUS
 62
     7
100
AcDbCircle
 10
10.38810428984109
 20
14.70128205800954
 30
0.0
 40
0.4000000000000004
100
AcDbArc
 50
180.0
 51
0.0
  0
CIRCLE
  5
74B7
330
73E1
100
AcDbEntity
  8
0
  6
CONTINUOUS
 62
     7
100
AcDbCircle
 10
10.38810428984109
 20
16.07628205800954
 30
0.0
 40
0.1395
  0
CIRCLE
  5
74B8
330
73E1
100
AcDbEntity
  8
0
  6
CONTINUOUS
 62
     7
100
AcDbCircle
 10
10.38810428984109
 20
15.57628205800954
 30
0.0
 40
0.1395
  0
LINE
  5
74B9
330
73E1
100
AcDbEntity
  8
0
  6
CONTINUOUS
 62
     7
100
AcDbLine
 10
10.53810428289504
 20
14.67128205592778
 30
0.0
 11
10.53810428289504
 21
14.7312820579068
 31
0.0
  0
LINE
  5
74BA
330
73E1
100
AcDbEntity
  8
0
  6
CONTINUOUS
 62
     7
100
AcDbLine
 10
10.50810425612457
 20
14.76128205832341
 30
0.0
 11
10.26810433529081
 21
14.76128205832341
 31
0.0
  0
LINE
  5
74BB
330
73E1
100
AcDbEntity
  8
0
  6
CONTINUOUS
 62
     7
100
AcDbLine
 10
10.23810430852034
 20
14.7312820579068
 30
0.0
 11
10.23810430852034
 21
14.67128205592778
 31
0.0
  0
ARC
  5
74BC
330
73E1
100
AcDbEntity
  8
0
  6
CONTINUOUS
 62
     7
100
AcDbCircle
 10
10.50810428984109
 20
14.67128205800954
 30
0.0
 40
0.0299999999999994
100
AcDbArc
 50
270.0000000000008
 51
0.0
  0
LINE
  5
74BD
330
73E1
100
AcDbEntity
  8
0
  6
CONTINUOUS
 62
     7
100
AcDbLine
 10
10.26810433529081
 20
14.64128206124028
 30
0.0
 11
10.50810425612457
 21
14.64128206124028
 31
0.0
  0
ARC
  5
74BE
330
73E1
100
AcDbEntity
  8
0
  6
CONTINUOUS
 62
     7
100
AcDbCircle
 10
10.26810428984109
 20
14.73128205800954
 30
0.0
 40
0.0300000000000011
100
AcDbArc
 50
90.0
 51
180.0
  0
ARC
  5
74BF
330
73E1
100
AcDbEntity
  8
0
  6
CONTINUOUS
 62
     7
100
AcDbCircle
 10
10.26810428984109
 20
14.67128205800954
 30
0.0
 40
0.0300000000000011
100
AcDbArc
 50
180.0
 51
270.0000000000008
  0
ARC
  5
74C0
330
73E1
100
AcDbEntity
  8
0
  6
CONTINUOUS
 62
     7
100
AcDbCircle
 10
10.50810428984109
 20
14.73128205800954
 30
0.0
 40
0.0299999999999994
100
AcDbArc
 50
0.0
 51
90.0
  0
ARC
  5
74C1
330
73E1
100
AcDbEntity
  8
0
  6
CONTINUOUS
 62
     7
100
AcDbCircle
 10
10.38810428984109
 20
14.70128205800954
 30
0.0
 40
0.4500000000000011
100
AcDbArc
 50
180.0
 51
0.0
  0
CIRCLE
  5
74C2
330
73E1
100
AcDbEntity
  8
0
  6
CONTINUOUS
 62
     7
100
AcDbCircle
 10
10.38810428984109
 20
16.07628205800954
 30
0.0
 40
0.0719999999999992
  0
CIRCLE
  5
74C3
330
73E1
100
AcDbEntity
  8
0
  6
CONTINUOUS
 62
     7
100
AcDbCircle
 10
10.38810428984109
 20
15.57628205800954
 30
0.0
 40
0.0719999999999992
  0
CIRCLE
  5
74C4
330
73E1
100
AcDbEntity
  8
0
  6
CONTINUOUS
 62
     7
100
AcDbCircle
 10
12.15975783314818
 20
13.48978599501742
 30
0.0
 40
0.1624015748031482
  0
CIRCLE
  5
74C5
330
73E1
100
AcDbEntity
  8
0
  6
CONTINUOUS
 62
     7
100
AcDbCircle
 10
5.860545234722985
 20
13.48978599501742
 30
0.0
 40
0.1624015748031482
  0
CIRCLE
  5
74C6
330
73E1
100
AcDbEntity
  8
0
  6
CONTINUOUS
 62
     7
100
AcDbCircle
 10
11.49637200637653
 20
15.97010095564734
 30
0.0
 40
0.16240157480315
  0
LINE
  5
74C7
330
73E1
100
AcDbEntity
  8
0
  6
CONTINUOUS
 62
     7
100
AcDbLine
 10
7.390055342758365
 20
13.99222690501416
 30
0.0
 11
7.130247730744736
 21
13.99222690501416
 31
0.0
  0
LINE
  5
74C8
330
73E1
100
AcDbEntity
  8
0
  6
CONTINUOUS
 62
     7
100
AcDbLine
 10
7.130247730744736
 20
13.99222690501416
 30
0.0
 11
7.000343924737921
 21
13.76722692423314
 31
0.0
  0
LINE
  5
74C9
330
73E1
100
AcDbEntity
  8
0
  6
CONTINUOUS
 62
     7
100
AcDbLine
 10
10.89005533712642
 20
13.99222690501416
 30
0.0
 11
10.6302477251128
 21
13.99222690501416
 31
0.0
  0
LINE
  5
74CA
330
73E1
100
AcDbEntity
  8
0
  6
CONTINUOUS
 62
     7
100
AcDbLine
 10
10.6302477251128
 20
13.99222690501416
 30
0.0
 11
10.50034391910598
 21
13.76722692423314
 31
0.0
  0
LINE
  5
74CB
330
73E1
100
AcDbEntity
  8
0
  6
CONTINUOUS
 62
     7
100
AcDbLine
 10
10.50034391910598
 20
13.76722692423314
 30
0.0
 11
10.6302477251128
 21
13.54222694345212
 31
0.0
  0
LINE
  5
74CC
330
73E1
100
AcDbEntity
  8
0
  6
CONTINUOUS
 62
     7
100
AcDbLine
 10
10.6302477251128
 20
13.54222694345212
 30
0.0
 11
10.89005533712642
 21
13.54222694345212
 31
0.0
  0
LINE
  5
74CD
330
73E1
100
AcDbEntity
  8
0
  6
CONTINUOUS
 62
     7
100
AcDbLine
 10
10.89005533712642
 20
13.54222694345212
 30
0.0
 11
11.01995914313324
 21
13.76722692423314
 31
0.0
  0
LINE
  5
74CE
330
73E1
100
AcDbEntity
  8
0
  6
CONTINUOUS
 62
     7
100
AcDbLine
 10
11.01995914313324
 20
13.76722692423314
 30
0.0
 11
10.89005533712642
 21
13.99222690501416
 31
0.0
  0
ARC
  5
74CF
330
73E1
100
AcDbEntity
  8
0
  6
CONTINUOUS
 62
     7
100
AcDbCircle
 10
10.38810428984109
 20
14.70128205800954
 30
0.0
 40
0.4600000000000009
100
AcDbArc
 50
180.0
 51
0.0
  0
LINE
  5
74D0
330
73E1
100
AcDbEntity
  8
0
  6
CONTINUOUS
 62
     7
100
AcDbLine
 10
10.84810431508155
 20
14.7012820574902
 30
0.0
 11
10.84810431508155
 21
16.32628209514277
 31
0.0
  0
LINE
  5
74D1
330
73E1
100
AcDbEntity
  8
0
  6
CONTINUOUS
 62
     7
100
AcDbLine
 10
11.76331882244546
 20
16.32628209514277
 30
0.0
 11
10.84810431508155
 21
16.32628209514277
 31
0.0
  0
LINE
  5
74D2
330
73E1
100
AcDbEntity
  8
0
  6
CONTINUOUS
 62
     7
100
AcDbLine
 10
5.379417316487086
 20
13.12758123347474
 30
0.0
 11
12.64088575138408
 21
13.12758123347474
 31
0.0
  0
LINE
  5
74D3
330
73E1
100
AcDbEntity
  8
0
  6
CONTINUOUS
 62
     7
100
AcDbLine
 10
8.753616109121368
 20
16.32628209514277
 30
0.0
 11
6.256984245425703
 21
16.32628209514277
 31
0.0
  0
LINE
  5
74D4
330
73E1
100
AcDbEntity
  8
0
  6
CONTINUOUS
 62
     7
100
AcDbLine
 10
8.596765712737198
 20
16.05971352123235
 30
0.0
 11
8.596765712737198
 21
15.22454978244846
 31
0.0
  0
LINE
  5
74D5
330
73E1
100
AcDbEntity
  8
0
  6
CONTINUOUS
 62
     7
100
AcDbLine
 10
9.423537355133968
 20
15.22454978244846
 30
0.0
 11
9.423537355133968
 21
16.05971352123235
 31
0.0
  0
LINE
  5
74D6
330
73E1
100
AcDbEntity
  8
0
  6
CONTINUOUS
 62
     7
100
AcDbLine
 10
9.411821647141493
 20
16.08799771449093
 30
0.0
 11
9.238242222345821
 21
16.26157717595285
 31
0.0
  0
LINE
  5
74D7
330
73E1
100
AcDbEntity
  8
0
  6
CONTINUOUS
 62
     7
100
AcDbLine
 10
9.928104276333838
 20
16.32628209514277
 30
0.0
 11
9.266686958749797
 21
16.32628209514277
 31
0.0
  0
LINE
  5
74D8
330
73E1
100
AcDbEntity
  8
0
  6
CONTINUOUS
 62
     7
100
AcDbLine
 10
9.928104276333838
 20
16.32628209514277
 30
0.0
 11
9.928104276333838
 21
14.7012820574902
 31
0.0
  0
LINE
  5
74D9
330
73E1
100
AcDbEntity
  8
0
  6
CONTINUOUS
 62
     7
100
AcDbLine
 10
8.782060845525347
 20
16.26157717595285
 30
0.0
 11
8.608481420729674
 21
16.08799771449093
 31
0.0
  0
LINE
  5
74DA
330
73E1
100
AcDbEntity
  8
0
  6
CONTINUOUS
 62
     7
100
AcDbLine
 10
7.130247730744736
 20
13.54222694345212
 30
0.0
 11
7.390055342758365
 21
13.54222694345212
 31
0.0
  0
LINE
  5
74DB
330
73E1
100
AcDbEntity
  8
0
  6
CONTINUOUS
 62
     7
100
AcDbLine
 10
8.636765723986988
 20
15.18454977119867
 30
0.0
 11
9.383537343884178
 21
15.18454977119867
 31
0.0
  0
LINE
  5
74DC
330
73E1
100
AcDbEntity
  8
0
  6
CONTINUOUS
 62
     7
100
AcDbLine
 10
7.519959148765179
 20
13.76722692423314
 30
0.0
 11
7.390055342758365
 21
13.99222690501416
 31
0.0
  0
ARC
  5
74DD
330
73E1
100
AcDbEntity
  8
0
  6
CONTINUOUS
 62
     7
100
AcDbCircle
 10
8.636765707163929
 20
16.05971351551462
 30
0.0
 40
0.0400000000000014
100
AcDbArc
 50
134.9999999999964
 51
180.0
  0
ARC
  5
74DE
330
73E1
100
AcDbEntity
  8
0
  6
CONTINUOUS
 62
     7
100
AcDbCircle
 10
8.636765707163929
 20
15.22454977454498
 30
0.0
 40
0.0400000000000009
100
AcDbArc
 50
180.0
 51
270.0000000000008
  0
ARC
  5
74DF
330
73E1
100
AcDbEntity
  8
0
  6
CONTINUOUS
 62
     7
100
AcDbCircle
 10
8.753776574992322
 20
16.28986146833286
 30
0.0
 40
0.0399999999999987
100
AcDbArc
 50
315.0000000000044
 51
354.8660049337068
  0
ARC
  5
74E0
330
73E1
100
AcDbEntity
  8
0
  6
CONTINUOUS
 62
     7
100
AcDbCircle
 10
9.266526492878845
 20
16.28986146833286
 30
0.0
 40
0.0400000000000005
100
AcDbArc
 50
185.1339950662946
 51
224.9999999999972
  0
ARC
  5
74E1
330
73E1
100
AcDbEntity
  8
0
  6
CONTINUOUS
 62
     7
100
AcDbCircle
 10
9.383537360707238
 20
16.05971351551462
 30
0.0
 40
0.0400000000000014
100
AcDbArc
 50
0.0
 51
45.0000000000036
  0
ARC
  5
74E2
330
73E1
100
AcDbEntity
  8
0
  6
CONTINUOUS
 62
     7
100
AcDbCircle
 10
9.383537360707238
 20
15.22454977454498
 30
0.0
 40
0.0400000000000009
100
AcDbArc
 50
270.0000000000008
 51
0.0
  0
ARC
  5
74E3
330
73E1
100
AcDbEntity
  8
0
  6
CONTINUOUS
 62
     7
100
AcDbCircle
 10
8.753616100864718
 20
16.28628205800954
 30
0.0
 40
0.0399999999999992
100
AcDbArc
 50
0.0
 51
90.0
  0
ARC
  5
74E4
330
73E1
100
AcDbEntity
  8
0
  6
CONTINUOUS
 62
     7
100
AcDbCircle
 10
9.26668696700645
 20
16.28628205800954
 30
0.0
 40
0.0400000000000009
100
AcDbArc
 50
90.0
 51
180.0
  0
ARC
  5
74E5
330
73E1
100
AcDbEntity
  8
0
  6
CONTINUOUS
 62
     7
100
AcDbCircle
 10
5.379417200765518
 20
13.16758127060797
 30
0.0
 40
0.0400000000000001
100
AcDbArc
 50
164.2840000000006
 51
270.0000000000008
  0
ARC
  5
74E6
330
73E1
100
AcDbEntity
  8
0
  6
CONTINUOUS
 62
     7
100
AcDbCircle
 10
6.256984246320747
 20
16.28628205800954
 30
0.0
 40
0.0400000000000028
100
AcDbArc
 50
90.0
 51
164.2839999999964
  0
ARC
  5
74E7
330
73E1
100
AcDbEntity
  8
0
  6
CONTINUOUS
 62
     7
100
AcDbCircle
 10
12.64088586710564
 20
13.16758127060797
 30
0.0
 40
0.0400000000000019
100
AcDbArc
 50
270.0000000000008
 51
15.71599999999868
  0
ARC
  5
74E8
330
73E1
100
AcDbEntity
  8
0
  6
CONTINUOUS
 62
     7
100
AcDbCircle
 10
11.76331882155042
 20
16.28628205800954
 30
0.0
 40
0.0399999999999992
100
AcDbArc
 50
15.71600000000006
 51
90.0
  0
LINE
  5
74E9
330
73E1
100
AcDbEntity
  8
0
  6
CONTINUOUS
 62
     7
100
AcDbLine
 10
12.67939058657294
 20
13.17841604622665
 30
0.0
 11
11.80182336430437
 21
16.29711688539509
 31
0.0
  0
CIRCLE
  5
74EA
330
73E1
100
AcDbEntity
  8
0
  6
CONTINUOUS
 62
     7
100
AcDbCircle
 10
11.37235625834503
 20
14.55462851470246
 30
0.0
 40
0.088499999999998
  0
LINE
  5
74EB
330
73E1
100
AcDbEntity
  8
0
  6
CONTINUOUS
 62
     7
100
AcDbLine
 10
6.21847970356679
 20
16.29711688539509
 30
0.0
 11
5.340912481298228
 21
13.17841604622665
 31
0.0
  0
CIRCLE
  5
74EC
330
73E1
100
AcDbEntity
  8
0
  6
CONTINUOUS
 62
     7
100
AcDbCircle
 10
7.238497990628497
 20
14.55462851470246
 30
0.0
 40
0.088499999999998
  0
LINE
  5
74ED
330
73E1
100
AcDbEntity
  8
0
  6
CONTINUOUS
 62
     7
100
AcDbLine
 10
7.000343924737921
 20
13.76722692423314
 30
0.0
 11
7.130247730744736
 21
13.54222694345212
 31
0.0
  0
CIRCLE
  5
74EE
330
73E1
100
AcDbEntity
  8
0
  6
CONTINUOUS
 62
     7
100
AcDbCircle
 10
6.523931061494638
 20
15.97010095564734
 30
0.0
 40
0.16240157480315
  0
LINE
  5
74EF
330
73E1
100
AcDbEntity
  8
0
  6
CONTINUOUS
 62
     7
100
AcDbLine
 10
7.390055342758365
 20
13.54222694345212
 30
0.0
 11
7.519959148765179
 21
13.76722692423314
 31
0.0
  0
LINE
  5
74F0
330
73E1
100
AcDbEntity
  8
0
  6
CONTINUOUS
 62
     7
100
AcDbLine
 10
9.266686958749797
 20
16.32628209514277
 30
0.0
 11
8.753616109121368
 21
16.32628209514277
 31
0.0
  0
CIRCLE
  5
74F1
330
73E1
100
AcDbEntity
  8
0
  6
CONTINUOUS
 62
     7
100
AcDbCircle
 10
7.260151533935584
 20
13.76722693989931
 30
0.0
 40
0.1360039370078727
  0
CIRCLE
  5
74F2
330
73E1
100
AcDbEntity
  8
0
  6
CONTINUOUS
 62
     7
100
AcDbCircle
 10
10.76015153393558
 20
13.76722693989931
 30
0.0
 40
0.1360039370078727
  0
CIRCLE
  5
74F3
330
73E1
100
AcDbEntity
  8
0
  6
CONTINUOUS
 62
     7
100
AcDbCircle
 10
10.38810428984109
 20
16.07628205800954
 30
0.0
 40
0.0532499999999985
  0
CIRCLE
  5
74F4
330
73E1
100
AcDbEntity
  8
0
  6
CONTINUOUS
 62
     7
100
AcDbCircle
 10
10.38810428984109
 20
15.57628205800954
 30
0.0
 40
0.0532500000000003
  0
LINE
  5
74F5
330
73E1
100
AcDbEntity
  8
0
  6
CONTINUOUS
 62
     7
100
AcDbLine
 10
10.84810431508155
 20
16.32628209514277
 30
0.0
 11
10.83810425726974
 21
16.32628209514277
 31
0.0
  0
LINE
  5
74F6
330
73E1
100
AcDbEntity
  8
0
  6
CONTINUOUS
 62
     7
100
AcDbLine
 10
9.938104260813164
 20
16.32628209514277
 30
0.0
 11
9.928104276333838
 21
16.32628209514277
 31
0.0
  0
SPLINE
  5
74F7
330
73E1
100
AcDbEntity
  8
0
  6
CONTINUOUS
 62
     7
100
AcDbSpline
210
0.0
220
0.0
230
1.0
 70
     8
 71
     3
 72
    14
 73
    10
 74
     0
 42
0.0000000001
 43
0.0000000001
 40
0.0
 40
0.0
 40
0.0
 40
0.0
 40
0.0840675870928114
 40
0.2422862345806795
 40
0.4004713567632338
 40
0.5569770747947514
 40
0.7101647018520925
 40
0.8590063839585402
 40
1.0
 40
1.0
 40
1.0
 40
1.0
 10
28.62172516942955
 20
15.2717562501164
 30
0.0
 10
28.61460292433352
 20
15.26747317268688
 30
0.0
 10
28.59407632180154
 20
15.2551291678367
 30
0.0
 10
28.56382847465983
 20
15.23214672319832
 30
0.0
 10
28.5333145335068
 20
15.20203587276526
 30
0.0
 10
28.50906451976251
 20
15.16927153070467
 30
0.0
 10
28.4918108581529
 20
15.13463725738146
 30
0.0
 10
28.48126185793164
 20
15.09930360323956
 30
0.0
 10
28.48018349510985
 20
15.07555601235364
 30
0.0
 10
28.47965891347808
 20
15.06400373168709
 30
0.0
  0
LINE
  5
74F8
330
73E1
100
AcDbEntity
  8
0
  6
CONTINUOUS
 62
     7
100
AcDbLine
 10
28.47956580980374
 20
15.06517220064338
 30
0.0
 11
28.47956580980374
 21
15.05909491204818
 31
0.0
  0
LINE
  5
74F9
330
73E1
100
AcDbEntity
  8
0
  6
CONTINUOUS
 62
     7
100
AcDbLine
 10
29.77077371548208
 20
15.93508785634228
 30
0.0
 11
28.62172516942955
 21
15.2717562501164
 31
0.0
  0
LINE
  5
74FA
330
73E1
100
AcDbEntity
  8
0
  6
CONTINUOUS
 62
     7
100
AcDbLine
 10
31.06275367385169
 20
14.85260930746721
 30
0.0
 11
31.06275367385169
 21
15.19979989790474
 31
0.0
  0
LINE
  5
74FB
330
73E1
100
AcDbEntity
  8
0
  6
CONTINUOUS
 62
     7
100
AcDbLine
 10
28.93457242405078
 20
16.3480045941558
 30
0.0
 11
28.93457242405078
 21
16.42837278250566
 31
0.0
  0
LINE
  5
74FC
330
73E1
100
AcDbEntity
  8
0
  6
CONTINUOUS
 62
     7
100
AcDbLine
 10
24.26339902615579
 20
16.53266811332209
 30
0.0
 11
24.26339902615579
 21
16.18547752288456
 31
0.0
  0
LWPOLYLINE
  5
74FD
330
73E1
100
AcDbEntity
  8
0
  6
CONTINUOUS
 62
     7
100
AcDbPolyline
 90
       24
 70
   128
 43
0.0
 10
28.64672310412139
 20
15.26928086581262
 10
28.61084379902396
 20
15.24552652729697
 10
28.58090164698632
 20
15.2191730771943
 10
28.5574544484943
 20
15.19071141798729
 10
28.54093902078689
 20
15.16067169176591
 10
28.53166295470687
 20
15.12961355241193
 10
28.52979904040674
 20
15.09811552384214
 10
28.53538204592528
 20
15.06676433954238
 10
28.54830792641562
 20
15.03614406881748
 10
28.56833589830117
 20
15.00682504098246
 10
28.5950930283456
 20
14.97935338321346
 10
28.62808061168232
 20
14.9542409924506
 10
28.66668438703246
 20
14.93195550730085
 10
28.7101850371193
 20
14.91291218078917
 10
28.75777250034409
 20
14.89746561840385
 10
28.80855999726565
 20
14.88590374627094
 10
28.8616017127796
 20
14.87844173442674
 10
28.91590938936581
 20
14.875218763879
 10
28.97047153895777
 20
14.87629474876623
 10
29.02427164366081
 20
14.88164970773072
 10
29.07630751021966
 20
14.89118392107528
 10
29.12560989204965
 20
14.90471970064755
 10
29.17126040475861
 20
14.92200490715766
 10
29.21240853260499
 20
14.94271761904319
  0
LINE
  5
74FE
330
73E1
100
AcDbEntity
  8
0
  6
CONTINUOUS
 62
     7
100
AcDbLine
 10
29.79577165017392
 20
15.9326124720385
 30
0.0
 11
28.64672310412139
 21
15.26928086581262
 31
0.0
  0
LINE
  5
74FF
330
73E1
100
AcDbEntity
  8
0
  6
CONTINUOUS
 62
     7
100
AcDbLine
 10
30.36145707865752
 20
15.60604922526907
 30
0.0
 11
29.79577165017392
 21
15.9326124720385
 31
0.0
  0
LINE
  5
7500
330
73E1
100
AcDbEntity
  8
0
  6
CONTINUOUS
 62
     7
100
AcDbLine
 10
29.21240853260499
 20
14.94271761904319
 30
0.0
 11
30.36145707865752
 21
15.60604922526907
 31
0.0
  0
LWPOLYLINE
  5
7501
330
73E1
100
AcDbEntity
  8
0
  6
CONTINUOUS
 62
     7
100
AcDbPolyline
 90
       28
 70
   128
 43
0.0
 10
29.80319624688938
 20
15.61033532378549
 10
29.82860346440024
 20
15.5987379641626
 10
29.8579586821634
 20
15.5908357637564
 10
29.88967942291157
 20
15.58705457244673
 10
29.92205564878773
 20
15.58759848446111
 10
29.95334190572233
 20
15.59243789446205
 10
29.98185159382036
 20
15.6013121916627
 10
30.0060476598294
 20
15.61374272151653
 10
30.02462577079248
 20
15.62905948739693
 10
30.03658431681067
 20
15.64643665305444
 10
30.04127865022072
 20
15.66493762415189
 10
30.0384557239991
 20
15.68356473973083
 10
30.02826767748332
 20
15.70131393282448
 10
30.01126364345601
 20
15.71722843316295
 10
29.98836050254634
 20
15.73045013497827
 10
29.96079289607202
 20
15.74026629500888
 10
29.93004706046515
 20
15.74614772907259
 10
29.89778035002213
 20
15.7477774295617
 10
29.865732359322
 20
15.74506738869841
 10
29.83563096396279
 20
15.7381638670277
 10
29.80909867242125
 20
15.72743895185495
 10
29.78756603004276
 20
15.71347086026712
 10
29.7721936307783
 20
15.69701256765274
 10
29.76381061846117
 20
15.67895139596724
 10
29.76286843312967
 20
15.66026099860523
 10
29.76941835828919
 20
15.64194900475306
 10
29.78310685406134
 20
15.62500259825279
 10
29.80319624688938
 20
15.61033532378549
  0
LWPOLYLINE
  5
7502
330
73E1
100
AcDbEntity
  8
0
  6
CONTINUOUS
 62
     7
100
AcDbPolyline
 90
       28
 70
   128
 43
0.0
 10
29.44964288649582
 20
15.40623331326373
 10
29.47505010400668
 20
15.39463595364084
 10
29.50440526991593
 20
15.38673372330003
 10
29.536126062518
 20
15.38295256192498
 10
29.56850223654027
 20
15.38349644400474
 10
29.59978854532876
 20
15.3883358839403
 10
29.6282981815729
 20
15.39721015120632
 10
29.65249424758194
 20
15.40964068106016
 10
29.67107235854502
 20
15.42495744694056
 10
29.6830309564171
 20
15.44233464253268
 10
29.68772518611936
 20
15.4608355537609
 10
29.68490231175163
 20
15.47946269927446
 10
29.67471426523585
 20
15.49721189236811
 10
29.65771023120856
 20
15.51312639270658
 10
29.63480709029888
 20
15.5263480945219
 10
29.60723948382456
 20
15.53616425455251
 10
29.57649364821769
 20
15.54204568861622
 10
29.54422688592077
 20
15.54367535917071
 10
29.51217899892844
 20
15.54096537817665
 10
29.48207755171532
 20
15.53406182657132
 10
29.45554526017378
 20
15.52333691139858
 10
29.43401261779529
 20
15.50936881981074
 10
29.41864027038474
 20
15.49291055713098
 10
29.41025720621371
 20
15.47484935551087
 10
29.40931507273611
 20
15.45615898808347
 10
29.41586494604173
 20
15.43784696429668
 10
29.42955349366778
 20
15.42090058773103
 10
29.44964288649582
 20
15.40623331326373
  0
LINE
  5
7503
330
73E1
100
AcDbEntity
  8
0
  6
CONTINUOUS
 62
     7
100
AcDbLine
 10
29.01441864786781
 20
15.03252250198895
 30
0.0
 11
29.05684505613838
 21
15.05701474615147
 31
0.0
  0
ARC
  5
7504
330
73E1
100
AcDbEntity
  8
0
  6
CONTINUOUS
 62
     7
100
AcDbCircle
 10
29.05219723739319
 20
15.06926086984145
 30
0.0
 40
0.0130984642045704
100
AcDbArc
 50
290.7834501523439
 51
69.21663703492233
  0
LINE
  5
7505
330
73E1
100
AcDbEntity
  8
0
  6
CONTINUOUS
 62
     7
100
AcDbLine
 10
29.05684503750339
 20
15.08150700060403
 30
0.0
 11
28.88713946599759
 21
15.17947594170677
 31
0.0
  0
ARC
  5
7506
330
73E1
100
AcDbEntity
  8
0
  6
CONTINUOUS
 62
     7
100
AcDbCircle
 10
28.86592624256873
 20
15.13853462419681
 30
0.0
 40
0.0461106530824979
100
AcDbArc
 50
62.60964158181537
 51
117.3903293620445
  0
LINE
  5
7507
330
73E1
100
AcDbEntity
  8
0
  6
CONTINUOUS
 62
     7
100
AcDbLine
 10
28.84471303990224
 20
15.17947595246453
 30
0.0
 11
28.80228663163167
 21
15.154983708302
 31
0.0
  0
ARC
  5
7508
330
73E1
100
AcDbEntity
  8
0
  6
CONTINUOUS
 62
     7
100
AcDbCircle
 10
28.8069344501132
 20
15.1427375865501
 30
0.0
 40
0.0130984622990477
100
AcDbArc
 50
110.7834520822656
 51
249.2166540588001
  0
LINE
  5
7509
330
73E1
100
AcDbEntity
  8
0
  6
CONTINUOUS
 62
     7
100
AcDbLine
 10
28.80228665431776
 20
15.13049145618809
 30
0.0
 11
28.97199222582354
 21
15.03252251508534
 31
0.0
  0
ARC
  5
750A
330
73E1
100
AcDbEntity
  8
0
  6
CONTINUOUS
 62
     7
100
AcDbCircle
 10
28.99320544948364
 20
15.07346381921507
 30
0.0
 40
0.0461106413086665
100
AcDbArc
 50
242.609633677954
 51
297.3903309493648
  0
ARC
  5
750B
330
73E1
100
AcDbEntity
  8
0
  6
CONTINUOUS
 62
     7
100
AcDbCircle
 10
30.32328247023796
 20
15.54484912620619
 30
0.0
 40
0.0721301105870045
100
AcDbArc
 50
28.85754568121803
 51
58.04544214853684
  0
ARC
  5
750C
330
73E1
100
AcDbEntity
  8
0
  6
CONTINUOUS
 62
     7
100
AcDbCircle
 10
29.78112568271649
 20
15.91216845259156
 30
0.0
 40
0.025148803031383
100
AcDbArc
 50
54.38242550319561
 51
114.3071836674988
  0
LWPOLYLINE
  5
750D
330
73E1
100
AcDbEntity
  8
0
  6
CONTINUOUS
 62
     7
100
AcDbPolyline
 90
       13
 70
   128
 43
0.0
 10
29.61957573363772
 20
15.39395672864754
 10
29.62022281843418
 20
15.39805582560348
 10
29.61729110273399
 20
15.41163339016106
 10
29.60688138080313
 20
15.42392577175148
 10
29.59012178605226
 20
15.43360087986069
 10
29.56882844941426
 20
15.43961028441761
 10
29.545308869362
 20
15.44130272786665
 10
29.52211166499525
 20
15.43849483073616
 10
29.50175071330198
 20
15.43149084848646
 10
29.48643239765343
 20
15.42104986316823
 10
29.47781671689478
 20
15.40830319381059
 10
29.47683719675653
 20
15.39463223324394
 10
29.47699281030523
 20
15.39395669871292
  0
LWPOLYLINE
  5
750E
330
73E1
100
AcDbEntity
  8
0
  6
CONTINUOUS
 62
     7
100
AcDbPolyline
 90
       13
 70
   128
 43
0.0
 10
29.97312914588517
 20
15.59805876910392
 10
29.97377617882774
 20
15.60215783612523
 10
29.97084446312756
 20
15.61573540068282
 10
29.96043479305059
 20
15.62802781220785
 10
29.94367519829972
 20
15.63770292031706
 10
29.92238180980782
 20
15.64371229493936
 10
29.89886222975556
 20
15.64540473838841
 10
29.87566507724272
 20
15.64259687119253
 10
29.85530412554945
 20
15.63559288894283
 10
29.83998575804699
 20
15.62515187368998
 10
29.83137012914225
 20
15.61240523426697
 10
29.83039060900399
 20
15.59873427370031
 10
29.83054627440658
 20
15.59805876910392
  0
LWPOLYLINE
  5
750F
330
73E1
100
AcDbEntity
  8
0
  6
CONTINUOUS
 62
     7
100
AcDbPolyline
 90
       30
 70
   128
 43
0.0
 10
27.20920830476443
 20
17.27576585612514
 10
27.23120981009104
 20
17.25996486785923
 10
27.24681295920278
 20
17.24180299611781
 10
27.25528806404323
 20
17.22212942615258
 10
27.25623906453744
 20
17.20186404878371
 10
27.24962136633289
 20
17.18195435454939
 10
27.23574432978664
 20
17.16333148968624
 10
27.2152570619972
 20
17.14686613250195
 10
27.18911735631943
 20
17.13332817144436
 10
27.15854751284328
 20
17.12335066382115
 10
27.12497703983615
 20
17.1174001107238
 10
27.08997545109077
 20
17.11575478436395
 10
27.05517956675981
 20
17.11849161671061
 10
27.02221625104748
 20
17.12548266720521
 10
26.99262691293364
 20
17.13640098994675
 10
26.96779532554745
 20
17.15073596021638
 10
26.94888218654767
 20
17.16781752151824
 10
26.93677201973096
 20
17.18684683862856
 10
26.93203117337416
 20
17.20693407508397
 10
26.93488127103847
 20
17.22714006217016
 10
26.94518894449755
 20
17.24651994359531
 10
26.9624724710365
 20
17.26416747872523
 10
26.98592334467357
 20
17.27925766947977
 10
27.01444537399938
 20
17.29108465755959
 10
27.04670472118885
 20
17.29909564036866
 10
27.08119295634139
 20
17.30291601609367
 10
27.11629742322094
 20
17.30236701519419
 10
27.15037684223955
 20
17.29747438144192
 10
27.18183732827233
 20
17.28846699492835
 10
27.20920830476443
 20
17.27576585612514
  0
LWPOLYLINE
  5
7510
330
73E1
100
AcDbEntity
  8
0
  6
CONTINUOUS
 62
     7
100
AcDbPolyline
 90
       30
 70
   128
 43
0.0
 10
29.44049217721486
 20
13.96272386795174
 10
29.46249357883368
 20
13.94692293955507
 10
29.47809672794541
 20
13.92876106781364
 10
29.48657193649366
 20
13.90908743797918
 10
29.48752288513396
 20
13.88882203067568
 10
29.48090513507552
 20
13.86891242624522
 10
29.46702820223707
 20
13.85028950151284
 10
29.44654083073983
 20
13.83382420419778
 10
29.42040122876986
 20
13.82028618327096
 10
29.38983128158591
 20
13.81030873551699
 10
29.35626086043268
 20
13.80435809261578
 10
29.3212592716873
 20
13.80271276625593
 10
29.28646343921023
 20
13.80544962853721
 10
29.2535001234979
 20
13.81244067903181
 10
29.22391073353017
 20
13.82335897183872
 10
29.19907893872839
 20
13.83769406184683
 10
29.1801660589981
 20
13.85477553334483
 10
29.16805589218138
 20
13.87380485045516
 10
29.16331499397069
 20
13.89389205697595
 10
29.166165091635
 20
13.91409804406213
 10
29.17647281694797
 20
13.9334779554219
 10
29.19375634348693
 20
13.95112549055183
 10
29.217207217124
 20
13.96621568130637
 10
29.24572924644981
 20
13.97804266938619
 10
29.27798838622369
 20
13.98605377193373
 10
29.31247677693793
 20
13.98987399798566
 10
29.34758129567137
 20
13.98932502702078
 10
29.38166050727438
 20
13.98443251300699
 10
29.41312120072275
 20
13.97542500675495
 10
29.44049217721486
 20
13.96272386795174
  0
LWPOLYLINE
  5
7511
330
73E1
100
AcDbEntity
  8
0
  6
CONTINUOUS
 62
     7
100
AcDbPolyline
 90
       30
 70
   128
 43
0.0
 10
24.98627633229215
 20
16.53408794220235
 10
25.00827773391098
 20
16.51828701380567
 10
25.02388088302271
 20
16.50012514206424
 10
25.03235588415537
 20
16.48045163196826
 10
25.03330683279568
 20
16.46018622466476
 10
25.02668929015282
 20
16.44027650049583
 10
25.01281214989878
 20
16.42165369550192
 10
24.99232498581713
 20
16.40518827844838
 10
24.96618517643157
 20
16.39165037726004
 10
24.93561543666321
 20
16.38167280976759
 10
24.90204480809439
 20
16.37572228660486
 10
24.86704321934901
 20
16.374076960245
 10
24.83224738687194
 20
16.37681382252629
 10
24.79928407115961
 20
16.38380487302089
 10
24.76969488860747
 20
16.39472304608933
 10
24.74486309380568
 20
16.40905813609744
 10
24.72595000665981
 20
16.42613972733391
 10
24.71383983984309
 20
16.44516904444423
 10
24.7090989416324
 20
16.46525625096503
 10
24.71194903929671
 20
16.48546223805121
 10
24.72225697202528
 20
16.50484202967251
 10
24.73954029114864
 20
16.52248968454091
 10
24.7629913722013
 20
16.53757975555698
 10
24.79151319411152
 20
16.54940686337526
 10
24.82377254130099
 20
16.55741784618434
 10
24.85826072459963
 20
16.56123819197473
 10
24.89336524333308
 20
16.56068922100986
 10
24.92744466235169
 20
16.5557965872576
 10
24.95890535580006
 20
16.54678908100555
 10
24.98627633229215
 20
16.53408794220235
  0
LWPOLYLINE
  5
7512
330
73E1
100
AcDbEntity
  8
0
  6
CONTINUOUS
 62
     7
100
AcDbPolyline
 90
       30
 70
   128
 43
0.0
 10
30.72525521373156
 20
15.24599518046206
 10
30.74725661535038
 20
15.23019425206538
 10
30.76285955704652
 20
15.21203250006243
 10
30.77133476559477
 20
15.19235887022797
 10
30.77228576608897
 20
15.17209349285909
 10
30.76566796417663
 20
15.15218385849401
 10
30.75179103133818
 20
15.13356093376163
 10
30.73130386725653
 20
15.1170955167081
 10
30.70516405787097
 20
15.10355761551975
 10
30.67459431810262
 20
15.09358004802731
 10
30.64102374138769
 20
15.08762955479919
 10
30.60602215264231
 20
15.08598422843934
 10
30.57122626831135
 20
15.088721060786
 10
30.53826295259902
 20
15.0957121112806
 10
30.50867361448518
 20
15.10663043402213
 10
30.48384202709899
 20
15.12096540429176
 10
30.46492888809921
 20
15.13804696559362
 10
30.45281872128249
 20
15.15707628270395
 10
30.4480778749257
 20
15.17716351915936
 10
30.45092797259001
 20
15.19736950624554
 10
30.46123574975689
 20
15.21674932780146
 10
30.47851917258804
 20
15.23439692280062
 10
30.5019701499329
 20
15.24948705368593
 10
30.53049207555092
 20
15.26131410163498
 10
30.56275131903259
 20
15.26932514431329
 10
30.59723965789293
 20
15.27314546016906
 10
30.63234412477248
 20
15.27259645926957
 10
30.6664234400833
 20
15.26770388538654
 10
30.69788413353166
 20
15.2586963791345
 10
30.72525521373156
 20
15.24599518046206
  0
LWPOLYLINE
  5
7513
330
73E1
100
AcDbEntity
  8
0
  6
CONTINUOUS
 62
     7
100
AcDbPolyline
 90
       22
 70
   128
 43
0.0
 10
26.53617914921905
 20
16.30385610066023
 10
26.55740482948328
 20
16.29481274021912
 10
26.58230499364994
 20
16.28978284127468
 10
26.60866699698957
 20
16.28921342496551
 10
26.63414863780791
 20
16.29315498350902
 10
26.65648556007546
 20
16.30125740160967
 10
26.67369328269689
 20
16.3128006132499
 10
26.68424257587668
 20
16.32675908459978
 10
26.68719630355668
 20
16.34189242610659
 10
26.68229183870564
 20
16.35685607200413
 10
26.66996505871065
 20
16.37032038267523
 10
26.65131124105611
 20
16.38108900239068
 10
26.6279878437462
 20
16.38820510101137
 10
26.60206724023382
 20
16.39103638830423
 10
26.57585268345391
 20
16.38933123760972
 10
26.55167328199142
 20
16.38324126028584
 10
26.53167768638359
 20
16.37330745346351
 10
26.51764236581289
 20
16.36041262271264
 10
26.51081464635689
 20
16.34570238458444
 10
26.51180101120972
 20
16.33048392399051
 10
26.52051389210067
 20
16.31610942505742
 10
26.53617914921905
 20
16.30385610066023
  0
LWPOLYLINE
  5
7514
330
73E1
100
AcDbEntity
  8
0
  6
CONTINUOUS
 62
     7
100
AcDbPolyline
 90
       22
 70
   128
 43
0.0
 10
29.45925837523041
 20
14.61639838203134
 10
29.48048405549465
 20
14.60735502159023
 10
29.50538421966131
 20
14.60232512264579
 10
29.53174622300094
 20
14.60175570633662
 10
29.55722786381928
 20
14.60569726488014
 10
29.57956478608683
 20
14.61379968298079
 10
29.59677250870826
 20
14.62534289462101
 10
29.60732180188805
 20
14.63930136597089
 10
29.61027552956805
 20
14.6544347074777
 10
29.60537106471701
 20
14.66939835337524
 10
29.59304428472202
 20
14.68286266404634
 10
29.57439046706748
 20
14.69363128376179
 10
29.55106706975757
 20
14.70074738238248
 10
29.52514646624519
 20
14.70357866967534
 10
29.49893190946528
 20
14.70187351898083
 10
29.47475250800279
 20
14.69578354165695
 10
29.45475691239496
 20
14.68584973483463
 10
29.44072159182426
 20
14.67295490408376
 10
29.43389387236826
 20
14.65824466595555
 10
29.43488023722109
 20
14.64302620536162
 10
29.44359311811203
 20
14.62865170642854
 10
29.45925837523041
 20
14.61639838203134
  0
LINE
  5
7515
330
73E1
100
AcDbEntity
  8
0
  6
CONTINUOUS
 62
     7
100
AcDbLine
 10
26.30824739277937
 20
16.04854118931386
 30
0.0
 11
26.12453566852065
 21
16.15459571029447
 31
0.0
  0
LINE
  5
7516
330
73E1
100
AcDbEntity
  8
0
  6
CONTINUOUS
 62
     7
100
AcDbLine
 10
26.12453566852065
 20
16.15459571029447
 30
0.0
 11
25.87358079421419
 21
16.11577706604998
 31
0.0
  0
LINE
  5
7517
330
73E1
100
AcDbEntity
  8
0
  6
CONTINUOUS
 62
     7
100
AcDbLine
 10
25.87358079421419
 20
16.11577706604998
 30
0.0
 11
25.80633764416644
 21
15.97090390082489
 31
0.0
  0
LINE
  5
7518
330
73E1
100
AcDbEntity
  8
0
  6
CONTINUOUS
 62
     7
100
AcDbLine
 10
25.80633764416644
 20
15.97090390082489
 30
0.0
 11
25.99004936842517
 21
15.86484937984428
 31
0.0
  0
LINE
  5
7519
330
73E1
100
AcDbEntity
  8
0
  6
CONTINUOUS
 62
     7
100
AcDbLine
 10
25.99004936842517
 20
15.86484937984428
 30
0.0
 11
26.24100424273163
 21
15.90366802408877
 31
0.0
  0
LINE
  5
751A
330
73E1
100
AcDbEntity
  8
0
  6
CONTINUOUS
 62
     7
100
AcDbLine
 10
26.24100424273163
 20
15.90366802408877
 30
0.0
 11
26.30824739277937
 21
16.04854118931386
 31
0.0
  0
LINE
  5
751B
330
73E1
100
AcDbEntity
  8
0
  6
CONTINUOUS
 62
     7
100
AcDbLine
 10
28.7831211229499
 20
14.6198269959231
 30
0.0
 11
28.59940939869118
 21
14.7258815169037
 31
0.0
  0
LINE
  5
751C
330
73E1
100
AcDbEntity
  8
0
  6
CONTINUOUS
 62
     7
100
AcDbLine
 10
28.59940939869118
 20
14.7258815169037
 30
0.0
 11
28.34845452438472
 21
14.68706287265922
 31
0.0
  0
LINE
  5
751D
330
73E1
100
AcDbEntity
  8
0
  6
CONTINUOUS
 62
     7
100
AcDbLine
 10
28.34845452438472
 20
14.68706287265922
 30
0.0
 11
28.28121137433697
 21
14.54218970743412
 31
0.0
  0
LINE
  5
751E
330
73E1
100
AcDbEntity
  8
0
  6
CONTINUOUS
 62
     7
100
AcDbLine
 10
28.28121137433697
 20
14.54218970743412
 30
0.0
 11
28.4649230985957
 21
14.43613518645352
 31
0.0
  0
LINE
  5
751F
330
73E1
100
AcDbEntity
  8
0
  6
CONTINUOUS
 62
     7
100
AcDbLine
 10
28.4649230985957
 20
14.43613518645352
 30
0.0
 11
28.71587797290216
 21
14.474953830698
 31
0.0
  0
LINE
  5
7520
330
73E1
100
AcDbEntity
  8
0
  6
CONTINUOUS
 62
     7
100
AcDbLine
 10
28.71587797290216
 20
14.474953830698
 30
0.0
 11
28.7831211229499
 21
14.6198269959231
 31
0.0
  0
LWPOLYLINE
  5
7521
330
73E1
100
AcDbEntity
  8
0
  6
CONTINUOUS
 62
     7
100
AcDbPolyline
 90
       25
 70
   128
 43
0.0
 10
28.60429671124494
 20
15.30193850963243
 10
28.56462330826526
 20
15.27582265901426
 10
28.53119417602133
 20
15.24694080382845
 10
28.5045812711132
 20
15.21578710943105
 10
28.48523996151197
 20
15.18289464402098
 10
28.47350118527811
 20
15.14882618216395
 10
28.46956586330393
 20
15.11416463319835
 10
28.47350118527811
 20
15.07950311416736
 10
28.48523994854849
 20
15.04543462985937
 10
28.50458124518625
 20
15.01254217193295
 10
28.53119416953959
 20
14.98138846631007
 10
28.56462334067394
 20
14.95250658867329
 10
28.60429673231058
 20
14.92639077453794
 10
28.64953555099425
 20
14.90348781304936
 10
28.69956585136637
 20
14.88418956332829
 10
28.75353144778573
 20
14.86882627905106
 10
28.81050908159369
 20
14.85766075623166
 10
28.86952376986808
 20
14.85088414237521
 10
28.92956589128273
 20
14.84861226948718
 10
28.98960785713568
 20
14.85088414237521
 10
29.04862261022746
 20
14.85766076371532
 10
29.10560025699888
 20
14.86882623414913
 10
29.15956588582692
 20
14.8841895371355
 10
29.20959604360083
 20
14.90348782427484
 10
29.25483497733534
 20
14.92639076237701
  0
LINE
  5
7522
330
73E1
100
AcDbEntity
  8
0
  6
CONTINUOUS
 62
     7
100
AcDbLine
 10
29.25483497733534
 20
14.92639076237701
 30
0.0
 11
30.40388352338786
 21
15.58972236860289
 31
0.0
  0
LINE
  5
7523
330
73E1
100
AcDbEntity
  8
0
  6
CONTINUOUS
 62
     7
100
AcDbLine
 10
31.05103790778519
 20
15.21612809466803
 30
0.0
 11
30.40388352338786
 21
15.58972236860289
 31
0.0
  0
LWPOLYLINE
  5
7524
330
73E1
100
AcDbEntity
  8
0
  6
CONTINUOUS
 62
     7
100
AcDbPolyline
 90
        9
 70
   128
 43
0.0
 10
31.0576418128528
 20
15.1885050275997
 10
31.06034163791993
 20
15.19190278638365
 10
31.06205634262781
 20
15.19550751311849
 10
31.06274122891611
 20
15.19922467427963
 10
31.06237794050485
 20
15.20295698235762
 10
31.06097643334251
 20
15.20660649128142
 10
31.05857321257346
 20
15.21007764974943
 10
31.0552310214146
 20
15.21327951639127
 10
31.05103790778519
 20
15.21612809466803
  0
LINE
  5
7525
330
73E1
100
AcDbEntity
  8
0
  6
CONTINUOUS
 62
     7
100
AcDbLine
 10
29.47292103479775
 20
13.55721219641211
 30
0.0
 11
31.0576418128528
 21
15.1885050275997
 31
0.0
  0
ARC
  5
7526
330
73E1
100
AcDbEntity
  8
0
  6
CONTINUOUS
 62
     7
100
AcDbCircle
 10
29.43750086793328
 20
13.60281529399284
 30
0.0
 40
0.0577427980761627
100
AcDbArc
 50
241.2739154701172
 51
307.8366760693108
  0
LINE
  5
7527
330
73E1
100
AcDbEntity
  8
0
  6
CONTINUOUS
 62
     7
100
AcDbLine
 10
24.2751147922223
 20
16.51633991655881
 30
0.0
 11
29.40974836391001
 21
13.55217904956158
 31
0.0
  0
LWPOLYLINE
  5
7528
330
73E1
100
AcDbEntity
  8
0
  6
CONTINUOUS
 62
     7
100
AcDbPolyline
 90
        9
 70
   128
 43
0.0
 10
24.28383340296901
 20
16.55280872320193
 10
24.27637608644372
 20
16.54969342747618
 10
24.2703499375106
 20
16.54567650104746
 10
24.26607406505956
 20
16.54097065931334
 10
24.26377455208704
 20
16.53582519777498
 10
24.26357356637736
 20
16.53051252145882
 10
24.26548178983356
 20
16.5253139559076
 10
24.26939800364623
 20
16.52050489960962
 10
24.2751147922223
 20
16.51633991655881
  0
LINE
  5
7529
330
73E1
100
AcDbEntity
  8
0
  6
CONTINUOUS
 62
     7
100
AcDbLine
 10
27.10962164865033
 20
17.46764855545974
 30
0.0
 11
24.28383340296901
 21
16.55280872320193
 31
0.0
  0
ARC
  5
752A
330
73E1
100
AcDbEntity
  8
0
  6
CONTINUOUS
 62
     7
100
AcDbCircle
 10
27.12894643644337
 20
17.40800566604685
 30
0.0
 40
0.062695467784871
100
AcDbArc
 50
62.93659015781886
 51
107.9527517172016
  0
LINE
  5
752B
330
73E1
100
AcDbEntity
  8
0
  6
CONTINUOUS
 62
     7
100
AcDbLine
 10
28.92285670983817
 20
16.44470094933433
 30
0.0
 11
27.15747138889256
 21
17.46383620221243
 31
0.0
  0
ARC
  5
752C
330
73E1
100
AcDbEntity
  8
0
  6
CONTINUOUS
 62
     7
100
AcDbCircle
 10
28.91665955881244
 20
16.42837278358042
 30
0.0
 40
0.0174646407842466
100
AcDbArc
 50
290.7834038220313
 51
69.21636873301043
  0
ARC
  5
752D
330
73E1
100
AcDbEntity
  8
0
  6
CONTINUOUS
 62
     7
100
AcDbCircle
 10
28.89803638619176
 20
16.46668253269406
 30
0.0
 40
0.0600112462597776
100
AcDbArc
 50
269.2175598778297
 51
294.4307709882527
  0
LINE
  5
752E
330
73E1
100
AcDbEntity
  8
0
  6
CONTINUOUS
 62
     7
100
AcDbLine
 10
28.89721688870317
 20
16.40667688211415
 30
0.0
 11
28.65173848608126
 21
16.40667686714685
 31
0.0
  0
ARC
  5
752F
330
73E1
100
AcDbEntity
  8
0
  6
CONTINUOUS
 62
     7
100
AcDbCircle
 10
28.65058597595751
 20
16.34897276646215
 30
0.0
 40
0.0577156089408657
100
AcDbArc
 50
88.85579730568283
 51
118.0403195245913
  0
LINE
  5
7530
330
73E1
100
AcDbEntity
  8
0
  6
CONTINUOUS
 62
     7
100
AcDbLine
 10
28.62345428465984
 20
16.39991354426092
 30
0.0
 11
28.03290434156464
 21
16.05899631873924
 31
0.0
  0
ARC
  5
7531
330
73E1
100
AcDbEntity
  8
0
  6
CONTINUOUS
 62
     7
100
AcDbCircle
 10
28.03910141618514
 20
16.04266815191057
 30
0.0
 40
0.0174646146775883
100
AcDbArc
 50
110.7833956661026
 51
249.2166043338981
  0
LINE
  5
7532
330
73E1
100
AcDbEntity
  8
0
  6
CONTINUOUS
 62
     7
100
AcDbLine
 10
28.03290434156464
 20
16.02633998508191
 30
0.0
 11
28.5609516179916
 21
15.72150478100039
 31
0.0
  0
ARC
  5
7533
330
73E1
100
AcDbEntity
  8
0
  6
CONTINUOUS
 62
     7
100
AcDbCircle
 10
28.58923589719387
 20
15.77609321206507
 30
0.0
 40
0.0614808690252156
100
AcDbArc
 50
242.6096603665738
 51
297.3903396334278
  0
LINE
  5
7534
330
73E1
100
AcDbEntity
  8
0
  6
CONTINUOUS
 62
     7
100
AcDbLine
 10
28.61752017639613
 20
15.72150478100039
 30
0.0
 11
29.20807011949133
 21
16.06242200652206
 31
0.0
  0
ARC
  5
7535
330
73E1
100
AcDbEntity
  8
0
  6
CONTINUOUS
 62
     7
100
AcDbCircle
 10
29.19976769916694
 20
16.08074628341748
 30
0.0
 40
0.0201173881749847
100
AcDbArc
 50
294.3744772134062
 51
354.3054353110684
  0
LINE
  5
7536
330
73E1
100
AcDbEntity
  8
0
  6
CONTINUOUS
 62
     7
100
AcDbLine
 10
29.21978580777699
 20
16.0787501284488
 30
0.0
 11
29.21978583370394
 21
16.22046179386481
 31
0.0
  0
ARC
  5
7537
330
73E1
100
AcDbEntity
  8
0
  6
CONTINUOUS
 62
     7
100
AcDbCircle
 10
29.23847586255003
 20
16.21904217524986
 30
0.0
 40
0.0187438655372803
100
AcDbArc
 50
120.0704072444499
 51
175.6563858968804
  0
ARC
  5
7538
330
73E1
100
AcDbEntity
  8
0
  6
CONTINUOUS
 62
     7
100
AcDbCircle
 10
29.2573683243007
 20
16.18067468405992
 30
0.0
 40
0.0614810677247737
100
AcDbArc
 50
62.60977380133873
 51
117.3903019972185
  0
LINE
  5
7539
330
73E1
100
AcDbEntity
  8
0
  6
CONTINUOUS
 62
     7
100
AcDbLine
 10
29.75334525729746
 20
15.9652701158583
 30
0.0
 11
29.28565258683958
 21
16.23526334754612
 31
0.0
  0
LINE
  5
753A
330
73E1
100
AcDbEntity
  8
0
  6
CONTINUOUS
 62
     7
100
AcDbLine
 10
29.75334525729746
 20
15.9652701158583
 30
0.0
 11
28.60429671124494
 21
15.30193850963243
 31
0.0
  0
LINE
  5
753B
330
73E1
100
AcDbEntity
  8
0
  6
CONTINUOUS
 62
     7
100
AcDbLine
 10
29.40974836391001
 20
13.20498845912405
 30
0.0
 11
29.40974836391001
 21
13.55217904956158
 31
0.0
  0
LINE
  5
753C
330
73E1
100
AcDbEntity
  8
0
  6
CONTINUOUS
 62
     7
100
AcDbLine
 10
29.47292103479775
 20
13.55721219641211
 30
0.0
 11
29.47292103479775
 21
13.21002160597458
 31
0.0
  0
ARC
  5
753D
330
73E1
100
AcDbEntity
  8
0
  6
CONTINUOUS
 62
     7
100
AcDbCircle
 10
29.43750086793329
 20
13.25562470355531
 30
0.0
 40
0.0577427980761606
100
AcDbArc
 50
241.273915470114
 51
307.836676069308
  0
LINE
  5
753E
330
73E1
100
AcDbEntity
  8
0
  6
CONTINUOUS
 62
     7
100
AcDbLine
 10
24.2751147922223
 20
16.51633991655881
 30
0.0
 11
24.2751147922223
 21
16.16914932612128
 31
0.0
  0
LINE
  5
753F
330
73E1
100
AcDbEntity
  8
0
  6
CONTINUOUS
 62
     7
100
AcDbLine
 10
24.2751147922223
 20
16.16914932612128
 30
0.0
 11
29.40974836391001
 21
13.20498845912405
 31
0.0
  0
LINE
  5
7540
330
73E1
100
AcDbEntity
  8
0
  6
CONTINUOUS
 62
     7
100
AcDbLine
 10
31.0576418128528
 20
14.84131443716217
 30
0.0
 11
31.0576418128528
 21
15.1885050275997
 31
0.0
  0
LINE
  5
7541
330
73E1
100
AcDbEntity
  8
0
  6
CONTINUOUS
 62
     7
100
AcDbLine
 10
29.47292103479775
 20
13.21002160597458
 30
0.0
 11
31.0576418128528
 21
14.84131443716217
 31
0.0
  0
LWPOLYLINE
  5
7542
330
73E1
100
AcDbEntity
  8
0
  6
CONTINUOUS
 62
     7
100
AcDbPolyline
 90
        3
 70
   128
 43
0.0
 10
29.44049217721486
 20
13.88235567960187
 10
29.46249357883368
 20
13.8665547512052
 10
29.47238445065849
 20
13.85624673546142
  0
ARC
  5
7543
330
73E1
100
AcDbEntity
  8
0
  6
CONTINUOUS
 62
     7
100
AcDbCircle
 10
29.32824844713872
 20
13.68358941144337
 30
0.0
 40
0.2282688859636072
100
AcDbArc
 50
60.54649136075023
 51
130.8541693932681
  0
LINE
  5
7544
330
73E1
100
AcDbEntity
  8
0
  6
CONTINUOUS
 62
     7
100
AcDbLine
 10
28.34845452438472
 20
14.52375470926173
 30
0.0
 11
28.34099274842419
 21
14.50767862185371
 31
0.0
  0
LINE
  5
7545
330
73E1
100
AcDbEntity
  8
0
  6
CONTINUOUS
 62
     7
100
AcDbLine
 10
28.59940939869118
 20
14.56257335350622
 30
0.0
 11
28.34845452438472
 21
14.52375470926173
 31
0.0
  0
LINE
  5
7546
330
73E1
100
AcDbEntity
  8
0
  6
CONTINUOUS
 62
     7
100
AcDbLine
 10
28.72333969700879
 20
14.49102991513237
 30
0.0
 11
28.59940939869118
 21
14.56257335350622
 31
0.0
  0
ARC
  5
7547
330
73E1
100
AcDbEntity
  8
0
  6
CONTINUOUS
 62
     7
100
AcDbCircle
 10
28.53232698804725
 20
14.30387561797392
 30
0.0
 40
0.1940410638223139
100
AcDbArc
 50
55.40315286025445
 51
125.3804580694627
  0
LINE
  5
7548
330
73E1
100
AcDbEntity
  8
0
  6
CONTINUOUS
 62
     7
100
AcDbLine
 10
28.34845452438472
 20
14.52375470926173
 30
0.0
 11
28.34845452438472
 21
14.68706287265922
 31
0.0
  0
LINE
  5
7549
330
73E1
100
AcDbEntity
  8
0
  6
CONTINUOUS
 62
     7
100
AcDbLine
 10
28.59940939869118
 20
14.56257335350622
 30
0.0
 11
28.59940939869118
 21
14.7258815169037
 31
0.0
  0
LWPOLYLINE
  5
754A
330
73E1
100
AcDbEntity
  8
0
  6
CONTINUOUS
 62
     7
100
AcDbPolyline
 90
        3
 70
   128
 43
0.0
 10
30.72525521373156
 20
15.16562699211219
 10
30.74725661535038
 20
15.14982606371552
 10
30.7571473316135
 20
15.13951819764483
  0
ARC
  5
754B
330
73E1
100
AcDbEntity
  8
0
  6
CONTINUOUS
 62
     7
100
AcDbCircle
 10
30.61301131029485
 20
14.9668605812505
 30
0.0
 40
0.2282690954674951
100
AcDbArc
 50
60.54647108363955
 51
130.854118009213
  0
ARC
  5
754C
330
73E1
100
AcDbEntity
  8
0
  6
CONTINUOUS
 62
     7
100
AcDbCircle
 10
31.04679223485783
 20
14.85302897128902
 30
0.0
 40
0.0159669550158494
100
AcDbArc
 50
312.8047404387228
 51
358.4939060039965
  0
LINE
  5
754D
330
73E1
100
AcDbEntity
  8
0
  6
CONTINUOUS
 62
     7
100
AcDbLine
 10
29.75334525729746
 20
15.92502664420192
 30
0.0
 11
29.75334525729746
 21
15.9652701158583
 31
0.0
  0
LINE
  5
754E
330
73E1
100
AcDbEntity
  8
0
  6
CONTINUOUS
 62
     7
100
AcDbLine
 10
28.62345428465984
 20
16.31954535591105
 30
0.0
 11
28.07422850205259
 21
16.00248406045132
 31
0.0
  0
ARC
  5
754F
330
73E1
100
AcDbEntity
  8
0
  6
CONTINUOUS
 62
     7
100
AcDbCircle
 10
28.65058597595751
 20
16.26860457811226
 30
0.0
 40
0.0577156089408931
100
AcDbArc
 50
88.85579730567988
 51
118.0403195245732
  0
LINE
  5
7550
330
73E1
100
AcDbEntity
  8
0
  6
CONTINUOUS
 62
     7
100
AcDbLine
 10
28.89721688870317
 20
16.32630869376429
 30
0.0
 11
28.65173848608126
 21
16.32630867879698
 31
0.0
  0
ARC
  5
7551
330
73E1
100
AcDbEntity
  8
0
  6
CONTINUOUS
 62
     7
100
AcDbCircle
 10
28.89803638619179
 20
16.38631434434407
 30
0.0
 40
0.0600112462596504
100
AcDbArc
 50
269.2175598778043
 51
294.4307709882816
  0
ARC
  5
7552
330
73E1
100
AcDbEntity
  8
0
  6
CONTINUOUS
 62
     7
100
AcDbCircle
 10
28.91455398321365
 20
16.35000095805745
 30
0.0
 40
0.0201177394947185
100
AcDbArc
 50
294.3747789215153
 51
354.3049370878597
  0
LINE
  5
7553
330
73E1
100
AcDbEntity
  8
0
  6
CONTINUOUS
 62
     7
100
AcDbLine
 10
29.21978587259436
 20
16.19291920396547
 30
0.0
 11
28.93457243701425
 21
16.35756941564757
 31
0.0
  0
LINE
  5
7554
330
73E1
100
AcDbEntity
  8
0
  6
CONTINUOUS
 62
     7
100
AcDbLine
 10
25.87358079421419
 20
15.95246890265249
 30
0.0
 11
25.86611901825366
 21
15.93639281524448
 31
0.0
  0
LINE
  5
7555
330
73E1
100
AcDbEntity
  8
0
  6
CONTINUOUS
 62
     7
100
AcDbLine
 10
26.12453566852065
 20
15.99128754689698
 30
0.0
 11
25.87358079421419
 21
15.95246890265249
 31
0.0
  0
LINE
  5
7556
330
73E1
100
AcDbEntity
  8
0
  6
CONTINUOUS
 62
     7
100
AcDbLine
 10
26.24846596683826
 20
15.91974410852313
 30
0.0
 11
26.12453566852065
 21
15.99128754689698
 31
0.0
  0
ARC
  5
7557
330
73E1
100
AcDbEntity
  8
0
  6
CONTINUOUS
 62
     7
100
AcDbCircle
 10
26.05745325787672
 20
15.73258981136468
 30
0.0
 40
0.1940410638223154
100
AcDbArc
 50
55.40315286025474
 51
125.3804580694624
  0
LINE
  5
7558
330
73E1
100
AcDbEntity
  8
0
  6
CONTINUOUS
 62
     7
100
AcDbLine
 10
25.87358079421419
 20
15.95246890265249
 30
0.0
 11
25.87358079421419
 21
16.11577706604998
 31
0.0
  0
LINE
  5
7559
330
73E1
100
AcDbEntity
  8
0
  6
CONTINUOUS
 62
     7
100
AcDbLine
 10
26.12453566852065
 20
15.99128754689698
 30
0.0
 11
26.12453566852065
 21
16.15459571029447
 31
0.0
  0
LINE
  5
755A
330
73E1
100
AcDbEntity
  8
0
  6
CONTINUOUS
 62
     7
100
AcDbLine
 10
28.62345428465984
 20
16.31954535591105
 30
0.0
 11
28.62345428465984
 21
16.39991354426092
 31
0.0
  0
LWPOLYLINE
  5
755B
330
73E1
100
AcDbEntity
  8
0
  6
CONTINUOUS
 62
     7
100
AcDbPolyline
 90
        3
 70
   128
 43
0.0
 10
24.98627633229215
 20
16.45371975385248
 10
25.00827773391098
 20
16.43791882545581
 10
25.0181683983202
 20
16.4276109294505
  0
ARC
  5
755C
330
73E1
100
AcDbEntity
  8
0
  6
CONTINUOUS
 62
     7
100
AcDbCircle
 10
24.87403246791385
 20
16.2549528530969
 30
0.0
 40
0.228269502839418
100
AcDbArc
 50
60.54654008362053
 51
130.8540597490685
  0
LINE
  5
755D
330
73E1
100
AcDbEntity
  8
0
  6
CONTINUOUS
 62
     7
100
AcDbLine
 10
28.65173848608126
 20
16.40667686714685
 30
0.0
 11
28.65173848608126
 21
16.32630867879698
 31
0.0
  0
LINE
  5
755E
330
73E1
100
AcDbEntity
  8
0
  6
CONTINUOUS
 62
     7
100
AcDbLine
 10
28.89721688870317
 20
16.32630869376429
 30
0.0
 11
28.89721688870317
 21
16.40667688211415
 31
0.0
  0
LINE
  5
755F
330
73E1
100
AcDbEntity
  8
0
  6
CONTINUOUS
 62
     7
100
AcDbLine
 10
28.9228566450208
 20
16.33167640487617
 30
0.0
 11
28.9228566450208
 21
16.41204459322604
 31
0.0
  0
ARC
  5
7560
330
73E1
100
AcDbEntity
  8
0
  6
CONTINUOUS
 62
     7
100
AcDbCircle
 10
24.2828927637627
 20
16.18709738807329
 30
0.0
 40
0.0195609245465679
100
AcDbArc
 50
184.7501766150913
 51
246.5700224405471
  0
LWPOLYLINE
  5
7561
330
73E1
100
AcDbEntity
  8
0
  6
CONTINUOUS
 62
     7
100
AcDbPolyline
 90
        3
 70
   128
 43
0.0
 10
27.20920830476443
 20
17.19539766777528
 10
27.23120981009104
 20
17.17959667950937
 10
27.24110063006196
 20
17.16928875356945
  0
ARC
  5
7562
330
73E1
100
AcDbEntity
  8
0
  6
CONTINUOUS
 62
     7
100
AcDbCircle
 10
27.09696459482582
 20
16.9966312964761
 30
0.0
 40
0.2282689658719003
100
AcDbArc
 50
60.54650849180625
 51
130.8541415223808
  0
ARC
  5
7563
330
73E1
100
AcDbEntity
  8
0
  6
CONTINUOUS
 62
     8
100
AcDbCircle
 10
29.17431443871394
 20
14.88161874619883
 30
0.0
 40
0.0720016128446549
100
AcDbArc
 50
29.17996131970743
 51
58.05717191449308
  0
LINE
  5
7564
330
73E1
100
AcDbEntity
  8
0
  6
CONTINUOUS
 62
     8
100
AcDbLine
 10
28.47970475232415
 20
15.05871798262594
 30
0.0
 11
28.47956907659934
 21
15.06418750137464
 31
0.0
  0
ARC
  5
7565
330
73E1
100
AcDbEntity
  8
0
  6
CONTINUOUS
 62
     8
100
AcDbCircle
 10
28.63221004629009
 20
15.25017516938006
 30
0.0
 40
0.0239928423449165
100
AcDbArc
 50
52.77899098068787
 51
115.9254420695482
  0
LINE
  5
7566
330
73E1
100
AcDbEntity
  8
0
  6
CONTINUOUS
 62
     8
100
AcDbLine
 10
29.05684503750339
 20
15.05701475692303
 30
0.0
 11
29.05684503750339
 21
15.08150700060403
 31
0.0
  0
LINE
  5
7567
330
73E1
100
AcDbEntity
  8
0
  6
CONTINUOUS
 62
     8
100
AcDbLine
 10
28.88713946599759
 20
15.08150696511158
 30
0.0
 11
28.88713946599759
 21
15.17947594170677
 31
0.0
  0
LINE
  5
7568
330
73E1
100
AcDbEntity
  8
0
  6
CONTINUOUS
 62
     8
100
AcDbLine
 10
28.80228663163167
 20
15.130491464621
 30
0.0
 11
28.80228663163167
 21
15.154983708302
 31
0.0
  0
LINE
  5
7569
330
73E1
100
AcDbEntity
  8
0
  6
CONTINUOUS
 62
     8
100
AcDbLine
 10
28.84471303990224
 20
15.10599922516398
 30
0.0
 11
28.84471303990224
 21
15.17947595246453
 31
0.0
  0
LINE
  5
756A
330
73E1
100
AcDbEntity
  8
0
  6
CONTINUOUS
 62
     8
100
AcDbLine
 10
28.60429671124494
 20
15.26098704028794
 30
0.0
 11
28.60429671124494
 21
15.30193850963243
 31
0.0
  0
LINE
  5
756B
330
73E1
100
AcDbEntity
  8
0
  6
CONTINUOUS
 62
     8
100
AcDbLine
 10
28.03290434156464
 20
16.05899631873924
 30
0.0
 11
28.03290434156464
 21
16.02633999507872
 31
0.0
  0
ARC
  5
756C
330
73E1
100
AcDbEntity
  8
0
  6
CONTINUOUS
 62
     7
100
AcDbCircle
 10
10.38810428984109
 20
10.03533724269707
 30
0.0
 40
0.4000000000000004
100
AcDbArc
 50
0.0
 51
180.0
  0
LINE
  5
756D
330
73E1
100
AcDbEntity
  8
0
  6
CONTINUOUS
 62
     7
100
AcDbLine
 10
9.98810425654228
 20
10.03533729977674
 30
0.0
 11
9.938104260813164
 21
10.03533729977674
 31
0.0
  0
ARC
  5
756E
330
73E1
100
AcDbEntity
  8
0
  6
CONTINUOUS
 62
     7
100
AcDbCircle
 10
10.38810428984109
 20
10.03533724269707
 30
0.0
 40
0.4500000000000011
100
AcDbArc
 50
0.0
 51
180.0
  0
LINE
  5
756F
330
73E1
100
AcDbEntity
  8
0
  6
CONTINUOUS
 62
     7
100
AcDbLine
 10
10.78810426154062
 20
10.03533729977674
 30
0.0
 11
10.83810425726974
 21
10.03533729977674
 31
0.0
  0
LINE
  5
7570
330
73E1
100
AcDbEntity
  8
0
  6
CONTINUOUS
 62
     7
100
AcDbLine
 10
10.78810426154062
 20
8.410337255249256
 30
0.0
 11
10.78810426154062
 21
10.03533729977674
 31
0.0
  0
LINE
  5
7571
330
73E1
100
AcDbEntity
  8
0
  6
CONTINUOUS
 62
     7
100
AcDbLine
 10
9.98810425654228
 20
8.410337255249256
 30
0.0
 11
10.78810426154062
 21
8.410337255249256
 31
0.0
  0
LINE
  5
7572
330
73E1
100
AcDbEntity
  8
0
  6
CONTINUOUS
 62
     7
100
AcDbLine
 10
9.98810425654228
 20
10.03533729977674
 30
0.0
 11
9.98810425654228
 21
8.410337255249256
 31
0.0
  0
CIRCLE
  5
7573
330
73E1
100
AcDbEntity
  8
0
  6
CONTINUOUS
 62
     7
100
AcDbCircle
 10
10.38810428984109
 20
8.660337242697082
 30
0.0
 40
0.1395
  0
CIRCLE
  5
7574
330
73E1
100
AcDbEntity
  8
0
  6
CONTINUOUS
 62
     7
100
AcDbCircle
 10
10.38810428984109
 20
9.160337242697082
 30
0.0
 40
0.1395
  0
LINE
  5
7575
330
73E1
100
AcDbEntity
  8
0
  6
CONTINUOUS
 62
     7
100
AcDbLine
 10
10.23810430852034
 20
10.06533717988223
 30
0.0
 11
10.23810430852034
 21
10.00533727300627
 31
0.0
  0
ARC
  5
7576
330
73E1
100
AcDbEntity
  8
0
  6
CONTINUOUS
 62
     7
100
AcDbCircle
 10
10.26810428984109
 20
10.00533724269708
 30
0.0
 40
0.0300000000000011
100
AcDbArc
 50
180.0
 51
270.0000000000008
  0
LINE
  5
7577
330
73E1
100
AcDbEntity
  8
0
  6
CONTINUOUS
 62
     7
100
AcDbLine
 10
10.26810433529081
 20
9.975337246235813
 30
0.0
 11
10.50810425612457
 21
9.975337246235813
 31
0.0
  0
ARC
  5
7578
330
73E1
100
AcDbEntity
  8
0
  6
CONTINUOUS
 62
     7
100
AcDbCircle
 10
10.50810428984109
 20
10.00533724269708
 30
0.0
 40
0.0299999999999994
100
AcDbArc
 50
270.0000000000008
 51
0.0
  0
LINE
  5
7579
330
73E1
100
AcDbEntity
  8
0
  6
CONTINUOUS
 62
     7
100
AcDbLine
 10
10.53810428289504
 20
10.00533727300627
 30
0.0
 11
10.53810428289504
 21
10.06533717988223
 31
0.0
  0
ARC
  5
757A
330
73E1
100
AcDbEntity
  8
0
  6
CONTINUOUS
 62
     7
100
AcDbCircle
 10
10.50810428984109
 20
10.06533724269708
 30
0.0
 40
0.0299999999999994
100
AcDbArc
 50
0.0
 51
90.0
  0
LINE
  5
757B
330
73E1
100
AcDbEntity
  8
0
  6
CONTINUOUS
 62
     7
100
AcDbLine
 10
10.50810425612457
 20
10.09533720665269
 30
0.0
 11
10.26810433529081
 21
10.09533720665269
 31
0.0
  0
ARC
  5
757C
330
73E1
100
AcDbEntity
  8
0
  6
CONTINUOUS
 62
     7
100
AcDbCircle
 10
10.26810428984109
 20
10.06533724269708
 30
0.0
 40
0.0300000000000011
100
AcDbArc
 50
90.0
 51
180.0
  0
LINE
  5
757D
330
73E1
100
AcDbEntity
  8
0
  6
CONTINUOUS
 62
     7
100
AcDbLine
 10
10.83810425726974
 20
10.03533729977674
 30
0.0
 11
10.83810425726974
 21
8.410337255249256
 31
0.0
  0
LINE
  5
757E
330
73E1
100
AcDbEntity
  8
0
  6
CONTINUOUS
 62
     7
100
AcDbLine
 10
10.83810425726974
 20
8.410337255249256
 30
0.0
 11
10.78810426154062
 21
8.410337255249256
 31
0.0
  0
LINE
  5
757F
330
73E1
100
AcDbEntity
  8
0
  6
CONTINUOUS
 62
     7
100
AcDbLine
 10
9.98810425654228
 20
8.410337255249256
 30
0.0
 11
9.938104260813164
 21
8.410337255249256
 31
0.0
  0
LINE
  5
7580
330
73E1
100
AcDbEntity
  8
0
  6
CONTINUOUS
 62
     7
100
AcDbLine
 10
9.938104260813164
 20
8.410337255249256
 30
0.0
 11
9.938104260813164
 21
10.03533729977674
 31
0.0
  0
CIRCLE
  5
7581
330
73E1
100
AcDbEntity
  8
0
  6
CONTINUOUS
 62
     7
100
AcDbCircle
 10
10.38810428984109
 20
9.160337242697082
 30
0.0
 40
0.0719999999999992
  0
CIRCLE
  5
7582
330
73E1
100
AcDbEntity
  8
0
  6
CONTINUOUS
 62
     7
100
AcDbCircle
 10
10.38810428984109
 20
8.660337242697082
 30
0.0
 40
0.0719999999999992
  0
CIRCLE
  5
7583
330
73E1
100
AcDbEntity
  8
0
  6
CONTINUOUS
 62
     7
100
AcDbCircle
 10
6.523931061494638
 20
9.054156140334876
 30
0.0
 40
0.16240157480315
  0
CIRCLE
  5
7584
330
73E1
100
AcDbEntity
  8
0
  6
CONTINUOUS
 62
     7
100
AcDbCircle
 10
12.15975783314818
 20
6.573841179704954
 30
0.0
 40
0.16240157480315
  0
CIRCLE
  5
7585
330
73E1
100
AcDbEntity
  8
0
  6
CONTINUOUS
 62
     7
100
AcDbCircle
 10
5.860545234722985
 20
6.573841179704954
 30
0.0
 40
0.16240157480315
  0
CIRCLE
  5
7586
330
73E1
100
AcDbEntity
  8
0
  6
CONTINUOUS
 62
     7
100
AcDbCircle
 10
11.49637200637653
 20
9.054156140334876
 30
0.0
 40
0.1624015748031482
  0
CIRCLE
  5
7587
330
73E1
100
AcDbEntity
  8
0
  6
CONTINUOUS
 62
     7
100
AcDbCircle
 10
7.238497990628497
 20
7.638683699389995
 30
0.0
 40
0.0884999999999998
  0
CIRCLE
  5
7588
330
73E1
100
AcDbEntity
  8
0
  6
CONTINUOUS
 62
     7
100
AcDbCircle
 10
11.37235625834503
 20
7.638683699389995
 30
0.0
 40
0.0884999999999998
  0
LINE
  5
7589
330
73E1
100
AcDbEntity
  8
0
  6
CONTINUOUS
 62
     7
100
AcDbLine
 10
7.390055342758365
 20
7.076282089701702
 30
0.0
 11
7.130247730744736
 21
7.076282089701702
 31
0.0
  0
LINE
  5
758A
330
73E1
100
AcDbEntity
  8
0
  6
CONTINUOUS
 62
     7
100
AcDbLine
 10
7.130247730744736
 20
7.076282089701702
 30
0.0
 11
7.000343924737921
 21
6.851282108920679
 31
0.0
  0
LINE
  5
758B
330
73E1
100
AcDbEntity
  8
0
  6
CONTINUOUS
 62
     7
100
AcDbLine
 10
7.000343924737921
 20
6.851282108920679
 30
0.0
 11
7.130247730744736
 21
6.626282128139657
 31
0.0
  0
LINE
  5
758C
330
73E1
100
AcDbEntity
  8
0
  6
CONTINUOUS
 62
     7
100
AcDbLine
 10
7.130247730744736
 20
6.626282128139657
 30
0.0
 11
7.390055342758365
 21
6.626282128139657
 31
0.0
  0
LINE
  5
758D
330
73E1
100
AcDbEntity
  8
0
  6
CONTINUOUS
 62
     7
100
AcDbLine
 10
7.390055342758365
 20
6.626282128139657
 30
0.0
 11
7.519959148765179
 21
6.851282108920679
 31
0.0
  0
LINE
  5
758E
330
73E1
100
AcDbEntity
  8
0
  6
CONTINUOUS
 62
     7
100
AcDbLine
 10
7.519959148765179
 20
6.851282108920679
 30
0.0
 11
7.390055342758365
 21
7.076282089701702
 31
0.0
  0
LINE
  5
758F
330
73E1
100
AcDbEntity
  8
0
  6
CONTINUOUS
 62
     7
100
AcDbLine
 10
10.89005533712642
 20
7.076282089701702
 30
0.0
 11
10.6302477251128
 21
7.076282089701702
 31
0.0
  0
LINE
  5
7590
330
73E1
100
AcDbEntity
  8
0
  6
CONTINUOUS
 62
     7
100
AcDbLine
 10
10.6302477251128
 20
7.076282089701702
 30
0.0
 11
10.50034391910598
 21
6.851282108920679
 31
0.0
  0
LINE
  5
7591
330
73E1
100
AcDbEntity
  8
0
  6
CONTINUOUS
 62
     7
100
AcDbLine
 10
10.50034391910598
 20
6.851282108920679
 30
0.0
 11
10.6302477251128
 21
6.626282128139657
 31
0.0
  0
LINE
  5
7592
330
73E1
100
AcDbEntity
  8
0
  6
CONTINUOUS
 62
     7
100
AcDbLine
 10
10.6302477251128
 20
6.626282128139657
 30
0.0
 11
10.89005533712642
 21
6.626282128139657
 31
0.0
  0
LINE
  5
7593
330
73E1
100
AcDbEntity
  8
0
  6
CONTINUOUS
 62
     7
100
AcDbLine
 10
10.89005533712642
 20
6.626282128139657
 30
0.0
 11
11.01995914313324
 21
6.851282108920679
 31
0.0
  0
LINE
  5
7594
330
73E1
100
AcDbEntity
  8
0
  6
CONTINUOUS
 62
     7
100
AcDbLine
 10
11.01995914313324
 20
6.851282108920679
 30
0.0
 11
10.89005533712642
 21
7.076282089701702
 31
0.0
  0
ARC
  5
7595
330
73E1
100
AcDbEntity
  8
0
  6
CONTINUOUS
 62
     7
100
AcDbCircle
 10
10.38810428984109
 20
7.785337242697081
 30
0.0
 40
0.4600000000000009
100
AcDbArc
 50
180.0
 51
0.0
  0
LINE
  5
7596
330
73E1
100
AcDbEntity
  8
0
  6
CONTINUOUS
 62
     7
100
AcDbLine
 10
10.84810431508155
 20
7.785337242177741
 30
0.0
 11
10.84810431508155
 21
9.410337279830306
 31
0.0
  0
ARC
  5
7597
330
73E1
100
AcDbEntity
  8
0
  6
CONTINUOUS
 62
     7
100
AcDbCircle
 10
11.76331882155042
 20
9.370337242697081
 30
0.0
 40
0.0399999999999992
100
AcDbArc
 50
15.71600000000251
 51
90.0
  0
LINE
  5
7598
330
73E1
100
AcDbEntity
  8
0
  6
CONTINUOUS
 62
     7
100
AcDbLine
 10
12.67939058657294
 20
6.262471230914187
 30
0.0
 11
11.80182336430437
 21
9.38117207008263
 31
0.0
  0
ARC
  5
7599
330
73E1
100
AcDbEntity
  8
0
  6
CONTINUOUS
 62
     7
100
AcDbCircle
 10
12.64088586710564
 20
6.251636455295506
 30
0.0
 40
0.0400000000000021
100
AcDbArc
 50
270.0000000000008
 51
15.7159999999999
  0
LINE
  5
759A
330
73E1
100
AcDbEntity
  8
0
  6
CONTINUOUS
 62
     7
100
AcDbLine
 10
5.379417316487086
 20
6.211636418162282
 30
0.0
 11
12.64088575138408
 21
6.211636418162282
 31
0.0
  0
ARC
  5
759B
330
73E1
100
AcDbEntity
  8
0
  6
CONTINUOUS
 62
     7
100
AcDbCircle
 10
5.379417200765518
 20
6.251636455295505
 30
0.0
 40
0.0400000000000004
100
AcDbArc
 50
164.2839999999994
 51
270.0000000000008
  0
LINE
  5
759C
330
73E1
100
AcDbEntity
  8
0
  6
CONTINUOUS
 62
     7
100
AcDbLine
 10
6.21847970356679
 20
9.38117207008263
 30
0.0
 11
5.340912481298228
 21
6.262471230914187
 31
0.0
  0
ARC
  5
759D
330
73E1
100
AcDbEntity
  8
0
  6
CONTINUOUS
 62
     7
100
AcDbCircle
 10
6.256984246320747
 20
9.370337242697081
 30
0.0
 40
0.0400000000000019
100
AcDbArc
 50
90.0
 51
164.2840000000013
  0
ARC
  5
759E
330
73E1
100
AcDbEntity
  8
0
  6
CONTINUOUS
 62
     7
100
AcDbCircle
 10
8.753776574992322
 20
9.373916653020398
 30
0.0
 40
0.0399999999999989
100
AcDbArc
 50
315.0000000000007
 51
354.8660049337042
  0
LINE
  5
759F
330
73E1
100
AcDbEntity
  8
0
  6
CONTINUOUS
 62
     7
100
AcDbLine
 10
8.782060845525347
 20
9.345632360640387
 30
0.0
 11
8.608481420729674
 21
9.172052899178471
 31
0.0
  0
ARC
  5
75A0
330
73E1
100
AcDbEntity
  8
0
  6
CONTINUOUS
 62
     7
100
AcDbCircle
 10
8.636765707163929
 20
9.143768700202157
 30
0.0
 40
0.0400000000000002
100
AcDbArc
 50
134.9999999999981
 51
180.0
  0
LINE
  5
75A1
330
73E1
100
AcDbEntity
  8
0
  6
CONTINUOUS
 62
     7
100
AcDbLine
 10
8.596765712737198
 20
9.143768705919885
 30
0.0
 11
8.596765712737198
 21
8.308604967135996
 31
0.0
  0
ARC
  5
75A2
330
73E1
100
AcDbEntity
  8
0
  6
CONTINUOUS
 62
     7
100
AcDbCircle
 10
8.636765707163929
 20
8.308604959232514
 30
0.0
 40
0.0399999999999992
100
AcDbArc
 50
180.0
 51
270.0000000000008
  0
LINE
  5
75A3
330
73E1
100
AcDbEntity
  8
0
  6
CONTINUOUS
 62
     7
100
AcDbLine
 10
8.636765723986988
 20
8.268604955886207
 30
0.0
 11
9.383537343884178
 21
8.268604955886207
 31
0.0
  0
ARC
  5
75A4
330
73E1
100
AcDbEntity
  8
0
  6
CONTINUOUS
 62
     7
100
AcDbCircle
 10
9.383537360707238
 20
8.308604959232514
 30
0.0
 40
0.0399999999999992
100
AcDbArc
 50
270.0000000000008
 51
0.0
  0
LINE
  5
75A5
330
73E1
100
AcDbEntity
  8
0
  6
CONTINUOUS
 62
     7
100
AcDbLine
 10
9.423537355133968
 20
8.308604967135996
 30
0.0
 11
9.423537355133968
 21
9.143768705919885
 31
0.0
  0
ARC
  5
75A6
330
73E1
100
AcDbEntity
  8
0
  6
CONTINUOUS
 62
     7
100
AcDbCircle
 10
9.383537360707238
 20
9.143768700202159
 30
0.0
 40
0.0399999999999992
100
AcDbArc
 50
0.0
 51
45.0
  0
LINE
  5
75A7
330
73E1
100
AcDbEntity
  8
0
  6
CONTINUOUS
 62
     7
100
AcDbLine
 10
9.411821647141493
 20
9.172052899178471
 30
0.0
 11
9.238242222345821
 21
9.345632360640387
 31
0.0
  0
ARC
  5
75A8
330
73E1
100
AcDbEntity
  8
0
  6
CONTINUOUS
 62
     7
100
AcDbCircle
 10
9.266526492878845
 20
9.373916653020398
 30
0.0
 40
0.0400000000000007
100
AcDbArc
 50
185.1339950662971
 51
225.0000000000008
  0
LINE
  5
75A9
330
73E1
100
AcDbEntity
  8
0
  6
CONTINUOUS
 62
     7
100
AcDbLine
 10
9.928104276333838
 20
9.410337279830306
 30
0.0
 11
9.928104276333838
 21
7.785337242177741
 31
0.0
  0
ARC
  5
75AA
330
73E1
100
AcDbEntity
  8
0
  6
CONTINUOUS
 62
     7
100
AcDbCircle
 10
8.753616100864718
 20
9.370337242697081
 30
0.0
 40
0.0399999999999992
100
AcDbArc
 50
0.0
 51
90.0
  0
ARC
  5
75AB
330
73E1
100
AcDbEntity
  8
0
  6
CONTINUOUS
 62
     7
100
AcDbCircle
 10
9.26668696700645
 20
9.370337242697081
 30
0.0
 40
0.0400000000000009
100
AcDbArc
 50
90.0
 51
180.0
  0
LINE
  5
75AC
330
73E1
100
AcDbEntity
  8
0
  6
CONTINUOUS
 62
     7
100
AcDbLine
 10
9.928104276333838
 20
9.410337279830306
 30
0.0
 11
9.266686958749797
 21
9.410337279830306
 31
0.0
  0
LINE
  5
75AD
330
73E1
100
AcDbEntity
  8
0
  6
CONTINUOUS
 62
     7
100
AcDbLine
 10
8.753616109121368
 20
9.410337279830306
 30
0.0
 11
6.256984245425703
 21
9.410337279830306
 31
0.0
  0
LINE
  5
75AE
330
73E1
100
AcDbEntity
  8
0
  6
CONTINUOUS
 62
     7
100
AcDbLine
 10
11.76331882244546
 20
9.410337279830306
 30
0.0
 11
10.84810431508155
 21
9.410337279830306
 31
0.0
  0
LINE
  5
75AF
330
73E1
100
AcDbEntity
  8
0
  6
CONTINUOUS
 62
     7
100
AcDbLine
 10
9.266686958749797
 20
9.410337279830306
 30
0.0
 11
8.753616109121368
 21
9.410337279830306
 31
0.0
  0
CIRCLE
  5
75B0
330
73E1
100
AcDbEntity
  8
0
  6
CONTINUOUS
 62
     7
100
AcDbCircle
 10
7.260151533935584
 20
6.851282124586845
 30
0.0
 40
0.1360039370078745
  0
CIRCLE
  5
75B1
330
73E1
100
AcDbEntity
  8
0
  6
CONTINUOUS
 62
     7
100
AcDbCircle
 10
10.76015153393558
 20
6.851282124586845
 30
0.0
 40
0.1360039370078745
  0
CIRCLE
  5
75B2
330
73E1
100
AcDbEntity
  8
0
  6
CONTINUOUS
 62
     7
100
AcDbCircle
 10
10.38810428984109
 20
8.660337242697082
 30
0.0
 40
0.0532500000000003
  0
CIRCLE
  5
75B3
330
73E1
100
AcDbEntity
  8
0
  6
CONTINUOUS
 62
     7
100
AcDbCircle
 10
10.38810428984109
 20
9.160337242697082
 30
0.0
 40
0.0532500000000003
  0
LINE
  5
75B4
330
73E1
100
AcDbEntity
  8
0
  6
CONTINUOUS
 62
     7
100
AcDbLine
 10
10.84810431508155
 20
9.410337279830306
 30
0.0
 11
10.83810425726974
 21
9.410337279830306
 31
0.0
  0
LINE
  5
75B5
330
73E1
100
AcDbEntity
  8
0
  6
CONTINUOUS
 62
     7
100
AcDbLine
 10
9.938104260813164
 20
9.410337279830306
 30
0.0
 11
9.928104276333838
 21
9.410337279830306
 31
0.0
  0
INSERT
  5
75B6
330
73E1
100
AcDbEntity
  8
FORMAT
100
AcDbBlockReference
  2
SW_CENTERMARKSYMBOL_0
 10
10.38810428984109
 20
9.160337242697082
 30
0.0
  0
INSERT
  5
75B7
330
73E1
100
AcDbEntity
  8
FORMAT
100
AcDbBlockReference
  2
SW_CENTERMARKSYMBOL_1
 10
10.38810428984109
 20
8.660337242697082
 30
0.0
  0
LINE
  5
75B8
330
73E1
100
AcDbEntity
  8
0
  6
CONTINUOUS
 62
     7
100
AcDbLine
 10
17.6666649287455
 20
13.12758123347474
 30
0.0
 11
17.24146806732259
 21
13.12758123347474
 31
0.0
  0
LINE
  5
75B9
330
73E1
100
AcDbEntity
  8
0
  6
CONTINUOUS
 62
     7
100
AcDbLine
 10
17.24146806732259
 20
13.12758123347474
 30
0.0
 11
17.24146806732259
 21
13.17841604622665
 31
0.0
  0
LINE
  5
75BA
330
73E1
100
AcDbEntity
  8
0
  6
CONTINUOUS
 62
     7
100
AcDbLine
 10
17.24146806732259
 20
13.17841604622665
 30
0.0
 11
17.6666649287455
 21
13.17841604622665
 31
0.0
  0
LINE
  5
75BB
330
73E1
100
AcDbEntity
  8
0
  6
CONTINUOUS
 62
     7
100
AcDbLine
 10
17.6666649287455
 20
13.17841604622665
 30
0.0
 11
17.6666649287455
 21
13.12758123347474
 31
0.0
  0
LINE
  5
75BC
330
73E1
100
AcDbEntity
  8
0
  6
CONTINUOUS
 62
     7
100
AcDbLine
 10
17.6666649287455
 20
16.29711688539509
 30
0.0
 11
17.24146806732259
 21
16.29711688539509
 31
0.0
  0
LINE
  5
75BD
330
73E1
100
AcDbEntity
  8
0
  6
CONTINUOUS
 62
     7
100
AcDbLine
 10
17.24146806732259
 20
13.17841604622665
 30
0.0
 11
17.24146806732259
 21
16.29711688539509
 31
0.0
  0
LINE
  5
75BE
330
73E1
100
AcDbEntity
  8
0
  6
CONTINUOUS
 62
     7
100
AcDbLine
 10
17.6666649287455
 20
13.17841604622665
 30
0.0
 11
17.6666649287455
 21
16.29711688539509
 31
0.0
  0
LINE
  5
75BF
330
73E1
100
AcDbEntity
  8
0
  6
CONTINUOUS
 62
     7
100
AcDbLine
 10
17.24146806732259
 20
16.32628209514277
 30
0.0
 11
17.6666649287455
 21
16.32628209514277
 31
0.0
  0
LINE
  5
75C0
330
73E1
100
AcDbEntity
  8
0
  6
CONTINUOUS
 62
     7
100
AcDbLine
 10
17.24146806732259
 20
16.29711688539509
 30
0.0
 11
17.24146806732259
 21
16.32628209514277
 31
0.0
  0
LINE
  5
75C1
330
73E1
100
AcDbEntity
  8
0
  6
CONTINUOUS
 62
     7
100
AcDbLine
 10
17.6666649287455
 20
16.32628209514277
 30
0.0
 11
17.6666649287455
 21
16.29711688539509
 31
0.0
  0
ENDBLK
  5
75C3
330
73E1
100
AcDbEntity
  8
0
100
AcDbBlockEnd
  0
BLOCK
  5
77B2
330
77A7
100
AcDbEntity
  8
0
100
AcDbBlockBegin
  2
*D14
 70
     1
 10
0.0
 20
0.0
 30
0.0
  3
*D14
  1

  0
LINE
  5
7828
330
77A7
100
AcDbEntity
  8
DIM
 62
     0
100
AcDbLine
 10
5.030798435752311
 20
6.053023355924355
 30
0.0
 11
5.030798435752311
 21
4.393658168786291
 31
0.0
  0
LINE
  5
7829
330
77A7
100
AcDbEntity
  8
DIM
 62
     0
100
AcDbLine
 10
12.37077182155973
 20
6.063858131543038
 30
0.0
 11
12.37077182155973
 21
4.393658168786291
 31
0.0
  0
LINE
  5
782A
330
77A7
100
AcDbEntity
  8
DIM
 62
     0
100
AcDbLine
 10
5.230798435752311
 20
4.593658168786291
 30
0.0
 11
7.391842580745016
 21
4.593658168786291
 31
0.0
  0
LINE
  5
782B
330
77A7
100
AcDbEntity
  8
DIM
 62
     0
100
AcDbLine
 10
12.17077182155973
 20
4.593658168786291
 30
0.0
 11
10.02517591407835
 21
4.593658168786291
 31
0.0
  0
SOLID
  5
782C
330
77A7
100
AcDbEntity
  8
DIM
 62
     0
100
AcDbTrace
 10
5.230798435752311
 20
4.626991502119624
 30
0.0
 11
5.230798435752311
 21
4.560324835452957
 31
0.0
 12
5.030798435752311
 22
4.593658168786291
 32
0.0
 13
5.030798435752311
 23
4.593658168786291
 33
0.0
  0
SOLID
  5
782D
330
77A7
100
AcDbEntity
  8
DIM
 62
     0
100
AcDbTrace
 10
12.17077182155973
 20
4.626991502119624
 30
0.0
 11
12.17077182155973
 21
4.560324835452957
 31
0.0
 12
12.37077182155973
 22
4.593658168786291
 32
0.0
 13
12.37077182155973
 23
4.593658168786291
 33
0.0
  0
MTEXT
  5
782E
330
77A7
100
AcDbEntity
  8
DIM
 62
     0
100
AcDbMText
 10
8.708509247411683
 20
4.593658168786291
 30
0.0
 40
0.2
 41
0.0
 71
     5
 72
     1
  1
\A1;7.340 [186.44]
1001
ACAD
1000
MTEXTBEGIN
1070
    73
1070
     1
1070
    44
1040
1.0
1070
    74
1070
     0
1000
MTEXTEND
  0
POINT
  5
782F
330
77A7
100
AcDbEntity
  8
DEFPOINTS
 62
     0
100
AcDbPoint
 10
5.030798435752311
 20
6.253023355924355
 30
0.0
  0
POINT
  5
7830
330
77A7
100
AcDbEntity
  8
DEFPOINTS
 62
     0
100
AcDbPoint
 10
12.37077182155973
 20
6.263858131543038
 30
0.0
  0
POINT
  5
7831
330
77A7
100
AcDbEntity
  8
DEFPOINTS
 62
     0
100
AcDbPoint
 10
12.37077182155973
 20
4.593658168786291
 30
0.0
  0
ENDBLK
  5
77B3
330
77A7
100
AcDbEntity
  8
0
100
AcDbBlockEnd
  0
BLOCK
  5
77C0
330
77B5
100
AcDbEntity
  8
0
100
AcDbBlockBegin
  2
*D15
 70
     1
 10
0.0
 20
0.0
 30
0.0
  3
*D15
  1

  0
LINE
  5
781E
330
77B5
100
AcDbEntity
  8
DIM
 62
     0
100
AcDbLine
 10
6.951532768922376
 20
6.652669025215696
 30
0.0
 11
6.951532768922376
 21
5.020376425338073
 31
0.0
  0
LINE
  5
781F
330
77B5
100
AcDbEntity
  8
DIM
 62
     0
100
AcDbLine
 10
10.45153276892237
 20
6.652669025215696
 30
0.0
 11
10.45153276892237
 21
5.020376425338073
 31
0.0
  0
LINE
  5
7820
330
77B5
100
AcDbEntity
  8
DIM
 62
     0
100
AcDbLine
 10
7.151532768922376
 20
5.220376425338074
 30
0.0
 11
7.464583633881561
 21
5.220376425338074
 31
0.0
  0
LINE
  5
7821
330
77B5
100
AcDbEntity
  8
DIM
 62
     0
100
AcDbLine
 10
10.25153276892238
 20
5.220376425338074
 30
0.0
 11
9.897916967214895
 21
5.220376425338074
 31
0.0
  0
SOLID
  5
7822
330
77B5
100
AcDbEntity
  8
DIM
 62
     0
100
AcDbTrace
 10
7.151532768922376
 20
5.253709758671407
 30
0.0
 11
7.151532768922376
 21
5.18704309200474
 31
0.0
 12
6.951532768922376
 22
5.220376425338074
 32
0.0
 13
6.951532768922376
 23
5.220376425338074
 33
0.0
  0
SOLID
  5
7823
330
77B5
100
AcDbEntity
  8
DIM
 62
     0
100
AcDbTrace
 10
10.25153276892238
 20
5.253709758671407
 30
0.0
 11
10.25153276892238
 21
5.18704309200474
 31
0.0
 12
10.45153276892237
 22
5.220376425338074
 32
0.0
 13
10.45153276892237
 23
5.220376425338074
 33
0.0
  0
MTEXT
  5
7824
330
77B5
100
AcDbEntity
  8
DIM
 62
     0
100
AcDbMText
 10
8.681250300548228
 20
5.220376425338074
 30
0.0
 40
0.2
 41
0.0
 71
     5
 72
     1
  1
\A1;3.500 [88.90]
1001
ACAD
1000
MTEXTBEGIN
1070
    73
1070
     1
1070
    44
1040
1.0
1070
    74
1070
     0
1000
MTEXTEND
  0
POINT
  5
7825
330
77B5
100
AcDbEntity
  8
DEFPOINTS
 62
     0
100
AcDbPoint
 10
6.951532768922376
 20
6.852669025215696
 30
0.0
  0
POINT
  5
7826
330
77B5
100
AcDbEntity
  8
DEFPOINTS
 62
     0
100
AcDbPoint
 10
10.45153276892237
 20
6.852669025215696
 30
0.0
  0
POINT
  5
7827
330
77B5
100
AcDbEntity
  8
DEFPOINTS
 62
     0
100
AcDbPoint
 10
10.45153276892237
 20
5.220376425338074
 30
0.0
  0
ENDBLK
  5
77C1
330
77B5
100
AcDbEntity
  8
0
100
AcDbBlockEnd
  0
BLOCK
  5
77E2
330
77D7
100
AcDbEntity
  8
0
100
AcDbBlockBegin
  2
*D16
 70
     1
 10
0.0
 20
0.0
 30
0.0
  3
*D16
  1

  0
LINE
  5
783C
330
77D7
100
AcDbEntity
  8
DIM
 62
     0
100
AcDbLine
 10
6.751532768922376
 20
6.852669025215696
 30
0.0
 11
3.302061934248842
 21
6.852669025215697
 31
0.0
  0
LINE
  5
783D
330
77D7
100
AcDbEntity
  8
DIM
 62
     0
100
AcDbLine
 10
4.870798551473877
 20
6.213023318791137
 30
0.0
 11
3.302061934248843
 21
6.213023318791137
 31
0.0
  0
LINE
  5
783E
330
77D7
100
AcDbEntity
  8
DIM
 62
     0
100
AcDbLine
 10
3.502061934248843
 20
7.052669025215697
 30
0.0
 11
3.502061934248843
 21
7.252669025215698
 31
0.0
  0
LINE
  5
783F
330
77D7
100
AcDbEntity
  8
DIM
 62
     0
100
AcDbLine
 10
3.502061934248843
 20
6.013023318791137
 30
0.0
 11
3.502061934248843
 21
5.813023318791136
 31
0.0
  0
SOLID
  5
7840
330
77D7
100
AcDbEntity
  8
DIM
 62
     0
100
AcDbTrace
 10
3.46872860091551
 20
7.052669025215697
 30
0.0
 11
3.535395267582176
 21
7.052669025215697
 31
0.0
 12
3.502061934248843
 22
6.852669025215697
 32
0.0
 13
3.502061934248843
 23
6.852669025215697
 33
0.0
  0
SOLID
  5
7841
330
77D7
100
AcDbEntity
  8
DIM
 62
     0
100
AcDbTrace
 10
3.468728600915509
 20
6.013023318791137
 30
0.0
 11
3.535395267582176
 21
6.013023318791137
 31
0.0
 12
3.502061934248843
 22
6.213023318791137
 32
0.0
 13
3.502061934248843
 23
6.213023318791137
 33
0.0
  0
MTEXT
  5
7842
330
77D7
100
AcDbEntity
  8
DIM
 62
     0
100
AcDbMText
 10
3.502061934248842
 20
6.532846172003418
 30
0.0
 40
0.2
 41
0.0
 71
     5
 72
     1
  1
\A1;.640 [16.25]
1001
ACAD
1000
MTEXTBEGIN
1070
    73
1070
     1
1070
    44
1040
1.0
1070
    74
1070
     0
1000
MTEXTEND
  0
POINT
  5
7843
330
77D7
100
AcDbEntity
  8
DEFPOINTS
 62
     0
100
AcDbPoint
 10
6.951532768922376
 20
6.852669025215696
 30
0.0
  0
POINT
  5
7844
330
77D7
100
AcDbEntity
  8
DEFPOINTS
 62
     0
100
AcDbPoint
 10
5.070798551473878
 20
6.213023318791137
 30
0.0
  0
POINT
  5
7845
330
77D7
100
AcDbEntity
  8
DEFPOINTS
 62
     0
100
AcDbPoint
 10
3.502061934248843
 20
6.213023318791137
 30
0.0
  0
ENDBLK
  5
77E3
330
77D7
100
AcDbEntity
  8
0
100
AcDbBlockEnd
  0
BLOCK
  5
77F0
330
77E5
100
AcDbEntity
  8
0
100
AcDbBlockBegin
  2
*D17
 70
     1
 10
0.0
 20
0.0
 30
0.0
  3
*D17
  1

  0
LINE
  5
7846
330
77E5
100
AcDbEntity
  8
DIM
 62
     0
100
AcDbLine
 10
10.27948552482788
 20
10.48672414332593
 30
0.0
 11
14.47715597276125
 21
10.48672414332593
 31
0.0
  0
LINE
  5
7847
330
77E5
100
AcDbEntity
  8
DIM
 62
     0
100
AcDbLine
 10
12.53226698637087
 20
6.213023318791137
 30
0.0
 11
14.47715597276125
 21
6.213023318791136
 31
0.0
  0
LINE
  5
7848
330
77E5
100
AcDbEntity
  8
DIM
 62
     0
100
AcDbLine
 10
14.27715597276125
 20
10.28672414332593
 30
0.0
 11
14.27715597276125
 21
8.649873731058535
 31
0.0
  0
LINE
  5
7849
330
77E5
100
AcDbEntity
  8
DIM
 62
     0
100
AcDbLine
 10
14.27715597276125
 20
6.413023318791136
 30
0.0
 11
14.27715597276125
 21
8.049873731058534
 31
0.0
  0
SOLID
  5
784A
330
77E5
100
AcDbEntity
  8
DIM
 62
     0
100
AcDbTrace
 10
14.24382263942791
 20
10.28672414332593
 30
0.0
 11
14.31048930609458
 21
10.28672414332593
 31
0.0
 12
14.27715597276125
 22
10.48672414332593
 32
0.0
 13
14.27715597276125
 23
10.48672414332593
 33
0.0
  0
SOLID
  5
784B
330
77E5
100
AcDbEntity
  8
DIM
 62
     0
100
AcDbTrace
 10
14.24382263942791
 20
6.413023318791136
 30
0.0
 11
14.31048930609458
 21
6.413023318791136
 31
0.0
 12
14.27715597276125
 22
6.213023318791136
 32
0.0
 13
14.27715597276125
 23
6.213023318791136
 33
0.0
  0
MTEXT
  5
784C
330
77E5
100
AcDbEntity
  8
DIM
 62
     0
100
AcDbMText
 10
14.27715597276124
 20
8.349873731058538
 30
0.0
 40
0.2
 41
0.0
 71
     5
 72
     1
  1
\A1;4.274 [108.55]
1001
ACAD
1000
MTEXTBEGIN
1070
    73
1070
     1
1070
    44
1040
1.0
1070
    74
1070
     0
1000
MTEXTEND
  0
POINT
  5
784D
330
77E5
100
AcDbEntity
  8
DEFPOINTS
 62
     0
100
AcDbPoint
 10
10.07948552482788
 20
10.48672414332593
 30
0.0
  0
POINT
  5
784E
330
77E5
100
AcDbEntity
  8
DEFPOINTS
 62
     0
100
AcDbPoint
 10
12.33226698637087
 20
6.213023318791137
 30
0.0
  0
POINT
  5
784F
330
77E5
100
AcDbEntity
  8
DEFPOINTS
 62
     0
100
AcDbPoint
 10
14.27715597276125
 20
6.213023318791136
 30
0.0
  0
ENDBLK
  5
77F1
330
77E5
100
AcDbEntity
  8
0
100
AcDbBlockEnd
  0
BLOCK
  5
77FE
330
77F3
100
AcDbEntity
  8
0
100
AcDbBlockBegin
  2
*D18
 70
     1
 10
0.0
 20
0.0
 30
0.0
  3
*D18
  1

  0
LINE
  5
785A
330
77F3
100
AcDbEntity
  8
DIM
 62
     0
100
AcDbLine
 10
12.53226698637087
 20
13.12896813410359
 30
0.0
 11
14.48315680025218
 21
13.12896813410359
 31
0.0
  0
LINE
  5
785B
330
77F3
100
AcDbEntity
  8
DIM
 62
     0
100
AcDbLine
 10
11.65470005743225
 20
16.32766899577162
 30
0.0
 11
14.48315680025218
 21
16.32766899577162
 31
0.0
  0
LINE
  5
785C
330
77F3
100
AcDbEntity
  8
DIM
 62
     0
100
AcDbLine
 10
14.28315680025218
 20
13.32896813410359
 30
0.0
 11
14.28315680025218
 21
14.42831856493761
 31
0.0
  0
LINE
  5
785D
330
77F3
100
AcDbEntity
  8
DIM
 62
     0
100
AcDbLine
 10
14.28315680025218
 20
16.12766899577162
 30
0.0
 11
14.28315680025218
 21
15.02831856493761
 31
0.0
  0
SOLID
  5
785E
330
77F3
100
AcDbEntity
  8
DIM
 62
     0
100
AcDbTrace
 10
14.24982346691885
 20
13.32896813410359
 30
0.0
 11
14.31649013358551
 21
13.32896813410359
 31
0.0
 12
14.28315680025218
 22
13.12896813410359
 32
0.0
 13
14.28315680025218
 23
13.12896813410359
 33
0.0
  0
SOLID
  5
785F
330
77F3
100
AcDbEntity
  8
DIM
 62
     0
100
AcDbTrace
 10
14.24982346691885
 20
16.12766899577162
 30
0.0
 11
14.31649013358551
 21
16.12766899577162
 31
0.0
 12
14.28315680025218
 22
16.32766899577162
 32
0.0
 13
14.28315680025218
 23
16.32766899577162
 33
0.0
  0
MTEXT
  5
7860
330
77F3
100
AcDbEntity
  8
DIM
 62
     0
100
AcDbMText
 10
14.28315680025218
 20
14.72831856493761
 30
0.0
 40
0.2
 41
0.0
 71
     5
 72
     1
  1
\A1;3.199 [81.25]
1001
ACAD
1000
MTEXTBEGIN
1070
    73
1070
     1
1070
    44
1040
1.0
1070
    74
1070
     0
1000
MTEXTEND
  0
POINT
  5
7861
330
77F3
100
AcDbEntity
  8
DEFPOINTS
 62
     0
100
AcDbPoint
 10
12.33226698637087
 20
13.12896813410359
 30
0.0
  0
POINT
  5
7862
330
77F3
100
AcDbEntity
  8
DEFPOINTS
 62
     0
100
AcDbPoint
 10
11.45470005743225
 20
16.32766899577162
 30
0.0
  0
POINT
  5
7863
330
77F3
100
AcDbEntity
  8
DEFPOINTS
 62
     0
100
AcDbPoint
 10
14.28315680025218
 20
16.32766899577162
 30
0.0
  0
ENDBLK
  5
77FF
330
77F3
100
AcDbEntity
  8
0
100
AcDbBlockEnd
  0
BLOCK
  5
780C
330
7801
100
AcDbEntity
  8
0
100
AcDbBlockBegin
  2
*D19
 70
     1
 10
0.0
 20
0.0
 30
0.0
  3
*D19
  1

  0
LINE
  5
7850
330
7801
100
AcDbEntity
  8
DIM
 62
     0
100
AcDbLine
 10
5.032293716285021
 20
13.3798029468555
 30
0.0
 11
5.032293716285021
 21
17.55591202258835
 31
0.0
  0
LINE
  5
7851
330
7801
100
AcDbEntity
  8
DIM
 62
     0
100
AcDbLine
 10
10.07948552482788
 20
16.27766895863839
 30
0.0
 11
10.07948552482788
 21
17.55591202258835
 31
0.0
  0
LINE
  5
7852
330
7801
100
AcDbEntity
  8
DIM
 62
     0
100
AcDbLine
 10
5.232293716285021
 20
17.35591202258835
 30
0.0
 11
6.255889620556456
 21
17.35591202258835
 31
0.0
  0
LINE
  5
7853
330
7801
100
AcDbEntity
  8
DIM
 62
     0
100
AcDbLine
 10
9.87948552482789
 20
17.35591202258835
 30
0.0
 11
8.855889620556457
 21
17.35591202258835
 31
0.0
  0
SOLID
  5
7854
330
7801
100
AcDbEntity
  8
DIM
 62
     0
100
AcDbTrace
 10
5.232293716285021
 20
17.38924535592169
 30
0.0
 11
5.232293716285021
 21
17.32257868925502
 31
0.0
 12
5.032293716285021
 22
17.35591202258835
 32
0.0
 13
5.032293716285021
 23
17.35591202258835
 33
0.0
  0
SOLID
  5
7855
330
7801
100
AcDbEntity
  8
DIM
 62
     0
100
AcDbTrace
 10
9.87948552482789
 20
17.38924535592169
 30
0.0
 11
9.87948552482789
 21
17.32257868925502
 31
0.0
 12
10.07948552482788
 22
17.35591202258835
 32
0.0
 13
10.07948552482788
 23
17.35591202258835
 33
0.0
  0
MTEXT
  5
7856
330
7801
100
AcDbEntity
  8
DIM
 62
     0
100
AcDbMText
 10
7.555889620556456
 20
17.35591202258835
 30
0.0
 40
0.2
 41
0.0
 71
     5
 72
     1
  1
\A1;5.047 [128.20]
1001
ACAD
1000
MTEXTBEGIN
1070
    73
1070
     1
1070
    44
1040
1.0
1070
    74
1070
     0
1000
MTEXTEND
  0
POINT
  5
7857
330
7801
100
AcDbEntity
  8
DEFPOINTS
 62
     0
100
AcDbPoint
 10
5.032293716285021
 20
13.1798029468555
 30
0.0
  0
POINT
  5
7858
330
7801
100
AcDbEntity
  8
DEFPOINTS
 62
     0
100
AcDbPoint
 10
10.07948552482788
 20
16.07766895863839
 30
0.0
  0
POINT
  5
7859
330
7801
100
AcDbEntity
  8
DEFPOINTS
 62
     0
100
AcDbPoint
 10
10.07948552482788
 20
17.35591202258835
 30
0.0
  0
ENDBLK
  5
780D
330
7801
100
AcDbEntity
  8
0
100
AcDbBlockEnd
  0
BLOCK
  5
781C
330
7811
100
AcDbEntity
  8
0
100
AcDbBlockBegin
  2
*D20
 70
     1
 10
0.0
 20
0.0
 30
0.0
  3
*D20
  1

  0
LINE
  5
7832
330
7811
100
AcDbEntity
  8
DIM
 62
     0
100
AcDbLine
 10
6.951532768922376
 20
6.652669025215696
 30
0.0
 11
6.951532768922376
 21
5.020376425338073
 31
0.0
  0
LINE
  5
7833
330
7811
100
AcDbEntity
  8
DIM
 62
     0
100
AcDbLine
 10
5.032293716285021
 20
6.063858131543038
 30
0.0
 11
5.032293716285021
 21
5.020376425338073
 31
0.0
  0
LINE
  5
7834
330
7811
100
AcDbEntity
  8
DIM
 62
     0
100
AcDbLine
 10
6.751532768922376
 20
5.220376425338074
 30
0.0
 11
5.232293716285021
 21
5.220376425338074
 31
0.0
  0
LINE
  5
7835
330
7811
100
AcDbEntity
  8
DIM
 62
     0
100
AcDbLine
 10
5.032293716285021
 20
5.220376425338074
 30
0.0
 11
4.832293716285021
 21
5.220376425338074
 31
0.0
  0
SOLID
  5
7836
330
7811
100
AcDbEntity
  8
DIM
 62
     0
100
AcDbTrace
 10
6.751532768922376
 20
5.253709758671407
 30
0.0
 11
6.751532768922376
 21
5.18704309200474
 31
0.0
 12
6.951532768922376
 22
5.220376425338074
 32
0.0
 13
6.951532768922376
 23
5.220376425338074
 33
0.0
  0
SOLID
  5
7837
330
7811
100
AcDbEntity
  8
DIM
 62
     0
100
AcDbTrace
 10
5.232293716285021
 20
5.253709758671407
 30
0.0
 11
5.232293716285021
 21
5.18704309200474
 31
0.0
 12
5.032293716285021
 22
5.220376425338074
 32
0.0
 13
5.032293716285021
 23
5.220376425338074
 33
0.0
  0
MTEXT
  5
7838
330
7811
100
AcDbEntity
  8
DIM
 62
     0
100
AcDbMText
 10
3.632293716285021
 20
5.220376425338074
 30
0.0
 40
0.2
 41
0.0
 71
     5
 72
     1
  1
\A1;1.919 [48.75]
1001
ACAD
1000
MTEXTBEGIN
1070
    73
1070
     1
1070
    44
1040
1.0
1070
    74
1070
     0
1000
MTEXTEND
  0
POINT
  5
7839
330
7811
100
AcDbEntity
  8
DEFPOINTS
 62
     0
100
AcDbPoint
 10
6.951532768922376
 20
6.852669025215696
 30
0.0
  0
POINT
  5
783A
330
7811
100
AcDbEntity
  8
DEFPOINTS
 62
     0
100
AcDbPoint
 10
5.032293716285021
 20
6.263858131543038
 30
0.0
  0
POINT
  5
783B
330
7811
100
AcDbEntity
  8
DEFPOINTS
 62
     0
100
AcDbPoint
 10
5.032293716285021
 20
5.220376425338074
 30
0.0
  0
ENDBLK
  5
781D
330
7811
100
AcDbEntity
  8
0
100
AcDbBlockEnd
  0
BLOCK
  5
7871
330
7866
100
AcDbEntity
  8
0
100
AcDbBlockBegin
  2
*D21
 70
     1
 10
0.0
 20
0.0
 30
0.0
  3
*D21
  1

  0
LINE
  5
7867
330
7866
100
AcDbEntity
  8
DIM
 62
     0
100
AcDbLine
 10
17.35804616373229
 20
12.92896813410359
 30
0.0
 11
17.35804616373229
 21
12.12445916253225
 31
0.0
  0
LINE
  5
7868
330
7866
100
AcDbEntity
  8
DIM
 62
     0
100
AcDbLine
 10
16.93284930230938
 20
12.92896813410359
 30
0.0
 11
16.93284930230938
 21
12.12445916253225
 31
0.0
  0
LINE
  5
7869
330
7866
100
AcDbEntity
  8
DIM
 62
     0
100
AcDbLine
 10
17.55804616373229
 20
12.32445916253225
 30
0.0
 11
17.75804616373229
 21
12.32445916253225
 31
0.0
  0
LINE
  5
786A
330
7866
100
AcDbEntity
  8
DIM
 62
     0
100
AcDbLine
 10
16.73284930230938
 20
12.32445916253225
 30
0.0
 11
16.53284930230938
 21
12.32445916253225
 31
0.0
  0
SOLID
  5
786B
330
7866
100
AcDbEntity
  8
DIM
 62
     0
100
AcDbTrace
 10
17.55804616373229
 20
12.35779249586558
 30
0.0
 11
17.55804616373229
 21
12.29112582919891
 31
0.0
 12
17.35804616373229
 22
12.32445916253225
 32
0.0
 13
17.35804616373229
 23
12.32445916253225
 33
0.0
  0
SOLID
  5
786C
330
7866
100
AcDbEntity
  8
DIM
 62
     0
100
AcDbTrace
 10
16.73284930230938
 20
12.35779249586558
 30
0.0
 11
16.73284930230938
 21
12.29112582919891
 31
0.0
 12
16.93284930230938
 22
12.32445916253225
 32
0.0
 13
16.93284930230938
 23
12.32445916253225
 33
0.0
  0
MTEXT
  5
786D
330
7866
100
AcDbEntity
  8
DIM
 62
     0
100
AcDbMText
 10
15.43284930230938
 20
12.32445916253225
 30
0.0
 40
0.2
 41
0.0
 71
     5
 72
     1
  1
\A1;.425 [10.80]
1001
ACAD
1000
MTEXTBEGIN
1070
    73
1070
     1
1070
    44
1040
1.0
1070
    74
1070
     0
1000
MTEXTEND
  0
POINT
  5
786E
330
7866
100
AcDbEntity
  8
DEFPOINTS
 62
     0
100
AcDbPoint
 10
17.35804616373229
 20
13.12896813410359
 30
0.0
  0
POINT
  5
786F
330
7866
100
AcDbEntity
  8
DEFPOINTS
 62
     0
100
AcDbPoint
 10
16.93284930230938
 20
13.12896813410359
 30
0.0
  0
POINT
  5
7870
330
7866
100
AcDbEntity
  8
DEFPOINTS
 62
     0
100
AcDbPoint
 10
16.93284930230938
 20
12.32445916253225
 30
0.0
  0
ENDBLK
  5
7872
330
7866
100
AcDbEntity
  8
0
100
AcDbBlockEnd
  0
ENDSEC
  0
SECTION
  2
ENTITIES
  0
TEXT
  5
1797
330
1F
100
AcDbEntity
  8
TB-TXT
100
AcDbText
 10
1.428305927571926
 20
20.6197428912918
 30
0.0
 40
0.2
  1
NOTES, UNLESS OTHERWISE SPECIFIED:
100
AcDbText
  0
TEXT
  5
1824
330
1F
100
AcDbEntity
  8
TB-TXT
100
AcDbText
 10
1.766904533792882
 20
20.16741702553919
 30
0.0
 40
0.2
  1
1. DIMENSIONS IN [ ] ARE IN MILLIMETERS
100
AcDbText
  0
INSERT
  5
5D8E
330
1F
100
AcDbEntity
  8
TB-TXT
100
AcDbBlockReference
 66
     1
  2
REV-BLOCK
 10
33.5
 20
20.80009599999999
 30
0.0
 41
0.969696969696969
 42
0.969696969696969
 43
0.969696969696969
  0
ATTRIB
  5
5D8F
330
5D8E
100
AcDbEntity
  8
TB-TXT
100
AcDbText
 10
26.28484123091675
 20
20.52214553638333
 30
0.0
 40
0.16
  1
A
  7
ARIAL
 72
     1
 11
26.35938420499587
 21
20.60214553638333
 31
0.0
100
AcDbAttribute
  2
REV
 70
     0
 74
     2
  0
ATTRIB
  5
5D90
330
5D8E
100
AcDbEntity
  8
TB-TXT
100
AcDbText
 10
26.69157265819915
 20
20.53722017915365
 30
0.0
 40
0.16
  1
20978
  7
ARIAL
100
AcDbAttribute
  2
ECN
 70
     0
  0
ATTRIB
  5
5D91
330
5D8E
100
AcDbEntity
  8
TB-TXT
100
AcDbText
 10
27.36529819403024
 20
20.53955040620385
 30
0.0
 40
0.16
  1
 INITIAL RELEASE
  7
ARIAL
100
AcDbAttribute
  2
DESCRIPTION
 70
     0
  0
ATTRIB
  5
5D92
330
5D8E
100
AcDbEntity
  8
TB-TXT
100
AcDbText
 10
31.21060044266735
 20
20.52214553638333
 30
0.0
 40
0.16
  1
06/10/13
  7
ARIAL
 72
     1
 11
31.64563454907936
 21
20.60214553638333
 31
0.0
100
AcDbAttribute
  2
REV-DATE
 70
     0
 74
     2
  0
ATTRIB
  5
5D93
330
5D8E
100
AcDbEntity
  8
TB-TXT
100
AcDbText
 10
32.54701433225591
 20
20.52214553638333
 30
0.0
 40
0.16
  1
P. LE
  7
ARIAL
 72
     1
 11
32.82035676063244
 21
20.60214553638333
 31
0.0
100
AcDbAttribute
  2
APPR
 70
     0
 74
     2
  0
SEQEND
  5
5D94
330
5D8E
100
AcDbEntity
  8
TB-TXT
  0
INSERT
  5
5D95
330
1F
100
AcDbEntity
  8
TB-TXT
100
AcDbBlockReference
 66
     1
  2
TITLE-BLOCK
 10
32.60259009549838
 20
0.4871808286051192
 30
0.0
 41
0.9696969696969773
 42
0.9696969696969773
 43
0.9696969696969773
  0
ATTRIB
  5
5D96
330
5D95
100
AcDbEntity
  8
TB-TXT
100
AcDbText
 10
27.31573458917869
 20
2.159556522670953
 30
0.0
 40
0.17
  1
 PICTORIAL,
  7
ARIAL
100
AcDbAttribute
  2
LINE1
 70
     0
  0
ATTRIB
  5
5D97
330
5D95
100
AcDbEntity
  8
TB-TXT
100
AcDbText
 10
27.31573458917869
 20
1.908421630896071
 30
0.0
 40
0.17
  1
 SECURE TABLE MOUNT KIT
  7
ARIAL
100
AcDbAttribute
  2
LINE2
 70
     0
  0
ATTRIB
  5
5D98
330
5D95
100
AcDbEntity
  8
TB-TXT
100
AcDbText
 10
27.31573458917869
 20
1.657286739121175
 30
0.0
 40
0.17
  1
 MODERO S 7.0
  7
ARIAL
100
AcDbAttribute
  2
LINE3
 70
     0
  0
ATTRIB
  5
5D99
330
5D95
100
AcDbEntity
  8
TB-TXT
100
AcDbText
 10
27.31573458917869
 20
1.406151847346279
 30
0.0
 40
0.17
  1
 
  7
ARIAL
100
AcDbAttribute
  2
LINE4
 70
     0
  0
ATTRIB
  5
5D9A
330
5D95
100
AcDbEntity
  8
TB-TXT
100
AcDbText
 10
28.67240744538594
 20
0.9393484331170611
 30
0.0
 40
0.17
  1
 95-2265-17
  7
ARIAL
100
AcDbAttribute
  2
DWG#
 70
     0
  0
ATTRIB
  5
5D9B
330
5D95
100
AcDbEntity
  8
TB-TXT
100
AcDbText
 10
29.67184955913904
 20
0.6131212011589185
 30
0.0
 40
0.1163636363636373
  1
 95-2265-17_A
  7
ARIAL
100
AcDbAttribute
  2
FILE#
 70
     0
  0
ATTRIB
  5
5D9C
330
5D95
100
AcDbEntity
  8
TB-TXT
100
AcDbText
 10
33.12592753291674
 20
0.8972499995213375
 30
0.0
 40
0.17
  1
 A
  7
ARIAL
 72
     4
 11
33.23829451790992
 21
0.9821920186209283
 31
0.0
100
AcDbAttribute
  2
REV
 70
     0
  0
ATTRIB
  5
5D9D
330
5D95
100
AcDbEntity
  8
TB-TXT
100
AcDbText
 10
27.7341555078267
 20
0.5791391671473889
 30
0.0
 40
0.17
  1
 N/A
  7
ARIAL
100
AcDbAttribute
  2
SCALE
 70
     0
  0
ATTRIB
  5
5D9E
330
5D95
100
AcDbEntity
  8
TB-TXT
100
AcDbText
 10
32.56139344279876
 20
0.585935475765524
 30
0.0
 40
0.17
  1
1 OF 1
  7
ARIAL
100
AcDbAttribute
  2
SHT#
 70
     0
  0
SEQEND
  5
5D9F
330
5D95
100
AcDbEntity
  8
TB-TXT
  0
TEXT
  5
5DA0
330
1F
100
AcDbEntity
  8
TXT
100
AcDbText
 10
13.14499304955308
 20
51.60334911141315
 30
0.0
 40
0.12
  1

  7
ROMANS
100
AcDbText
  0
INSERT
  5
5DA1
330
1F
100
AcDbEntity
  8
0
100
AcDbBlockReference
  2
D1
 10
0.0
 20
0.0
 30
0.0
  0
LINE
  5
7690
330
1F
100
AcDbEntity
  8
0
  6
CONTINUOUS
 62
     7
100
AcDbLine
 10
9.679485491529073
 20
16.32766899577162
 30
0.0
 11
9.679485491529073
 21
14.70266895811905
 31
0.0
  0
LINE
  5
7691
330
1F
100
AcDbEntity
  8
0
  6
CONTINUOUS
 62
     7
100
AcDbLine
 10
9.679485491529073
 20
14.70266895811905
 30
0.0
 11
9.629485495799956
 21
14.70266895811905
 31
0.0
  0
LINE
  5
7692
330
1F
100
AcDbEntity
  8
0
  6
CONTINUOUS
 62
     7
100
AcDbLine
 10
9.629485495799956
 20
14.70266895811905
 30
0.0
 11
9.629485495799956
 21
16.32766899577162
 31
0.0
  0
LINE
  5
7693
330
1F
100
AcDbEntity
  8
0
  6
CONTINUOUS
 62
     7
100
AcDbLine
 10
9.629485495799956
 20
16.32766899577162
 30
0.0
 11
9.679485491529073
 21
16.32766899577162
 31
0.0
  0
LINE
  5
7694
330
1F
100
AcDbEntity
  8
0
  6
CONTINUOUS
 62
     7
100
AcDbLine
 10
10.47948549652741
 20
14.70266895811905
 30
0.0
 11
10.47948549652741
 21
16.32766899577162
 31
0.0
  0
LINE
  5
7695
330
1F
100
AcDbEntity
  8
0
  6
CONTINUOUS
 62
     7
100
AcDbLine
 10
10.47948549652741
 20
16.32766899577162
 30
0.0
 11
10.52948549225653
 21
16.32766899577162
 31
0.0
  0
LINE
  5
7696
330
1F
100
AcDbEntity
  8
0
  6
CONTINUOUS
 62
     7
100
AcDbLine
 10
10.52948549225653
 20
16.32766899577162
 30
0.0
 11
10.52948549225653
 21
14.70266895811905
 31
0.0
  0
LINE
  5
7697
330
1F
100
AcDbEntity
  8
0
  6
CONTINUOUS
 62
     7
100
AcDbLine
 10
10.47948549652741
 20
14.70266895811905
 30
0.0
 11
10.52948549225653
 21
14.70266895811905
 31
0.0
  0
LINE
  5
7698
330
1F
100
AcDbEntity
  8
0
  6
CONTINUOUS
 62
     7
100
AcDbLine
 10
10.47948549652741
 20
16.32766899577162
 30
0.0
 11
9.679485491529073
 21
16.32766899577162
 31
0.0
  0
ARC
  5
7699
330
1F
100
AcDbEntity
  8
0
  6
CONTINUOUS
 62
     7
100
AcDbCircle
 10
10.07948552482788
 20
14.70266895863839
 30
0.0
 40
0.4000000000000004
100
AcDbArc
 50
180.0
 51
0.0
  0
CIRCLE
  5
769A
330
1F
100
AcDbEntity
  8
0
  6
CONTINUOUS
 62
     7
100
AcDbCircle
 10
10.07948552482788
 20
16.07766895863839
 30
0.0
 40
0.1395
  0
CIRCLE
  5
769B
330
1F
100
AcDbEntity
  8
0
  6
CONTINUOUS
 62
     7
100
AcDbCircle
 10
10.07948552482788
 20
15.57766895863839
 30
0.0
 40
0.1395
  0
LINE
  5
769C
330
1F
100
AcDbEntity
  8
0
  6
CONTINUOUS
 62
     7
100
AcDbLine
 10
10.22948551788183
 20
14.67266895655663
 30
0.0
 11
10.22948551788183
 21
14.73266895853566
 31
0.0
  0
LINE
  5
769D
330
1F
100
AcDbEntity
  8
0
  6
CONTINUOUS
 62
     7
100
AcDbLine
 10
10.19948549111137
 20
14.76266895895226
 30
0.0
 11
9.959485570277603
 21
14.76266895895226
 31
0.0
  0
LINE
  5
769E
330
1F
100
AcDbEntity
  8
0
  6
CONTINUOUS
 62
     7
100
AcDbLine
 10
9.929485543507139
 20
14.73266895853566
 30
0.0
 11
9.929485543507139
 21
14.67266895655663
 31
0.0
  0
ARC
  5
769F
330
1F
100
AcDbEntity
  8
0
  6
CONTINUOUS
 62
     7
100
AcDbCircle
 10
10.19948552482788
 20
14.67266895863839
 30
0.0
 40
0.0299999999999994
100
AcDbArc
 50
270.0000000000008
 51
0.0
  0
LINE
  5
76A0
330
1F
100
AcDbEntity
  8
0
  6
CONTINUOUS
 62
     7
100
AcDbLine
 10
9.959485570277603
 20
14.64266896186913
 30
0.0
 11
10.19948549111137
 21
14.64266896186913
 31
0.0
  0
ARC
  5
76A1
330
1F
100
AcDbEntity
  8
0
  6
CONTINUOUS
 62
     7
100
AcDbCircle
 10
9.959485524827888
 20
14.73266895863839
 30
0.0
 40
0.0300000000000011
100
AcDbArc
 50
90.0
 51
180.0
  0
ARC
  5
76A2
330
1F
100
AcDbEntity
  8
0
  6
CONTINUOUS
 62
     7
100
AcDbCircle
 10
9.959485524827888
 20
14.67266895863839
 30
0.0
 40
0.0300000000000011
100
AcDbArc
 50
180.0
 51
270.0000000000008
  0
ARC
  5
76A3
330
1F
100
AcDbEntity
  8
0
  6
CONTINUOUS
 62
     7
100
AcDbCircle
 10
10.19948552482788
 20
14.73266895863839
 30
0.0
 40
0.0299999999999994
100
AcDbArc
 50
0.0
 51
90.0
  0
ARC
  5
76A4
330
1F
100
AcDbEntity
  8
0
  6
CONTINUOUS
 62
     7
100
AcDbCircle
 10
10.07948552482788
 20
14.70266895863839
 30
0.0
 40
0.4500000000000011
100
AcDbArc
 50
180.0
 51
0.0
  0
CIRCLE
  5
76A5
330
1F
100
AcDbEntity
  8
0
  6
CONTINUOUS
 62
     7
100
AcDbCircle
 10
10.07948552482788
 20
16.07766895863839
 30
0.0
 40
0.0719999999999992
  0
CIRCLE
  5
76A6
330
1F
100
AcDbEntity
  8
0
  6
CONTINUOUS
 62
     7
100
AcDbCircle
 10
10.07948552482788
 20
15.57766895863839
 30
0.0
 40
0.0719999999999992
  0
CIRCLE
  5
76A7
330
1F
100
AcDbEntity
  8
0
  6
CONTINUOUS
 62
     7
100
AcDbCircle
 10
11.85113906813497
 20
13.49117289564627
 30
0.0
 40
0.1624015748031482
  0
CIRCLE
  5
76A8
330
1F
100
AcDbEntity
  8
0
  6
CONTINUOUS
 62
     7
100
AcDbCircle
 10
5.551926469709776
 20
13.49117289564627
 30
0.0
 40
0.1624015748031482
  0
CIRCLE
  5
76A9
330
1F
100
AcDbEntity
  8
0
  6
CONTINUOUS
 62
     7
100
AcDbCircle
 10
11.18775324136332
 20
15.97148785627619
 30
0.0
 40
0.16240157480315
  0
LINE
  5
76AA
330
1F
100
AcDbEntity
  8
0
  6
CONTINUOUS
 62
     7
100
AcDbLine
 10
7.081436577745158
 20
13.99361380564301
 30
0.0
 11
6.821628965731528
 21
13.99361380564301
 31
0.0
  0
LINE
  5
76AB
330
1F
100
AcDbEntity
  8
0
  6
CONTINUOUS
 62
     7
100
AcDbLine
 10
6.821628965731528
 20
13.99361380564301
 30
0.0
 11
6.691725159724715
 21
13.76861382486199
 31
0.0
  0
LINE
  5
76AC
330
1F
100
AcDbEntity
  8
0
  6
CONTINUOUS
 62
     7
100
AcDbLine
 10
10.58143657211322
 20
13.99361380564301
 30
0.0
 11
10.32162896009959
 21
13.99361380564301
 31
0.0
  0
LINE
  5
76AD
330
1F
100
AcDbEntity
  8
0
  6
CONTINUOUS
 62
     7
100
AcDbLine
 10
10.32162896009959
 20
13.99361380564301
 30
0.0
 11
10.19172515409277
 21
13.76861382486199
 31
0.0
  0
LINE
  5
76AE
330
1F
100
AcDbEntity
  8
0
  6
CONTINUOUS
 62
     7
100
AcDbLine
 10
10.19172515409277
 20
13.76861382486199
 30
0.0
 11
10.32162896009959
 21
13.54361384408097
 31
0.0
  0
LINE
  5
76AF
330
1F
100
AcDbEntity
  8
0
  6
CONTINUOUS
 62
     7
100
AcDbLine
 10
10.32162896009959
 20
13.54361384408097
 30
0.0
 11
10.58143657211322
 21
13.54361384408097
 31
0.0
  0
LINE
  5
76B0
330
1F
100
AcDbEntity
  8
0
  6
CONTINUOUS
 62
     7
100
AcDbLine
 10
10.58143657211322
 20
13.54361384408097
 30
0.0
 11
10.71134037812003
 21
13.76861382486199
 31
0.0
  0
LINE
  5
76B1
330
1F
100
AcDbEntity
  8
0
  6
CONTINUOUS
 62
     7
100
AcDbLine
 10
10.71134037812003
 20
13.76861382486199
 30
0.0
 11
10.58143657211322
 21
13.99361380564301
 31
0.0
  0
ARC
  5
76B2
330
1F
100
AcDbEntity
  8
0
  6
CONTINUOUS
 62
     7
100
AcDbCircle
 10
10.07948552482788
 20
14.70266895863839
 30
0.0
 40
0.4600000000000009
100
AcDbArc
 50
180.0
 51
0.0
  0
LINE
  5
76B3
330
1F
100
AcDbEntity
  8
0
  6
CONTINUOUS
 62
     7
100
AcDbLine
 10
10.53948555006834
 20
14.70266895811905
 30
0.0
 11
10.53948555006834
 21
16.32766899577162
 31
0.0
  0
LINE
  5
76B4
330
1F
100
AcDbEntity
  8
0
  6
CONTINUOUS
 62
     7
100
AcDbLine
 10
11.45470005743225
 20
16.32766899577162
 30
0.0
 11
10.53948555006834
 21
16.32766899577162
 31
0.0
  0
LINE
  5
76B5
330
1F
100
AcDbEntity
  8
0
  6
CONTINUOUS
 62
     7
100
AcDbLine
 10
5.070798551473878
 20
13.12896813410359
 30
0.0
 11
12.33226698637087
 21
13.12896813410359
 31
0.0
  0
LINE
  5
76B6
330
1F
100
AcDbEntity
  8
0
  6
CONTINUOUS
 62
     7
100
AcDbLine
 10
8.444997344108161
 20
16.32766899577162
 30
0.0
 11
5.948365480412496
 21
16.32766899577162
 31
0.0
  0
LINE
  5
76B7
330
1F
100
AcDbEntity
  8
0
  6
CONTINUOUS
 62
     7
100
AcDbLine
 10
8.288146947723991
 20
16.0611004218612
 30
0.0
 11
8.288146947723991
 21
15.22593668307731
 31
0.0
  0
LINE
  5
76B8
330
1F
100
AcDbEntity
  8
0
  6
CONTINUOUS
 62
     7
100
AcDbLine
 10
9.11491859012076
 20
15.22593668307731
 30
0.0
 11
9.11491859012076
 21
16.0611004218612
 31
0.0
  0
LINE
  5
76B9
330
1F
100
AcDbEntity
  8
0
  6
CONTINUOUS
 62
     7
100
AcDbLine
 10
9.103202882128286
 20
16.08938461511979
 30
0.0
 11
8.929623457332613
 21
16.2629640765817
 31
0.0
  0
LINE
  5
76BA
330
1F
100
AcDbEntity
  8
0
  6
CONTINUOUS
 62
     7
100
AcDbLine
 10
9.619485511320631
 20
16.32766899577162
 30
0.0
 11
8.95806819373659
 21
16.32766899577162
 31
0.0
  0
LINE
  5
76BB
330
1F
100
AcDbEntity
  8
0
  6
CONTINUOUS
 62
     7
100
AcDbLine
 10
9.619485511320631
 20
16.32766899577162
 30
0.0
 11
9.619485511320631
 21
14.70266895811905
 31
0.0
  0
LINE
  5
76BC
330
1F
100
AcDbEntity
  8
0
  6
CONTINUOUS
 62
     7
100
AcDbLine
 10
8.473442080512139
 20
16.2629640765817
 30
0.0
 11
8.299862655716466
 21
16.08938461511979
 31
0.0
  0
LINE
  5
76BD
330
1F
100
AcDbEntity
  8
0
  6
CONTINUOUS
 62
     7
100
AcDbLine
 10
6.821628965731528
 20
13.54361384408097
 30
0.0
 11
7.081436577745158
 21
13.54361384408097
 31
0.0
  0
LINE
  5
76BE
330
1F
100
AcDbEntity
  8
0
  6
CONTINUOUS
 62
     7
100
AcDbLine
 10
8.32814695897378
 20
15.18593667182752
 30
0.0
 11
9.07491857887097
 21
15.18593667182752
 31
0.0
  0
LINE
  5
76BF
330
1F
100
AcDbEntity
  8
0
  6
CONTINUOUS
 62
     7
100
AcDbLine
 10
7.211340383751972
 20
13.76861382486199
 30
0.0
 11
7.081436577745158
 21
13.99361380564301
 31
0.0
  0
ARC
  5
76C0
330
1F
100
AcDbEntity
  8
0
  6
CONTINUOUS
 62
     7
100
AcDbCircle
 10
8.328146942150722
 20
16.06110041614347
 30
0.0
 40
0.0400000000000014
100
AcDbArc
 50
134.9999999999963
 51
180.0
  0
ARC
  5
76C1
330
1F
100
AcDbEntity
  8
0
  6
CONTINUOUS
 62
     7
100
AcDbCircle
 10
8.328146942150722
 20
15.22593667517383
 30
0.0
 40
0.0400000000000009
100
AcDbArc
 50
180.0
 51
270.0000000000008
  0
ARC
  5
76C2
330
1F
100
AcDbEntity
  8
0
  6
CONTINUOUS
 62
     7
100
AcDbCircle
 10
8.445157809979114
 20
16.29124836896171
 30
0.0
 40
0.0399999999999987
100
AcDbArc
 50
315.0000000000044
 51
354.8660049337067
  0
ARC
  5
76C3
330
1F
100
AcDbEntity
  8
0
  6
CONTINUOUS
 62
     7
100
AcDbCircle
 10
8.957907727865638
 20
16.29124836896171
 30
0.0
 40
0.0400000000000005
100
AcDbArc
 50
185.1339950662946
 51
224.9999999999972
  0
ARC
  5
76C4
330
1F
100
AcDbEntity
  8
0
  6
CONTINUOUS
 62
     7
100
AcDbCircle
 10
9.074918595694031
 20
16.06110041614347
 30
0.0
 40
0.0400000000000014
100
AcDbArc
 50
0.0
 51
45.00000000000359
  0
ARC
  5
76C5
330
1F
100
AcDbEntity
  8
0
  6
CONTINUOUS
 62
     7
100
AcDbCircle
 10
9.074918595694031
 20
15.22593667517383
 30
0.0
 40
0.0400000000000009
100
AcDbArc
 50
270.0000000000008
 51
0.0
  0
ARC
  5
76C6
330
1F
100
AcDbEntity
  8
0
  6
CONTINUOUS
 62
     7
100
AcDbCircle
 10
8.44499733585151
 20
16.28766895863839
 30
0.0
 40
0.0399999999999992
100
AcDbArc
 50
0.0
 51
90.0
  0
ARC
  5
76C7
330
1F
100
AcDbEntity
  8
0
  6
CONTINUOUS
 62
     7
100
AcDbCircle
 10
8.958068201993242
 20
16.28766895863839
 30
0.0
 40
0.0400000000000009
100
AcDbArc
 50
90.0
 51
180.0
  0
ARC
  5
76C8
330
1F
100
AcDbEntity
  8
0
  6
CONTINUOUS
 62
     7
100
AcDbCircle
 10
5.070798435752312
 20
13.16896817123682
 30
0.0
 40
0.0400000000000001
100
AcDbArc
 50
164.2840000000005
 51
270.0000000000008
  0
ARC
  5
76C9
330
1F
100
AcDbEntity
  8
0
  6
CONTINUOUS
 62
     7
100
AcDbCircle
 10
5.94836548130754
 20
16.28766895863839
 30
0.0
 40
0.0400000000000028
100
AcDbArc
 50
90.0
 51
164.2839999999963
  0
ARC
  5
76CA
330
1F
100
AcDbEntity
  8
0
  6
CONTINUOUS
 62
     7
100
AcDbCircle
 10
12.33226710209243
 20
13.16896817123682
 30
0.0
 40
0.0400000000000019
100
AcDbArc
 50
270.0000000000008
 51
15.71599999999859
  0
ARC
  5
76CB
330
1F
100
AcDbEntity
  8
0
  6
CONTINUOUS
 62
     7
100
AcDbCircle
 10
11.45470005653721
 20
16.28766895863839
 30
0.0
 40
0.0399999999999992
100
AcDbArc
 50
15.71600000000005
 51
90.0
  0
LINE
  5
76CC
330
1F
100
AcDbEntity
  8
0
  6
CONTINUOUS
 62
     7
100
AcDbLine
 10
12.37077182155973
 20
13.1798029468555
 30
0.0
 11
11.49320459929116
 21
16.29850378602395
 31
0.0
  0
CIRCLE
  5
76CD
330
1F
100
AcDbEntity
  8
0
  6
CONTINUOUS
 62
     7
100
AcDbCircle
 10
11.06373749333182
 20
14.5560154153313
 30
0.0
 40
0.088499999999998
  0
LINE
  5
76CE
330
1F
100
AcDbEntity
  8
0
  6
CONTINUOUS
 62
     7
100
AcDbLine
 10
5.909860938553583
 20
16.29850378602395
 30
0.0
 11
5.032293716285021
 21
13.1798029468555
 31
0.0
  0
CIRCLE
  5
76CF
330
1F
100
AcDbEntity
  8
0
  6
CONTINUOUS
 62
     7
100
AcDbCircle
 10
6.929879225615289
 20
14.5560154153313
 30
0.0
 40
0.088499999999998
  0
LINE
  5
76D0
330
1F
100
AcDbEntity
  8
0
  6
CONTINUOUS
 62
     7
100
AcDbLine
 10
6.691725159724715
 20
13.76861382486199
 30
0.0
 11
6.821628965731528
 21
13.54361384408097
 31
0.0
  0
CIRCLE
  5
76D1
330
1F
100
AcDbEntity
  8
0
  6
CONTINUOUS
 62
     7
100
AcDbCircle
 10
6.215312296481432
 20
15.97148785627619
 30
0.0
 40
0.16240157480315
  0
LINE
  5
76D2
330
1F
100
AcDbEntity
  8
0
  6
CONTINUOUS
 62
     7
100
AcDbLine
 10
7.081436577745158
 20
13.54361384408097
 30
0.0
 11
7.211340383751972
 21
13.76861382486199
 31
0.0
  0
LINE
  5
76D3
330
1F
100
AcDbEntity
  8
0
  6
CONTINUOUS
 62
     7
100
AcDbLine
 10
8.95806819373659
 20
16.32766899577162
 30
0.0
 11
8.444997344108161
 21
16.32766899577162
 31
0.0
  0
CIRCLE
  5
76D4
330
1F
100
AcDbEntity
  8
0
  6
CONTINUOUS
 62
     7
100
AcDbCircle
 10
6.951532768922376
 20
13.76861384052816
 30
0.0
 40
0.1360039370078727
  0
CIRCLE
  5
76D5
330
1F
100
AcDbEntity
  8
0
  6
CONTINUOUS
 62
     7
100
AcDbCircle
 10
10.45153276892237
 20
13.76861384052816
 30
0.0
 40
0.1360039370078727
  0
CIRCLE
  5
76D6
330
1F
100
AcDbEntity
  8
0
  6
CONTINUOUS
 62
     7
100
AcDbCircle
 10
10.07948552482788
 20
16.07766895863839
 30
0.0
 40
0.0532499999999985
  0
CIRCLE
  5
76D7
330
1F
100
AcDbEntity
  8
0
  6
CONTINUOUS
 62
     7
100
AcDbCircle
 10
10.07948552482788
 20
15.57766895863839
 30
0.0
 40
0.0532500000000003
  0
LINE
  5
76D8
330
1F
100
AcDbEntity
  8
0
  6
CONTINUOUS
 62
     7
100
AcDbLine
 10
10.53948555006834
 20
16.32766899577162
 30
0.0
 11
10.52948549225653
 21
16.32766899577162
 31
0.0
  0
LINE
  5
76D9
330
1F
100
AcDbEntity
  8
0
  6
CONTINUOUS
 62
     7
100
AcDbLine
 10
9.629485495799956
 20
16.32766899577162
 30
0.0
 11
9.619485511320631
 21
16.32766899577162
 31
0.0
  0
SPLINE
  5
76DA
330
1F
100
AcDbEntity
  8
0
  6
CONTINUOUS
 62
     7
100
AcDbSpline
210
0.0
220
0.0
230
1.0
 70
     8
 71
     3
 72
    14
 73
    10
 74
     0
 42
0.0000000001
 43
0.0000000001
 40
0.0
 40
0.0
 40
0.0
 40
0.0
 40
0.0840675870928114
 40
0.2422862345806795
 40
0.4004713567632338
 40
0.5569770747947514
 40
0.7101647018520925
 40
0.8590063839585402
 40
1.0
 40
1.0
 40
1.0
 40
1.0
 10
27.178732860075
 20
15.21644586304238
 30
0.0
 10
27.17161061497897
 20
15.21216278561286
 30
0.0
 10
27.15108401244698
 20
15.19981878076268
 30
0.0
 10
27.12083616530527
 20
15.17683633612429
 30
0.0
 10
27.09032222415226
 20
15.14672548569124
 30
0.0
 10
27.06607221040796
 20
15.11396114363065
 30
0.0
 10
27.04881854879836
 20
15.07932687030744
 30
0.0
 10
27.03826954857709
 20
15.04399321616554
 30
0.0
 10
27.0371911857553
 20
15.02024562527962
 30
0.0
 10
27.03666660412353
 20
15.00869334461306
 30
0.0
  0
LINE
  5
76DB
330
1F
100
AcDbEntity
  8
0
  6
CONTINUOUS
 62
     7
100
AcDbLine
 10
27.03657350044919
 20
15.00986181356936
 30
0.0
 11
27.03657350044919
 21
15.00378452497415
 31
0.0
  0
LINE
  5
76DC
330
1F
100
AcDbEntity
  8
0
  6
CONTINUOUS
 62
     7
100
AcDbLine
 10
28.32778140612752
 20
15.87977746926827
 30
0.0
 11
27.178732860075
 21
15.21644586304238
 31
0.0
  0
LINE
  5
76DD
330
1F
100
AcDbEntity
  8
0
  6
CONTINUOUS
 62
     7
100
AcDbLine
 10
29.61976136449713
 20
14.79729892039318
 30
0.0
 11
29.61976136449713
 21
15.14448951083072
 31
0.0
  0
LINE
  5
76DE
330
1F
100
AcDbEntity
  8
0
  6
CONTINUOUS
 62
     7
100
AcDbLine
 10
27.49158011469623
 20
16.29269420708178
 30
0.0
 11
27.49158011469623
 21
16.37306239543164
 31
0.0
  0
LINE
  5
76DF
330
1F
100
AcDbEntity
  8
0
  6
CONTINUOUS
 62
     7
100
AcDbLine
 10
22.82040671680124
 20
16.47735772624808
 30
0.0
 11
22.82040671680124
 21
16.13016713581054
 31
0.0
  0
LWPOLYLINE
  5
76E0
330
1F
100
AcDbEntity
  8
0
  6
CONTINUOUS
 62
     7
100
AcDbPolyline
 90
       24
 70
   128
 43
0.0
 10
27.20373079476684
 20
15.2139704787386
 10
27.16785148966941
 20
15.19021614022295
 10
27.13790933763177
 20
15.16386269012028
 10
27.11446213913975
 20
15.13540103091327
 10
27.09794671143234
 20
15.10536130469189
 10
27.08867064535232
 20
15.07430316533791
 10
27.08680673105219
 20
15.04280513676811
 10
27.09238973657073
 20
15.01145395246836
 10
27.10531561706107
 20
14.98083368174346
 10
27.12534358894662
 20
14.95151465390843
 10
27.15210071899105
 20
14.92404299613944
 10
27.18508830232777
 20
14.89893060537658
 10
27.22369207767791
 20
14.87664512022683
 10
27.26719272776475
 20
14.85760179371514
 10
27.31478019098954
 20
14.84215523132982
 10
27.3655676879111
 20
14.83059335919691
 10
27.41860940342505
 20
14.82313134735272
 10
27.47291708001126
 20
14.81990837680498
 10
27.52747922960322
 20
14.82098436169221
 10
27.58127933430626
 20
14.8263393206567
 10
27.63331520086511
 20
14.83587353400126
 10
27.6826175826951
 20
14.84940931357353
 10
27.72826809540406
 20
14.86669452008364
 10
27.76941622325043
 20
14.88740723196917
  0
LINE
  5
76E1
330
1F
100
AcDbEntity
  8
0
  6
CONTINUOUS
 62
     7
100
AcDbLine
 10
28.35277934081936
 20
15.87730208496448
 30
0.0
 11
27.20373079476684
 21
15.2139704787386
 31
0.0
  0
LINE
  5
76E2
330
1F
100
AcDbEntity
  8
0
  6
CONTINUOUS
 62
     7
100
AcDbLine
 10
28.91846476930297
 20
15.55073883819505
 30
0.0
 11
28.35277934081936
 21
15.87730208496448
 31
0.0
  0
LINE
  5
76E3
330
1F
100
AcDbEntity
  8
0
  6
CONTINUOUS
 62
     7
100
AcDbLine
 10
27.76941622325043
 20
14.88740723196917
 30
0.0
 11
28.91846476930297
 21
15.55073883819505
 31
0.0
  0
LWPOLYLINE
  5
76E4
330
1F
100
AcDbEntity
  8
0
  6
CONTINUOUS
 62
     7
100
AcDbPolyline
 90
       28
 70
   128
 43
0.0
 10
28.36020393753483
 20
15.55502493671147
 10
28.38561115504569
 20
15.54342757708857
 10
28.41496637280885
 20
15.53552537668237
 10
28.44668711355702
 20
15.53174418537271
 10
28.47906333943318
 20
15.53228809738709
 10
28.51034959636777
 20
15.53712750738803
 10
28.53885928446581
 20
15.54600180458867
 10
28.56305535047485
 20
15.55843233444251
 10
28.58163346143793
 20
15.57374910032291
 10
28.59359200745611
 20
15.59112626598041
 10
28.59828634086616
 20
15.60962723707787
 10
28.59546341464454
 20
15.62825435265681
 10
28.58527536812877
 20
15.64600354575046
 10
28.56827133410146
 20
15.66191804608893
 10
28.54536819319179
 20
15.67513974790425
 10
28.51780058671747
 20
15.68495590793485
 10
28.4870547511106
 20
15.69083734199857
 10
28.45478804066758
 20
15.69246704248767
 10
28.42274004996745
 20
15.68975700162438
 10
28.39263865460824
 20
15.68285347995368
 10
28.3661063630667
 20
15.67212856478093
 10
28.3445737206882
 20
15.6581604731931
 10
28.32920132142375
 20
15.64170218057872
 10
28.32081830910663
 20
15.62364100889322
 10
28.31987612377513
 20
15.60495061153121
 10
28.32642604893463
 20
15.58663861767903
 10
28.34011454470679
 20
15.56969221117876
 10
28.36020393753483
 20
15.55502493671147
  0
LWPOLYLINE
  5
76E5
330
1F
100
AcDbEntity
  8
0
  6
CONTINUOUS
 62
     7
100
AcDbPolyline
 90
       28
 70
   128
 43
0.0
 10
28.00665057714127
 20
15.35092292618971
 10
28.03205779465213
 20
15.33932556656682
 10
28.06141296056138
 20
15.33142333622601
 10
28.09313375316346
 20
15.32764217485095
 10
28.12550992718572
 20
15.32818605693072
 10
28.15679623597421
 20
15.33302549686628
 10
28.18530587221835
 20
15.3418997641323
 10
28.20950193822739
 20
15.35433029398614
 10
28.22808004919046
 20
15.36964705986654
 10
28.24003864706255
 20
15.38702425545866
 10
28.24473287676481
 20
15.40552516668688
 10
28.24191000239709
 20
15.42415231220044
 10
28.2317219558813
 20
15.44190150529408
 10
28.214717921854
 20
15.45781600563255
 10
28.19181478094432
 20
15.47103770744787
 10
28.16424717447
 20
15.48085386747848
 10
28.13350133886314
 20
15.4867353015422
 10
28.10123457656622
 20
15.48836497209669
 10
28.06918668957388
 20
15.48565499110262
 10
28.03908524236078
 20
15.4787514394973
 10
28.01255295081924
 20
15.46802652432455
 10
27.99102030844073
 20
15.45405843273672
 10
27.97564796103019
 20
15.43760017005696
 10
27.96726489685916
 20
15.41953896843684
 10
27.96632276338156
 20
15.40084860100945
 10
27.97287263668717
 20
15.38253657722266
 10
27.98656118431323
 20
15.36559020065701
 10
28.00665057714127
 20
15.35092292618971
  0
LINE
  5
76E6
330
1F
100
AcDbEntity
  8
0
  6
CONTINUOUS
 62
     7
100
AcDbLine
 10
27.57142633851326
 20
14.97721211491492
 30
0.0
 11
27.61385274678383
 21
15.00170435907745
 31
0.0
  0
ARC
  5
76E7
330
1F
100
AcDbEntity
  8
0
  6
CONTINUOUS
 62
     7
100
AcDbCircle
 10
27.60920492803865
 20
15.01395048276743
 30
0.0
 40
0.0130984642045704
100
AcDbArc
 50
290.7834501523439
 51
69.21663703492232
  0
LINE
  5
76E8
330
1F
100
AcDbEntity
  8
0
  6
CONTINUOUS
 62
     7
100
AcDbLine
 10
27.61385272814884
 20
15.02619661353
 30
0.0
 11
27.44414715664305
 21
15.12416555463275
 31
0.0
  0
ARC
  5
76E9
330
1F
100
AcDbEntity
  8
0
  6
CONTINUOUS
 62
     7
100
AcDbCircle
 10
27.42293393321418
 20
15.08322423712279
 30
0.0
 40
0.0461106530824979
100
AcDbArc
 50
62.60964158181541
 51
117.3903293620445
  0
LINE
  5
76EA
330
1F
100
AcDbEntity
  8
0
  6
CONTINUOUS
 62
     7
100
AcDbLine
 10
27.40172073054769
 20
15.1241655653905
 30
0.0
 11
27.35929432227712
 21
15.09967332122797
 31
0.0
  0
ARC
  5
76EB
330
1F
100
AcDbEntity
  8
0
  6
CONTINUOUS
 62
     7
100
AcDbCircle
 10
27.36394214075865
 20
15.08742719947608
 30
0.0
 40
0.0130984622990477
100
AcDbArc
 50
110.7834520822656
 51
249.2166540588001
  0
LINE
  5
76EC
330
1F
100
AcDbEntity
  8
0
  6
CONTINUOUS
 62
     7
100
AcDbLine
 10
27.3592943449632
 20
15.07518106911406
 30
0.0
 11
27.52899991646899
 21
14.97721212801132
 31
0.0
  0
ARC
  5
76ED
330
1F
100
AcDbEntity
  8
0
  6
CONTINUOUS
 62
     7
100
AcDbCircle
 10
27.55021314012909
 20
15.01815343214105
 30
0.0
 40
0.0461106413086665
100
AcDbArc
 50
242.609633677954
 51
297.3903309493648
  0
ARC
  5
76EE
330
1F
100
AcDbEntity
  8
0
  6
CONTINUOUS
 62
     7
100
AcDbCircle
 10
28.8802901608834
 20
15.48953873913217
 30
0.0
 40
0.0721301105870045
100
AcDbArc
 50
28.85754568121807
 51
58.04544214853687
  0
ARC
  5
76EF
330
1F
100
AcDbEntity
  8
0
  6
CONTINUOUS
 62
     7
100
AcDbCircle
 10
28.33813337336194
 20
15.85685806551753
 30
0.0
 40
0.025148803031383
100
AcDbArc
 50
54.38242550319561
 51
114.3071836674988
  0
LWPOLYLINE
  5
76F0
330
1F
100
AcDbEntity
  8
0
  6
CONTINUOUS
 62
     7
100
AcDbPolyline
 90
       13
 70
   128
 43
0.0
 10
28.17658342428316
 20
15.33864634157352
 10
28.17723050907963
 20
15.34274543852945
 10
28.17429879337945
 20
15.35632300308704
 10
28.16388907144858
 20
15.36861538467746
 10
28.1471294766977
 20
15.37829049278666
 10
28.12583614005971
 20
15.38429989734359
 10
28.10231656000745
 20
15.38599234079263
 10
28.07911935564071
 20
15.38318444366213
 10
28.05875840394744
 20
15.37618046141243
 10
28.04344008829888
 20
15.3657394760942
 10
28.03482440754022
 20
15.35299280673657
 10
28.03384488740198
 20
15.33932184616991
 10
28.03400050095067
 20
15.3386463116389
  0
LWPOLYLINE
  5
76F1
330
1F
100
AcDbEntity
  8
0
  6
CONTINUOUS
 62
     7
100
AcDbPolyline
 90
       13
 70
   128
 43
0.0
 10
28.53013683653063
 20
15.54274838202989
 10
28.5307838694732
 20
15.54684744905121
 10
28.52785215377301
 20
15.5604250136088
 10
28.51744248369604
 20
15.57271742513383
 10
28.50068288894517
 20
15.58239253324304
 10
28.47938950045328
 20
15.58840190786534
 10
28.45586992040101
 20
15.59009435131438
 10
28.43267276788816
 20
15.58728648411851
 10
28.4123118161949
 20
15.58028250186881
 10
28.39699344869244
 20
15.56984148661595
 10
28.38837781978769
 20
15.55709484719295
 10
28.38739829964944
 20
15.54342388662629
 10
28.38755396505203
 20
15.54274838202989
  0
LWPOLYLINE
  5
76F2
330
1F
100
AcDbEntity
  8
0
  6
CONTINUOUS
 62
     7
100
AcDbPolyline
 90
       30
 70
   128
 43
0.0
 10
25.76621599540988
 20
17.22045546905112
 10
25.78821750073649
 20
17.20465448078521
 10
25.80382064984823
 20
17.18649260904379
 10
25.81229575468868
 20
17.16681903907856
 10
25.81324675518288
 20
17.14655366170968
 10
25.80662905697834
 20
17.12664396747536
 10
25.79275202043209
 20
17.10802110261222
 10
25.77226475264265
 20
17.09155574542792
 10
25.74612504696488
 20
17.07801778437033
 10
25.71555520348873
 20
17.06804027674713
 10
25.6819847304816
 20
17.06208972364978
 10
25.64698314173622
 20
17.06044439728993
 10
25.61218725740526
 20
17.06318122963659
 10
25.57922394169293
 20
17.07017228013119
 10
25.54963460357909
 20
17.08109060287272
 10
25.5248030161929
 20
17.09542557314235
 10
25.50588987719312
 20
17.11250713444422
 10
25.49377971037641
 20
17.13153645155454
 10
25.4890388640196
 20
17.15162368800995
 10
25.49188896168392
 20
17.17182967509614
 10
25.502196635143
 20
17.19120955652129
 10
25.51948016168195
 20
17.20885709165122
 10
25.54293103531902
 20
17.22394728240575
 10
25.57145306464483
 20
17.23577427048557
 10
25.6037124118343
 20
17.24378525329464
 10
25.63820064698684
 20
17.24760562901965
 10
25.67330511386639
 20
17.24705662812016
 10
25.707384532885
 20
17.2421639943679
 10
25.73884501891777
 20
17.23315660785433
 10
25.76621599540988
 20
17.22045546905112
  0
LWPOLYLINE
  5
76F3
330
1F
100
AcDbEntity
  8
0
  6
CONTINUOUS
 62
     7
100
AcDbPolyline
 90
       30
 70
   128
 43
0.0
 10
27.99749986786031
 20
13.90741348087772
 10
28.01950126947913
 20
13.89161255248104
 10
28.03510441859086
 20
13.87345068073961
 10
28.04357962713911
 20
13.85377705090515
 10
28.04453057577942
 20
13.83351164360166
 10
28.03791282572097
 20
13.8136020391712
 10
28.02403589288252
 20
13.79497911443882
 10
28.00354852138528
 20
13.77851381712376
 10
27.97740891941531
 20
13.76497579619694
 10
27.94683897223136
 20
13.75499834844296
 10
27.91326855107813
 20
13.74904770554176
 10
27.87826696233274
 20
13.7474023791819
 10
27.84347112985568
 20
13.75013924146319
 10
27.81050781414335
 20
13.75713029195778
 10
27.78091842417562
 20
13.7680485847647
 10
27.75608662937384
 20
13.78238367477281
 10
27.73717374964355
 20
13.79946514627081
 10
27.72506358282683
 20
13.81849446338113
 10
27.72032268461613
 20
13.83858166990193
 10
27.72317278228045
 20
13.85878765698811
 10
27.73348050759342
 20
13.87816756834788
 10
27.75076403413239
 20
13.8958151034778
 10
27.77421490776944
 20
13.91090529423235
 10
27.80273693709526
 20
13.92273228231216
 10
27.83499607686913
 20
13.93074338485971
 10
27.86948446758337
 20
13.93456361091163
 10
27.90458898631682
 20
13.93401463994676
 10
27.93866819791984
 20
13.92912212593297
 10
27.9701288913682
 20
13.92011461968092
 10
27.99749986786031
 20
13.90741348087772
  0
LWPOLYLINE
  5
76F4
330
1F
100
AcDbEntity
  8
0
  6
CONTINUOUS
 62
     7
100
AcDbPolyline
 90
       30
 70
   128
 43
0.0
 10
23.5432840229376
 20
16.47877755512832
 10
23.56528542455643
 20
16.46297662673165
 10
23.58088857366816
 20
16.44481475499022
 10
23.58936357480082
 20
16.42514124489424
 10
23.59031452344112
 20
16.40487583759074
 10
23.58369698079827
 20
16.3849661134218
 10
23.56981984054423
 20
16.3663433084279
 10
23.54933267646258
 20
16.34987789137436
 10
23.52319286707702
 20
16.33633999018601
 10
23.49262312730866
 20
16.32636242269357
 10
23.45905249873984
 20
16.32041189953084
 10
23.42405090999446
 20
16.31876657317098
 10
23.38925507751739
 20
16.32150343545226
 10
23.35629176180507
 20
16.32849448594686
 10
23.32670257925292
 20
16.33941265901531
 10
23.30187078445113
 20
16.35374774902341
 10
23.28295769730526
 20
16.37082934025989
 10
23.27084753048854
 20
16.38985865737021
 10
23.26610663227785
 20
16.40994586389101
 10
23.26895672994216
 20
16.43015185097719
 10
23.27926466267073
 20
16.44953164259849
 10
23.29654798179409
 20
16.46717929746689
 10
23.31999906284675
 20
16.48226936848295
 10
23.34852088475697
 20
16.49409647630124
 10
23.38078023194643
 20
16.50210745911031
 10
23.41526841524508
 20
16.50592780490071
 10
23.45037293397853
 20
16.50537883393584
 10
23.48445235299714
 20
16.50048620018358
 10
23.51591304644551
 20
16.49147869393153
 10
23.5432840229376
 20
16.47877755512832
  0
LWPOLYLINE
  5
76F5
330
1F
100
AcDbEntity
  8
0
  6
CONTINUOUS
 62
     7
100
AcDbPolyline
 90
       30
 70
   128
 43
0.0
 10
29.282262904377
 20
15.19068479338803
 10
29.30426430599583
 20
15.17488386499136
 10
29.31986724769197
 20
15.15672211298841
 10
29.32834245624022
 20
15.13704848315394
 10
29.32929345673442
 20
15.11678310578507
 10
29.32267565482208
 20
15.09687347141999
 10
29.30879872198363
 20
15.07825054668761
 10
29.28831155790197
 20
15.06178512963407
 10
29.26217174851642
 20
15.04824722844573
 10
29.23160200874807
 20
15.03826966095328
 10
29.19803143203314
 20
15.03231916772516
 10
29.16302984328776
 20
15.03067384136531
 10
29.1282339589568
 20
15.03341067371198
 10
29.09527064324446
 20
15.04040172420658
 10
29.06568130513063
 20
15.05132004694811
 10
29.04084971774443
 20
15.06565501721774
 10
29.02193657874466
 20
15.0827365785196
 10
29.00982641192794
 20
15.10176589562993
 10
29.00508556557115
 20
15.12185313208534
 10
29.00793566323546
 20
15.14205911917152
 10
29.01824344040234
 20
15.16143894072744
 10
29.03552686323349
 20
15.1790865357266
 10
29.05897784057835
 20
15.1941766666119
 10
29.08749976619637
 20
15.20600371456095
 10
29.11975900967804
 20
15.21401475723926
 10
29.15424734853839
 20
15.21783507309503
 10
29.18935181541792
 20
15.21728607219555
 10
29.22343113072875
 20
15.21239349831252
 10
29.25489182417711
 20
15.20338599206048
 10
29.282262904377
 20
15.19068479338803
  0
LWPOLYLINE
  5
76F6
330
1F
100
AcDbEntity
  8
0
  6
CONTINUOUS
 62
     7
100
AcDbPolyline
 90
       22
 70
   128
 43
0.0
 10
25.0931868398645
 20
16.2485457135862
 10
25.11441252012873
 20
16.2395023531451
 10
25.13931268429539
 20
16.23447245420065
 10
25.16567468763502
 20
16.23390303789148
 10
25.19115632845336
 20
16.237844596435
 10
25.21349325072091
 20
16.24594701453565
 10
25.23070097334234
 20
16.25749022617588
 10
25.24125026652213
 20
16.27144869752576
 10
25.24420399420213
 20
16.28658203903257
 10
25.23929952935109
 20
16.30154568493011
 10
25.2269727493561
 20
16.3150099956012
 10
25.20831893170156
 20
16.32577861531665
 10
25.18499553439165
 20
16.33289471393735
 10
25.15907493087927
 20
16.3357260012302
 10
25.13286037409936
 20
16.3340208505357
 10
25.10868097263687
 20
16.32793087321181
 10
25.08868537702904
 20
16.31799706638949
 10
25.07465005645834
 20
16.30510223563862
 10
25.06782233700234
 20
16.29039199751042
 10
25.06880870185517
 20
16.27517353691649
 10
25.07752158274611
 20
16.2607990379834
 10
25.0931868398645
 20
16.2485457135862
  0
LWPOLYLINE
  5
76F7
330
1F
100
AcDbEntity
  8
0
  6
CONTINUOUS
 62
     7
100
AcDbPolyline
 90
       22
 70
   128
 43
0.0
 10
28.01626606587586
 20
14.56108799495732
 10
28.0374917461401
 20
14.55204463451621
 10
28.06239191030675
 20
14.54701473557177
 10
28.08875391364638
 20
14.5464453192626
 10
28.11423555446472
 20
14.55038687780612
 10
28.13657247673228
 20
14.55848929590676
 10
28.15378019935371
 20
14.57003250754699
 10
28.1643294925335
 20
14.58399097889687
 10
28.1672832202135
 20
14.59912432040368
 10
28.16237875536245
 20
14.61408796630122
 10
28.15005197536747
 20
14.62755227697231
 10
28.13139815771293
 20
14.63832089668777
 10
28.10807476040302
 20
14.64543699530846
 10
28.08215415689064
 20
14.64826828260132
 10
28.05593960011073
 20
14.64656313190681
 10
28.03176019864823
 20
14.64047315458293
 10
28.01176460304041
 20
14.63053934776061
 10
27.99772928246971
 20
14.61764451700973
 10
27.99090156301371
 20
14.60293427888152
 10
27.99188792786653
 20
14.5877158182876
 10
28.00060080875748
 20
14.57334131935452
 10
28.01626606587586
 20
14.56108799495732
  0
LINE
  5
76F8
330
1F
100
AcDbEntity
  8
0
  6
CONTINUOUS
 62
     7
100
AcDbLine
 10
24.86525508342482
 20
15.99323080223984
 30
0.0
 11
24.6815433591661
 21
16.09928532322045
 31
0.0
  0
LINE
  5
76F9
330
1F
100
AcDbEntity
  8
0
  6
CONTINUOUS
 62
     7
100
AcDbLine
 10
24.6815433591661
 20
16.09928532322045
 30
0.0
 11
24.43058848485964
 21
16.06046667897596
 31
0.0
  0
LINE
  5
76FA
330
1F
100
AcDbEntity
  8
0
  6
CONTINUOUS
 62
     7
100
AcDbLine
 10
24.43058848485964
 20
16.06046667897596
 30
0.0
 11
24.36334533481189
 21
15.91559351375087
 31
0.0
  0
LINE
  5
76FB
330
1F
100
AcDbEntity
  8
0
  6
CONTINUOUS
 62
     7
100
AcDbLine
 10
24.36334533481189
 20
15.91559351375087
 30
0.0
 11
24.54705705907061
 21
15.80953899277026
 31
0.0
  0
LINE
  5
76FC
330
1F
100
AcDbEntity
  8
0
  6
CONTINUOUS
 62
     7
100
AcDbLine
 10
24.54705705907061
 20
15.80953899277026
 30
0.0
 11
24.79801193337708
 21
15.84835763701475
 31
0.0
  0
LINE
  5
76FD
330
1F
100
AcDbEntity
  8
0
  6
CONTINUOUS
 62
     7
100
AcDbLine
 10
24.79801193337708
 20
15.84835763701475
 30
0.0
 11
24.86525508342482
 21
15.99323080223984
 31
0.0
  0
LINE
  5
76FE
330
1F
100
AcDbEntity
  8
0
  6
CONTINUOUS
 62
     7
100
AcDbLine
 10
27.34012881359535
 20
14.56451660884907
 30
0.0
 11
27.15641708933663
 21
14.67057112982969
 31
0.0
  0
LINE
  5
76FF
330
1F
100
AcDbEntity
  8
0
  6
CONTINUOUS
 62
     7
100
AcDbLine
 10
27.15641708933663
 20
14.67057112982969
 30
0.0
 11
26.90546221503017
 21
14.6317524855852
 31
0.0
  0
LINE
  5
7700
330
1F
100
AcDbEntity
  8
0
  6
CONTINUOUS
 62
     7
100
AcDbLine
 10
26.90546221503017
 20
14.6317524855852
 30
0.0
 11
26.83821906498242
 21
14.48687932036011
 31
0.0
  0
LINE
  5
7701
330
1F
100
AcDbEntity
  8
0
  6
CONTINUOUS
 62
     7
100
AcDbLine
 10
26.83821906498242
 20
14.48687932036011
 30
0.0
 11
27.02193078924115
 21
14.38082479937949
 31
0.0
  0
LINE
  5
7702
330
1F
100
AcDbEntity
  8
0
  6
CONTINUOUS
 62
     7
100
AcDbLine
 10
27.02193078924115
 20
14.38082479937949
 30
0.0
 11
27.27288566354761
 21
14.41964344362399
 31
0.0
  0
LINE
  5
7703
330
1F
100
AcDbEntity
  8
0
  6
CONTINUOUS
 62
     7
100
AcDbLine
 10
27.27288566354761
 20
14.41964344362399
 30
0.0
 11
27.34012881359535
 21
14.56451660884907
 31
0.0
  0
LWPOLYLINE
  5
7704
330
1F
100
AcDbEntity
  8
0
  6
CONTINUOUS
 62
     7
100
AcDbPolyline
 90
       25
 70
   128
 43
0.0
 10
27.16130440189039
 20
15.24662812255841
 10
27.12163099891071
 20
15.22051227194024
 10
27.08820186666677
 20
15.19163041675442
 10
27.06158896175864
 20
15.16047672235703
 10
27.04224765215742
 20
15.12758425694695
 10
27.03050887592356
 20
15.09351579508993
 10
27.02657355394937
 20
15.05885424612432
 10
27.03050887592356
 20
15.02419272709334
 10
27.04224763919394
 20
14.99012424278535
 10
27.0615889358317
 20
14.95723178485893
 10
27.08820186018503
 20
14.92607807923605
 10
27.12163103131939
 20
14.89719620159927
 10
27.16130442295603
 20
14.87108038746392
 10
27.2065432416397
 20
14.84817742597533
 10
27.25657354201183
 20
14.82887917625427
 10
27.31053913843118
 20
14.81351589197704
 10
27.36751677223914
 20
14.80235036915764
 10
27.42653146051353
 20
14.79557375530118
 10
27.48657358192818
 20
14.79330188241315
 10
27.54661554778113
 20
14.79557375530118
 10
27.6056303008729
 20
14.8023503766413
 10
27.66260794764433
 20
14.81351584707511
 10
27.71657357647237
 20
14.82887915006147
 10
27.76660373424627
 20
14.84817743720081
 10
27.81184266798078
 20
14.87108037530298
  0
LINE
  5
7705
330
1F
100
AcDbEntity
  8
0
  6
CONTINUOUS
 62
     7
100
AcDbLine
 10
27.81184266798078
 20
14.87108037530298
 30
0.0
 11
28.96089121403331
 21
15.53441198152887
 31
0.0
  0
LINE
  5
7706
330
1F
100
AcDbEntity
  8
0
  6
CONTINUOUS
 62
     7
100
AcDbLine
 10
29.60804559843063
 20
15.160817707594
 30
0.0
 11
28.96089121403331
 21
15.53441198152887
 31
0.0
  0
LWPOLYLINE
  5
7707
330
1F
100
AcDbEntity
  8
0
  6
CONTINUOUS
 62
     7
100
AcDbPolyline
 90
        9
 70
   128
 43
0.0
 10
29.61464950349824
 20
15.13319464052568
 10
29.61734932856538
 20
15.13659239930963
 10
29.61906403327326
 20
15.14019712604446
 10
29.61974891956156
 20
15.14391428720561
 10
29.61938563115031
 20
15.1476465952836
 10
29.61798412398796
 20
15.15129610420739
 10
29.61558090321891
 20
15.1547672626754
 10
29.61223871206005
 20
15.15796912931725
 10
29.60804559843063
 20
15.160817707594
  0
LINE
  5
7708
330
1F
100
AcDbEntity
  8
0
  6
CONTINUOUS
 62
     7
100
AcDbLine
 10
28.0299287254432
 20
13.50190180933809
 30
0.0
 11
29.61464950349824
 21
15.13319464052568
 31
0.0
  0
ARC
  5
7709
330
1F
100
AcDbEntity
  8
0
  6
CONTINUOUS
 62
     7
100
AcDbCircle
 10
27.99450855857873
 20
13.54750490691882
 30
0.0
 40
0.0577427980761627
100
AcDbArc
 50
241.2739154701172
 51
307.8366760693108
  0
LINE
  5
770A
330
1F
100
AcDbEntity
  8
0
  6
CONTINUOUS
 62
     7
100
AcDbLine
 10
22.83212248286774
 20
16.46102952948479
 30
0.0
 11
27.96675605455547
 21
13.49686866248756
 31
0.0
  0
LWPOLYLINE
  5
770B
330
1F
100
AcDbEntity
  8
0
  6
CONTINUOUS
 62
     7
100
AcDbPolyline
 90
        9
 70
   128
 43
0.0
 10
22.84084109361445
 20
16.49749833612791
 10
22.83338377708918
 20
16.49438304040216
 10
22.82735762815605
 20
16.49036611397344
 10
22.823081755705
 20
16.48566027223932
 10
22.82078224273248
 20
16.48051481070096
 10
22.82058125702281
 20
16.47520213438481
 10
22.82248948047901
 20
16.47000356883358
 10
22.82640569429168
 20
16.46519451253559
 10
22.83212248286774
 20
16.46102952948479
  0
LINE
  5
770C
330
1F
100
AcDbEntity
  8
0
  6
CONTINUOUS
 62
     7
100
AcDbLine
 10
25.66662933929579
 20
17.41233816838572
 30
0.0
 11
22.84084109361445
 21
16.49749833612791
 31
0.0
  0
ARC
  5
770D
330
1F
100
AcDbEntity
  8
0
  6
CONTINUOUS
 62
     7
100
AcDbCircle
 10
25.68595412708882
 20
17.35269527897283
 30
0.0
 40
0.062695467784871
100
AcDbArc
 50
62.9365901578188
 51
107.9527517172016
  0
LINE
  5
770E
330
1F
100
AcDbEntity
  8
0
  6
CONTINUOUS
 62
     7
100
AcDbLine
 10
27.47986440048362
 20
16.38939056226031
 30
0.0
 11
25.71447907953801
 21
17.40852581513841
 31
0.0
  0
ARC
  5
770F
330
1F
100
AcDbEntity
  8
0
  6
CONTINUOUS
 62
     7
100
AcDbCircle
 10
27.47366724945789
 20
16.3730623965064
 30
0.0
 40
0.0174646407842466
100
AcDbArc
 50
290.7834038220312
 51
69.21636873301046
  0
ARC
  5
7710
330
1F
100
AcDbEntity
  8
0
  6
CONTINUOUS
 62
     7
100
AcDbCircle
 10
27.45504407683721
 20
16.41137214562004
 30
0.0
 40
0.0600112462597776
100
AcDbArc
 50
269.2175598778297
 51
294.4307709882526
  0
LINE
  5
7711
330
1F
100
AcDbEntity
  8
0
  6
CONTINUOUS
 62
     7
100
AcDbLine
 10
27.45422457934862
 20
16.35136649504013
 30
0.0
 11
27.2087461767267
 21
16.35136648007283
 31
0.0
  0
ARC
  5
7712
330
1F
100
AcDbEntity
  8
0
  6
CONTINUOUS
 62
     7
100
AcDbCircle
 10
27.20759366660296
 20
16.29366237938813
 30
0.0
 40
0.0577156089408657
100
AcDbArc
 50
88.85579730568283
 51
118.0403195245912
  0
LINE
  5
7713
330
1F
100
AcDbEntity
  8
0
  6
CONTINUOUS
 62
     7
100
AcDbLine
 10
27.18046197530529
 20
16.34460315718689
 30
0.0
 11
26.58991203221009
 21
16.00368593166522
 31
0.0
  0
ARC
  5
7714
330
1F
100
AcDbEntity
  8
0
  6
CONTINUOUS
 62
     7
100
AcDbCircle
 10
26.59610910683058
 20
15.98735776483655
 30
0.0
 40
0.0174646146775883
100
AcDbArc
 50
110.7833956661025
 51
249.2166043338981
  0
LINE
  5
7715
330
1F
100
AcDbEntity
  8
0
  6
CONTINUOUS
 62
     7
100
AcDbLine
 10
26.58991203221009
 20
15.97102959800789
 30
0.0
 11
27.11795930863705
 21
15.66619439392636
 31
0.0
  0
ARC
  5
7716
330
1F
100
AcDbEntity
  8
0
  6
CONTINUOUS
 62
     7
100
AcDbCircle
 10
27.14624358783932
 20
15.72078282499105
 30
0.0
 40
0.0614808690252156
100
AcDbArc
 50
242.6096603665738
 51
297.3903396334278
  0
LINE
  5
7717
330
1F
100
AcDbEntity
  8
0
  6
CONTINUOUS
 62
     7
100
AcDbLine
 10
27.17452786704159
 20
15.66619439392636
 30
0.0
 11
27.76507781013679
 21
16.00711161944804
 31
0.0
  0
ARC
  5
7718
330
1F
100
AcDbEntity
  8
0
  6
CONTINUOUS
 62
     7
100
AcDbCircle
 10
27.75677538981239
 20
16.02543589634346
 30
0.0
 40
0.0201173881749847
100
AcDbArc
 50
294.3744772134061
 51
354.3054353110684
  0
LINE
  5
7719
330
1F
100
AcDbEntity
  8
0
  6
CONTINUOUS
 62
     7
100
AcDbLine
 10
27.77679349842244
 20
16.02343974137478
 30
0.0
 11
27.77679352434939
 21
16.16515140679079
 31
0.0
  0
ARC
  5
771A
330
1F
100
AcDbEntity
  8
0
  6
CONTINUOUS
 62
     7
100
AcDbCircle
 10
27.79548355319548
 20
16.16373178817584
 30
0.0
 40
0.0187438655372803
100
AcDbArc
 50
120.0704072444499
 51
175.6563858968804
  0
ARC
  5
771B
330
1F
100
AcDbEntity
  8
0
  6
CONTINUOUS
 62
     7
100
AcDbCircle
 10
27.81437601494614
 20
16.1253642969859
 30
0.0
 40
0.0614810677247737
100
AcDbArc
 50
62.60977380133878
 51
117.3903019972186
  0
LINE
  5
771C
330
1F
100
AcDbEntity
  8
0
  6
CONTINUOUS
 62
     7
100
AcDbLine
 10
28.31035294794292
 20
15.90995972878428
 30
0.0
 11
27.84266027748502
 21
16.1799529604721
 31
0.0
  0
LINE
  5
771D
330
1F
100
AcDbEntity
  8
0
  6
CONTINUOUS
 62
     7
100
AcDbLine
 10
28.31035294794292
 20
15.90995972878428
 30
0.0
 11
27.16130440189039
 21
15.24662812255841
 31
0.0
  0
LINE
  5
771E
330
1F
100
AcDbEntity
  8
0
  6
CONTINUOUS
 62
     7
100
AcDbLine
 10
27.96675605455547
 20
13.14967807205003
 30
0.0
 11
27.96675605455547
 21
13.49686866248756
 31
0.0
  0
LINE
  5
771F
330
1F
100
AcDbEntity
  8
0
  6
CONTINUOUS
 62
     7
100
AcDbLine
 10
28.0299287254432
 20
13.50190180933809
 30
0.0
 11
28.0299287254432
 21
13.15471121890055
 31
0.0
  0
ARC
  5
7720
330
1F
100
AcDbEntity
  8
0
  6
CONTINUOUS
 62
     7
100
AcDbCircle
 10
27.99450855857873
 20
13.20031431648128
 30
0.0
 40
0.0577427980761606
100
AcDbArc
 50
241.273915470114
 51
307.8366760693081
  0
LINE
  5
7721
330
1F
100
AcDbEntity
  8
0
  6
CONTINUOUS
 62
     7
100
AcDbLine
 10
22.83212248286774
 20
16.46102952948479
 30
0.0
 11
22.83212248286774
 21
16.11383893904726
 31
0.0
  0
LINE
  5
7722
330
1F
100
AcDbEntity
  8
0
  6
CONTINUOUS
 62
     7
100
AcDbLine
 10
22.83212248286774
 20
16.11383893904726
 30
0.0
 11
27.96675605455547
 21
13.14967807205003
 31
0.0
  0
LINE
  5
7723
330
1F
100
AcDbEntity
  8
0
  6
CONTINUOUS
 62
     7
100
AcDbLine
 10
29.61464950349824
 20
14.78600405008814
 30
0.0
 11
29.61464950349824
 21
15.13319464052568
 31
0.0
  0
LINE
  5
7724
330
1F
100
AcDbEntity
  8
0
  6
CONTINUOUS
 62
     7
100
AcDbLine
 10
28.0299287254432
 20
13.15471121890055
 30
0.0
 11
29.61464950349824
 21
14.78600405008814
 31
0.0
  0
LWPOLYLINE
  5
7725
330
1F
100
AcDbEntity
  8
0
  6
CONTINUOUS
 62
     7
100
AcDbPolyline
 90
        3
 70
   128
 43
0.0
 10
27.99749986786031
 20
13.82704529252785
 10
28.01950126947913
 20
13.81124436413118
 10
28.02939214130394
 20
13.8009363483874
  0
ARC
  5
7726
330
1F
100
AcDbEntity
  8
0
  6
CONTINUOUS
 62
     7
100
AcDbCircle
 10
27.88525613778416
 20
13.62827902436934
 30
0.0
 40
0.2282688859636072
100
AcDbArc
 50
60.54649136075022
 51
130.854169393268
  0
LINE
  5
7727
330
1F
100
AcDbEntity
  8
0
  6
CONTINUOUS
 62
     7
100
AcDbLine
 10
26.90546221503017
 20
14.46844432218771
 30
0.0
 11
26.89800043906965
 21
14.45236823477969
 31
0.0
  0
LINE
  5
7728
330
1F
100
AcDbEntity
  8
0
  6
CONTINUOUS
 62
     7
100
AcDbLine
 10
27.15641708933663
 20
14.5072629664322
 30
0.0
 11
26.90546221503017
 21
14.46844432218771
 31
0.0
  0
LINE
  5
7729
330
1F
100
AcDbEntity
  8
0
  6
CONTINUOUS
 62
     7
100
AcDbLine
 10
27.28034738765424
 20
14.43571952805835
 30
0.0
 11
27.15641708933663
 21
14.5072629664322
 31
0.0
  0
ARC
  5
772A
330
1F
100
AcDbEntity
  8
0
  6
CONTINUOUS
 62
     7
100
AcDbCircle
 10
27.0893346786927
 20
14.2485652308999
 30
0.0
 40
0.1940410638223139
100
AcDbArc
 50
55.40315286025442
 51
125.3804580694627
  0
LINE
  5
772B
330
1F
100
AcDbEntity
  8
0
  6
CONTINUOUS
 62
     7
100
AcDbLine
 10
26.90546221503017
 20
14.46844432218771
 30
0.0
 11
26.90546221503017
 21
14.6317524855852
 31
0.0
  0
LINE
  5
772C
330
1F
100
AcDbEntity
  8
0
  6
CONTINUOUS
 62
     7
100
AcDbLine
 10
27.15641708933663
 20
14.5072629664322
 30
0.0
 11
27.15641708933663
 21
14.67057112982969
 31
0.0
  0
LWPOLYLINE
  5
772D
330
1F
100
AcDbEntity
  8
0
  6
CONTINUOUS
 62
     7
100
AcDbPolyline
 90
        3
 70
   128
 43
0.0
 10
29.282262904377
 20
15.11031660503817
 10
29.30426430599583
 20
15.09451567664149
 10
29.31415502225895
 20
15.08420781057081
  0
ARC
  5
772E
330
1F
100
AcDbEntity
  8
0
  6
CONTINUOUS
 62
     7
100
AcDbCircle
 10
29.1700190009403
 20
14.91155019417647
 30
0.0
 40
0.2282690954674951
100
AcDbArc
 50
60.54647108363951
 51
130.854118009213
  0
ARC
  5
772F
330
1F
100
AcDbEntity
  8
0
  6
CONTINUOUS
 62
     7
100
AcDbCircle
 10
29.60379992550328
 20
14.79771858421499
 30
0.0
 40
0.0159669550158494
100
AcDbArc
 50
312.8047404387228
 51
358.4939060039967
  0
LINE
  5
7730
330
1F
100
AcDbEntity
  8
0
  6
CONTINUOUS
 62
     7
100
AcDbLine
 10
28.31035294794292
 20
15.86971625712789
 30
0.0
 11
28.31035294794292
 21
15.90995972878428
 31
0.0
  0
LINE
  5
7731
330
1F
100
AcDbEntity
  8
0
  6
CONTINUOUS
 62
     7
100
AcDbLine
 10
27.18046197530529
 20
16.26423496883703
 30
0.0
 11
26.63123619269804
 21
15.9471736733773
 31
0.0
  0
ARC
  5
7732
330
1F
100
AcDbEntity
  8
0
  6
CONTINUOUS
 62
     7
100
AcDbCircle
 10
27.20759366660296
 20
16.21329419103823
 30
0.0
 40
0.0577156089408931
100
AcDbArc
 50
88.85579730567986
 51
118.0403195245732
  0
LINE
  5
7733
330
1F
100
AcDbEntity
  8
0
  6
CONTINUOUS
 62
     7
100
AcDbLine
 10
27.45422457934862
 20
16.27099830669026
 30
0.0
 11
27.2087461767267
 21
16.27099829172296
 31
0.0
  0
ARC
  5
7734
330
1F
100
AcDbEntity
  8
0
  6
CONTINUOUS
 62
     7
100
AcDbCircle
 10
27.45504407683724
 20
16.33100395727004
 30
0.0
 40
0.0600112462596504
100
AcDbArc
 50
269.2175598778043
 51
294.4307709882816
  0
ARC
  5
7735
330
1F
100
AcDbEntity
  8
0
  6
CONTINUOUS
 62
     7
100
AcDbCircle
 10
27.47156167385909
 20
16.29469057098342
 30
0.0
 40
0.0201177394947185
100
AcDbArc
 50
294.3747789215153
 51
354.3049370878595
  0
LINE
  5
7736
330
1F
100
AcDbEntity
  8
0
  6
CONTINUOUS
 62
     7
100
AcDbLine
 10
27.77679356323982
 20
16.13760881689145
 30
0.0
 11
27.4915801276597
 21
16.30225902857355
 31
0.0
  0
LINE
  5
7737
330
1F
100
AcDbEntity
  8
0
  6
CONTINUOUS
 62
     7
100
AcDbLine
 10
24.43058848485964
 20
15.89715851557847
 30
0.0
 11
24.42312670889911
 21
15.88108242817045
 31
0.0
  0
LINE
  5
7738
330
1F
100
AcDbEntity
  8
0
  6
CONTINUOUS
 62
     7
100
AcDbLine
 10
24.6815433591661
 20
15.93597715982296
 30
0.0
 11
24.43058848485964
 21
15.89715851557847
 31
0.0
  0
LINE
  5
7739
330
1F
100
AcDbEntity
  8
0
  6
CONTINUOUS
 62
     7
100
AcDbLine
 10
24.80547365748371
 20
15.86443372144911
 30
0.0
 11
24.6815433591661
 21
15.93597715982296
 31
0.0
  0
ARC
  5
773A
330
1F
100
AcDbEntity
  8
0
  6
CONTINUOUS
 62
     7
100
AcDbCircle
 10
24.61446094852217
 20
15.67727942429065
 30
0.0
 40
0.1940410638223154
100
AcDbArc
 50
55.40315286025474
 51
125.3804580694624
  0
LINE
  5
773B
330
1F
100
AcDbEntity
  8
0
  6
CONTINUOUS
 62
     7
100
AcDbLine
 10
24.43058848485964
 20
15.89715851557847
 30
0.0
 11
24.43058848485964
 21
16.06046667897596
 31
0.0
  0
LINE
  5
773C
330
1F
100
AcDbEntity
  8
0
  6
CONTINUOUS
 62
     7
100
AcDbLine
 10
24.6815433591661
 20
15.93597715982296
 30
0.0
 11
24.6815433591661
 21
16.09928532322045
 31
0.0
  0
LINE
  5
773D
330
1F
100
AcDbEntity
  8
0
  6
CONTINUOUS
 62
     7
100
AcDbLine
 10
27.18046197530529
 20
16.26423496883703
 30
0.0
 11
27.18046197530529
 21
16.34460315718689
 31
0.0
  0
LWPOLYLINE
  5
773E
330
1F
100
AcDbEntity
  8
0
  6
CONTINUOUS
 62
     7
100
AcDbPolyline
 90
        3
 70
   128
 43
0.0
 10
23.5432840229376
 20
16.39840936677845
 10
23.56528542455643
 20
16.38260843838178
 10
23.57517608896565
 20
16.37230054237648
  0
ARC
  5
773F
330
1F
100
AcDbEntity
  8
0
  6
CONTINUOUS
 62
     7
100
AcDbCircle
 10
23.4310401585593
 20
16.19964246602287
 30
0.0
 40
0.228269502839418
100
AcDbArc
 50
60.5465400836205
 51
130.8540597490684
  0
LINE
  5
7740
330
1F
100
AcDbEntity
  8
0
  6
CONTINUOUS
 62
     7
100
AcDbLine
 10
27.2087461767267
 20
16.35136648007283
 30
0.0
 11
27.2087461767267
 21
16.27099829172296
 31
0.0
  0
LINE
  5
7741
330
1F
100
AcDbEntity
  8
0
  6
CONTINUOUS
 62
     7
100
AcDbLine
 10
27.45422457934862
 20
16.27099830669026
 30
0.0
 11
27.45422457934862
 21
16.35136649504013
 31
0.0
  0
LINE
  5
7742
330
1F
100
AcDbEntity
  8
0
  6
CONTINUOUS
 62
     7
100
AcDbLine
 10
27.47986433566625
 20
16.27636601780215
 30
0.0
 11
27.47986433566625
 21
16.35673420615201
 31
0.0
  0
ARC
  5
7743
330
1F
100
AcDbEntity
  8
0
  6
CONTINUOUS
 62
     7
100
AcDbCircle
 10
22.83990045440814
 20
16.13178700099927
 30
0.0
 40
0.0195609245465679
100
AcDbArc
 50
184.7501766150913
 51
246.5700224405471
  0
LWPOLYLINE
  5
7744
330
1F
100
AcDbEntity
  8
0
  6
CONTINUOUS
 62
     7
100
AcDbPolyline
 90
        3
 70
   128
 43
0.0
 10
25.76621599540988
 20
17.14008728070125
 10
25.78821750073649
 20
17.12428629243535
 10
25.79810832070741
 20
17.11397836649542
  0
ARC
  5
7745
330
1F
100
AcDbEntity
  8
0
  6
CONTINUOUS
 62
     7
100
AcDbCircle
 10
25.65397228547127
 20
16.94132090940207
 30
0.0
 40
0.2282689658719003
100
AcDbArc
 50
60.54650849180628
 51
130.8541415223808
  0
ARC
  5
7746
330
1F
100
AcDbEntity
  8
0
  6
CONTINUOUS
 62
     8
100
AcDbCircle
 10
27.73132212935939
 20
14.8263083591248
 30
0.0
 40
0.0720016128446549
100
AcDbArc
 50
29.17996131970749
 51
58.05717191449311
  0
LINE
  5
7747
330
1F
100
AcDbEntity
  8
0
  6
CONTINUOUS
 62
     8
100
AcDbLine
 10
27.0367124429696
 20
15.00340759555192
 30
0.0
 11
27.03657676724478
 21
15.00887711430062
 31
0.0
  0
ARC
  5
7748
330
1F
100
AcDbEntity
  8
0
  6
CONTINUOUS
 62
     8
100
AcDbCircle
 10
27.18921773693554
 20
15.19486478230603
 30
0.0
 40
0.0239928423449165
100
AcDbArc
 50
52.77899098068792
 51
115.9254420695482
  0
LINE
  5
7749
330
1F
100
AcDbEntity
  8
0
  6
CONTINUOUS
 62
     8
100
AcDbLine
 10
27.61385272814884
 20
15.001704369849
 30
0.0
 11
27.61385272814884
 21
15.02619661353
 31
0.0
  0
LINE
  5
774A
330
1F
100
AcDbEntity
  8
0
  6
CONTINUOUS
 62
     8
100
AcDbLine
 10
27.44414715664305
 20
15.02619657803755
 30
0.0
 11
27.44414715664305
 21
15.12416555463275
 31
0.0
  0
LINE
  5
774B
330
1F
100
AcDbEntity
  8
0
  6
CONTINUOUS
 62
     8
100
AcDbLine
 10
27.35929432227712
 20
15.07518107754698
 30
0.0
 11
27.35929432227712
 21
15.09967332122797
 31
0.0
  0
LINE
  5
774C
330
1F
100
AcDbEntity
  8
0
  6
CONTINUOUS
 62
     8
100
AcDbLine
 10
27.40172073054769
 20
15.05068883808996
 30
0.0
 11
27.40172073054769
 21
15.1241655653905
 31
0.0
  0
LINE
  5
774D
330
1F
100
AcDbEntity
  8
0
  6
CONTINUOUS
 62
     8
100
AcDbLine
 10
27.16130440189039
 20
15.20567665321392
 30
0.0
 11
27.16130440189039
 21
15.24662812255841
 31
0.0
  0
LINE
  5
774E
330
1F
100
AcDbEntity
  8
0
  6
CONTINUOUS
 62
     8
100
AcDbLine
 10
26.58991203221009
 20
16.00368593166522
 30
0.0
 11
26.58991203221009
 21
15.9710296080047
 31
0.0
  0
ARC
  5
774F
330
1F
100
AcDbEntity
  8
0
  6
CONTINUOUS
 62
     7
100
AcDbCircle
 10
10.07948552482788
 20
10.03672414332593
 30
0.0
 40
0.4000000000000004
100
AcDbArc
 50
0.0
 51
180.0
  0
LINE
  5
7750
330
1F
100
AcDbEntity
  8
0
  6
CONTINUOUS
 62
     7
100
AcDbLine
 10
9.679485491529073
 20
10.03672420040559
 30
0.0
 11
9.629485495799956
 21
10.03672420040559
 31
0.0
  0
ARC
  5
7751
330
1F
100
AcDbEntity
  8
0
  6
CONTINUOUS
 62
     7
100
AcDbCircle
 10
10.07948552482788
 20
10.03672414332593
 30
0.0
 40
0.4500000000000011
100
AcDbArc
 50
0.0
 51
180.0
  0
LINE
  5
7752
330
1F
100
AcDbEntity
  8
0
  6
CONTINUOUS
 62
     7
100
AcDbLine
 10
10.47948549652741
 20
10.03672420040559
 30
0.0
 11
10.52948549225653
 21
10.03672420040559
 31
0.0
  0
LINE
  5
7753
330
1F
100
AcDbEntity
  8
0
  6
CONTINUOUS
 62
     7
100
AcDbLine
 10
10.47948549652741
 20
8.411724155878111
 30
0.0
 11
10.47948549652741
 21
10.03672420040559
 31
0.0
  0
LINE
  5
7754
330
1F
100
AcDbEntity
  8
0
  6
CONTINUOUS
 62
     7
100
AcDbLine
 10
9.679485491529073
 20
8.411724155878111
 30
0.0
 11
10.47948549652741
 21
8.411724155878111
 31
0.0
  0
LINE
  5
7755
330
1F
100
AcDbEntity
  8
0
  6
CONTINUOUS
 62
     7
100
AcDbLine
 10
9.679485491529073
 20
10.03672420040559
 30
0.0
 11
9.679485491529073
 21
8.411724155878111
 31
0.0
  0
CIRCLE
  5
7756
330
1F
100
AcDbEntity
  8
0
  6
CONTINUOUS
 62
     7
100
AcDbCircle
 10
10.07948552482788
 20
8.661724143325933
 30
0.0
 40
0.1395
  0
CIRCLE
  5
7757
330
1F
100
AcDbEntity
  8
0
  6
CONTINUOUS
 62
     7
100
AcDbCircle
 10
10.07948552482788
 20
9.161724143325933
 30
0.0
 40
0.1395
  0
LINE
  5
7758
330
1F
100
AcDbEntity
  8
0
  6
CONTINUOUS
 62
     7
100
AcDbLine
 10
9.929485543507139
 20
10.06672408051108
 30
0.0
 11
9.929485543507139
 21
10.00672417363512
 31
0.0
  0
ARC
  5
7759
330
1F
100
AcDbEntity
  8
0
  6
CONTINUOUS
 62
     7
100
AcDbCircle
 10
9.959485524827888
 20
10.00672414332593
 30
0.0
 40
0.0300000000000011
100
AcDbArc
 50
180.0
 51
270.0000000000008
  0
LINE
  5
775A
330
1F
100
AcDbEntity
  8
0
  6
CONTINUOUS
 62
     7
100
AcDbLine
 10
9.959485570277603
 20
9.976724146864661
 30
0.0
 11
10.19948549111137
 21
9.976724146864661
 31
0.0
  0
ARC
  5
775B
330
1F
100
AcDbEntity
  8
0
  6
CONTINUOUS
 62
     7
100
AcDbCircle
 10
10.19948552482788
 20
10.00672414332593
 30
0.0
 40
0.0299999999999994
100
AcDbArc
 50
270.0000000000008
 51
0.0
  0
LINE
  5
775C
330
1F
100
AcDbEntity
  8
0
  6
CONTINUOUS
 62
     7
100
AcDbLine
 10
10.22948551788183
 20
10.00672417363512
 30
0.0
 11
10.22948551788183
 21
10.06672408051108
 31
0.0
  0
ARC
  5
775D
330
1F
100
AcDbEntity
  8
0
  6
CONTINUOUS
 62
     7
100
AcDbCircle
 10
10.19948552482788
 20
10.06672414332593
 30
0.0
 40
0.0299999999999994
100
AcDbArc
 50
0.0
 51
90.0
  0
LINE
  5
775E
330
1F
100
AcDbEntity
  8
0
  6
CONTINUOUS
 62
     7
100
AcDbLine
 10
10.19948549111137
 20
10.09672410728155
 30
0.0
 11
9.959485570277603
 21
10.09672410728155
 31
0.0
  0
ARC
  5
775F
330
1F
100
AcDbEntity
  8
0
  6
CONTINUOUS
 62
     7
100
AcDbCircle
 10
9.959485524827888
 20
10.06672414332593
 30
0.0
 40
0.0300000000000011
100
AcDbArc
 50
90.0
 51
180.0
  0
LINE
  5
7760
330
1F
100
AcDbEntity
  8
0
  6
CONTINUOUS
 62
     7
100
AcDbLine
 10
10.52948549225653
 20
10.03672420040559
 30
0.0
 11
10.52948549225653
 21
8.411724155878111
 31
0.0
  0
LINE
  5
7761
330
1F
100
AcDbEntity
  8
0
  6
CONTINUOUS
 62
     7
100
AcDbLine
 10
10.52948549225653
 20
8.411724155878111
 30
0.0
 11
10.47948549652741
 21
8.411724155878111
 31
0.0
  0
LINE
  5
7762
330
1F
100
AcDbEntity
  8
0
  6
CONTINUOUS
 62
     7
100
AcDbLine
 10
9.679485491529073
 20
8.411724155878111
 30
0.0
 11
9.629485495799956
 21
8.411724155878111
 31
0.0
  0
LINE
  5
7763
330
1F
100
AcDbEntity
  8
0
  6
CONTINUOUS
 62
     7
100
AcDbLine
 10
9.629485495799956
 20
8.411724155878111
 30
0.0
 11
9.629485495799956
 21
10.03672420040559
 31
0.0
  0
CIRCLE
  5
7764
330
1F
100
AcDbEntity
  8
0
  6
CONTINUOUS
 62
     7
100
AcDbCircle
 10
10.07948552482788
 20
9.161724143325933
 30
0.0
 40
0.0719999999999992
  0
CIRCLE
  5
7765
330
1F
100
AcDbEntity
  8
0
  6
CONTINUOUS
 62
     7
100
AcDbCircle
 10
10.07948552482788
 20
8.661724143325933
 30
0.0
 40
0.0719999999999992
  0
CIRCLE
  5
7766
330
1F
100
AcDbEntity
  8
0
  6
CONTINUOUS
 62
     7
100
AcDbCircle
 10
6.215312296481432
 20
9.055543040963726
 30
0.0
 40
0.16240157480315
  0
CIRCLE
  5
7767
330
1F
100
AcDbEntity
  8
0
  6
CONTINUOUS
 62
     7
100
AcDbCircle
 10
11.85113906813497
 20
6.575228080333808
 30
0.0
 40
0.16240157480315
  0
CIRCLE
  5
7768
330
1F
100
AcDbEntity
  8
0
  6
CONTINUOUS
 62
     7
100
AcDbCircle
 10
5.551926469709776
 20
6.575228080333808
 30
0.0
 40
0.16240157480315
  0
CIRCLE
  5
7769
330
1F
100
AcDbEntity
  8
0
  6
CONTINUOUS
 62
     7
100
AcDbCircle
 10
11.18775324136332
 20
9.055543040963726
 30
0.0
 40
0.1624015748031482
  0
CIRCLE
  5
776A
330
1F
100
AcDbEntity
  8
0
  6
CONTINUOUS
 62
     7
100
AcDbCircle
 10
6.929879225615289
 20
7.640070600018844
 30
0.0
 40
0.0884999999999998
  0
CIRCLE
  5
776B
330
1F
100
AcDbEntity
  8
0
  6
CONTINUOUS
 62
     7
100
AcDbCircle
 10
11.06373749333182
 20
7.640070600018844
 30
0.0
 40
0.0884999999999998
  0
LINE
  5
776C
330
1F
100
AcDbEntity
  8
0
  6
CONTINUOUS
 62
     7
100
AcDbLine
 10
7.081436577745158
 20
7.07766899033055
 30
0.0
 11
6.821628965731528
 21
7.07766899033055
 31
0.0
  0
LINE
  5
776D
330
1F
100
AcDbEntity
  8
0
  6
CONTINUOUS
 62
     7
100
AcDbLine
 10
6.821628965731528
 20
7.07766899033055
 30
0.0
 11
6.691725159724715
 21
6.852669009549529
 31
0.0
  0
LINE
  5
776E
330
1F
100
AcDbEntity
  8
0
  6
CONTINUOUS
 62
     7
100
AcDbLine
 10
6.691725159724715
 20
6.852669009549529
 30
0.0
 11
6.821628965731528
 21
6.627669028768508
 31
0.0
  0
LINE
  5
776F
330
1F
100
AcDbEntity
  8
0
  6
CONTINUOUS
 62
     7
100
AcDbLine
 10
6.821628965731528
 20
6.627669028768508
 30
0.0
 11
7.081436577745158
 21
6.627669028768508
 31
0.0
  0
LINE
  5
7770
330
1F
100
AcDbEntity
  8
0
  6
CONTINUOUS
 62
     7
100
AcDbLine
 10
7.081436577745158
 20
6.627669028768508
 30
0.0
 11
7.211340383751972
 21
6.852669009549529
 31
0.0
  0
LINE
  5
7771
330
1F
100
AcDbEntity
  8
0
  6
CONTINUOUS
 62
     7
100
AcDbLine
 10
7.211340383751972
 20
6.852669009549529
 30
0.0
 11
7.081436577745158
 21
7.07766899033055
 31
0.0
  0
LINE
  5
7772
330
1F
100
AcDbEntity
  8
0
  6
CONTINUOUS
 62
     7
100
AcDbLine
 10
10.58143657211322
 20
7.07766899033055
 30
0.0
 11
10.32162896009959
 21
7.07766899033055
 31
0.0
  0
LINE
  5
7773
330
1F
100
AcDbEntity
  8
0
  6
CONTINUOUS
 62
     7
100
AcDbLine
 10
10.32162896009959
 20
7.07766899033055
 30
0.0
 11
10.19172515409277
 21
6.852669009549529
 31
0.0
  0
LINE
  5
7774
330
1F
100
AcDbEntity
  8
0
  6
CONTINUOUS
 62
     7
100
AcDbLine
 10
10.19172515409277
 20
6.852669009549529
 30
0.0
 11
10.32162896009959
 21
6.627669028768508
 31
0.0
  0
LINE
  5
7775
330
1F
100
AcDbEntity
  8
0
  6
CONTINUOUS
 62
     7
100
AcDbLine
 10
10.32162896009959
 20
6.627669028768508
 30
0.0
 11
10.58143657211322
 21
6.627669028768508
 31
0.0
  0
LINE
  5
7776
330
1F
100
AcDbEntity
  8
0
  6
CONTINUOUS
 62
     7
100
AcDbLine
 10
10.58143657211322
 20
6.627669028768508
 30
0.0
 11
10.71134037812003
 21
6.852669009549529
 31
0.0
  0
LINE
  5
7777
330
1F
100
AcDbEntity
  8
0
  6
CONTINUOUS
 62
     7
100
AcDbLine
 10
10.71134037812003
 20
6.852669009549529
 30
0.0
 11
10.58143657211322
 21
7.07766899033055
 31
0.0
  0
ARC
  5
7778
330
1F
100
AcDbEntity
  8
0
  6
CONTINUOUS
 62
     7
100
AcDbCircle
 10
10.07948552482788
 20
7.786724143325933
 30
0.0
 40
0.4600000000000009
100
AcDbArc
 50
180.0
 51
0.0
  0
LINE
  5
7779
330
1F
100
AcDbEntity
  8
0
  6
CONTINUOUS
 62
     7
100
AcDbLine
 10
10.53948555006834
 20
7.78672414280659
 30
0.0
 11
10.53948555006834
 21
9.41172418045916
 31
0.0
  0
ARC
  5
777A
330
1F
100
AcDbEntity
  8
0
  6
CONTINUOUS
 62
     7
100
AcDbCircle
 10
11.45470005653721
 20
9.371724143325934
 30
0.0
 40
0.0399999999999992
100
AcDbArc
 50
15.71600000000259
 51
90.0
  0
LINE
  5
777B
330
1F
100
AcDbEntity
  8
0
  6
CONTINUOUS
 62
     7
100
AcDbLine
 10
12.37077182155973
 20
6.263858131543038
 30
0.0
 11
11.49320459929116
 21
9.382558970711478
 31
0.0
  0
ARC
  5
777C
330
1F
100
AcDbEntity
  8
0
  6
CONTINUOUS
 62
     7
100
AcDbCircle
 10
12.33226710209243
 20
6.253023355924355
 30
0.0
 40
0.0400000000000021
100
AcDbArc
 50
270.0000000000008
 51
15.71599999999984
  0
LINE
  5
777D
330
1F
100
AcDbEntity
  8
0
  6
CONTINUOUS
 62
     7
100
AcDbLine
 10
5.070798551473878
 20
6.213023318791137
 30
0.0
 11
12.33226698637087
 21
6.213023318791137
 31
0.0
  0
ARC
  5
777E
330
1F
100
AcDbEntity
  8
0
  6
CONTINUOUS
 62
     7
100
AcDbCircle
 10
5.070798435752312
 20
6.253023355924355
 30
0.0
 40
0.0400000000000004
100
AcDbArc
 50
164.2839999999993
 51
270.0000000000008
  0
LINE
  5
777F
330
1F
100
AcDbEntity
  8
0
  6
CONTINUOUS
 62
     7
100
AcDbLine
 10
5.909860938553583
 20
9.382558970711478
 30
0.0
 11
5.032293716285021
 21
6.263858131543038
 31
0.0
  0
ARC
  5
7780
330
1F
100
AcDbEntity
  8
0
  6
CONTINUOUS
 62
     7
100
AcDbCircle
 10
5.94836548130754
 20
9.371724143325934
 30
0.0
 40
0.0400000000000019
100
AcDbArc
 50
90.0
 51
164.2840000000014
  0
ARC
  5
7781
330
1F
100
AcDbEntity
  8
0
  6
CONTINUOUS
 62
     7
100
AcDbCircle
 10
8.445157809979114
 20
9.375303553649253
 30
0.0
 40
0.0399999999999989
100
AcDbArc
 50
315.0000000000007
 51
354.8660049337042
  0
LINE
  5
7782
330
1F
100
AcDbEntity
  8
0
  6
CONTINUOUS
 62
     7
100
AcDbLine
 10
8.473442080512139
 20
9.347019261269238
 30
0.0
 11
8.299862655716466
 21
9.173439799807319
 31
0.0
  0
ARC
  5
7783
330
1F
100
AcDbEntity
  8
0
  6
CONTINUOUS
 62
     7
100
AcDbCircle
 10
8.328146942150722
 20
9.14515560083101
 30
0.0
 40
0.0400000000000002
100
AcDbArc
 50
134.9999999999981
 51
180.0
  0
LINE
  5
7784
330
1F
100
AcDbEntity
  8
0
  6
CONTINUOUS
 62
     7
100
AcDbLine
 10
8.288146947723991
 20
9.145155606548733
 30
0.0
 11
8.288146947723991
 21
8.30999186776485
 31
0.0
  0
ARC
  5
7785
330
1F
100
AcDbEntity
  8
0
  6
CONTINUOUS
 62
     7
100
AcDbCircle
 10
8.328146942150722
 20
8.309991859861362
 30
0.0
 40
0.0399999999999992
100
AcDbArc
 50
180.0
 51
270.0000000000008
  0
LINE
  5
7786
330
1F
100
AcDbEntity
  8
0
  6
CONTINUOUS
 62
     7
100
AcDbLine
 10
8.32814695897378
 20
8.269991856515055
 30
0.0
 11
9.07491857887097
 21
8.269991856515055
 31
0.0
  0
ARC
  5
7787
330
1F
100
AcDbEntity
  8
0
  6
CONTINUOUS
 62
     7
100
AcDbCircle
 10
9.074918595694031
 20
8.309991859861362
 30
0.0
 40
0.0399999999999992
100
AcDbArc
 50
270.0000000000008
 51
0.0
  0
LINE
  5
7788
330
1F
100
AcDbEntity
  8
0
  6
CONTINUOUS
 62
     7
100
AcDbLine
 10
9.11491859012076
 20
8.30999186776485
 30
0.0
 11
9.11491859012076
 21
9.145155606548733
 31
0.0
  0
ARC
  5
7789
330
1F
100
AcDbEntity
  8
0
  6
CONTINUOUS
 62
     7
100
AcDbCircle
 10
9.074918595694031
 20
9.14515560083101
 30
0.0
 40
0.0399999999999992
100
AcDbArc
 50
0.0
 51
44.99999999999992
  0
LINE
  5
778A
330
1F
100
AcDbEntity
  8
0
  6
CONTINUOUS
 62
     7
100
AcDbLine
 10
9.103202882128286
 20
9.173439799807319
 30
0.0
 11
8.929623457332613
 21
9.347019261269238
 31
0.0
  0
ARC
  5
778B
330
1F
100
AcDbEntity
  8
0
  6
CONTINUOUS
 62
     7
100
AcDbCircle
 10
8.957907727865638
 20
9.375303553649253
 30
0.0
 40
0.0400000000000007
100
AcDbArc
 50
185.1339950662971
 51
225.0000000000007
  0
LINE
  5
778C
330
1F
100
AcDbEntity
  8
0
  6
CONTINUOUS
 62
     7
100
AcDbLine
 10
9.619485511320631
 20
9.41172418045916
 30
0.0
 11
9.619485511320631
 21
7.78672414280659
 31
0.0
  0
ARC
  5
778D
330
1F
100
AcDbEntity
  8
0
  6
CONTINUOUS
 62
     7
100
AcDbCircle
 10
8.44499733585151
 20
9.371724143325934
 30
0.0
 40
0.0399999999999992
100
AcDbArc
 50
0.0
 51
90.0
  0
ARC
  5
778E
330
1F
100
AcDbEntity
  8
0
  6
CONTINUOUS
 62
     7
100
AcDbCircle
 10
8.958068201993242
 20
9.371724143325934
 30
0.0
 40
0.0400000000000009
100
AcDbArc
 50
90.0
 51
180.0
  0
LINE
  5
778F
330
1F
100
AcDbEntity
  8
0
  6
CONTINUOUS
 62
     7
100
AcDbLine
 10
9.619485511320631
 20
9.41172418045916
 30
0.0
 11
8.95806819373659
 21
9.41172418045916
 31
0.0
  0
LINE
  5
7790
330
1F
100
AcDbEntity
  8
0
  6
CONTINUOUS
 62
     7
100
AcDbLine
 10
8.444997344108161
 20
9.41172418045916
 30
0.0
 11
5.948365480412496
 21
9.41172418045916
 31
0.0
  0
LINE
  5
7791
330
1F
100
AcDbEntity
  8
0
  6
CONTINUOUS
 62
     7
100
AcDbLine
 10
11.45470005743225
 20
9.41172418045916
 30
0.0
 11
10.53948555006834
 21
9.41172418045916
 31
0.0
  0
LINE
  5
7792
330
1F
100
AcDbEntity
  8
0
  6
CONTINUOUS
 62
     7
100
AcDbLine
 10
8.95806819373659
 20
9.41172418045916
 30
0.0
 11
8.444997344108161
 21
9.41172418045916
 31
0.0
  0
CIRCLE
  5
7793
330
1F
100
AcDbEntity
  8
0
  6
CONTINUOUS
 62
     7
100
AcDbCircle
 10
6.951532768922376
 20
6.852669025215696
 30
0.0
 40
0.1360039370078745
  0
CIRCLE
  5
7794
330
1F
100
AcDbEntity
  8
0
  6
CONTINUOUS
 62
     7
100
AcDbCircle
 10
10.45153276892237
 20
6.852669025215696
 30
0.0
 40
0.1360039370078745
  0
CIRCLE
  5
7795
330
1F
100
AcDbEntity
  8
0
  6
CONTINUOUS
 62
     7
100
AcDbCircle
 10
10.07948552482788
 20
8.661724143325933
 30
0.0
 40
0.0532500000000003
  0
CIRCLE
  5
7796
330
1F
100
AcDbEntity
  8
0
  6
CONTINUOUS
 62
     7
100
AcDbCircle
 10
10.07948552482788
 20
9.161724143325933
 30
0.0
 40
0.0532500000000003
  0
LINE
  5
7797
330
1F
100
AcDbEntity
  8
0
  6
CONTINUOUS
 62
     7
100
AcDbLine
 10
10.53948555006834
 20
9.41172418045916
 30
0.0
 11
10.52948549225653
 21
9.41172418045916
 31
0.0
  0
LINE
  5
7798
330
1F
100
AcDbEntity
  8
0
  6
CONTINUOUS
 62
     7
100
AcDbLine
 10
9.629485495799956
 20
9.41172418045916
 30
0.0
 11
9.619485511320631
 21
9.41172418045916
 31
0.0
  0
LINE
  5
779B
330
1F
100
AcDbEntity
  8
0
  6
CONTINUOUS
 62
     7
100
AcDbLine
 10
17.35804616373229
 20
13.12896813410359
 30
0.0
 11
16.93284930230938
 21
13.12896813410359
 31
0.0
  0
LINE
  5
779C
330
1F
100
AcDbEntity
  8
0
  6
CONTINUOUS
 62
     7
100
AcDbLine
 10
16.93284930230938
 20
13.12896813410359
 30
0.0
 11
16.93284930230938
 21
13.1798029468555
 31
0.0
  0
LINE
  5
779D
330
1F
100
AcDbEntity
  8
0
  6
CONTINUOUS
 62
     7
100
AcDbLine
 10
16.93284930230938
 20
13.1798029468555
 30
0.0
 11
17.35804616373229
 21
13.1798029468555
 31
0.0
  0
LINE
  5
779E
330
1F
100
AcDbEntity
  8
0
  6
CONTINUOUS
 62
     7
100
AcDbLine
 10
17.35804616373229
 20
13.1798029468555
 30
0.0
 11
17.35804616373229
 21
13.12896813410359
 31
0.0
  0
LINE
  5
779F
330
1F
100
AcDbEntity
  8
0
  6
CONTINUOUS
 62
     7
100
AcDbLine
 10
17.35804616373229
 20
16.29850378602395
 30
0.0
 11
16.93284930230938
 21
16.29850378602395
 31
0.0
  0
LINE
  5
77A0
330
1F
100
AcDbEntity
  8
0
  6
CONTINUOUS
 62
     7
100
AcDbLine
 10
16.93284930230938
 20
13.1798029468555
 30
0.0
 11
16.93284930230938
 21
16.29850378602395
 31
0.0
  0
LINE
  5
77A1
330
1F
100
AcDbEntity
  8
0
  6
CONTINUOUS
 62
     7
100
AcDbLine
 10
17.35804616373229
 20
13.1798029468555
 30
0.0
 11
17.35804616373229
 21
16.29850378602395
 31
0.0
  0
LINE
  5
77A2
330
1F
100
AcDbEntity
  8
0
  6
CONTINUOUS
 62
     7
100
AcDbLine
 10
16.93284930230938
 20
16.32766899577162
 30
0.0
 11
17.35804616373229
 21
16.32766899577162
 31
0.0
  0
LINE
  5
77A3
330
1F
100
AcDbEntity
  8
0
  6
CONTINUOUS
 62
     7
100
AcDbLine
 10
16.93284930230938
 20
16.29850378602395
 30
0.0
 11
16.93284930230938
 21
16.32766899577162
 31
0.0
  0
LINE
  5
77A4
330
1F
100
AcDbEntity
  8
0
  6
CONTINUOUS
 62
     7
100
AcDbLine
 10
17.35804616373229
 20
16.32766899577162
 30
0.0
 11
17.35804616373229
 21
16.29850378602395
 31
0.0
  0
DIMENSION
  5
77A6
330
1F
100
AcDbEntity
  8
DIM
100
AcDbDimension
  2
*D14
 10
12.37077182155973
 20
4.593658168786291
 30
0.0
 11
8.708509247411683
 21
4.593658168786291
 31
0.0
 70
   160
  3
STANDARD
100
AcDbAlignedDimension
 13
5.030798435752311
 23
6.253023355924355
 33
0.0
 14
12.37077182155973
 24
6.263858131543038
 34
0.0
100
AcDbRotatedDimension
1001
ACAD
1000
DSTYLE
1002
{
1070
    41
1040
0.2
1070
    42
1040
0.2
1070
    43
1040
0.2
1070
    44
1040
0.2
1070
    78
1070
     4
1070
    79
1070
     1
1070
   140
1040
0.2
1070
   141
1040
0.2
1070
   147
1040
0.2
1070
   170
1070
     1
1070
   179
1070
     1
1070
   271
1070
     3
1070
   272
1070
     3
1070
   285
1070
     4
1002
}
  0
DIMENSION
  5
77B4
330
1F
100
AcDbEntity
  8
DIM
100
AcDbDimension
  2
*D15
 10
10.45153276892237
 20
5.220376425338074
 30
0.0
 11
8.681250300548228
 21
5.220376425338074
 31
0.0
 70
   160
  3
STANDARD
100
AcDbAlignedDimension
 13
6.951532768922376
 23
6.852669025215696
 33
0.0
 14
10.45153276892237
 24
6.852669025215696
 34
0.0
100
AcDbRotatedDimension
1001
ACAD
1000
DSTYLE
1002
{
1070
    41
1040
0.2
1070
    42
1040
0.2
1070
    43
1040
0.2
1070
    44
1040
0.2
1070
    78
1070
     4
1070
    79
1070
     1
1070
   140
1040
0.2
1070
   141
1040
0.2
1070
   147
1040
0.2
1070
   170
1070
     1
1070
   179
1070
     1
1070
   271
1070
     3
1070
   272
1070
     3
1070
   285
1070
     4
1002
}
  0
DIMENSION
  5
77D6
330
1F
100
AcDbEntity
  8
DIM
100
AcDbDimension
  2
*D16
 10
3.502061934248843
 20
6.213023318791137
 30
0.0
 11
3.502061934248842
 21
6.532846172003418
 31
0.0
 70
    32
  3
STANDARD
100
AcDbAlignedDimension
 13
6.951532768922376
 23
6.852669025215696
 33
0.0
 14
5.070798551473878
 24
6.213023318791137
 34
0.0
 50
90.0
100
AcDbRotatedDimension
1001
ACAD
1000
DSTYLE
1002
{
1070
    41
1040
0.2
1070
    42
1040
0.2
1070
    43
1040
0.2
1070
    44
1040
0.2
1070
    78
1070
     4
1070
    79
1070
     1
1070
   140
1040
0.2
1070
   141
1040
0.2
1070
   147
1040
0.2
1070
   170
1070
     1
1070
   179
1070
     1
1070
   271
1070
     3
1070
   272
1070
     3
1070
   285
1070
     4
1002
}
  0
DIMENSION
  5
77E4
330
1F
100
AcDbEntity
  8
DIM
100
AcDbDimension
  2
*D17
 10
14.27715597276125
 20
6.213023318791136
 30
0.0
 11
14.27715597276124
 21
8.349873731058538
 31
0.0
 70
    32
  3
STANDARD
100
AcDbAlignedDimension
 13
10.07948552482788
 23
10.48672414332593
 33
0.0
 14
12.33226698637087
 24
6.213023318791137
 34
0.0
 50
90.0
100
AcDbRotatedDimension
1001
ACAD
1000
DSTYLE
1002
{
1070
    41
1040
0.2
1070
    42
1040
0.2
1070
    43
1040
0.2
1070
    44
1040
0.2
1070
    78
1070
     4
1070
    79
1070
     1
1070
   140
1040
0.2
1070
   141
1040
0.2
1070
   147
1040
0.2
1070
   170
1070
     1
1070
   179
1070
     1
1070
   271
1070
     3
1070
   272
1070
     3
1070
   285
1070
     4
1002
}
  0
DIMENSION
  5
77F2
330
1F
100
AcDbEntity
  8
DIM
100
AcDbDimension
  2
*D18
 10
14.28315680025218
 20
16.32766899577162
 30
0.0
 11
14.28315680025218
 21
14.72831856493761
 31
0.0
 70
    32
  3
STANDARD
100
AcDbAlignedDimension
 13
12.33226698637087
 23
13.12896813410359
 33
0.0
 14
11.45470005743225
 24
16.32766899577162
 34
0.0
 50
90.0
100
AcDbRotatedDimension
1001
ACAD
1000
DSTYLE
1002
{
1070
    41
1040
0.2
1070
    42
1040
0.2
1070
    43
1040
0.2
1070
    44
1040
0.2
1070
    78
1070
     4
1070
    79
1070
     1
1070
   140
1040
0.2
1070
   141
1040
0.2
1070
   147
1040
0.2
1070
   170
1070
     1
1070
   179
1070
     1
1070
   271
1070
     3
1070
   272
1070
     3
1070
   285
1070
     4
1002
}
  0
DIMENSION
  5
7800
330
1F
100
AcDbEntity
  8
DIM
100
AcDbDimension
  2
*D19
 10
10.07948552482788
 20
17.35591202258835
 30
0.0
 11
7.555889620556456
 21
17.35591202258835
 31
0.0
 70
    32
  3
STANDARD
100
AcDbAlignedDimension
 13
5.032293716285021
 23
13.1798029468555
 33
0.0
 14
10.07948552482788
 24
16.07766895863839
 34
0.0
100
AcDbRotatedDimension
1001
ACAD
1000
DSTYLE
1002
{
1070
    41
1040
0.2
1070
    42
1040
0.2
1070
    43
1040
0.2
1070
    44
1040
0.2
1070
    78
1070
     4
1070
    79
1070
     1
1070
   140
1040
0.2
1070
   141
1040
0.2
1070
   147
1040
0.2
1070
   170
1070
     1
1070
   179
1070
     1
1070
   271
1070
     3
1070
   272
1070
     3
1070
   285
1070
     4
1002
}
  0
DIMENSION
  5
7810
330
1F
100
AcDbEntity
  8
DIM
100
AcDbDimension
  2
*D20
 10
5.032293716285021
 20
5.220376425338074
 30
0.0
 11
3.632293716285021
 21
5.220376425338074
 31
0.0
 70
    32
  3
STANDARD
100
AcDbAlignedDimension
 13
6.951532768922376
 23
6.852669025215696
 33
0.0
 14
5.032293716285021
 24
6.263858131543038
 34
0.0
100
AcDbRotatedDimension
1001
ACAD
1000
DSTYLE
1002
{
1070
    41
1040
0.2
1070
    42
1040
0.2
1070
    43
1040
0.2
1070
    44
1040
0.2
1070
    78
1070
     4
1070
    79
1070
     1
1070
   140
1040
0.2
1070
   141
1040
0.2
1070
   147
1040
0.2
1070
   170
1070
     1
1070
   179
1070
     1
1070
   271
1070
     3
1070
   272
1070
     3
1070
   285
1070
     4
1002
}
  0
DIMENSION
  5
7865
330
1F
100
AcDbEntity
  8
DIM
100
AcDbDimension
  2
*D21
 10
16.93284930230938
 20
12.32445916253225
 30
0.0
 11
15.43284930230938
 21
12.32445916253225
 31
0.0
 70
    32
  3
STANDARD
100
AcDbAlignedDimension
 13
17.35804616373229
 23
13.12896813410359
 33
0.0
 14
16.93284930230938
 24
13.12896813410359
 34
0.0
100
AcDbRotatedDimension
1001
ACAD
1000
DSTYLE
1002
{
1070
    41
1040
0.2
1070
    42
1040
0.2
1070
    43
1040
0.2
1070
    44
1040
0.2
1070
    78
1070
     4
1070
    79
1070
     1
1070
   140
1040
0.2
1070
   141
1040
0.2
1070
   147
1040
0.2
1070
   170
1070
     1
1070
   179
1070
     1
1070
   271
1070
     3
1070
   272
1070
     3
1070
   285
1070
     4
1002
}
  0
ENDSEC
  0
SECTION
  2
OBJECTS
  0
DICTIONARY
  5
C
330
0
100
AcDbDictionary
  3
ACAD_GROUP
350
D
  3
ACAD_LAYOUT
350
1A
  3
ACAD_MLINESTYLE
350
17
  3
ACAD_PLOTSETTINGS
350
19
  3
ACAD_PLOTSTYLENAME
350
E
  3
ACAD_SCALELIST
350
1454
  3
ACDBHEADERROUNDTRIPXREC
350
7885
  3
ACDBVARIABLEDICTIONARY
350
1476
  0
DICTIONARY
  5
78A8
330
1F
100
AcDbDictionary
280
     1
  3
ACAD_LAYOUTSELFREF
360
78A9
  0
DICTIONARY
  5
78A6
330
1B
100
AcDbDictionary
280
     1
  3
ACAD_LAYOUTSELFREF
360
78A7
  0
DICTIONARY
  5
D
102
{ACAD_REACTORS
330
C
102
}
330
C
100
AcDbDictionary
  0
DICTIONARY
  5
1A
102
{ACAD_REACTORS
330
C
102
}
330
C
100
AcDbDictionary
  0
DICTIONARY
  5
17
102
{ACAD_REACTORS
330
C
102
}
330
C
100
AcDbDictionary
  3
STANDARD
350
18
  0
DICTIONARY
  5
19
102
{ACAD_REACTORS
330
C
102
}
330
C
100
AcDbDictionary
  0
ACDBDICTIONARYWDFLT
  5
E
102
{ACAD_REACTORS
330
C
102
}
330
C
100
AcDbDictionary
281
     1
  3
Normal
350
F
100
AcDbDictionaryWithDefault
340
F
  0
DICTIONARY
  5
1454
102
{ACAD_REACTORS
330
C
102
}
330
C
100
AcDbDictionary
  3
A0
350
1455
  3
A1
350
1456
  3
A2
350
1457
  3
A3
350
1458
  3
A4
350
1459
  3
A5
350
145A
  3
A6
350
145B
  3
A7
350
145C
  3
A8
350
145D
  3
A9
350
145E
  3
B0
350
145F
  3
B1
350
1460
  3
B2
350
1461
  3
B3
350
1462
  3
B4
350
1463
  3
B5
350
1464
  3
B6
350
1465
  3
B7
350
1466
  3
B8
350
1467
  3
B9
350
1468
  3
C0
350
1469
  3
C1
350
146A
  3
C2
350
146B
  3
C3
350
146C
  3
C4
350
146D
  3
C5
350
146E
  3
C6
350
146F
  3
C7
350
1470
  3
C8
350
1471
  3
C9
350
1472
  3
D0
350
1473
  3
D1
350
1474
  3
D2
350
1475
  0
DICTIONARY
  5
7885
102
{ACAD_REACTORS
330
C
102
}
330
C
100
AcDbDictionary
  3
CEPSNTYPE
350
788F
  3
DIMSTYLEDATA
350
7893
  3
FINGERPRINTGUID
350
7890
  3
HYPERLINKBASE
350
7888
  3
INSUNITS
350
788E
  3
LAYOUTDICT
350
788A
  3
LWETCUNION
350
788D
  3
PLOTSETDICT
350
788B
  3
PLOTSTYLNAMDICT
350
788C
  3
PSVPSCALE
350
7892
  3
PUCSBASE
350
7896
  3
PUCSORGBACK
350
789C
  3
PUCSORGBOTTOM
350
7898
  3
PUCSORGFRONT
350
789B
  3
PUCSORGLEFT
350
7899
  3
PUCSORGRIGHT
350
789A
  3
PUCSORGTOP
350
7897
  3
PUCSORTHOREF
350
7894
  3
PUCSORTHOVIEW
350
7895
  3
STYLESHEET
350
7889
  3
TSTACKALIGN
350
7886
  3
TSTACKSIZE
350
7887
  3
UCSBASE
350
789F
  3
UCSORGBACK
350
78A5
  3
UCSORGBOTTOM
350
78A1
  3
UCSORGFRONT
350
78A4
  3
UCSORGLEFT
350
78A2
  3
UCSORGRIGHT
350
78A3
  3
UCSORGTOP
350
78A0
  3
UCSORTHOREF
350
789D
  3
UCSORTHOVIEW
350
789E
  3
VERSIONGUID
350
7891
  0
DICTIONARY
  5
1476
102
{ACAD_REACTORS
330
C
102
}
330
C
100
AcDbDictionary
  3
CANNOSCALE
350
1477
  3
DIMASSOC
350
1629
  0
XRECORD
  5
78A9
102
{ACAD_REACTORS
330
78A8
102
}
330
78A8
100
AcDbXrecord
340
1F
  0
XRECORD
  5
78A7
102
{ACAD_REACTORS
330
78A6
102
}
330
78A6
100
AcDbXrecord
340
1B
  0
MLINESTYLE
  5
18
102
{ACAD_REACTORS
330
17
102
}
330
17
100
AcDbMlineStyle
  2
STANDARD
 70
     0
  3

 62
   256
 51
90.0
 52
90.0
 71
     2
 49
0.5
 62
   256
  6
BYLAYER
 49
-0.5
 62
   256
  6
BYLAYER
  0
ACDBPLACEHOLDER
  5
F
102
{ACAD_REACTORS
330
E
102
}
330
E
100
AcDbPlaceHolder
280
     0
  0
ACAD_PROXY_OBJECT
  5
1455
102
{ACAD_REACTORS
330
1454
102
}
330
1454
100
AcDbProxyObject
 90
      499
 91
      507
 93
       41
310
903313A315C4
 94
        0
1001
ACAD
1000
AcadProxyRoundTripData
1071
      503
1071
   851991
1070
     0
  0
ACAD_PROXY_OBJECT
  5
1456
102
{ACAD_REACTORS
330
1454
102
}
330
1454
100
AcDbProxyObject
 90
      499
 91
      507
 93
      105
310
903313A324000000000000004000
 94
        0
1001
ACAD
1000
AcadProxyRoundTripData
1071
      503
1071
   851991
1070
     0
  0
ACAD_PROXY_OBJECT
  5
1457
102
{ACAD_REACTORS
330
1454
102
}
330
1454
100
AcDbProxyObject
 90
      499
 91
      507
 93
      105
310
903313A344000000000000104061
 94
        0
1001
ACAD
1000
AcadProxyRoundTripData
1071
      503
1071
   851991
1070
     0
  0
ACAD_PROXY_OBJECT
  5
1458
102
{ACAD_REACTORS
330
1454
102
}
330
1454
100
AcDbProxyObject
 90
      499
 91
      507
 93
      105
310
903313A354000000000000144000
 94
        0
1001
ACAD
1000
AcadProxyRoundTripData
1071
      503
1071
   851991
1070
     0
  0
ACAD_PROXY_OBJECT
  5
1459
102
{ACAD_REACTORS
330
1454
102
}
330
1454
100
AcDbProxyObject
 90
      499
 91
      507
 93
      105
310
903313A384000000000000204061
 94
        0
1001
ACAD
1000
AcadProxyRoundTripData
1071
      503
1071
   851991
1070
     0
  0
ACAD_PROXY_OBJECT
  5
145A
102
{ACAD_REACTORS
330
1454
102
}
330
1454
100
AcDbProxyObject
 90
      499
 91
      507
 93
      113
310
904313A31304000000000000244000
 94
        0
1001
ACAD
1000
AcadProxyRoundTripData
1071
      503
1071
   851991
1070
     0
  0
ACAD_PROXY_OBJECT
  5
145B
102
{ACAD_REACTORS
330
1454
102
}
330
1454
100
AcDbProxyObject
 90
      499
 91
      507
 93
      113
310
904313A31364000000000000304050
 94
        0
1001
ACAD
1000
AcadProxyRoundTripData
1071
      503
1071
   851991
1070
     0
  0
ACAD_PROXY_OBJECT
  5
145C
102
{ACAD_REACTORS
330
1454
102
}
330
1454
100
AcDbProxyObject
 90
      499
 91
      507
 93
      113
310
904313A32304000000000000344000
 94
        0
1001
ACAD
1000
AcadProxyRoundTripData
1071
      503
1071
   851991
1070
     0
  0
ACAD_PROXY_OBJECT
  5
145D
102
{ACAD_REACTORS
330
1454
102
}
330
1454
100
AcDbProxyObject
 90
      499
 91
      507
 93
      113
310
904313A333040000000000003E4050
 94
        0
1001
ACAD
1000
AcadProxyRoundTripData
1071
      503
1071
   851991
1070
     0
  0
ACAD_PROXY_OBJECT
  5
145E
102
{ACAD_REACTORS
330
1454
102
}
330
1454
100
AcDbProxyObject
 90
      499
 91
      507
 93
      113
310
904313A34304000000000000444000
 94
        0
1001
ACAD
1000
AcadProxyRoundTripData
1071
      503
1071
   851991
1070
     0
  0
ACAD_PROXY_OBJECT
  5
145F
102
{ACAD_REACTORS
330
1454
102
}
330
1454
100
AcDbProxyObject
 90
      499
 91
      507
 93
      113
310
904313A35304000000000000494050
 94
        0
1001
ACAD
1000
AcadProxyRoundTripData
1071
      503
1071
   851991
1070
     0
  0
ACAD_PROXY_OBJECT
  5
1460
102
{ACAD_REACTORS
330
1454
102
}
330
1454
100
AcDbProxyObject
 90
      499
 91
      507
 93
      121
310
905313A3130304000000000000594000
 94
        0
1001
ACAD
1000
AcadProxyRoundTripData
1071
      503
1071
   851991
1070
     0
  0
ACAD_PROXY_OBJECT
  5
1461
102
{ACAD_REACTORS
330
1454
102
}
330
1454
100
AcDbProxyObject
 90
      499
 91
      507
 93
      105
310
903323A310000000000000010140
 94
        0
1001
ACAD
1000
AcadProxyRoundTripData
1071
      503
1071
   851991
1070
     0
  0
ACAD_PROXY_OBJECT
  5
1462
102
{ACAD_REACTORS
330
1454
102
}
330
1454
100
AcDbProxyObject
 90
      499
 91
      507
 93
      105
310
903343A310000000000000410159
 94
        0
1001
ACAD
1000
AcadProxyRoundTripData
1071
      503
1071
   851991
1070
     0
  0
ACAD_PROXY_OBJECT
  5
1463
102
{ACAD_REACTORS
330
1454
102
}
330
1454
100
AcDbProxyObject
 90
      499
 91
      507
 93
      105
310
903383A310000000000000810140
 94
        0
1001
ACAD
1000
AcadProxyRoundTripData
1071
      503
1071
   851991
1070
     0
  0
ACAD_PROXY_OBJECT
  5
1464
102
{ACAD_REACTORS
330
1454
102
}
330
1454
100
AcDbProxyObject
 90
      499
 91
      507
 93
      113
310
90431303A310000000000000910140
 94
        0
1001
ACAD
1000
AcadProxyRoundTripData
1071
      503
1071
   851991
1070
     0
  0
ACAD_PROXY_OBJECT
  5
1465
102
{ACAD_REACTORS
330
1454
102
}
330
1454
100
AcDbProxyObject
 90
      499
 91
      507
 93
      121
310
9053130303A310000000000001650176
 94
        0
1001
ACAD
1000
AcadProxyRoundTripData
1071
      503
1071
   851991
1070
     0
  0
ACAD_PROXY_OBJECT
  5
1466
102
{ACAD_REACTORS
330
1454
102
}
330
1454
100
AcDbProxyObject
 90
      499
 91
      507
 93
      257
310
90E312F31323822203D2031272D3022000000000000200FC00000000000028401C
 94
        0
1001
ACAD
1000
AcadProxyRoundTripData
1071
      503
1071
   851991
1070
     0
  0
ACAD_PROXY_OBJECT
  5
1467
102
{ACAD_REACTORS
330
1454
102
}
330
1454
100
AcDbProxyObject
 90
      499
 91
      507
 93
      249
310
90D312F363422203D2031272D3022000000000000240FC000000000000284044
 94
        0
1001
ACAD
1000
AcadProxyRoundTripData
1071
      503
1071
   851991
1070
     0
  0
ACAD_PROXY_OBJECT
  5
1468
102
{ACAD_REACTORS
330
1454
102
}
330
1454
100
AcDbProxyObject
 90
      499
 91
      507
 93
      249
310
90D312F333222203D2031272D3022000000000000280FC000000000000284040
 94
        0
1001
ACAD
1000
AcadProxyRoundTripData
1071
      503
1071
   851991
1070
     0
  0
ACAD_PROXY_OBJECT
  5
1469
102
{ACAD_REACTORS
330
1454
102
}
330
1454
100
AcDbProxyObject
 90
      499
 91
      507
 93
      249
310
90D312F313622203D2031272D30220000000000002C0FC000000000000284044
 94
        0
1001
ACAD
1000
AcadProxyRoundTripData
1071
      503
1071
   851991
1070
     0
  0
ACAD_PROXY_OBJECT
  5
146A
102
{ACAD_REACTORS
330
1454
102
}
330
1454
100
AcDbProxyObject
 90
      499
 91
      507
 93
      249
310
90D332F333222203D2031272D30220000000000002E0FC000000000000284040
 94
        0
1001
ACAD
1000
AcadProxyRoundTripData
1071
      503
1071
   851991
1070
     0
  0
ACAD_PROXY_OBJECT
  5
146B
102
{ACAD_REACTORS
330
1454
102
}
330
1454
100
AcDbProxyObject
 90
      499
 91
      507
 93
      241
310
90C312F3822203D2031272D3022000000000000300FC000000000000284040
 94
        0
1001
ACAD
1000
AcadProxyRoundTripData
1071
      503
1071
   851991
1070
     0
  0
ACAD_PROXY_OBJECT
  5
146C
102
{ACAD_REACTORS
330
1454
102
}
330
1454
100
AcDbProxyObject
 90
      499
 91
      507
 93
      249
310
90D332F313622203D2031272D3022000000000000320FC000000000000284040
 94
        0
1001
ACAD
1000
AcadProxyRoundTripData
1071
      503
1071
   851991
1070
     0
  0
ACAD_PROXY_OBJECT
  5
146D
102
{ACAD_REACTORS
330
1454
102
}
330
1454
100
AcDbProxyObject
 90
      499
 91
      507
 93
      241
310
90C312F3422203D2031272D3022000000000000340FC000000000000284040
 94
        0
1001
ACAD
1000
AcadProxyRoundTripData
1071
      503
1071
   851991
1070
     0
  0
ACAD_PROXY_OBJECT
  5
146E
102
{ACAD_REACTORS
330
1454
102
}
330
1454
100
AcDbProxyObject
 90
      499
 91
      507
 93
      241
310
90C332F3822203D2031272D3022000000000000360FC000000000000284040
 94
        0
1001
ACAD
1000
AcadProxyRoundTripData
1071
      503
1071
   851991
1070
     0
  0
ACAD_PROXY_OBJECT
  5
146F
102
{ACAD_REACTORS
330
1454
102
}
330
1454
100
AcDbProxyObject
 90
      499
 91
      507
 93
      241
310
90C312F3222203D2031272D3022000000000000380FC000000000000284040
 94
        0
1001
ACAD
1000
AcadProxyRoundTripData
1071
      503
1071
   851991
1070
     0
  0
ACAD_PROXY_OBJECT
  5
1470
102
{ACAD_REACTORS
330
1454
102
}
330
1454
100
AcDbProxyObject
 90
      499
 91
      507
 93
      241
310
90C332F3422203D2031272D30220000000000003A0FC000000000000284040
 94
        0
1001
ACAD
1000
AcadProxyRoundTripData
1071
      503
1071
   851991
1070
     0
  0
ACAD_PROXY_OBJECT
  5
1471
102
{ACAD_REACTORS
330
1454
102
}
330
1454
100
AcDbProxyObject
 90
      499
 91
      507
 93
      161
310
90A3122203D2031272D30224000000000000284000
 94
        0
1001
ACAD
1000
AcadProxyRoundTripData
1071
      503
1071
   851991
1070
     0
  0
ACAD_PROXY_OBJECT
  5
1472
102
{ACAD_REACTORS
330
1454
102
}
330
1454
100
AcDbProxyObject
 90
      499
 91
      507
 93
      257
310
90E312D312F3222203D2031272D30220000000000003E0FC00000000000028401C
 94
        0
1001
ACAD
1000
AcadProxyRoundTripData
1071
      503
1071
   851991
1070
     0
  0
ACAD_PROXY_OBJECT
  5
1473
102
{ACAD_REACTORS
330
1454
102
}
330
1454
100
AcDbProxyObject
 90
      499
 91
      507
 93
      225
310
90A3322203D2031272D302200000000000002100000000000000284028
 94
        0
1001
ACAD
1000
AcadProxyRoundTripData
1071
      503
1071
   851991
1070
     0
  0
ACAD_PROXY_OBJECT
  5
1474
102
{ACAD_REACTORS
330
1454
102
}
330
1454
100
AcDbProxyObject
 90
      499
 91
      507
 93
      225
310
90A3622203D2031272D302200000000000006100000000000000284000
 94
        0
1001
ACAD
1000
AcadProxyRoundTripData
1071
      503
1071
   851991
1070
     0
  0
ACAD_PROXY_OBJECT
  5
1475
102
{ACAD_REACTORS
330
1454
102
}
330
1454
100
AcDbProxyObject
 90
      499
 91
      507
 93
      249
310
90D31272D3022203D2031272D30220000000000000A100000000000000284044
 94
        0
1001
ACAD
1000
AcadProxyRoundTripData
1071
      503
1071
   851991
1070
     0
  0
XRECORD
  5
788F
102
{ACAD_REACTORS
330
7885
102
}
330
7885
100
AcDbXrecord
 90
        0
  0
XRECORD
  5
7893
102
{ACAD_REACTORS
330
7885
102
}
330
7885
100
AcDbXrecord
1000
DSTYLE
1002
{
1070
    79
 70
     1
1070
   179
 70
     1
1002
}
  0
XRECORD
  5
7890
102
{ACAD_REACTORS
330
7885
102
}
330
7885
100
AcDbXrecord
  1
{32377D59-A20B-4C09-8E10-FF2C3873D64F}
  0
XRECORD
  5
7888
102
{ACAD_REACTORS
330
7885
102
}
330
7885
100
AcDbXrecord
  1

  0
XRECORD
  5
788E
102
{ACAD_REACTORS
330
7885
102
}
330
7885
100
AcDbXrecord
 90
        1
  0
XRECORD
  5
788A
102
{ACAD_REACTORS
330
7885
102
}
330
7885
100
AcDbXrecord
340
1A
  0
XRECORD
  5
788D
102
{ACAD_REACTORS
330
7885
102
}
330
7885
100
AcDbXrecord
 90
    10269
  0
XRECORD
  5
788B
102
{ACAD_REACTORS
330
7885
102
}
330
7885
100
AcDbXrecord
340
19
  0
XRECORD
  5
788C
102
{ACAD_REACTORS
330
7885
102
}
330
7885
100
AcDbXrecord
340
E
  0
XRECORD
  5
7892
102
{ACAD_REACTORS
330
7885
102
}
330
7885
100
AcDbXrecord
 40
0.0
  0
XRECORD
  5
7896
102
{ACAD_REACTORS
330
7885
102
}
330
7885
100
AcDbXrecord
340
0
  0
XRECORD
  5
789C
102
{ACAD_REACTORS
330
7885
102
}
330
7885
100
AcDbXrecord
 10
0.0
 20
0.0
 30
0.0
  0
XRECORD
  5
7898
102
{ACAD_REACTORS
330
7885
102
}
330
7885
100
AcDbXrecord
 10
0.0
 20
0.0
 30
0.0
  0
XRECORD
  5
789B
102
{ACAD_REACTORS
330
7885
102
}
330
7885
100
AcDbXrecord
 10
0.0
 20
0.0
 30
0.0
  0
XRECORD
  5
7899
102
{ACAD_REACTORS
330
7885
102
}
330
7885
100
AcDbXrecord
 10
0.0
 20
0.0
 30
0.0
  0
XRECORD
  5
789A
102
{ACAD_REACTORS
330
7885
102
}
330
7885
100
AcDbXrecord
 10
0.0
 20
0.0
 30
0.0
  0
XRECORD
  5
7897
102
{ACAD_REACTORS
330
7885
102
}
330
7885
100
AcDbXrecord
 10
0.0
 20
0.0
 30
0.0
  0
XRECORD
  5
7894
102
{ACAD_REACTORS
330
7885
102
}
330
7885
100
AcDbXrecord
340
0
  0
XRECORD
  5
7895
102
{ACAD_REACTORS
330
7885
102
}
330
7885
100
AcDbXrecord
 70
     0
  0
XRECORD
  5
7889
102
{ACAD_REACTORS
330
7885
102
}
330
7885
100
AcDbXrecord
  1
monochrome.ctb
  0
XRECORD
  5
7886
102
{ACAD_REACTORS
330
7885
102
}
330
7885
100
AcDbXrecord
 90
        1
  0
XRECORD
  5
7887
102
{ACAD_REACTORS
330
7885
102
}
330
7885
100
AcDbXrecord
 90
       70
  0
XRECORD
  5
789F
102
{ACAD_REACTORS
330
7885
102
}
330
7885
100
AcDbXrecord
340
0
  0
XRECORD
  5
78A5
102
{ACAD_REACTORS
330
7885
102
}
330
7885
100
AcDbXrecord
 10
0.0
 20
0.0
 30
0.0
  0
XRECORD
  5
78A1
102
{ACAD_REACTORS
330
7885
102
}
330
7885
100
AcDbXrecord
 10
0.0
 20
0.0
 30
0.0
  0
XRECORD
  5
78A4
102
{ACAD_REACTORS
330
7885
102
}
330
7885
100
AcDbXrecord
 10
0.0
 20
0.0
 30
0.0
  0
XRECORD
  5
78A2
102
{ACAD_REACTORS
330
7885
102
}
330
7885
100
AcDbXrecord
 10
0.0
 20
0.0
 30
0.0
  0
XRECORD
  5
78A3
102
{ACAD_REACTORS
330
7885
102
}
330
7885
100
AcDbXrecord
 10
0.0
 20
0.0
 30
0.0
  0
XRECORD
  5
78A0
102
{ACAD_REACTORS
330
7885
102
}
330
7885
100
AcDbXrecord
 10
0.0
 20
0.0
 30
0.0
  0
XRECORD
  5
789D
102
{ACAD_REACTORS
330
7885
102
}
330
7885
100
AcDbXrecord
340
0
  0
XRECORD
  5
789E
102
{ACAD_REACTORS
330
7885
102
}
330
7885
100
AcDbXrecord
 70
     0
  0
XRECORD
  5
7891
102
{ACAD_REACTORS
330
7885
102
}
330
7885
100
AcDbXrecord
  1
{65CDCC6C-1EC7-4C4A-BC96-776CB304876B}
  0
DICTIONARYVAR
  5
1477
102
{ACAD_REACTORS
330
1476
102
}
330
1476
100
DictionaryVariables
280
     0
  1
1:1
  0
DICTIONARYVAR
  5
1629
102
{ACAD_REACTORS
330
1476
102
}
330
1476
100
DictionaryVariables
280
     0
  1
1
  0
ENDSEC
  0
EOF
