  0
SECTION
  2
HEADER
  9
$ACADVER
  1
AC1014
  9
$ACADMAINTVER
 70
     9
  9
$DWGCODEPAGE
  3
ANSI_1252
  9
$INSBASE
 10
0.0
 20
0.0
 30
0.0
  9
$EXTMIN
 10
-0.0025751613475506
 20
-0.0018427730010089
 30
-0.0000000349181948
  9
$EXTMAX
 10
34.00257547801619
 20
22.00184297790753
 30
0.0000000814935746
  9
$LIMMIN
 10
0.0
 20
0.0
  9
$LIMMAX
 10
34.0
 20
22.0
  9
$ORTHOMODE
 70
     1
  9
$REGENMODE
 70
     1
  9
$FILLMODE
 70
     1
  9
$QTEXTMODE
 70
     0
  9
$MIRRTEXT
 70
     1
  9
$DRAGMODE
 70
     2
  9
$LTSCALE
 40
1.0
  9
$OSMODE
 70
   383
  9
$ATTMODE
 70
     1
  9
$TEXTSIZE
 40
0.156
  9
$TRACEWID
 40
0.05
  9
$TEXTSTYLE
  7
STANDARD
  9
$CLAYER
  8
DIM
  9
$CELTYPE
  6
BYLAYER
  9
$CECOLOR
 62
   256
  9
$CELTSCALE
 40
1.0
  9
$DELOBJ
 70
     1
  9
$DISPSILH
 70
     0
  9
$DIMSCALE
 40
1.0
  9
$DIMASZ
 40
0.2
  9
$DIMEXO
 40
0.2
  9
$DIMDLI
 40
0.2
  9
$DIMRND
 40
0.0
  9
$DIMDLE
 40
0.0
  9
$DIMEXE
 40
0.2
  9
$DIMTP
 40
0.0
  9
$DIMTM
 40
0.0
  9
$DIMTXT
 40
0.2
  9
$DIMCEN
 40
0.2
  9
$DIMTSZ
 40
0.0
  9
$DIMTOL
 70
     0
  9
$DIMLIM
 70
     0
  9
$DIMTIH
 70
     1
  9
$DIMTOH
 70
     1
  9
$DIMSE1
 70
     0
  9
$DIMSE2
 70
     0
  9
$DIMTAD
 70
     0
  9
$DIMZIN
 70
     4
  9
$DIMBLK
  1

  9
$DIMASO
 70
     1
  9
$DIMSHO
 70
     1
  9
$DIMPOST
  1

  9
$DIMAPOST
  1

  9
$DIMALT
 70
     1
  9
$DIMALTD
 70
     2
  9
$DIMALTF
 40
25.4
  9
$DIMLFAC
 40
1.0
  9
$DIMTOFL
 70
     0
  9
$DIMTVP
 40
0.0
  9
$DIMTIX
 70
     0
  9
$DIMSOXD
 70
     0
  9
$DIMSAH
 70
     0
  9
$DIMBLK1
  1

  9
$DIMBLK2
  1

  9
$DIMSTYLE
  2
STANDARD
  9
$DIMCLRD
 70
     0
  9
$DIMCLRE
 70
     0
  9
$DIMCLRT
 70
     0
  9
$DIMTFAC
 40
1.0
  9
$DIMGAP
 40
0.2
  9
$DIMJUST
 70
     0
  9
$DIMSD1
 70
     0
  9
$DIMSD2
 70
     0
  9
$DIMTOLJ
 70
     1
  9
$DIMTZIN
 70
     0
  9
$DIMALTZ
 70
     4
  9
$DIMALTTZ
 70
     0
  9
$DIMFIT
 70
     3
  9
$DIMUPT
 70
     0
  9
$DIMUNIT
 70
     2
  9
$DIMDEC
 70
     3
  9
$DIMTDEC
 70
     3
  9
$DIMALTU
 70
     2
  9
$DIMALTTD
 70
     2
  9
$DIMTXSTY
  7
STANDARD
  9
$DIMAUNIT
 70
     0
  9
$LUNITS
 70
     2
  9
$LUPREC
 70
     3
  9
$SKETCHINC
 40
0.1
  9
$FILLETRAD
 40
0.5
  9
$AUNITS
 70
     0
  9
$AUPREC
 70
     1
  9
$MENU
  1
.
  9
$ELEVATION
 40
0.0
  9
$PELEVATION
 40
0.0
  9
$THICKNESS
 40
0.0
  9
$LIMCHECK
 70
     0
  9
$BLIPMODE
 70
     0
  9
$CHAMFERA
 40
0.5
  9
$CHAMFERB
 40
0.5
  9
$CHAMFERC
 40
1.0
  9
$CHAMFERD
 40
0.0
  9
$SKPOLY
 70
     0
  9
$TDCREATE
 40
2456454.594322905
  9
$TDUPDATE
 40
2456455.361955821
  9
$TDINDWG
 40
0.0870123032
  9
$TDUSRTIMER
 40
0.0870123032
  9
$USRTIMER
 70
     1
  9
$ANGBASE
 50
0.0
  9
$ANGDIR
 70
     0
  9
$PDMODE
 70
     0
  9
$PDSIZE
 40
-1.0
  9
$PLINEWID
 40
0.0
  9
$COORDS
 70
     2
  9
$SPLFRAME
 70
     0
  9
$SPLINETYPE
 70
     6
  9
$SPLINESEGS
 70
     8
  9
$ATTDIA
 70
     0
  9
$ATTREQ
 70
     1
  9
$HANDLING
 70
 22529
  9
$HANDSEED
  5
7E0A
  9
$SURFTAB1
 70
     6
  9
$SURFTAB2
 70
     6
  9
$SURFTYPE
 70
     6
  9
$SURFU
 70
     6
  9
$SURFV
 70
     6
  9
$UCSNAME
  2

  9
$UCSORG
 10
0.0
 20
0.0
 30
0.0
  9
$UCSXDIR
 10
1.0
 20
0.0
 30
0.0
  9
$UCSYDIR
 10
0.0
 20
1.0
 30
0.0
  9
$PUCSNAME
  2

  9
$PUCSORG
 10
0.0
 20
0.0
 30
0.0
  9
$PUCSXDIR
 10
1.0
 20
0.0
 30
0.0
  9
$PUCSYDIR
 10
0.0
 20
1.0
 30
0.0
  9
$USERI1
 70
     0
  9
$USERI2
 70
     0
  9
$USERI3
 70
     0
  9
$USERI4
 70
     0
  9
$USERI5
 70
     0
  9
$USERR1
 40
0.0
  9
$USERR2
 40
0.0
  9
$USERR3
 40
0.0
  9
$USERR4
 40
0.0
  9
$USERR5
 40
0.0
  9
$WORLDVIEW
 70
     1
  9
$SHADEDGE
 70
     3
  9
$SHADEDIF
 70
    70
  9
$TILEMODE
 70
     1
  9
$MAXACTVP
 70
    64
  9
$PINSBASE
 10
0.0
 20
0.0
 30
0.0
  9
$PLIMCHECK
 70
     0
  9
$PEXTMIN
 10
1.000000000000000E+20
 20
1.000000000000000E+20
 30
1.000000000000000E+20
  9
$PEXTMAX
 10
-1.000000000000000E+20
 20
-1.000000000000000E+20
 30
-1.000000000000000E+20
  9
$PLIMMIN
 10
0.0
 20
0.0
  9
$PLIMMAX
 10
12.0
 20
9.0
  9
$UNITMODE
 70
     0
  9
$VISRETAIN
 70
     1
  9
$PLINEGEN
 70
     0
  9
$PSLTSCALE
 70
     1
  9
$TREEDEPTH
 70
  3020
  9
$PICKSTYLE
 70
     1
  9
$CMLSTYLE
  2
STANDARD
  9
$CMLJUST
 70
     0
  9
$CMLSCALE
 40
1.0
  9
$PROXYGRAPHICS
 70
     1
  9
$MEASUREMENT
 70
     0
  0
ENDSEC
  0
SECTION
  2
CLASSES
  0
CLASS
  1
ACDBDICTIONARYWDFLT
  2
AcDbDictionaryWithDefault
  3
AutoCAD 2000
 90
        0
280
     0
281
     0
  0
CLASS
  1
VISUALSTYLE
  2
AcDbVisualStyle
  3
ObjectDBX Classes
 90
     4095
280
     0
281
     0
  0
CLASS
  1
MATERIAL
  2
AcDbMaterial
  3
ObjectDBX Classes
 90
     1153
280
     0
281
     0
  0
CLASS
  1
SCALE
  2
AcDbScale
  3
ObjectDBX Classes
 90
     1153
280
     0
281
     0
  0
CLASS
  1
DICTIONARYVAR
  2
AcDbDictionaryVar
  3
AutoCAD 2000
 90
        0
280
     0
281
     0
  0
CLASS
  1
ACDBPLACEHOLDER
  2
AcDbPlaceHolder
  3
AutoCAD 2000
 90
        0
280
     0
281
     0
  0
CLASS
  1
LAYOUT
  2
AcDbLayout
  3
AutoCAD 2000
 90
        0
280
     0
281
     0
  0
CLASS
  1
ACAD_PROXY_OBJECT_WRAPPER
  2
AcDbProxyObjectWrapper
  3
AutoCAD 2000
 90
        0
280
     0
281
     0
  0
CLASS
  1
LONG_TRANSACTION
  2
AcDbLongTransaction
  3
AutoCAD 2000
 90
        0
280
     0
281
     0
  0
CLASS
  1
LWPOLYLINE
  2
AcDbPolyline
  3
AutoCAD 2000
 90
        0
280
     0
281
     1
  0
CLASS
  1
HATCH
  2
AcDbHatch
  3
AutoCAD 2000
 90
        0
280
     0
281
     1
  0
CLASS
  1
XRECORD
  2
AcDbXrecord
  3
AutoCAD 2000
 90
        0
280
     0
281
     0
  0
ENDSEC
  0
SECTION
  2
TABLES
  0
TABLE
  2
VPORT
  5
8
330
0
100
AcDbSymbolTable
 70
    12
  0
VPORT
  5
7DE1
330
8
100
AcDbSymbolTableRecord
100
AcDbViewportTableRecord
  2
*ACTIVE
 70
     0
 10
0.0
 20
0.0
 11
1.0
 21
1.0
 12
17.00000015833432
 22
11.00000010245326
 13
0.0
 23
0.0
 14
0.5
 24
0.5
 15
0.5
 25
0.5
 16
0.0
 26
0.0
 36
1.0
 17
0.0
 27
0.0
 37
0.0
 40
23.50200090077565
 41
1.454106280193236
 42
50.0
 43
0.0
 44
0.0
 50
0.0
 51
0.0
 71
     0
 72
  2000
 73
     1
 74
     3
 75
     0
 76
     0
 77
     0
 78
     0
  0
ENDTAB
  0
TABLE
  2
LTYPE
  5
5
330
0
100
AcDbSymbolTable
 70
     6
  0
LTYPE
  5
14
330
5
100
AcDbSymbolTableRecord
100
AcDbLinetypeTableRecord
  2
BYBLOCK
 70
     0
  3

 72
    65
 73
     0
 40
0.0
  0
LTYPE
  5
15
330
5
100
AcDbSymbolTableRecord
100
AcDbLinetypeTableRecord
  2
BYLAYER
 70
     0
  3

 72
    65
 73
     0
 40
0.0
  0
LTYPE
  5
16
330
5
100
AcDbSymbolTableRecord
100
AcDbLinetypeTableRecord
  2
CONTINUOUS
 70
     0
  3
Solid line
 72
    65
 73
     0
 40
0.0
  0
LTYPE
  5
40
330
5
100
AcDbSymbolTableRecord
100
AcDbLinetypeTableRecord
  2
PHANTOM
 70
     0
  3
Phantom ______  __  __  ______  __  __  ______
 72
    65
 73
     6
 40
0.5
 49
0.25
 74
     0
 49
-0.05
 74
     0
 49
0.05
 74
     0
 49
-0.05
 74
     0
 49
0.05
 74
     0
 49
-0.05
 74
     0
  0
LTYPE
  5
41
330
5
100
AcDbSymbolTableRecord
100
AcDbLinetypeTableRecord
  2
CENTER
 70
     0
  3
Center ____ _ ____ _ ____ _ ____ _ ____ _ ____
 72
    65
 73
     4
 40
0.4
 49
0.25
 74
     0
 49
-0.05
 74
     0
 49
0.05
 74
     0
 49
-0.05
 74
     0
  0
ENDTAB
  0
TABLE
  2
LAYER
  5
2
330
0
100
AcDbSymbolTable
 70
     7
  0
LAYER
  5
10
330
2
100
AcDbSymbolTableRecord
100
AcDbLayerTableRecord
  2
0
 70
     0
 62
     7
  6
CONTINUOUS
  0
LAYER
  5
45
330
2
100
AcDbSymbolTableRecord
100
AcDbLayerTableRecord
  2
FORMAT
 70
     0
 62
     7
  6
CONTINUOUS
  0
LAYER
  5
46
330
2
100
AcDbSymbolTableRecord
100
AcDbLayerTableRecord
  2
TXT
 70
     0
 62
     3
  6
CONTINUOUS
  0
LAYER
  5
47
330
2
100
AcDbSymbolTableRecord
100
AcDbLayerTableRecord
  2
TB-TXT
 70
     0
 62
     3
  6
CONTINUOUS
  0
LAYER
  5
147B
330
2
100
AcDbSymbolTableRecord
100
AcDbLayerTableRecord
  2
DEFPOINTS
 70
     0
 62
     7
  6
CONTINUOUS
  0
LAYER
  5
14CF
330
2
100
AcDbSymbolTableRecord
100
AcDbLayerTableRecord
  2
DIM
 70
     0
 62
     1
  6
CONTINUOUS
  0
ENDTAB
  0
TABLE
  2
STYLE
  5
3
330
0
100
AcDbSymbolTable
 70
    10
  0
STYLE
  5
11
330
3
100
AcDbSymbolTableRecord
100
AcDbTextStyleTableRecord
  2
STANDARD
 70
     0
 40
0.0
 41
1.0
 50
0.0
 71
     0
 42
0.156
  3
txt
  4

  0
STYLE
  5
14D3
330
3
100
AcDbSymbolTableRecord
100
AcDbTextStyleTableRecord
  2
ROMANS
 70
     0
 40
0.0
 41
1.0
 50
0.0
 71
     0
 42
4.0
  3
ROMANS.SHX
  4

  0
STYLE
  5
14D4
330
3
100
AcDbSymbolTableRecord
100
AcDbTextStyleTableRecord
  2
ARIAL
 70
     0
 40
0.0
 41
1.0
 50
0.0
 71
     0
 42
0.12
  3
arial.ttf
  4

1001
ACAD
1000
Arial
1071
       34
  0
ENDTAB
  0
TABLE
  2
VIEW
  5
6
330
0
100
AcDbSymbolTable
 70
     0
  0
ENDTAB
  0
TABLE
  2
UCS
  5
7
330
0
100
AcDbSymbolTable
 70
     0
  0
ENDTAB
  0
TABLE
  2
APPID
  5
9
330
0
100
AcDbSymbolTable
 70
     2
  0
APPID
  5
12
330
9
100
AcDbSymbolTableRecord
100
AcDbRegAppTableRecord
  2
ACAD
 70
     0
  0
APPID
  5
7E09
330
9
100
AcDbSymbolTableRecord
100
AcDbRegAppTableRecord
  2
CONTENTBLOCKICON
 70
     0
  0
ENDTAB
  0
TABLE
  2
DIMSTYLE
  5
A
330
0
100
AcDbSymbolTable
 70
     1
  0
DIMSTYLE
105
27
102
{ACAD_REACTORS
330
7C9B
330
7CA9
330
7CB7
330
7CC5
330
7CD3
330
7CE1
330
7CEF
330
7CFD
102
}
330
A
100
AcDbSymbolTableRecord
100
AcDbDimStyleTableRecord
  2
STANDARD
 70
     0
  3

  4

  5

  6

  7

 40
1.0
 41
0.18
 42
0.0625
 43
0.38
 44
0.18
 45
0.0
 46
0.0
 47
0.0
 48
0.0
140
0.18
141
0.09
142
0.0
143
25.4
144
1.0
145
0.0
146
1.0
147
0.09
 71
     0
 72
     0
 73
     1
 74
     1
 75
     0
 76
     0
 77
     0
 78
     0
170
     0
171
     2
172
     0
173
     0
174
     0
175
     0
176
     0
177
     0
178
     0
270
     2
271
     4
272
     4
273
     2
274
     2
340
11
275
     0
280
     0
281
     0
282
     0
283
     1
284
     0
285
     0
286
     0
287
     3
288
     0
  0
ENDTAB
  0
TABLE
  2
BLOCK_RECORD
  5
1
330
0
100
AcDbSymbolTable
 70
    32
  0
BLOCK_RECORD
  5
1F
102
{ACAD_XDICTIONARY
360
7E05
102
}
330
1
100
AcDbSymbolTableRecord
100
AcDbBlockTableRecord
  2
*MODEL_SPACE
  0
BLOCK_RECORD
  5
1B
102
{ACAD_XDICTIONARY
360
7E03
102
}
330
1
100
AcDbSymbolTableRecord
100
AcDbBlockTableRecord
  2
*PAPER_SPACE
  0
BLOCK_RECORD
  5
14B9
330
1
100
AcDbSymbolTableRecord
100
AcDbBlockTableRecord
  2
REV-BLOCK
  0
BLOCK_RECORD
  5
14C2
330
1
100
AcDbSymbolTableRecord
100
AcDbBlockTableRecord
  2
TITLE-BLOCK
  0
BLOCK_RECORD
  5
5C7C
330
1
100
AcDbSymbolTableRecord
100
AcDbBlockTableRecord
  2
D1
1001
CONTENTBLOCKICON
1071
        0
1004
2800000020000000200000000100080000000000000400000000000000000000000000000000000000000000000080000080000000808000800000008000800080800000C0C0C000C0DCC000F0CAA6000020400000206000002080000020A0000020C0000020E00000400000004020000040400000406000004080000040A0
1004
000040C0000040E00000600000006020000060400000606000006080000060A0000060C0000060E00000800000008020000080400000806000008080000080A0000080C0000080E00000A0000000A0200000A0400000A0600000A0800000A0A00000A0C00000A0E00000C0000000C0200000C0400000C0600000C0800000C0
1004
A00000C0C00000C0E00000E0000000E0200000E0400000E0600000E0800000E0A00000E0C00000E0E00040000000400020004000400040006000400080004000A0004000C0004000E00040200000402020004020400040206000402080004020A0004020C0004020E000404000004040200040404000404060004040800040
1004
40A0004040C0004040E00040600000406020004060400040606000406080004060A0004060C0004060E00040800000408020004080400040806000408080004080A0004080C0004080E00040A0000040A0200040A0400040A0600040A0800040A0A00040A0C00040A0E00040C0000040C0200040C0400040C0600040C08000
1004
40C0A00040C0C00040C0E00040E0000040E0200040E0400040E0600040E0800040E0A00040E0C00040E0E00080000000800020008000400080006000800080008000A0008000C0008000E00080200000802020008020400080206000802080008020A0008020C0008020E00080400000804020008040400080406000804080
1004
008040A0008040C0008040E00080600000806020008060400080606000806080008060A0008060C0008060E00080800000808020008080400080806000808080008080A0008080C0008080E00080A0000080A0200080A0400080A0600080A0800080A0A00080A0C00080A0E00080C0000080C0200080C0400080C0600080C0
1004
800080C0A00080C0C00080C0E00080E0000080E0200080E0400080E0600080E0800080E0A00080E0C00080E0E000C0000000C0002000C0004000C0006000C0008000C000A000C000C000C000E000C0200000C0202000C0204000C0206000C0208000C020A000C020C000C020E000C0400000C0402000C0404000C0406000C0
1004
408000C040A000C040C000C040E000C0600000C0602000C0604000C0606000C0608000C060A000C060C000C060E000C0800000C0802000C0804000C0806000C0808000C080A000C080C000C080E000C0A00000C0A02000C0A04000C0A06000C0A08000C0A0A000C0A0C000C0A0E000C0C00000C0C02000C0C04000C0C06000
1004
C0C08000C0C0A000F0FBFF00A4A0A000808080000000FF0000FF000000FFFF00FF000000FF00FF00FFFF0000FFFFFF0000000000000000000000000000000000000000000000000000000000000000000000000000000000000000000000000000000000000000000000000000000000000000000000000000000000000000
1004
000000000000000000000000000000000000000000000000000000000000000000000000000000000000000000000000000000000000000000000000000000000000000000000000000000000000000000000000000000000000000000000000000000000000000000000000000000000000FFFFFFFFFFFFFFFFFFFFFFFFFF
1004
FFFFFFFFFFFFFFFFFFFFFFFFFFFFFFFFFF0000FFFFFFFFFFFFFFFFFFFFFFFFFAFFFFFFFFFFFFFFFFFFFFFFFFFFFFFFFFFF0000FFFF000000000000000000FAFAFAFAFAFAFFFFFFFFFFFFFFFFFFFFFFFFFF0000FFFF000000000000000000000000000000FFFFFFFFFFFFFFFFFFFFFFFFFF0000FFFF00000000000000000000
1004
00000000000000000000000000000000FFFF0000FFFF0000000000000000000000000000000000000000000000000000FFFF0000FFFF0000000000000000000000000000000000000000000000000000FFFF0000FFFF0000000000000000000000000000000000000000000000000000FFFF0000FFFF000000000000000000
1004
0000000000000000000000000000000000FFFF0000FFFF0000000000000000000000000000000000000000000000000000FFFF0000FFFF0000000000000000000000000000000000000000000000000000FFFF0000FFFF0000000000000000000000000000000000000000000000000000FFFF0000FFFF0000000000000000
1004
000000000000000000000000000000000000FFFF0000FFFF0000000000000000000000000000000000000000000000000000FFFF0000FFFF0000000000000000000000000000000000000000000000000000FFFF0000FFFF0000000000000000000000000000000000000000000000000000FFFF0000FFFF00000000000000
1004
00000000000000000000000000000000000000FFFF0000FFFF0000000000000000000000000000000000000000FFFF0000FFFFFFFF0000FFFFFFFFFFFFFFFFFFFFFFFFFFFFFFFFFFFFFFFFFFFFFFFFFFFFFFFFFFFF0000FFFFFFFFFFFFFFFFFFFFFFFFFFFFFFFFFFFFFFFFFFFFFFFFFFFFFFFFFFFF00000000000000000000
1004
00000000000000000000000000000000000000000000000000000000000000000000000000000000000000000000000000000000000000000000000000000000000000000000000000000000000000000000000000000000000000000000000000000000000000000000000000000000000000000000000000000000000000
1004
0000000000000000000000000000000000000000000000000000000000000000000000000000000000000000000000000000000000000000
  0
BLOCK_RECORD
  5
7C9C
330
1
100
AcDbSymbolTableRecord
100
AcDbBlockTableRecord
  2
*D23
  0
BLOCK_RECORD
  5
7CAA
330
1
100
AcDbSymbolTableRecord
100
AcDbBlockTableRecord
  2
*D24
  0
BLOCK_RECORD
  5
7CB8
330
1
100
AcDbSymbolTableRecord
100
AcDbBlockTableRecord
  2
*D25
  0
BLOCK_RECORD
  5
7CC6
330
1
100
AcDbSymbolTableRecord
100
AcDbBlockTableRecord
  2
*D26
  0
BLOCK_RECORD
  5
7CD4
330
1
100
AcDbSymbolTableRecord
100
AcDbBlockTableRecord
  2
*D27
  0
BLOCK_RECORD
  5
7CE2
330
1
100
AcDbSymbolTableRecord
100
AcDbBlockTableRecord
  2
*D28
  0
BLOCK_RECORD
  5
7CF0
330
1
100
AcDbSymbolTableRecord
100
AcDbBlockTableRecord
  2
*D29
  0
BLOCK_RECORD
  5
7CFE
330
1
100
AcDbSymbolTableRecord
100
AcDbBlockTableRecord
  2
*D30
  0
BLOCK_RECORD
  5
7DB1
330
1
100
AcDbSymbolTableRecord
100
AcDbBlockTableRecord
  2
*D31
  0
ENDTAB
  0
ENDSEC
  0
SECTION
  2
BLOCKS
  0
BLOCK
  5
20
330
1F
100
AcDbEntity
  8
0
100
AcDbBlockBegin
  2
*MODEL_SPACE
 70
     0
 10
0.0
 20
0.0
 30
0.0
  3
*MODEL_SPACE
  1

  0
ENDBLK
  5
21
330
1F
100
AcDbEntity
  8
0
100
AcDbBlockEnd
  0
BLOCK
  5
1C
330
1B
100
AcDbEntity
 67
     1
  8
0
100
AcDbBlockBegin
  2
*PAPER_SPACE
 70
     0
 10
0.0
 20
0.0
 30
0.0
  3
*PAPER_SPACE
  1

  0
ENDBLK
  5
1D
330
1B
100
AcDbEntity
 67
     1
  8
0
100
AcDbBlockEnd
  0
BLOCK
  5
14C0
330
14B9
100
AcDbEntity
  8
0
100
AcDbBlockBegin
  2
REV-BLOCK
 70
     2
 10
0.0
 20
0.0
 30
0.0
  3
REV-BLOCK
  1

  0
ATTDEF
  5
14BA
330
14B9
100
AcDbEntity
  8
TB-TXT
100
AcDbText
 10
-7.419585413768534
 20
-0.2641364156046726
 30
0.0
 40
0.12
  1
--
  7
ARIAL
 72
     1
 11
-7.363760038598002
 21
-0.2041364156046725
 31
0.0
100
AcDbAttributeDefinition
  3
REV
  2
REV
 70
     0
 74
     2
  0
ATTDEF
  5
14BB
330
14B9
100
AcDbEntity
  8
TB-TXT
100
AcDbText
 10
-7.021598876369779
 20
-0.2621627084294076
 30
0.0
 40
0.12
  1

  7
ARIAL
100
AcDbAttributeDefinition
  3
ECN N0,
  2
ECN
 70
     0
  0
ATTDEF
  5
14BC
330
14B9
100
AcDbEntity
  8
TB-TXT
100
AcDbText
 10
-6.3841325538651
 20
-0.2621627084294076
 30
0.0
 40
0.12
  1

  7
ARIAL
100
AcDbAttributeDefinition
  3
DESCRIPTION
  2
DESCRIPTION
 70
     0
  0
ATTDEF
  5
14BD
330
14B9
100
AcDbEntity
  8
TB-TXT
100
AcDbText
 10
-1.912314371261913
 20
-0.2641364156046726
 30
0.0
 40
0.12
  1

  7
ARIAL
 72
     1
 11
-1.912314371261913
 21
-0.2041364156046725
 31
0.0
100
AcDbAttributeDefinition
  3
REV DATE
  2
REV-DATE
 70
     0
 74
     2
  0
ATTDEF
  5
14BE
330
14B9
100
AcDbEntity
  8
TB-TXT
100
AcDbText
 10
-0.7008820905977871
 20
-0.2641364156046726
 30
0.0
 40
0.12
  1

  7
ARIAL
 72
     1
 11
-0.7008820905977871
 21
-0.2041364156046725
 31
0.0
100
AcDbAttributeDefinition
  3
APPR
  2
APPR
 70
     0
 74
     2
  0
LWPOLYLINE
  5
14BF
330
14B9
100
AcDbEntity
  8
FORMAT
100
AcDbPolyline
 90
        2
 70
     0
 43
0.0198
 10
-7.66263347794009
 20
-0.4059699235454915
 10
0.0
 20
-0.4059699235454915
  0
ENDBLK
  5
14C1
330
14B9
100
AcDbEntity
  8
0
100
AcDbBlockEnd
  0
BLOCK
  5
14CC
330
14C2
100
AcDbEntity
  8
0
100
AcDbBlockBegin
  2
TITLE-BLOCK
 70
     2
 10
0.0
 20
0.0
 30
0.0
  3
TITLE-BLOCK
  1

  0
ATTDEF
  5
14C3
330
14C2
100
AcDbEntity
  8
TB-TXT
100
AcDbText
 10
-5.452069740892156
 20
1.724637434505384
 30
0.0
 40
0.15996
  1

  7
ARIAL
100
AcDbAttributeDefinition
  3
TITLE (LINE 1)
  2
LINE1
 70
     0
  0
ATTDEF
  5
14C4
330
14C2
100
AcDbEntity
  8
TB-TXT
100
AcDbText
 10
-5.452069740892156
 20
1.465654577362527
 30
0.0
 40
0.15996
  1

  7
ARIAL
100
AcDbAttributeDefinition
  3
TITLE (LINE 2)
  2
LINE2
 70
     0
  0
ATTDEF
  5
14C5
330
14C2
100
AcDbEntity
  8
TB-TXT
100
AcDbText
 10
-5.452069740892156
 20
1.20667172021967
 30
0.0
 40
0.15996
  1

  7
ARIAL
100
AcDbAttributeDefinition
  3
TITLE (LINE 3)
  2
LINE3
 70
     0
  0
ATTDEF
  5
14C6
330
14C2
100
AcDbEntity
  8
TB-TXT
100
AcDbText
 10
-5.452069740892156
 20
0.9476888630768137
 30
0.0
 40
0.15996
  1

  7
ARIAL
100
AcDbAttributeDefinition
  3
TITLE (LINE 4)
  2
LINE4
 70
     0
  0
ATTDEF
  5
14C7
330
14C2
100
AcDbEntity
  8
TB-TXT
100
AcDbText
 10
-2.607663526262058
 20
0.495823930069566
 30
0.0
 40
0.12
  1

  7
ARIAL
100
AcDbAttributeDefinition
  3
DWG NO.
  2
DWG#
 70
     0
  0
ATTDEF
  5
14C8
330
14C2
100
AcDbEntity
  8
TB-TXT
100
AcDbText
 10
-5.506905230490374
 20
0.1136078675417114
 30
0.0
 40
0.12
  1

  7
ARIAL
100
AcDbAttributeDefinition
  3
FILE NO.
  2
FILE#
 70
     0
  0
ATTDEF
  5
14C9
330
14C2
100
AcDbEntity
  8
TB-TXT
100
AcDbText
 10
-0.2425360425092862
 20
0.4881363695403174
 30
0.0
 40
0.12
  1

  7
ARIAL
 72
     4
 11
-0.2425360425092862
 21
0.4881363695403174
 31
0.0
100
AcDbAttributeDefinition
  3
REV
  2
REV
 70
     0
  0
ATTDEF
  5
14CA
330
14C2
100
AcDbEntity
  8
TB-TXT
100
AcDbText
 10
-4.485055143223689
 20
0.495823930069566
 30
0.0
 40
0.12
  1
FULL
  7
ARIAL
100
AcDbAttributeDefinition
  3
SCALE
  2
SCALE
 70
     0
  0
ATTDEF
  5
14CB
330
14C2
100
AcDbEntity
  8
TB-TXT
100
AcDbText
 10
-1.004564496465349
 20
0.0916846763858388
 30
0.0
 40
0.12
  1
1 OF 1
  7
ARIAL
100
AcDbAttributeDefinition
  3
SHEET N0.
  2
SHT#
 70
     0
  0
ENDBLK
  5
14CD
330
14C2
100
AcDbEntity
  8
0
100
AcDbBlockEnd
  0
BLOCK
  5
5D0D
330
5C7C
100
AcDbEntity
  8
0
100
AcDbBlockBegin
  2
D1
 70
     0
 10
0.0
 20
0.0
 30
0.0
  3
D1
  1

  0
LWPOLYLINE
  5
5C7D
330
5C7C
100
AcDbEntity
  8
FORMAT
100
AcDbPolyline
 90
        4
 70
     1
 43
0.0290909090909091
 10
0.5
 20
0.5
 10
33.5
 20
0.5
 10
33.5
 20
21.49999999999999
 10
0.5
 20
21.49999999999999
  0
TEXT
  5
5C7E
330
5C7C
100
AcDbEntity
  8
TXT
100
AcDbText
 10
13.25165097349319
 20
1.481541553666282
 30
0.0
 40
0.2
  1
UNLESS OTHERWISE STATED, THE ARTICLE
  7
ARIAL
100
AcDbText
  0
TEXT
  5
5C7F
330
5C7C
100
AcDbEntity
  8
TXT
100
AcDbText
 10
13.25165097349319
 20
1.131541553666281
 30
0.0
 40
0.2
  1
SPECIFIED SHALL BE RoHS COMPLIANT
  7
ARIAL
100
AcDbText
  0
TEXT
  5
5C80
330
5C7C
100
AcDbEntity
  8
TXT
100
AcDbText
 10
13.25165097349319
 20
0.7815415536662798
 30
0.0
 40
0.2
  1
PER EU DIRECTIVE 2002/95/EC
  7
ARIAL
100
AcDbText
  0
LWPOLYLINE
  5
5C81
330
5C7C
100
AcDbEntity
  8
FORMAT
  6
PHANTOM
 48
10.0
100
AcDbPolyline
 90
        2
 70
     0
 43
0.001
 10
34.0
 20
22.0
 10
0.0
 20
22.0
  0
HATCH
  5
5C82
330
5C7C
100
AcDbEntity
  8
FORMAT
  6
CONTINUOUS
100
AcDbHatch
 10
0.0
 20
0.0
 30
0.0
210
0.0
220
0.0
230
1.0
  2
ARROW_TOP
 70
     1
 71
     0
 91
        1
 92
        1
 93
        3
 72
     1
 10
17.11349099999999
 20
21.696573
 11
16.88650799999999
 21
21.696573
 72
     1
 10
16.88650799999999
 20
21.696573
 11
16.99999999999999
 21
21.49999999999999
 72
     1
 10
17.0
 20
21.49999999999999
 11
17.113491
 21
21.696573
 97
        0
 75
     0
 76
     1
 98
        1
 10
0.0
 20
0.0
  0
HATCH
  5
5C83
330
5C7C
100
AcDbEntity
  8
FORMAT
  6
CONTINUOUS
100
AcDbHatch
 10
0.0
 20
0.0
 30
0.0
210
0.0
220
0.0
230
1.0
  2
ARROW_BOTTOM
 70
     1
 71
     0
 91
        1
 92
        1
 93
        3
 72
     1
 10
17.11349199999999
 20
0.3034269999999992
 11
16.99999999999999
 21
0.5
 72
     1
 10
17.0
 20
0.5
 11
16.886509
 21
0.3034269999999992
 72
     1
 10
16.88650899999998
 20
0.3034269999999992
 11
17.11349199999999
 21
0.3034269999999992
 97
        0
 75
     0
 76
     1
 98
        1
 10
0.0
 20
0.0
  0
LWPOLYLINE
  5
5C84
330
5C7C
100
AcDbEntity
  8
FORMAT
  6
PHANTOM
 48
10.0
100
AcDbPolyline
 90
        2
 70
     0
 43
0.001
 10
0.0
 20
0.0
 10
34.0
 20
0.0
  0
LINE
  5
5C85
330
5C7C
100
AcDbEntity
  8
FORMAT
  6
CONTINUOUS
100
AcDbLine
 10
16.88650899999998
 20
0.3034269999999992
 30
0.0
 11
17.11349199999999
 21
0.3034269999999992
 31
0.0
  0
LINE
  5
5C86
330
5C7C
100
AcDbEntity
  8
FORMAT
  6
CONTINUOUS
100
AcDbLine
 10
17.11349099999999
 20
21.696573
 30
0.0
 11
16.88650799999999
 21
21.696573
 31
0.0
  0
LINE
  5
5C87
330
5C7C
100
AcDbEntity
  8
FORMAT
  6
CONTINUOUS
100
AcDbLine
 10
17.0
 20
0.5
 30
0.0
 11
16.88650899999998
 21
0.3034269999999992
 31
0.0
  0
LINE
  5
5C88
330
5C7C
100
AcDbEntity
  8
FORMAT
  6
CONTINUOUS
100
AcDbLine
 10
16.88650799999999
 20
21.696573
 30
0.0
 11
17.0
 21
21.49999999999999
 31
0.0
  0
HATCH
  5
5C89
330
5C7C
100
AcDbEntity
  8
FORMAT
  6
CONTINUOUS
100
AcDbHatch
 10
0.0
 20
0.0
 30
0.0
210
0.0
220
0.0
230
1.0
  2
ARROW_LEFT
 70
     1
 71
     0
 91
        1
 92
        1
 93
        3
 72
     1
 10
0.3034269999999992
 20
10.88650799999999
 11
0.4999999999999992
 21
10.99999999999999
 72
     1
 10
0.5
 20
10.99999999999999
 11
0.3034270000000001
 21
11.11349099999999
 72
     1
 10
0.3034269999999992
 20
11.11349099999999
 11
0.3034269999999992
 21
10.88650799999999
 97
        0
 75
     0
 76
     1
 98
        1
 10
-0.25
 20
0.0
  0
LWPOLYLINE
  5
5C8A
330
5C7C
100
AcDbEntity
  8
FORMAT
  6
PHANTOM
 48
10.0
100
AcDbPolyline
 90
        2
 70
     0
 43
0.001
 10
0.0
 20
22.0
 10
0.0
 20
0.0
  0
LINE
  5
5C8B
330
5C7C
100
AcDbEntity
  8
FORMAT
  6
CONTINUOUS
100
AcDbLine
 10
0.3034269999999992
 20
11.11349099999999
 30
0.0
 11
0.3034269999999992
 21
10.88650799999999
 31
0.0
  0
LINE
  5
5C8C
330
5C7C
100
AcDbEntity
  8
FORMAT
  6
CONTINUOUS
100
AcDbLine
 10
0.3034269999999992
 20
10.88650799999999
 30
0.0
 11
0.5
 21
11.0
 31
0.0
  0
TEXT
  5
5C8D
330
5C7C
100
AcDbEntity
  8
FORMAT
  6
CONTINUOUS
100
AcDbText
 10
6.258526603001364
 20
0.1499999999999986
 30
0.0
 40
0.25
  1
B
  7
ARIAL
 72
     1
 11
6.375
 21
0.1499999999999986
 31
0.0
100
AcDbText
  0
TEXT
  5
5C8E
330
5C7C
100
AcDbEntity
  8
FORMAT
  6
CONTINUOUS
100
AcDbText
 10
0.1057639836289194
 20
2.625
 30
0.0
 40
0.25
  1
4
  7
ARIAL
 72
     2
 11
0.2999999999999971
 21
2.625
 31
0.0
100
AcDbText
  0
TEXT
  5
5C8F
330
5C7C
100
AcDbEntity
  8
FORMAT
  6
CONTINUOUS
100
AcDbText
 10
2.008526603001364
 20
0.1499999999999986
 30
0.0
 40
0.25
  1
A
  7
ARIAL
 72
     1
 11
2.125
 21
0.1499999999999986
 31
0.0
100
AcDbText
  0
LINE
  5
5C90
330
5C7C
100
AcDbEntity
  8
FORMAT
  6
CONTINUOUS
100
AcDbLine
 10
4.25
 20
0.0
 30
0.0
 11
4.25
 21
0.5
 31
0.0
  0
LINE
  5
5C91
330
5C7C
100
AcDbEntity
  8
FORMAT
  6
CONTINUOUS
100
AcDbLine
 10
0.0
 20
5.5
 30
0.0
 11
0.5
 21
5.5
 31
0.0
  0
TEXT
  5
5C92
330
5C7C
100
AcDbEntity
  8
FORMAT
  6
CONTINUOUS
100
AcDbText
 10
0.1057639836289194
 20
8.125
 30
0.0
 40
0.25
  1
3
  7
ARIAL
 72
     2
 11
0.2999999999999971
 21
8.125
 31
0.0
100
AcDbText
  0
LINE
  5
5C93
330
5C7C
100
AcDbEntity
  8
FORMAT
  6
CONTINUOUS
100
AcDbLine
 10
8.5
 20
0.0
 30
0.0
 11
8.5
 21
0.5
 31
0.0
  0
TEXT
  5
5C94
330
5C7C
100
AcDbEntity
  8
FORMAT
  6
CONTINUOUS
100
AcDbText
 10
10.49889154160982
 20
0.1499999999999986
 30
0.0
 40
0.25
  1
C
  7
ARIAL
 72
     1
 11
10.625
 21
0.1499999999999986
 31
0.0
100
AcDbText
  0
LINE
  5
5C95
330
5C7C
100
AcDbEntity
  8
FORMAT
  6
CONTINUOUS
100
AcDbLine
 10
12.75
 20
0.0
 30
0.0
 11
12.75
 21
0.5
 31
0.0
  0
TEXT
  5
5C96
330
5C7C
100
AcDbEntity
  8
FORMAT
  6
CONTINUOUS
100
AcDbText
 10
14.74889154160982
 20
0.1499999999999986
 30
0.0
 40
0.25
  1
D
  7
ARIAL
 72
     1
 11
14.875
 21
0.1499999999999986
 31
0.0
100
AcDbText
  0
TEXT
  5
5C97
330
5C7C
100
AcDbEntity
  8
FORMAT
  6
CONTINUOUS
100
AcDbText
 10
6.258526603001364
 20
21.59999999999999
 30
0.0
 40
0.25
  1
B
  7
ARIAL
 72
     1
 11
6.375
 21
21.59999999999999
 31
0.0
100
AcDbText
  0
LINE
  5
5C98
330
5C7C
100
AcDbEntity
  8
FORMAT
  6
CONTINUOUS
100
AcDbLine
 10
0.5
 20
11.0
 30
0.0
 11
0.3034269999999992
 21
11.11349099999999
 31
0.0
  0
LINE
  5
5C99
330
5C7C
100
AcDbEntity
  8
FORMAT
  6
CONTINUOUS
100
AcDbLine
 10
0.0
 20
11.0
 30
0.0
 11
0.5
 21
11.0
 31
0.0
  0
TEXT
  5
5C9A
330
5C7C
100
AcDbEntity
  8
FORMAT
  6
CONTINUOUS
100
AcDbText
 10
0.1057639836289194
 20
13.625
 30
0.0
 40
0.25
  1
2
  7
ARIAL
 72
     2
 11
0.2999999999999971
 21
13.625
 31
0.0
100
AcDbText
  0
LINE
  5
5C9B
330
5C7C
100
AcDbEntity
  8
FORMAT
  6
CONTINUOUS
100
AcDbLine
 10
0.0
 20
16.5
 30
0.0
 11
0.5
 21
16.5
 31
0.0
  0
TEXT
  5
5C9C
330
5C7C
100
AcDbEntity
  8
FORMAT
  6
CONTINUOUS
100
AcDbText
 10
0.1057639836289194
 20
19.125
 30
0.0
 40
0.25
  1
1
  7
ARIAL
 72
     2
 11
0.2999999999999971
 21
19.125
 31
0.0
100
AcDbText
  0
TEXT
  5
5C9D
330
5C7C
100
AcDbEntity
  8
FORMAT
  6
CONTINUOUS
100
AcDbText
 10
2.008526603001364
 20
21.59999999999999
 30
0.0
 40
0.25
  1
A
  7
ARIAL
 72
     1
 11
2.125
 21
21.59999999999999
 31
0.0
100
AcDbText
  0
LINE
  5
5C9E
330
5C7C
100
AcDbEntity
  8
FORMAT
  6
CONTINUOUS
100
AcDbLine
 10
4.25
 20
21.49999999999999
 30
0.0
 11
4.25
 21
22.0
 31
0.0
  0
LINE
  5
5C9F
330
5C7C
100
AcDbEntity
  8
FORMAT
  6
CONTINUOUS
100
AcDbLine
 10
8.5
 20
21.49999999999999
 30
0.0
 11
8.5
 21
22.0
 31
0.0
  0
TEXT
  5
5CA0
330
5C7C
100
AcDbEntity
  8
FORMAT
  6
CONTINUOUS
100
AcDbText
 10
10.49889154160982
 20
21.59999999999999
 30
0.0
 40
0.25
  1
C
  7
ARIAL
 72
     1
 11
10.625
 21
21.59999999999999
 31
0.0
100
AcDbText
  0
LINE
  5
5CA1
330
5C7C
100
AcDbEntity
  8
FORMAT
  6
CONTINUOUS
100
AcDbLine
 10
12.75
 20
21.49999999999999
 30
0.0
 11
12.75
 21
22.0
 31
0.0
  0
TEXT
  5
5CA2
330
5C7C
100
AcDbEntity
  8
FORMAT
  6
CONTINUOUS
100
AcDbText
 10
14.74889154160982
 20
21.59999999999999
 30
0.0
 40
0.25
  1
D
  7
ARIAL
 72
     1
 11
14.875
 21
21.59999999999999
 31
0.0
100
AcDbText
  0
LWPOLYLINE
  5
5CA3
330
5C7C
100
AcDbEntity
  8
FORMAT
  6
PHANTOM
 48
10.0
100
AcDbPolyline
 90
        2
 70
     0
 43
0.001
 10
34.0
 20
0.0
 10
34.0
 20
22.0
  0
HATCH
  5
5CA4
330
5C7C
100
AcDbEntity
  8
FORMAT
  6
CONTINUOUS
100
AcDbHatch
 10
0.0
 20
0.0
 30
0.0
210
0.0
220
0.0
230
1.0
  2
ARROW_RIGHT
 70
     1
 71
     0
 91
        1
 92
        1
 93
        3
 72
     1
 10
33.5
 20
10.99999999999999
 11
33.696573
 21
10.88650899999999
 72
     1
 10
33.696573
 20
10.88650899999999
 11
33.696573
 21
11.11349199999999
 72
     1
 10
33.696573
 20
11.11349199999999
 11
33.5
 21
10.99999999999999
 97
        0
 75
     0
 76
     1
 98
        1
 10
0.25
 20
0.0
  0
LINE
  5
5CA5
330
5C7C
100
AcDbEntity
  8
FORMAT
  6
CONTINUOUS
100
AcDbLine
 10
33.696573
 20
10.88650899999999
 30
0.0
 11
33.696573
 21
11.113492
 31
0.0
  0
LINE
  5
5CA6
330
5C7C
100
AcDbEntity
  8
FORMAT
  6
CONTINUOUS
100
AcDbLine
 10
33.5
 20
11.0
 30
0.0
 11
33.696573
 21
10.88650899999999
 31
0.0
  0
HATCH
  5
5CA7
330
5C7C
100
AcDbEntity
  8
FORMAT
100
AcDbHatch
 10
0.0
 20
0.0
 30
0.0
210
0.0
220
0.0
230
1.0
  2
SOLID
 70
     1
 71
     1
 91
        5
 92
        1
 93
        4
 72
     1
 10
27.89524244557755
 20
3.009898395795563
 11
27.99604627712901
 21
2.75012602185323
 72
     2
 10
28.42523413703466
 20
0.4867236379588187
 40
2.303734483509177
 50
100.7369884767685
 51
115.8445848643794
 73
     1
 72
     1
 10
27.42096358594918
 20
2.560038189765119
 11
27.72221440253551
 21
3.009898395795563
 72
     1
 10
27.72221440253551
 20
3.009898395795563
 11
27.89524244557755
 21
3.009898395795563
 97
        1
330
5CA8
 92
       16
 93
        4
 72
     1
 10
27.82625138631124
 20
2.746301120733491
 11
27.82647137730056
 21
2.746087929262984
 72
     1
 10
27.82647137730056
 20
2.746087929262984
 11
27.78730301109048
 21
2.857448970448498
 72
     1
 10
27.78730301109048
 20
2.857448970448498
 11
27.71638256267897
 21
2.746087929262984
 72
     1
 10
27.71638256267897
 20
2.746087929262984
 11
27.82625138631124
 21
2.746301120733491
 97
        1
330
5CE9
 92
        1
 93
        7
 72
     1
 10
27.85379733476327
 20
2.669165529635449
 11
27.89252030058969
 21
2.560038189765117
 72
     1
 10
27.89252030058969
 20
2.560038189765117
 11
28.22439509774364
 21
2.560038189765117
 72
     1
 10
28.22439509774364
 20
2.560038189765117
 11
28.2534481466875
 21
2.734356483428371
 72
     2
 10
28.84418016139653
 20
-2.211762160162989
 40
4.98127031485787
 50
96.81077116038439
 51
98.7658188097698
 73
     1
 72
     1
 10
28.08505320817211
 20
2.711324292315012
 11
28.06284416794594
 21
2.577987260808255
 72
     1
 10
28.06284416794594
 20
2.577987260808255
 11
28.01571075607803
 21
2.699450484025899
 72
     2
 10
28.4520446382265
 20
-0.0812992519853255
 40
2.814774653686729
 50
98.91769894924955
 51
102.2711423007092
 73
     1
 97
        1
330
5CEA
 92
        1
 93
       13
 72
     1
 10
29.38348614891178
 20
3.009898395795563
 11
29.19279654184188
 21
2.849663121732444
 72
     2
 10
29.75206810599112
 20
-32.64549153385557
 40
35.49956040159622
 50
90.90269359832781
 51
91.4276731912744
 73
     1
 72
     1
 10
28.86759586955777
 20
2.843048835812439
 11
28.73192948971407
 21
2.999019518033357
 72
     1
 10
28.73192948971407
 20
2.999019518033357
 11
28.70471702376885
 21
2.835744722362004
 72
     2
 10
29.00055122292874
 20
-2.744979632338445
 40
5.588559939424407
 50
93.03440911951204
 51
99.32746877910854
 73
     1
 72
     1
 10
28.09477463227537
 20
2.769689076148374
 11
28.13478466086577
 21
3.009898395795563
 72
     1
 10
28.13478466086577
 20
3.009898395795563
 11
28.27250800784915
 21
3.009898395795563
 72
     1
 10
28.27250800784915
 20
3.009898395795563
 11
28.40846516441128
 21
2.86109542429461
 72
     1
 10
28.40846516441128
 20
2.86109542429461
 11
28.59422335947938
 21
3.009898395795563
 72
     1
 10
28.59422335947938
 20
3.009898395795563
 11
28.93608238153996
 21
3.009898395795563
 72
     1
 10
28.93608238153996
 20
3.009898395795563
 11
29.03481323325339
 21
2.896391141339901
 72
     1
 10
29.03481323325339
 20
2.896391141339901
 11
29.16989368840465
 21
3.009898395795563
 72
     1
 10
29.16989368840465
 20
3.009898395795563
 11
29.38348614891178
 21
3.009898395795563
 97
        1
330
5CE7
 92
        1
 93
       10
 72
     1
 10
28.84812546490569
 20
2.560038189765117
 11
29.00159362169353
 21
2.6889965139272
 72
     1
 10
29.00159362169353
 20
2.6889965139272
 11
29.11376411899891
 21
2.560038189765117
 72
     1
 10
29.11376411899891
 20
2.560038189765117
 11
29.32737967356207
 21
2.560038189765117
 72
     1
 10
29.32737967356207
 20
2.560038189765117
 11
29.13999480838106
 21
2.775467725762407
 72
     2
 10
29.05510266338243
 20
-3.190012262200435
 40
5.966083988938442
 50
89.18470377236856
 51
91.59664224690869
 73
     1
 72
     1
 10
28.88886932108983
 20
2.773755392477088
 11
28.66271243457582
 21
2.58371718720382
 72
     1
 10
28.66271243457582
 20
2.58371718720382
 11
28.69329665119762
 21
2.76722248693467
 72
     2
 10
28.84418016139635
 20
-2.211762160162928
 40
4.981270314857797
 50
91.73576423011793
 51
93.6434845729463
 73
     1
 72
     1
 10
28.52763063088184
 20
2.75943994238878
 11
28.49439700544456
 21
2.560038189765117
 72
     1
 10
28.49439700544456
 20
2.560038189765117
 11
28.84812546490569
 21
2.560038189765117
 97
        1
330
5CE8
 75
     0
 76
     1
 98
        1
 10
27.40349142259076
 20
2.321955963782295
  0
LWPOLYLINE
  5
5CA8
102
{ACAD_REACTORS
330
5CA7
102
}
330
5C7C
100
AcDbEntity
  8
FORMAT
100
AcDbPolyline
 90
        4
 70
     1
 43
0.0
 10
27.89524244557755
 20
3.009898395795563
 10
27.99604627712901
 20
2.75012602185323
 42
0.0660149720166298
 10
27.42096358594918
 20
2.560038189765119
 10
27.72221440253551
 20
3.009898395795563
  0
TEXT
  5
5CA9
330
5C7C
100
AcDbEntity
  8
FORMAT
100
AcDbText
 10
27.17012525851521
 20
0.6672081632976301
 30
0.0
 40
0.1088
  1
SCALE
  7
ARIAL
100
AcDbText
  0
LWPOLYLINE
  5
5CAA
330
5C7C
100
AcDbEntity
  8
FORMAT
100
AcDbPolyline
 90
        3
 70
     0
 43
0.02
 10
19.55365650994497
 20
0.5
 10
19.55365654839636
 20
3.113341420836697
 10
33.5
 20
3.113341435521647
  0
LWPOLYLINE
  5
5CAB
330
5C7C
100
AcDbEntity
  8
FORMAT
100
AcDbPolyline
 90
        2
 70
     0
 43
0.02
 10
27.12431506274814
 20
2.441891417892239
 10
33.5
 20
2.441891417892239
  0
LWPOLYLINE
  5
5CAC
330
5C7C
100
AcDbEntity
  8
FORMAT
100
AcDbPolyline
 90
        2
 70
     0
 43
0.02
 10
27.12431506274814
 20
1.272892106623777
 10
33.5
 20
1.272892106623777
  0
LWPOLYLINE
  5
5CAD
330
5C7C
100
AcDbEntity
  8
FORMAT
100
AcDbPolyline
 90
        2
 70
     0
 43
0.02
 10
27.12431506274814
 20
0.8236485696487072
 10
33.5
 20
0.8236485696487072
  0
LWPOLYLINE
  5
5CAE
330
5C7C
100
AcDbEntity
  8
FORMAT
100
AcDbPolyline
 90
        2
 70
     0
 43
0.02
 10
27.61703378072079
 20
1.272892106623777
 10
27.61703378072079
 20
0.8236485696487072
  0
TEXT
  5
5CAF
330
5C7C
100
AcDbEntity
  8
FORMAT
  6
CONTINUOUS
100
AcDbText
 10
27.48917121418827
 20
0.1499999999999986
 30
0.0
 40
0.25
  1
G
  7
ARIAL
 72
     1
 11
27.625
 21
0.1499999999999986
 31
0.0
100
AcDbText
  0
TEXT
  5
5CB0
330
5C7C
100
AcDbEntity
  8
FORMAT
100
AcDbText
 10
19.74330820663874
 20
2.408766580706362
 30
0.0
 40
0.131328
  1
All information contained herein
  7
ARIAL
100
AcDbText
  0
TEXT
  5
5CB1
330
5C7C
100
AcDbEntity
  8
FORMAT
100
AcDbText
 10
19.74357695425132
 20
1.091007453830492
 30
0.0
 40
0.131328
  1
reproduced, or used as the basis
  7
ARIAL
100
AcDbText
  0
TEXT
  5
5CB2
330
5C7C
100
AcDbEntity
  8
FORMAT
100
AcDbText
 10
19.75119146994023
 20
1.309887453830505
 30
0.0
 40
0.131328
  1
This drawing may not be copied,
  7
ARIAL
100
AcDbText
  0
TEXT
  5
5CB3
330
5C7C
100
AcDbEntity
  8
FORMAT
100
AcDbText
 10
19.74339778917627
 20
1.528767453830504
 30
0.0
 40
0.131328
  1
has been previously established.
  7
ARIAL
100
AcDbText
  0
TEXT
  5
5CB4
330
5C7C
100
AcDbEntity
  8
FORMAT
100
AcDbText
 10
19.75495393651598
 20
0.6510078903925703
 30
0.0
 40
0.131328
  1
written permission.
  7
ARIAL
100
AcDbText
  0
LINE
  5
5CB5
330
5C7C
100
AcDbEntity
  8
FORMAT
  6
CONTINUOUS
100
AcDbLine
 10
17.0
 20
0.0
 30
0.0
 11
17.0
 21
0.5
 31
0.0
  0
LINE
  5
5CB6
330
5C7C
100
AcDbEntity
  8
FORMAT
  6
CONTINUOUS
100
AcDbLine
 10
17.11349199999999
 20
0.3034269999999992
 30
0.0
 11
17.0
 21
0.5
 31
0.0
  0
TEXT
  5
5CB7
330
5C7C
100
AcDbEntity
  8
FORMAT
  6
CONTINUOUS
100
AcDbText
 10
19.00852660300136
 20
0.1499999999999986
 30
0.0
 40
0.25
  1
E
  7
ARIAL
 72
     1
 11
19.125
 21
0.1499999999999986
 31
0.0
100
AcDbText
  0
LINE
  5
5CB8
330
5C7C
100
AcDbEntity
  8
FORMAT
  6
CONTINUOUS
100
AcDbLine
 10
21.25
 20
0.0
 30
0.0
 11
21.25
 21
0.5
 31
0.0
  0
TEXT
  5
5CB9
330
5C7C
100
AcDbEntity
  8
FORMAT
100
AcDbText
 10
19.75378936352825
 20
0.869887890392583
 30
0.0
 40
0.131328
  1
for manufacture or sale without
  7
ARIAL
100
AcDbText
  0
TEXT
  5
5CBA
330
5C7C
100
AcDbEntity
  8
FORMAT
100
AcDbText
 10
19.75226646039044
 20
1.747647453830502
 30
0.0
 40
0.131328
  1
to the extent the information
  7
ARIAL
100
AcDbText
  0
TEXT
  5
5CBB
330
5C7C
100
AcDbEntity
  8
FORMAT
100
AcDbText
 10
19.75226646039044
 20
2.18988658070635
 30
0.0
 40
0.131328
  1
that is not generally known 
  7
ARIAL
100
AcDbText
  0
TEXT
  5
5CBC
330
5C7C
100
AcDbEntity
  8
FORMAT
100
AcDbText
 10
19.74984773187751
 20
1.96876701726844
 30
0.0
 40
0.131328
  1
shall be confidential except
  7
ARIAL
100
AcDbText
  0
TEXT
  5
5CBD
330
5C7C
100
AcDbEntity
  8
FORMAT
100
AcDbText
 10
19.74339778917627
 20
2.629886144144286
 30
0.0
 40
0.131328
  1
property of AMX LLC.
  7
ARIAL
100
AcDbText
  0
TEXT
  5
5CBE
330
5C7C
100
AcDbEntity
  8
FORMAT
100
AcDbText
 10
19.7415165558884
 20
2.85100570758221
 30
0.0
 40
0.131328
  1
NOTICE:   This drawing is the 
  7
ARIAL
100
AcDbText
  0
LWPOLYLINE
  5
5CBF
330
5C7C
100
AcDbEntity
  8
FORMAT
100
AcDbPolyline
 90
        4
 70
     1
 43
0.0128
 10
26.0118528121386
 20
0.8777602925574115
 10
26.35745281213861
 20
0.9689602925574121
 10
26.3574528121386
 20
0.6372473945541799
 10
26.0118528121386
 20
0.7241602925574142
  0
LWPOLYLINE
  5
5CC0
330
5C7C
100
AcDbEntity
  8
FORMAT
100
AcDbPolyline
 90
        2
 70
     0
 43
0.0128
 10
25.57967152181811
 20
0.7440071438953453
 10
25.57967152181811
 20
0.5836946164949382
  0
LWPOLYLINE
  5
5CC1
330
5C7C
100
AcDbEntity
  8
FORMAT
100
AcDbPolyline
 90
        2
 70
     1
 43
0.0128
 10
25.7476715218181
 20
0.8009602925574199
 42
0.9999999999999998
 10
25.4116715218181
 20
0.8009602925574199
 42
1.0
  0
TEXT
  5
5CC2
330
5C7C
100
AcDbEntity
  8
FORMAT
  6
CONTINUOUS
100
AcDbText
 10
23.21154877296527
 20
0.6043942372759084
 30
0.0
 40
0.124
  1
          PROJECTION 
  7
ARIAL
100
AcDbText
  0
LWPOLYLINE
  5
5CC3
330
5C7C
100
AcDbEntity
  8
FORMAT
100
AcDbPolyline
 90
        2
 70
     0
 43
0.02
 10
27.12431506274814
 20
3.113341435521647
 10
27.12431506274814
 20
0.5
  0
LWPOLYLINE
  5
5CC4
330
5C7C
100
AcDbEntity
  8
FORMAT
100
AcDbPolyline
 90
        2
 70
     0
 43
0.02
 10
22.60089513581397
 20
3.113332721452977
 10
22.60089726348933
 20
0.5
  0
TEXT
  5
5CC5
330
5C7C
100
AcDbEntity
  8
FORMAT
  6
CONTINUOUS
100
AcDbText
 10
23.26833219645293
 20
0.1499999999999986
 30
0.0
 40
0.25
  1
F
  7
ARIAL
 72
     1
 11
23.37499999999999
 21
0.1499999999999986
 31
0.0
100
AcDbText
  0
LINE
  5
5CC6
330
5C7C
100
AcDbEntity
  8
FORMAT
  6
CONTINUOUS
100
AcDbLine
 10
25.5
 20
0.0
 30
0.0
 11
25.5
 21
0.5
 31
0.0
  0
TEXT
  5
5CC7
330
5C7C
100
AcDbEntity
  8
FORMAT
  6
CONTINUOUS
100
AcDbText
 10
22.75440355659141
 20
2.741378395140287
 30
0.0
 40
0.1899233025254706
  1
%%uUNLESS OTHERWISE SPECIFIED
  7
ARIAL
 72
     1
 11
24.86260403544338
 21
2.741378395140287
 31
0.0
100
AcDbText
  0
TEXT
  5
5CC8
330
5C7C
100
AcDbEntity
  8
FORMAT
  6
CONTINUOUS
100
AcDbText
 10
22.6639747858911
 20
2.422802171107882
 30
0.0
 40
0.12
  1
TOLERANCE ON DECIMAL DIMENSIONS:   .X = %%p
  7
ARIAL
 72
     2
 11
26.51461598643681
 21
2.422802171107882
 31
0.0
100
AcDbText
  0
TEXT
  5
5CC9
330
5C7C
100
AcDbEntity
  8
FORMAT
  6
CONTINUOUS
100
AcDbText
 10
22.84782049927794
 20
1.598364381162374
 30
0.0
 40
0.12
  1
SURFACE FLATNESS .003 TIR PER LINEAR INCH  
  7
ARIAL
 72
     2
 11
26.84416429191095
 21
1.598364381162374
 31
0.0
100
AcDbText
  0
TEXT
  5
5CCA
330
5C7C
100
AcDbEntity
  8
FORMAT
  6
CONTINUOUS
100
AcDbText
 10
23.66571454021828
 20
1.398362308673736
 30
0.0
 40
0.12
  1
ALL DIMENSIONS IN INCHES. 
  7
ARIAL
 72
     1
 11
24.86260403544338
 21
1.398362308673736
 31
0.0
100
AcDbText
  0
TEXT
  5
5CCB
330
5C7C
100
AcDbEntity
  8
FORMAT
  6
CONTINUOUS
100
AcDbText
 10
23.23123432193724
 20
1.12281556394616
 30
0.0
 40
0.186
  1
DO NOT SCALE DRAWING
  7
ARIAL
 72
     1
 11
24.86260403544338
 21
1.12281556394616
 31
0.0
100
AcDbText
  0
LWPOLYLINE
  5
5CCC
330
5C7C
100
AcDbEntity
  8
FORMAT
100
AcDbPolyline
 90
        2
 70
     0
 43
0.02
 10
22.60089726348933
 20
1.055516201635839
 10
27.12431293507279
 20
1.055507487567172
  0
TEXT
  5
5CCD
330
5C7C
100
AcDbEntity
  8
FORMAT
  6
CONTINUOUS
100
AcDbText
 10
23.21154877296527
 20
0.8019109791499126
 30
0.0
 40
0.124
  1
          THIRD ANGLE
  7
ARIAL
100
AcDbText
  0
TEXT
  5
5CCE
330
5C7C
100
AcDbEntity
  8
FORMAT
  6
CONTINUOUS
100
AcDbText
 10
26.54694158954057
 20
2.422802171107882
 30
0.0
 40
0.12
  1
0.1
  7
ARIAL
 72
     2
 11
26.77998388149146
 21
2.422802171107882
 31
0.0
100
AcDbText
  0
LWPOLYLINE
  5
5CCF
330
5C7C
100
AcDbEntity
  8
FORMAT
  6
CENTER
100
AcDbPolyline
 90
        2
 70
     0
 43
0.0128
 10
25.81066408562731
 20
0.8009602925574199
 10
26.43894105695028
 20
0.8009602925574199
  0
TEXT
  5
5CD0
330
5C7C
100
AcDbEntity
  8
FORMAT
  6
CONTINUOUS
100
AcDbText
 10
25.6027469550589
 20
1.865328344468428
 30
0.0
 40
0.12
  1
ANGLES:  %%p
  7
ARIAL
 72
     2
 11
26.51461598643681
 21
1.865328344468428
 31
0.0
100
AcDbText
  0
TEXT
  5
5CD1
330
5C7C
100
AcDbEntity
  8
FORMAT
  6
CONTINUOUS
100
AcDbText
 10
25.96135541344908
 20
2.236977562228064
 30
0.0
 40
0.12
  1
.XX = %%p
  7
ARIAL
 72
     2
 11
26.51461598643681
 21
2.236977562228064
 31
0.0
100
AcDbText
  0
TEXT
  5
5CD2
330
5C7C
100
AcDbEntity
  8
FORMAT
  6
CONTINUOUS
100
AcDbText
 10
25.84954095233039
 20
2.051152953348244
 30
0.0
 40
0.12
  1
.XXX = %%p
  7
ARIAL
 72
     2
 11
26.51461598643681
 21
2.051152953348244
 31
0.0
100
AcDbText
  0
LWPOLYLINE
  5
5CD3
330
5C7C
100
AcDbEntity
  8
FORMAT
100
AcDbPolyline
 90
        2
 70
     1
 43
0.0128
 10
25.6564715218181
 20
0.8009602925574199
 42
0.9999999999999998
 10
25.50287152181811
 20
0.8009602925574199
 42
1.0
  0
LWPOLYLINE
  5
5CD4
330
5C7C
100
AcDbEntity
  8
FORMAT
100
AcDbPolyline
 90
        2
 70
     0
 43
0.0128
 10
25.3654010850568
 20
0.8009602925574199
 10
25.52271837315531
 20
0.8009602925574199
  0
LWPOLYLINE
  5
5CD5
330
5C7C
100
AcDbEntity
  8
FORMAT
100
AcDbPolyline
 90
        2
 70
     0
 43
0.0128
 10
25.57967152181811
 20
0.8259134412194555
 10
25.57967152181811
 20
0.7760071438963081
  0
LWPOLYLINE
  5
5CD6
330
5C7C
100
AcDbEntity
  8
FORMAT
100
AcDbPolyline
 90
        2
 70
     0
 43
0.0128
 10
25.55471837315534
 20
0.8009602925574199
 10
25.60462467048087
 20
0.8009602925574199
  0
LWPOLYLINE
  5
5CD7
330
5C7C
100
AcDbEntity
  8
FORMAT
100
AcDbPolyline
 90
        2
 70
     0
 43
0.0128
 10
25.57967152181811
 20
1.023234780957793
 10
25.57967152181811
 20
0.8579134412198783
  0
LWPOLYLINE
  5
5CD8
330
5C7C
100
AcDbEntity
  8
FORMAT
100
AcDbPolyline
 90
        2
 70
     0
 43
0.0128
 10
25.63662467048089
 20
0.8009602925574199
 10
25.78320002298025
 20
0.8009602925574199
  0
TEXT
  5
5CD9
330
5C7C
100
AcDbEntity
  8
FORMAT
100
AcDbText
 10
27.18997948867459
 20
1.112168497683782
 30
0.0
 40
0.1088
  1
SIZE
  7
ARIAL
100
AcDbText
  0
TEXT
  5
5CDA
330
5C7C
100
AcDbEntity
  8
FORMAT
100
AcDbText
 10
27.2922243621056
 20
0.8984635216691145
 30
0.0
 40
0.16
  1
D
  7
ARIAL
100
AcDbText
  0
TEXT
  5
5CDB
330
5C7C
100
AcDbEntity
  8
FORMAT
  6
CONTINUOUS
100
AcDbText
 10
26.57169898372832
 20
2.051152953348244
 30
0.0
 40
0.12
  1
0.005
  7
ARIAL
 72
     2
 11
26.99120785139544
 21
2.051152953348244
 31
0.0
100
AcDbText
  0
TEXT
  5
5CDC
330
5C7C
100
AcDbEntity
  8
FORMAT
  6
CONTINUOUS
100
AcDbText
 10
26.56637366390401
 20
1.865328344468428
 30
0.0
 40
0.12
  1
0.5%%d
 51
1.0
  7
ARIAL
 72
     2
 11
26.86645551929283
 21
1.865328344468428
 31
0.0
100
AcDbText
  0
TEXT
  5
5CDD
330
5C7C
100
AcDbEntity
  8
FORMAT
  6
CONTINUOUS
100
AcDbText
 10
26.5491223910726
 20
2.236977562228064
 30
0.0
 40
0.12
  1
0.01
  7
ARIAL
 72
     2
 11
26.8753979708816
 21
2.236977562228064
 31
0.0
100
AcDbText
  0
TEXT
  5
5CDE
330
5C7C
100
AcDbEntity
  8
FORMAT
  6
BYBLOCK
100
AcDbText
 10
31.4299650373904
 20
2.556087548643318
 30
0.0
 40
0.1035906873199564
  1
RICHARDSON, TX 75082
 41
1.018884921437547
  7
ARIAL
100
AcDbText
  0
TEXT
  5
5CDF
330
5C7C
100
AcDbEntity
  8
FORMAT
  6
BYBLOCK
100
AcDbText
 10
31.43486788649962
 20
2.733670985046202
 30
0.0
 40
0.1035906873199564
  1
3000 RESEARCH DRIVE
 41
1.011836867459718
  7
ARIAL
100
AcDbText
  0
TEXT
  5
5CE0
330
5C7C
100
AcDbEntity
  8
FORMAT
100
AcDbText
 10
31.85237387102683
 20
0.6672081632976301
 30
0.0
 40
0.1163636363636364
  1
SHEET
  7
ARIAL
100
AcDbText
  0
LWPOLYLINE
  5
5CE1
330
5C7C
100
AcDbEntity
  8
FORMAT
100
AcDbPolyline
 90
        2
 70
     0
 43
0.02
 10
31.81895966809327
 20
0.8236485696487072
 10
31.81895966809327
 20
0.5
  0
LWPOLYLINE
  5
5CE2
330
5C7C
100
AcDbEntity
  8
FORMAT
100
AcDbPolyline
 90
        2
 70
     0
 43
0.02
 10
28.42063372699124
 20
0.8236485696487072
 10
28.42063372699124
 20
0.5
  0
TEXT
  5
5CE3
330
5C7C
100
AcDbEntity
  8
FORMAT
100
AcDbText
 10
28.46644392275831
 20
0.6672081632976301
 30
0.0
 40
0.1088
  1
ACAD FILE NO.
  7
ARIAL
100
AcDbText
  0
LINE
  5
5CE4
330
5C7C
100
AcDbEntity
  8
FORMAT
  6
CONTINUOUS
100
AcDbLine
 10
29.75
 20
0.0
 30
0.0
 11
29.75
 21
0.5
 31
0.0
  0
TEXT
  5
5CE5
330
5C7C
100
AcDbEntity
  8
FORMAT
  6
CONTINUOUS
100
AcDbText
 10
31.74889154160982
 20
0.1499999999999986
 30
0.0
 40
0.25
  1
H
  7
ARIAL
 72
     1
 11
31.875
 21
0.1499999999999986
 31
0.0
100
AcDbText
  0
TEXT
  5
5CE6
330
5C7C
100
AcDbEntity
  8
FORMAT
100
AcDbText
 10
27.68095276043268
 20
1.112168497683782
 30
0.0
 40
0.1088
  1
DWG. NO.
  7
ARIAL
100
AcDbText
  0
LWPOLYLINE
  5
5CE7
102
{ACAD_REACTORS
330
5CA7
102
}
330
5C7C
100
AcDbEntity
  8
FORMAT
100
AcDbPolyline
 90
       13
 70
     1
 43
0.0
 10
29.38348614891178
 20
3.009898395795563
 10
29.19279654184188
 20
2.849663121732444
 42
0.0022906596071181
 10
28.86759586955777
 20
2.843048835812439
 10
28.73192948971407
 20
2.999019518033357
 10
28.70471702376885
 20
2.835744722362004
 42
0.0274655559228494
 10
28.09477463227537
 20
2.769689076148374
 10
28.13478466086577
 20
3.009898395795563
 10
28.27250800784915
 20
3.009898395795563
 10
28.40846516441128
 20
2.86109542429461
 10
28.59422335947938
 20
3.009898395795563
 10
28.93608238153996
 20
3.009898395795563
 10
29.03481323325339
 20
2.896391141339901
 10
29.16989368840465
 20
3.009898395795563
  0
LWPOLYLINE
  5
5CE8
102
{ACAD_REACTORS
330
5CA7
102
}
330
5C7C
100
AcDbEntity
  8
FORMAT
100
AcDbPolyline
 90
       10
 70
     1
 43
0.0
 10
28.84812546490569
 20
2.560038189765117
 10
29.00159362169353
 20
2.6889965139272
 10
29.11376411899891
 20
2.560038189765117
 10
29.32737967356207
 20
2.560038189765117
 10
29.13999480838106
 20
2.775467725762407
 42
0.0105244554857435
 10
28.88886932108983
 20
2.773755392477088
 10
28.66271243457582
 20
2.58371718720382
 10
28.69329665119762
 20
2.76722248693467
 42
0.0083241925565687
 10
28.52763063088184
 20
2.75943994238878
 10
28.49439700544456
 20
2.560038189765117
  0
LWPOLYLINE
  5
5CE9
102
{ACAD_REACTORS
330
5CA7
102
}
330
5C7C
100
AcDbEntity
  8
FORMAT
100
AcDbPolyline
 90
        4
 70
     1
 43
0.0
 10
27.82625138631124
 20
2.746301120733491
 10
27.82647137730056
 20
2.746087929262984
 10
27.78730301109048
 20
2.857448970448498
 10
27.71638256267897
 20
2.746087929262984
  0
LWPOLYLINE
  5
5CEA
102
{ACAD_REACTORS
330
5CA7
102
}
330
5C7C
100
AcDbEntity
  8
FORMAT
100
AcDbPolyline
 90
        7
 70
     1
 43
0.0
 10
27.85379733476327
 20
2.669165529635449
 10
27.89252030058969
 20
2.560038189765117
 10
28.22439509774364
 20
2.560038189765117
 10
28.2534481466875
 20
2.734356483428371
 42
0.0085307115550227
 10
28.08505320817211
 20
2.711324292315012
 10
28.06284416794594
 20
2.577987260808255
 10
28.01571075607803
 20
2.699450484025899
 42
0.014633201278307
  0
TEXT
  5
5CEB
330
5C7C
100
AcDbEntity
  8
FORMAT
100
AcDbText
 10
29.37565033606138
 20
2.561556359369892
 30
0.0
 40
0.0583271326082317
  1
TM
  7
ARIAL
 11
29.37565033606138
 21
2.590719925674008
 31
0.0
100
AcDbText
 73
     2
  0
TEXT
  5
5CEC
330
5C7C
100
AcDbEntity
  8
FORMAT
  6
BYBLOCK
100
AcDbText
 10
31.43486788649962
 20
2.911254421449086
 30
0.0
 40
0.1035906873199564
  1
AMX LLC
 41
1.011836867459718
  7
ARIAL
100
AcDbText
  0
TEXT
  5
5CED
330
5C7C
100
AcDbEntity
  8
FORMAT
100
AcDbText
 10
33.0763005219085
 20
1.112168497683782
 30
0.0
 40
0.1088
  1
REV.
  7
ARIAL
 72
     1
 11
33.25367569244056
 21
1.112168497683782
 31
0.0
100
AcDbText
  0
LWPOLYLINE
  5
5CEE
330
5C7C
100
AcDbEntity
  8
FORMAT
100
AcDbPolyline
 90
        2
 70
     0
 43
0.02
 10
32.94931437403055
 20
1.272892106623777
 10
32.94931437403055
 20
0.8236485696487072
  0
TEXT
  5
5CEF
330
5C7C
100
AcDbEntity
  8
FORMAT
  6
CONTINUOUS
100
AcDbText
 10
33.62586108649741
 20
2.625
 30
0.0
 40
0.25
  1
4
  7
ARIAL
 72
     2
 11
33.82009710286848
 21
2.625
 31
0.0
100
AcDbText
  0
LINE
  5
5CF0
330
5C7C
100
AcDbEntity
  8
FORMAT
  6
CONTINUOUS
100
AcDbLine
 10
33.5
 20
5.5
 30
0.0
 11
34.0
 21
5.5
 31
0.0
  0
TEXT
  5
5CF1
330
5C7C
100
AcDbEntity
  8
FORMAT
  6
CONTINUOUS
100
AcDbText
 10
33.62586108649741
 20
8.125
 30
0.0
 40
0.25
  1
3
  7
ARIAL
 72
     2
 11
33.82009710286848
 21
8.125
 31
0.0
100
AcDbText
  0
LWPOLYLINE
  5
5CF2
330
5C7C
100
AcDbEntity
  8
FORMAT
100
AcDbPolyline
 90
        2
 70
     0
 43
0.0192
 10
26.06956753654294
 20
20.80009599999999
 10
33.5
 20
20.80009599999999
  0
LWPOLYLINE
  5
5CF3
330
5C7C
100
AcDbEntity
  8
FORMAT
100
AcDbPolyline
 90
        2
 70
     0
 43
0.0192
 10
26.06956753654294
 20
21.14083199999999
 10
33.5
 20
21.14083199999999
  0
TEXT
  5
5CF4
330
5C7C
100
AcDbEntity
  8
FORMAT
  6
CONTINUOUS
100
AcDbText
 10
27.48917121418827
 20
21.59999999999999
 30
0.0
 40
0.25
  1
G
  7
ARIAL
 72
     1
 11
27.625
 21
21.59999999999999
 31
0.0
100
AcDbText
  0
LINE
  5
5CF5
330
5C7C
100
AcDbEntity
  8
FORMAT
  6
CONTINUOUS
100
AcDbLine
 10
17.0
 20
21.49999999999999
 30
0.0
 11
17.0
 21
22.0
 31
0.0
  0
LINE
  5
5CF6
330
5C7C
100
AcDbEntity
  8
FORMAT
  6
CONTINUOUS
100
AcDbLine
 10
17.0
 20
21.49999999999999
 30
0.0
 11
17.11349099999999
 21
21.696573
 31
0.0
  0
TEXT
  5
5CF7
330
5C7C
100
AcDbEntity
  8
FORMAT
  6
CONTINUOUS
100
AcDbText
 10
19.00852660300136
 20
21.59999999999999
 30
0.0
 40
0.25
  1
E
  7
ARIAL
 72
     1
 11
19.125
 21
21.59999999999999
 31
0.0
100
AcDbText
  0
LINE
  5
5CF8
330
5C7C
100
AcDbEntity
  8
FORMAT
  6
CONTINUOUS
100
AcDbLine
 10
21.25
 20
21.49999999999999
 30
0.0
 11
21.25
 21
22.0
 31
0.0
  0
LWPOLYLINE
  5
5CF9
330
5C7C
100
AcDbEntity
  8
FORMAT
100
AcDbPolyline
 90
        2
 70
     0
 43
0.0256
 10
26.06956753654294
 20
21.49999999999999
 10
26.06956753654294
 20
20.24009599999999
  0
TEXT
  5
5CFA
330
5C7C
100
AcDbEntity
  8
FORMAT
100
AcDbText
 10
26.16349601547895
 20
20.92767073851941
 30
0.0
 40
0.1152
  1
REV
  7
ARIAL
 72
     1
 11
26.32894867577908
 21
20.92767073851941
 31
0.0
100
AcDbText
  0
LWPOLYLINE
  5
5CFB
330
5C7C
100
AcDbEntity
  8
FORMAT
100
AcDbPolyline
 90
        2
 70
     0
 43
0.0192
 10
26.60557396589689
 20
20.24009599999999
 10
26.60557396589689
 20
21.14083199999999
  0
LWPOLYLINE
  5
5CFC
330
5C7C
100
AcDbEntity
  8
FORMAT
100
AcDbPolyline
 90
        2
 70
     0
 43
0.0192
 10
27.36053643752221
 20
20.24009599999999
 10
27.36053643752221
 20
21.14083199999999
  0
TEXT
  5
5CFD
330
5C7C
100
AcDbEntity
  8
FORMAT
100
AcDbText
 10
26.85315286877121
 20
20.92767073851941
 30
0.0
 40
0.1152
  1
ECN
  7
ARIAL
 72
     1
 11
27.02304536536057
 21
20.92767073851941
 31
0.0
100
AcDbText
  0
TEXT
  5
5CFE
330
5C7C
100
AcDbEntity
  8
FORMAT
  6
CONTINUOUS
100
AcDbText
 10
23.26833219645293
 20
21.59999999999999
 30
0.0
 40
0.25
  1
F
  7
ARIAL
 72
     1
 11
23.37499999999999
 21
21.59999999999999
 31
0.0
100
AcDbText
  0
LINE
  5
5CFF
330
5C7C
100
AcDbEntity
  8
FORMAT
  6
CONTINUOUS
100
AcDbLine
 10
25.5
 20
21.49999999999999
 30
0.0
 11
25.5
 21
22.0
 31
0.0
  0
LINE
  5
5D00
330
5C7C
100
AcDbEntity
  8
FORMAT
  6
CONTINUOUS
100
AcDbLine
 10
33.696573
 20
11.113492
 30
0.0
 11
33.5
 21
11.0
 31
0.0
  0
LINE
  5
5D01
330
5C7C
100
AcDbEntity
  8
FORMAT
  6
CONTINUOUS
100
AcDbLine
 10
33.5
 20
11.0
 30
0.0
 11
34.0
 21
11.0
 31
0.0
  0
TEXT
  5
5D02
330
5C7C
100
AcDbEntity
  8
FORMAT
  6
CONTINUOUS
100
AcDbText
 10
33.62586108649741
 20
13.625
 30
0.0
 40
0.25
  1
2
  7
ARIAL
 72
     2
 11
33.82009710286848
 21
13.625
 31
0.0
100
AcDbText
  0
LINE
  5
5D03
330
5C7C
100
AcDbEntity
  8
FORMAT
  6
CONTINUOUS
100
AcDbLine
 10
33.5
 20
16.5
 30
0.0
 11
34.0
 21
16.5
 31
0.0
  0
TEXT
  5
5D04
330
5C7C
100
AcDbEntity
  8
FORMAT
100
AcDbText
 10
32.36793583690554
 20
20.92767073851941
 30
0.0
 40
0.1152
  1
APPROVED
  7
ARIAL
 72
     1
 11
32.81498413158493
 21
20.92767073851941
 31
0.0
100
AcDbText
  0
TEXT
  5
5D05
330
5C7C
100
AcDbEntity
  8
FORMAT
100
AcDbText
 10
29.2080590200652
 20
21.23746077739912
 30
0.0
 40
0.1536
  1
REVISIONS
  7
ARIAL
 72
     1
 11
29.79233623698198
 21
21.23746077739912
 31
0.0
100
AcDbText
  0
TEXT
  5
5D06
330
5C7C
100
AcDbEntity
  8
FORMAT
100
AcDbText
 10
28.60366222122361
 20
20.92767073851941
 30
0.0
 40
0.1152
  1
DESCRIPTION
  7
ARIAL
 72
     1
 11
29.1535732717011
 21
20.92767073851941
 31
0.0
100
AcDbText
  0
TEXT
  5
5D07
330
5C7C
100
AcDbEntity
  8
FORMAT
100
AcDbText
 10
31.40037894741029
 20
20.92767073851941
 30
0.0
 40
0.1152
  1
DATE
  7
ARIAL
 72
     1
 11
31.61498413158492
 21
20.92767073851941
 31
0.0
100
AcDbText
  0
LWPOLYLINE
  5
5D08
330
5C7C
100
AcDbEntity
  8
FORMAT
100
AcDbPolyline
 90
        2
 70
     0
 43
0.0192
 10
31.07495213158492
 20
20.24009599999999
 10
31.07495213158492
 20
21.14083199999999
  0
LWPOLYLINE
  5
5D09
330
5C7C
100
AcDbEntity
  8
FORMAT
100
AcDbPolyline
 90
        2
 70
     0
 43
0.0192
 10
32.19495213158492
 20
20.24009599999999
 10
32.19495213158492
 20
21.14083199999999
  0
LINE
  5
5D0A
330
5C7C
100
AcDbEntity
  8
FORMAT
  6
CONTINUOUS
100
AcDbLine
 10
29.75
 20
21.49999999999999
 30
0.0
 11
29.75
 21
22.0
 31
0.0
  0
TEXT
  5
5D0B
330
5C7C
100
AcDbEntity
  8
FORMAT
  6
CONTINUOUS
100
AcDbText
 10
31.74889154160982
 20
21.59999999999999
 30
0.0
 40
0.25
  1
H
  7
ARIAL
 72
     1
 11
31.875
 21
21.59999999999999
 31
0.0
100
AcDbText
  0
TEXT
  5
5D0C
330
5C7C
100
AcDbEntity
  8
FORMAT
  6
CONTINUOUS
100
AcDbText
 10
33.62586108649741
 20
19.125
 30
0.0
 40
0.25
  1
1
  7
ARIAL
 72
     2
 11
33.82009710286848
 21
19.125
 31
0.0
100
AcDbText
  0
ENDBLK
  5
5D0E
330
5C7C
100
AcDbEntity
  8
0
100
AcDbBlockEnd
  0
BLOCK
  5
7CA7
330
7C9C
100
AcDbEntity
  8
0
100
AcDbBlockBegin
  2
*D23
 70
     1
 10
0.0
 20
0.0
 30
0.0
  3
*D23
  1

  0
LINE
  5
7DD6
330
7C9C
100
AcDbEntity
  8
DIM
 62
     0
100
AcDbLine
 10
6.502842203041932
 20
7.07373020762284
 30
0.0
 11
6.502842203041932
 21
5.350048666445803
 31
0.0
  0
LINE
  5
7DD7
330
7C9C
100
AcDbEntity
  8
DIM
 62
     0
100
AcDbLine
 10
10.00284220304193
 20
7.07373020762284
 30
0.0
 11
10.00284220304193
 21
5.350048666445803
 31
0.0
  0
LINE
  5
7DD8
330
7C9C
100
AcDbEntity
  8
DIM
 62
     0
100
AcDbLine
 10
6.702842203041933
 20
5.550048666445803
 30
0.0
 11
7.036175536375267
 21
5.550048666445803
 31
0.0
  0
LINE
  5
7DD9
330
7C9C
100
AcDbEntity
  8
DIM
 62
     0
100
AcDbLine
 10
9.802842203041937
 20
5.550048666445803
 30
0.0
 11
9.469508869708601
 21
5.550048666445803
 31
0.0
  0
SOLID
  5
7DDA
330
7C9C
100
AcDbEntity
  8
DIM
 62
     0
100
AcDbTrace
 10
6.702842203041933
 20
5.583381999779136
 30
0.0
 11
6.702842203041933
 21
5.51671533311247
 31
0.0
 12
6.502842203041932
 22
5.550048666445803
 32
0.0
 13
6.502842203041932
 23
5.550048666445803
 33
0.0
  0
SOLID
  5
7DDB
330
7C9C
100
AcDbEntity
  8
DIM
 62
     0
100
AcDbTrace
 10
9.802842203041937
 20
5.583381999779136
 30
0.0
 11
9.802842203041937
 21
5.51671533311247
 31
0.0
 12
10.00284220304193
 22
5.550048666445803
 32
0.0
 13
10.00284220304193
 23
5.550048666445803
 33
0.0
  0
MTEXT
  5
7DDC
330
7C9C
100
AcDbEntity
  8
DIM
 62
     0
100
AcDbMText
 10
8.252842203041934
 20
5.550048666445803
 30
0.0
 40
0.2
 41
0.0
 71
     5
 72
     1
  1
\A1;3.500 [88.90]
1001
ACAD
1000
MTEXTBEGIN
1070
    73
1070
     1
1070
    44
1040
1.0
1070
    74
1070
     0
1000
MTEXTEND
  0
POINT
  5
7DDD
330
7C9C
100
AcDbEntity
  8
DEFPOINTS
 62
     0
100
AcDbPoint
 10
6.502842203041932
 20
7.27373020762284
 30
0.0
  0
POINT
  5
7DDE
330
7C9C
100
AcDbEntity
  8
DEFPOINTS
 62
     0
100
AcDbPoint
 10
10.00284220304193
 20
7.27373020762284
 30
0.0
  0
POINT
  5
7DDF
330
7C9C
100
AcDbEntity
  8
DEFPOINTS
 62
     0
100
AcDbPoint
 10
10.00284220304193
 20
5.550048666445803
 30
0.0
  0
ENDBLK
  5
7CA8
330
7C9C
100
AcDbEntity
  8
0
100
AcDbBlockEnd
  0
BLOCK
  5
7CB5
330
7CAA
100
AcDbEntity
  8
0
100
AcDbBlockBegin
  2
*D24
 70
     1
 10
0.0
 20
0.0
 30
0.0
  3
*D24
  1

  0
LINE
  5
7DCC
330
7CAA
100
AcDbEntity
  8
DIM
 62
     0
100
AcDbLine
 10
5.74035233270237
 20
6.499022583599749
 30
0.0
 11
5.74035233270237
 21
4.766355479581778
 31
0.0
  0
LINE
  5
7DCD
330
7CAA
100
AcDbEntity
  8
DIM
 62
     0
100
AcDbLine
 10
10.76533208599409
 20
6.499022591422426
 30
0.0
 11
10.76533208599409
 21
4.766355479581778
 31
0.0
  0
LINE
  5
7DCE
330
7CAA
100
AcDbEntity
  8
DIM
 62
     0
100
AcDbLine
 10
5.94035233270237
 20
4.966355479581778
 30
0.0
 11
6.936175542681564
 21
4.966355479581778
 31
0.0
  0
LINE
  5
7DCF
330
7CAA
100
AcDbEntity
  8
DIM
 62
     0
100
AcDbLine
 10
10.56533208599409
 20
4.966355479581778
 30
0.0
 11
9.569508876014896
 21
4.966355479581778
 31
0.0
  0
SOLID
  5
7DD0
330
7CAA
100
AcDbEntity
  8
DIM
 62
     0
100
AcDbTrace
 10
5.94035233270237
 20
4.999688812915112
 30
0.0
 11
5.94035233270237
 21
4.933022146248445
 31
0.0
 12
5.74035233270237
 22
4.966355479581778
 32
0.0
 13
5.74035233270237
 23
4.966355479581778
 33
0.0
  0
SOLID
  5
7DD1
330
7CAA
100
AcDbEntity
  8
DIM
 62
     0
100
AcDbTrace
 10
10.56533208599409
 20
4.999688812915112
 30
0.0
 11
10.56533208599409
 21
4.933022146248445
 31
0.0
 12
10.76533208599409
 22
4.966355479581778
 32
0.0
 13
10.76533208599409
 23
4.966355479581778
 33
0.0
  0
MTEXT
  5
7DD2
330
7CAA
100
AcDbEntity
  8
DIM
 62
     0
100
AcDbMText
 10
8.25284220934823
 20
4.966355479581778
 30
0.0
 40
0.2
 41
0.0
 71
     5
 72
     1
  1
\A1;5.025 [127.63]
1001
ACAD
1000
MTEXTBEGIN
1070
    73
1070
     1
1070
    44
1040
1.0
1070
    74
1070
     0
1000
MTEXTEND
  0
POINT
  5
7DD3
330
7CAA
100
AcDbEntity
  8
DEFPOINTS
 62
     0
100
AcDbPoint
 10
5.74035233270237
 20
6.699022583599749
 30
0.0
  0
POINT
  5
7DD4
330
7CAA
100
AcDbEntity
  8
DEFPOINTS
 62
     0
100
AcDbPoint
 10
10.76533208599409
 20
6.699022591422426
 30
0.0
  0
POINT
  5
7DD5
330
7CAA
100
AcDbEntity
  8
DEFPOINTS
 62
     0
100
AcDbPoint
 10
10.76533208599409
 20
4.966355479581778
 30
0.0
  0
ENDBLK
  5
7CB6
330
7CAA
100
AcDbEntity
  8
0
100
AcDbBlockEnd
  0
BLOCK
  5
7CC3
330
7CB8
100
AcDbEntity
  8
0
100
AcDbBlockBegin
  2
*D25
 70
     1
 10
0.0
 20
0.0
 30
0.0
  3
*D25
  1

  0
LINE
  5
7D72
330
7CB8
100
AcDbEntity
  8
DIM
 62
     0
100
AcDbLine
 10
6.302842203041932
 20
7.27373020762284
 30
0.0
 11
3.99776428893806
 21
7.273730207622841
 31
0.0
  0
LINE
  5
7D73
330
7CB8
100
AcDbEntity
  8
DIM
 62
     0
100
AcDbLine
 10
5.579744637639101
 20
6.65207659259051
 30
0.0
 11
3.997764288938059
 21
6.65207659259051
 31
0.0
  0
LINE
  5
7D74
330
7CB8
100
AcDbEntity
  8
DIM
 62
     0
100
AcDbLine
 10
4.19776428893806
 20
7.473730207622841
 30
0.0
 11
4.19776428893806
 21
7.673730207622841
 31
0.0
  0
LINE
  5
7D75
330
7CB8
100
AcDbEntity
  8
DIM
 62
     0
100
AcDbLine
 10
4.19776428893806
 20
6.45207659259051
 30
0.0
 11
4.19776428893806
 21
6.25207659259051
 31
0.0
  0
SOLID
  5
7D76
330
7CB8
100
AcDbEntity
  8
DIM
 62
     0
100
AcDbTrace
 10
4.164430955604727
 20
7.473730207622841
 30
0.0
 11
4.231097622271393
 21
7.473730207622841
 31
0.0
 12
4.19776428893806
 22
7.273730207622841
 32
0.0
 13
4.19776428893806
 23
7.273730207622841
 33
0.0
  0
SOLID
  5
7D77
330
7CB8
100
AcDbEntity
  8
DIM
 62
     0
100
AcDbTrace
 10
4.164430955604727
 20
6.45207659259051
 30
0.0
 11
4.231097622271393
 21
6.45207659259051
 31
0.0
 12
4.19776428893806
 22
6.65207659259051
 32
0.0
 13
4.19776428893806
 23
6.65207659259051
 33
0.0
  0
MTEXT
  5
7D78
330
7CB8
100
AcDbEntity
  8
DIM
 62
     0
100
AcDbMText
 10
4.197764288938058
 20
6.962903400106677
 30
0.0
 40
0.2
 41
0.0
 71
     5
 72
     1
  1
\A1;.622 [15.79]
1001
ACAD
1000
MTEXTBEGIN
1070
    73
1070
     1
1070
    44
1040
1.0
1070
    74
1070
     0
1000
MTEXTEND
  0
POINT
  5
7D79
330
7CB8
100
AcDbEntity
  8
DEFPOINTS
 62
     0
100
AcDbPoint
 10
6.502842203041932
 20
7.27373020762284
 30
0.0
  0
POINT
  5
7D7A
330
7CB8
100
AcDbEntity
  8
DEFPOINTS
 62
     0
100
AcDbPoint
 10
5.779744637639101
 20
6.65207659259051
 30
0.0
  0
POINT
  5
7D7B
330
7CB8
100
AcDbEntity
  8
DEFPOINTS
 62
     0
100
AcDbPoint
 10
4.19776428893806
 20
6.65207659259051
 30
0.0
  0
ENDBLK
  5
7CC4
330
7CB8
100
AcDbEntity
  8
0
100
AcDbBlockEnd
  0
BLOCK
  5
7CD1
330
7CC6
100
AcDbEntity
  8
0
100
AcDbBlockBegin
  2
*D26
 70
     1
 10
0.0
 20
0.0
 30
0.0
  3
*D26
  1

  0
LINE
  5
7D86
330
7CC6
100
AcDbEntity
  8
DIM
 62
     0
100
AcDbLine
 10
10.92593987210301
 20
6.65207659259051
 30
0.0
 11
12.97422661022066
 21
6.65207659259051
 31
0.0
  0
LINE
  5
7D87
330
7CC6
100
AcDbEntity
  8
DIM
 62
     0
100
AcDbLine
 10
9.437094171545869
 20
10.7896750895126
 30
0.0
 11
12.97422661022066
 21
10.7896750895126
 31
0.0
  0
LINE
  5
7D88
330
7CC6
100
AcDbEntity
  8
DIM
 62
     0
100
AcDbLine
 10
12.77422661022066
 20
6.852076592590511
 30
0.0
 11
12.77422661022066
 21
8.420875841051557
 31
0.0
  0
LINE
  5
7D89
330
7CC6
100
AcDbEntity
  8
DIM
 62
     0
100
AcDbLine
 10
12.77422661022066
 20
10.5896750895126
 30
0.0
 11
12.77422661022066
 21
9.020875841051559
 31
0.0
  0
SOLID
  5
7D8A
330
7CC6
100
AcDbEntity
  8
DIM
 62
     0
100
AcDbTrace
 10
12.74089327688733
 20
6.852076592590511
 30
0.0
 11
12.80755994355399
 21
6.852076592590511
 31
0.0
 12
12.77422661022066
 22
6.65207659259051
 32
0.0
 13
12.77422661022066
 23
6.65207659259051
 33
0.0
  0
SOLID
  5
7D8B
330
7CC6
100
AcDbEntity
  8
DIM
 62
     0
100
AcDbTrace
 10
12.74089327688733
 20
10.5896750895126
 30
0.0
 11
12.80755994355399
 21
10.5896750895126
 31
0.0
 12
12.77422661022066
 22
10.7896750895126
 32
0.0
 13
12.77422661022066
 23
10.7896750895126
 33
0.0
  0
MTEXT
  5
7D8C
330
7CC6
100
AcDbEntity
  8
DIM
 62
     0
100
AcDbMText
 10
12.77422661022066
 20
8.720875841051562
 30
0.0
 40
0.2
 41
0.0
 71
     5
 72
     1
  1
\A1;4.138 [105.10]
1001
ACAD
1000
MTEXTBEGIN
1070
    73
1070
     1
1070
    44
1040
1.0
1070
    74
1070
     0
1000
MTEXTEND
  0
POINT
  5
7D8D
330
7CC6
100
AcDbEntity
  8
DEFPOINTS
 62
     0
100
AcDbPoint
 10
10.72593987210301
 20
6.65207659259051
 30
0.0
  0
POINT
  5
7D8E
330
7CC6
100
AcDbEntity
  8
DEFPOINTS
 62
     0
100
AcDbPoint
 10
9.237094171545869
 20
10.7896750895126
 30
0.0
  0
POINT
  5
7D8F
330
7CC6
100
AcDbEntity
  8
DEFPOINTS
 62
     0
100
AcDbPoint
 10
12.77422661022066
 20
10.7896750895126
 30
0.0
  0
ENDBLK
  5
7CD2
330
7CC6
100
AcDbEntity
  8
0
100
AcDbBlockEnd
  0
BLOCK
  5
7CDF
330
7CD4
100
AcDbEntity
  8
0
100
AcDbBlockBegin
  2
*D27
 70
     1
 10
0.0
 20
0.0
 30
0.0
  3
*D27
  1

  0
LINE
  5
7DC2
330
7CD4
100
AcDbEntity
  8
DIM
 62
     0
100
AcDbLine
 10
6.502842203041932
 20
7.07373020762284
 30
0.0
 11
6.502842203041932
 21
5.350048666445803
 31
0.0
  0
LINE
  5
7DC3
330
7CD4
100
AcDbEntity
  8
DIM
 62
     0
100
AcDbLine
 10
5.73974463021027
 20
6.492076664315749
 30
0.0
 11
5.73974463021027
 21
5.350048666445803
 31
0.0
  0
LINE
  5
7DC4
330
7CD4
100
AcDbEntity
  8
DIM
 62
     0
100
AcDbLine
 10
6.702842203041933
 20
5.550048666445803
 30
0.0
 11
6.902842203041933
 21
5.550048666445803
 31
0.0
  0
LINE
  5
7DC5
330
7CD4
100
AcDbEntity
  8
DIM
 62
     0
100
AcDbLine
 10
5.53974463021027
 20
5.550048666445803
 30
0.0
 11
5.339744630210271
 21
5.550048666445803
 31
0.0
  0
SOLID
  5
7DC6
330
7CD4
100
AcDbEntity
  8
DIM
 62
     0
100
AcDbTrace
 10
6.702842203041933
 20
5.583381999779136
 30
0.0
 11
6.702842203041933
 21
5.51671533311247
 31
0.0
 12
6.502842203041932
 22
5.550048666445803
 32
0.0
 13
6.502842203041932
 23
5.550048666445803
 33
0.0
  0
SOLID
  5
7DC7
330
7CD4
100
AcDbEntity
  8
DIM
 62
     0
100
AcDbTrace
 10
5.53974463021027
 20
5.583381999779136
 30
0.0
 11
5.53974463021027
 21
5.51671533311247
 31
0.0
 12
5.73974463021027
 22
5.550048666445803
 32
0.0
 13
5.73974463021027
 23
5.550048666445803
 33
0.0
  0
MTEXT
  5
7DC8
330
7CD4
100
AcDbEntity
  8
DIM
 62
     0
100
AcDbMText
 10
4.206411296876937
 20
5.550048666445803
 30
0.0
 40
0.2
 41
0.0
 71
     5
 72
     1
  1
\A1;.763 [19.38]
1001
ACAD
1000
MTEXTBEGIN
1070
    73
1070
     1
1070
    44
1040
1.0
1070
    74
1070
     0
1000
MTEXTEND
  0
POINT
  5
7DC9
330
7CD4
100
AcDbEntity
  8
DEFPOINTS
 62
     0
100
AcDbPoint
 10
6.502842203041932
 20
7.27373020762284
 30
0.0
  0
POINT
  5
7DCA
330
7CD4
100
AcDbEntity
  8
DEFPOINTS
 62
     0
100
AcDbPoint
 10
5.73974463021027
 20
6.692076664315749
 30
0.0
  0
POINT
  5
7DCB
330
7CD4
100
AcDbEntity
  8
DEFPOINTS
 62
     0
100
AcDbPoint
 10
5.73974463021027
 20
5.550048666445803
 30
0.0
  0
ENDBLK
  5
7CE0
330
7CD4
100
AcDbEntity
  8
0
100
AcDbBlockEnd
  0
BLOCK
  5
7CED
330
7CE2
100
AcDbEntity
  8
0
100
AcDbBlockBegin
  2
*D28
 70
     1
 10
0.0
 20
0.0
 30
0.0
  3
*D28
  1

  0
LINE
  5
7DA4
330
7CE2
100
AcDbEntity
  8
DIM
 62
     0
100
AcDbLine
 10
10.81596641068085
 20
13.09017268303974
 30
0.0
 11
12.97705146865821
 21
13.09017268303973
 31
0.0
  0
LINE
  5
7DA5
330
7CE2
100
AcDbEntity
  8
DIM
 62
     0
100
AcDbLine
 10
10.29005368606953
 20
16.15277116364075
 30
0.0
 11
12.97705146865821
 21
16.15277116364075
 31
0.0
  0
LINE
  5
7DA6
330
7CE2
100
AcDbEntity
  8
DIM
 62
     0
100
AcDbLine
 10
12.77705146865821
 20
13.29017268303973
 30
0.0
 11
12.77705146865821
 21
14.32147192334024
 31
0.0
  0
LINE
  5
7DA7
330
7CE2
100
AcDbEntity
  8
DIM
 62
     0
100
AcDbLine
 10
12.77705146865821
 20
15.95277116364075
 30
0.0
 11
12.77705146865821
 21
14.92147192334024
 31
0.0
  0
SOLID
  5
7DA8
330
7CE2
100
AcDbEntity
  8
DIM
 62
     0
100
AcDbTrace
 10
12.74371813532488
 20
13.29017268303973
 30
0.0
 11
12.81038480199154
 21
13.29017268303973
 31
0.0
 12
12.77705146865821
 22
13.09017268303973
 32
0.0
 13
12.77705146865821
 23
13.09017268303973
 33
0.0
  0
SOLID
  5
7DA9
330
7CE2
100
AcDbEntity
  8
DIM
 62
     0
100
AcDbTrace
 10
12.74371813532488
 20
15.95277116364075
 30
0.0
 11
12.81038480199154
 21
15.95277116364075
 31
0.0
 12
12.77705146865821
 22
16.15277116364075
 32
0.0
 13
12.77705146865821
 23
16.15277116364075
 33
0.0
  0
MTEXT
  5
7DAA
330
7CE2
100
AcDbEntity
  8
DIM
 62
     0
100
AcDbMText
 10
12.77705146865821
 20
14.62147192334025
 30
0.0
 40
0.2
 41
0.0
 71
     5
 72
     1
  1
\A1;3.063 [77.79]
1001
ACAD
1000
MTEXTBEGIN
1070
    73
1070
     1
1070
    44
1040
1.0
1070
    74
1070
     0
1000
MTEXTEND
  0
POINT
  5
7DAB
330
7CE2
100
AcDbEntity
  8
DEFPOINTS
 62
     0
100
AcDbPoint
 10
10.61596641068086
 20
13.09017268303974
 30
0.0
  0
POINT
  5
7DAC
330
7CE2
100
AcDbEntity
  8
DEFPOINTS
 62
     0
100
AcDbPoint
 10
10.09005368606953
 20
16.15277116364075
 30
0.0
  0
POINT
  5
7DAD
330
7CE2
100
AcDbEntity
  8
DEFPOINTS
 62
     0
100
AcDbPoint
 10
12.77705146865821
 20
16.15277116364075
 30
0.0
  0
ENDBLK
  5
7CEE
330
7CE2
100
AcDbEntity
  8
0
100
AcDbBlockEnd
  0
BLOCK
  5
7CFB
330
7CF0
100
AcDbEntity
  8
0
100
AcDbBlockBegin
  2
*D29
 70
     1
 10
0.0
 20
0.0
 30
0.0
  3
*D29
  1

  0
LINE
  5
7D9A
330
7CF0
100
AcDbEntity
  8
DIM
 62
     0
100
AcDbLine
 10
9.127120710123721
 20
16.10277117996183
 30
0.0
 11
9.127120710123721
 21
17.21137313870861
 31
0.0
  0
LINE
  5
7D9B
330
7CF0
100
AcDbEntity
  8
DIM
 62
     0
100
AcDbLine
 10
5.630378858667628
 20
13.33711868187165
 30
0.0
 11
5.630378858667628
 21
17.21137313870861
 31
0.0
  0
LINE
  5
7D9C
330
7CF0
100
AcDbEntity
  8
DIM
 62
     0
100
AcDbLine
 10
8.927120710123721
 20
17.01137313870861
 30
0.0
 11
8.645416451062342
 21
17.01137313870861
 31
0.0
  0
LINE
  5
7D9D
330
7CF0
100
AcDbEntity
  8
DIM
 62
     0
100
AcDbLine
 10
5.830378858667629
 20
17.01137313870861
 30
0.0
 11
6.112083117729008
 21
17.01137313870861
 31
0.0
  0
SOLID
  5
7D9E
330
7CF0
100
AcDbEntity
  8
DIM
 62
     0
100
AcDbTrace
 10
8.927120710123721
 20
17.04470647204194
 30
0.0
 11
8.927120710123721
 21
16.97803980537528
 31
0.0
 12
9.127120710123721
 22
17.01137313870861
 32
0.0
 13
9.127120710123721
 23
17.01137313870861
 33
0.0
  0
SOLID
  5
7D9F
330
7CF0
100
AcDbEntity
  8
DIM
 62
     0
100
AcDbTrace
 10
5.830378858667629
 20
17.04470647204194
 30
0.0
 11
5.830378858667629
 21
16.97803980537528
 31
0.0
 12
5.630378858667628
 22
17.01137313870861
 32
0.0
 13
5.630378858667628
 23
17.01137313870861
 33
0.0
  0
MTEXT
  5
7DA0
330
7CF0
100
AcDbEntity
  8
DIM
 62
     0
100
AcDbMText
 10
7.378749784395675
 20
17.01137313870861
 30
0.0
 40
0.2
 41
0.0
 71
     5
 72
     1
  1
\A1;3.497 [88.82]
1001
ACAD
1000
MTEXTBEGIN
1070
    73
1070
     1
1070
    44
1040
1.0
1070
    74
1070
     0
1000
MTEXTEND
  0
POINT
  5
7DA1
330
7CF0
100
AcDbEntity
  8
DEFPOINTS
 62
     0
100
AcDbPoint
 10
9.127120710123721
 20
15.90277117996183
 30
0.0
  0
POINT
  5
7DA2
330
7CF0
100
AcDbEntity
  8
DEFPOINTS
 62
     0
100
AcDbPoint
 10
5.630378858667628
 20
13.13711868187165
 30
0.0
  0
POINT
  5
7DA3
330
7CF0
100
AcDbEntity
  8
DEFPOINTS
 62
     0
100
AcDbPoint
 10
5.630378858667628
 20
17.01137313870861
 30
0.0
  0
ENDBLK
  5
7CFC
330
7CF0
100
AcDbEntity
  8
0
100
AcDbBlockEnd
  0
BLOCK
  5
7D09
330
7CFE
100
AcDbEntity
  8
0
100
AcDbBlockBegin
  2
*D30
 70
     1
 10
0.0
 20
0.0
 30
0.0
  3
*D30
  1

  0
LINE
  5
7D18
330
7CFE
100
AcDbEntity
  8
DIM
 62
     0
100
AcDbLine
 10
17.18125598965871
 20
12.89017268303974
 30
0.0
 11
17.18125598965871
 21
12.29100030843397
 31
0.0
  0
LINE
  5
7D19
330
7CFE
100
AcDbEntity
  8
DIM
 62
     0
100
AcDbLine
 10
16.75605912823581
 20
12.89017268303974
 30
0.0
 11
16.75605912823581
 21
12.29100030843397
 31
0.0
  0
LINE
  5
7D1A
330
7CFE
100
AcDbEntity
  8
DIM
 62
     0
100
AcDbLine
 10
17.38125598965871
 20
12.49100030843397
 30
0.0
 11
17.58125598965871
 21
12.49100030843397
 31
0.0
  0
LINE
  5
7D1B
330
7CFE
100
AcDbEntity
  8
DIM
 62
     0
100
AcDbLine
 10
16.5560591282358
 20
12.49100030843397
 30
0.0
 11
16.35605912823581
 21
12.49100030843397
 31
0.0
  0
SOLID
  5
7D1C
330
7CFE
100
AcDbEntity
  8
DIM
 62
     0
100
AcDbTrace
 10
17.38125598965871
 20
12.5243336417673
 30
0.0
 11
17.38125598965871
 21
12.45766697510064
 31
0.0
 12
17.18125598965871
 22
12.49100030843397
 32
0.0
 13
17.18125598965871
 23
12.49100030843397
 33
0.0
  0
SOLID
  5
7D1D
330
7CFE
100
AcDbEntity
  8
DIM
 62
     0
100
AcDbTrace
 10
16.5560591282358
 20
12.5243336417673
 30
0.0
 11
16.5560591282358
 21
12.45766697510064
 31
0.0
 12
16.75605912823581
 22
12.49100030843397
 32
0.0
 13
16.75605912823581
 23
12.49100030843397
 33
0.0
  0
MTEXT
  5
7D1E
330
7CFE
100
AcDbEntity
  8
DIM
 62
     0
100
AcDbMText
 10
15.2560591282358
 20
12.49100030843397
 30
0.0
 40
0.2
 41
0.0
 71
     5
 72
     1
  1
\A1;.425 [10.80]
1001
ACAD
1000
MTEXTBEGIN
1070
    73
1070
     1
1070
    44
1040
1.0
1070
    74
1070
     0
1000
MTEXTEND
  0
POINT
  5
7D1F
330
7CFE
100
AcDbEntity
  8
DEFPOINTS
 62
     0
100
AcDbPoint
 10
17.18125598965871
 20
13.09017268303974
 30
0.0
  0
POINT
  5
7D20
330
7CFE
100
AcDbEntity
  8
DEFPOINTS
 62
     0
100
AcDbPoint
 10
16.75605912823581
 20
13.09017268303974
 30
0.0
  0
POINT
  5
7D21
330
7CFE
100
AcDbEntity
  8
DEFPOINTS
 62
     0
100
AcDbPoint
 10
16.75605912823581
 20
12.49100030843397
 30
0.0
  0
ENDBLK
  5
7D0A
330
7CFE
100
AcDbEntity
  8
0
100
AcDbBlockEnd
  0
BLOCK
  5
7DBC
330
7DB1
100
AcDbEntity
  8
0
100
AcDbBlockBegin
  2
*D31
 70
     1
 10
0.0
 20
0.0
 30
0.0
  3
*D31
  1

  0
LINE
  5
7DB2
330
7DB1
100
AcDbEntity
  8
DIM
 62
     0
100
AcDbLine
 10
5.579744637639101
 20
6.65207659259051
 30
0.0
 11
2.647519930977738
 21
6.65207659259051
 31
0.0
  0
LINE
  5
7DB3
330
7DB1
100
AcDbEntity
  8
DIM
 62
     0
100
AcDbLine
 10
6.105657215585456
 20
9.714675073191521
 30
0.0
 11
2.647519930977739
 21
9.714675073191523
 31
0.0
  0
LINE
  5
7DB4
330
7DB1
100
AcDbEntity
  8
DIM
 62
     0
100
AcDbLine
 10
2.847519930977739
 20
6.852076592590511
 30
0.0
 11
2.847519930977739
 21
7.883375832891017
 31
0.0
  0
LINE
  5
7DB5
330
7DB1
100
AcDbEntity
  8
DIM
 62
     0
100
AcDbLine
 10
2.847519930977739
 20
9.514675073191524
 30
0.0
 11
2.847519930977739
 21
8.483375832891018
 31
0.0
  0
SOLID
  5
7DB6
330
7DB1
100
AcDbEntity
  8
DIM
 62
     0
100
AcDbTrace
 10
2.814186597644405
 20
6.852076592590511
 30
0.0
 11
2.880853264311072
 21
6.852076592590511
 31
0.0
 12
2.847519930977739
 22
6.65207659259051
 32
0.0
 13
2.847519930977739
 23
6.65207659259051
 33
0.0
  0
SOLID
  5
7DB7
330
7DB1
100
AcDbEntity
  8
DIM
 62
     0
100
AcDbTrace
 10
2.814186597644406
 20
9.514675073191524
 30
0.0
 11
2.880853264311073
 21
9.514675073191524
 31
0.0
 12
2.847519930977739
 22
9.714675073191523
 32
0.0
 13
2.847519930977739
 23
9.714675073191523
 33
0.0
  0
MTEXT
  5
7DB8
330
7DB1
100
AcDbEntity
  8
DIM
 62
     0
100
AcDbMText
 10
2.847519930977738
 20
8.183375832891018
 30
0.0
 40
0.2
 41
0.0
 71
     5
 72
     1
  1
\A1;3.063 [77.79]
1001
ACAD
1000
MTEXTBEGIN
1070
    73
1070
     1
1070
    44
1040
1.0
1070
    74
1070
     0
1000
MTEXTEND
  0
POINT
  5
7DB9
330
7DB1
100
AcDbEntity
  8
DEFPOINTS
 62
     0
100
AcDbPoint
 10
5.779744637639101
 20
6.65207659259051
 30
0.0
  0
POINT
  5
7DBA
330
7DB1
100
AcDbEntity
  8
DEFPOINTS
 62
     0
100
AcDbPoint
 10
6.305657215585457
 20
9.714675073191521
 30
0.0
  0
POINT
  5
7DBB
330
7DB1
100
AcDbEntity
  8
DEFPOINTS
 62
     0
100
AcDbPoint
 10
2.847519930977739
 20
9.714675073191523
 30
0.0
  0
ENDBLK
  5
7DBD
330
7DB1
100
AcDbEntity
  8
0
100
AcDbBlockEnd
  0
ENDSEC
  0
SECTION
  2
ENTITIES
  0
TEXT
  5
1797
330
1F
100
AcDbEntity
  8
TB-TXT
100
AcDbText
 10
1.428305927571926
 20
20.6197428912918
 30
0.0
 40
0.2
  1
NOTES, UNLESS OTHERWISE SPECIFIED:
100
AcDbText
  0
TEXT
  5
1824
330
1F
100
AcDbEntity
  8
TB-TXT
100
AcDbText
 10
1.766904533792882
 20
20.16741702553919
 30
0.0
 40
0.2
  1
1. DIMENSIONS IN [ ] ARE IN MILLIMETERS
100
AcDbText
  0
INSERT
  5
5D8E
330
1F
100
AcDbEntity
  8
TB-TXT
100
AcDbBlockReference
 66
     1
  2
REV-BLOCK
 10
33.5
 20
20.80009599999999
 30
0.0
 41
0.969696969696969
 42
0.969696969696969
 43
0.969696969696969
  0
ATTRIB
  5
5D8F
330
5D8E
100
AcDbEntity
  8
TB-TXT
100
AcDbText
 10
26.28484123091675
 20
20.52214553638333
 30
0.0
 40
0.16
  1
A
  7
ARIAL
 72
     1
 11
26.35938420499587
 21
20.60214553638333
 31
0.0
100
AcDbAttribute
  2
REV
 70
     0
 74
     2
  0
ATTRIB
  5
5D90
330
5D8E
100
AcDbEntity
  8
TB-TXT
100
AcDbText
 10
26.69157265819915
 20
20.53722017915365
 30
0.0
 40
0.16
  1
20978
  7
ARIAL
100
AcDbAttribute
  2
ECN
 70
     0
  0
ATTRIB
  5
5D91
330
5D8E
100
AcDbEntity
  8
TB-TXT
100
AcDbText
 10
27.36529819403024
 20
20.53955040620385
 30
0.0
 40
0.16
  1
 INITIAL RELEASE
  7
ARIAL
100
AcDbAttribute
  2
DESCRIPTION
 70
     0
  0
ATTRIB
  5
5D92
330
5D8E
100
AcDbEntity
  8
TB-TXT
100
AcDbText
 10
31.21060044266735
 20
20.52214553638333
 30
0.0
 40
0.16
  1
06/11/13
  7
ARIAL
 72
     1
 11
31.64563454907936
 21
20.60214553638333
 31
0.0
100
AcDbAttribute
  2
REV-DATE
 70
     0
 74
     2
  0
ATTRIB
  5
5D93
330
5D8E
100
AcDbEntity
  8
TB-TXT
100
AcDbText
 10
32.54701433225591
 20
20.52214553638333
 30
0.0
 40
0.16
  1
P. LE
  7
ARIAL
 72
     1
 11
32.82035676063244
 21
20.60214553638333
 31
0.0
100
AcDbAttribute
  2
APPR
 70
     0
 74
     2
  0
SEQEND
  5
5D94
330
5D8E
100
AcDbEntity
  8
TB-TXT
  0
INSERT
  5
5D95
330
1F
100
AcDbEntity
  8
TB-TXT
100
AcDbBlockReference
 66
     1
  2
TITLE-BLOCK
 10
32.60259009549838
 20
0.4871808286051192
 30
0.0
 41
0.9696969696969773
 42
0.9696969696969773
 43
0.9696969696969773
  0
ATTRIB
  5
5D96
330
5D95
100
AcDbEntity
  8
TB-TXT
100
AcDbText
 10
27.31573458917869
 20
2.159556522670953
 30
0.0
 40
0.17
  1
 PICTORIAL,
  7
ARIAL
100
AcDbAttribute
  2
LINE1
 70
     0
  0
ATTRIB
  5
5D97
330
5D95
100
AcDbEntity
  8
TB-TXT
100
AcDbText
 10
27.31573458917869
 20
1.908421630896071
 30
0.0
 40
0.17
  1
 SECURE TABLE MOUNT KIT
  7
ARIAL
100
AcDbAttribute
  2
LINE2
 70
     0
  0
ATTRIB
  5
5D98
330
5D95
100
AcDbEntity
  8
TB-TXT
100
AcDbText
 10
27.31573458917869
 20
1.657286739121175
 30
0.0
 40
0.17
  1
 MODERO S 4.3
  7
ARIAL
100
AcDbAttribute
  2
LINE3
 70
     0
  0
ATTRIB
  5
5D99
330
5D95
100
AcDbEntity
  8
TB-TXT
100
AcDbText
 10
27.31573458917869
 20
1.406151847346279
 30
0.0
 40
0.17
  1
 
  7
ARIAL
100
AcDbAttribute
  2
LINE4
 70
     0
  0
ATTRIB
  5
5D9A
330
5D95
100
AcDbEntity
  8
TB-TXT
100
AcDbText
 10
28.67240744538594
 20
0.9393484331170611
 30
0.0
 40
0.17
  1
 95-2265-18
  7
ARIAL
100
AcDbAttribute
  2
DWG#
 70
     0
  0
ATTRIB
  5
5D9B
330
5D95
100
AcDbEntity
  8
TB-TXT
100
AcDbText
 10
29.67184955913904
 20
0.6131212011589185
 30
0.0
 40
0.1163636363636373
  1
 95-2265-18_A
  7
ARIAL
100
AcDbAttribute
  2
FILE#
 70
     0
  0
ATTRIB
  5
5D9C
330
5D95
100
AcDbEntity
  8
TB-TXT
100
AcDbText
 10
33.12592753291674
 20
0.8972499995213375
 30
0.0
 40
0.17
  1
 A
  7
ARIAL
 72
     4
 11
33.23829451790992
 21
0.9821920186209283
 31
0.0
100
AcDbAttribute
  2
REV
 70
     0
  0
ATTRIB
  5
5D9D
330
5D95
100
AcDbEntity
  8
TB-TXT
100
AcDbText
 10
27.7341555078267
 20
0.5791391671473889
 30
0.0
 40
0.17
  1
 N/A
  7
ARIAL
100
AcDbAttribute
  2
SCALE
 70
     0
  0
ATTRIB
  5
5D9E
330
5D95
100
AcDbEntity
  8
TB-TXT
100
AcDbText
 10
32.56139344279876
 20
0.585935475765524
 30
0.0
 40
0.17
  1
1 OF 1
  7
ARIAL
100
AcDbAttribute
  2
SHT#
 70
     0
  0
SEQEND
  5
5D9F
330
5D95
100
AcDbEntity
  8
TB-TXT
  0
TEXT
  5
5DA0
330
1F
100
AcDbEntity
  8
TXT
100
AcDbText
 10
13.14499304955308
 20
51.60334911141315
 30
0.0
 40
0.12
  1

  7
ROMANS
100
AcDbText
  0
INSERT
  5
5DA1
330
1F
100
AcDbEntity
  8
0
100
AcDbBlockReference
  2
D1
 10
0.0
 20
0.0
 30
0.0
  0
CIRCLE
  5
7B36
330
1F
100
AcDbEntity
  8
0
  6
CONTINUOUS
 62
     7
100
AcDbCircle
 10
6.55402330540414
 20
9.424123908410237
 30
0.0
 40
0.1624015748031518
  0
CIRCLE
  5
7B37
330
1F
100
AcDbEntity
  8
0
  6
CONTINUOUS
 62
     7
100
AcDbCircle
 10
10.37882645501043
 20
6.943808947780318
 30
0.0
 40
0.1624015748031491
  0
CIRCLE
  5
7B38
330
1F
100
AcDbEntity
  8
0
  6
CONTINUOUS
 62
     7
100
AcDbCircle
 10
6.12685795107343
 20
6.943808947780318
 30
0.0
 40
0.1624015748031491
  0
CIRCLE
  5
7B39
330
1F
100
AcDbEntity
  8
0
  6
CONTINUOUS
 62
     7
100
AcDbCircle
 10
9.951661100679729
 20
9.424123908410237
 30
0.0
 40
0.16240157480315
  0
CIRCLE
  5
7B3A
330
1F
100
AcDbEntity
  8
0
  6
CONTINUOUS
 62
     7
100
AcDbCircle
 10
6.382763462884454
 20
7.746171152504729
 30
0.0
 40
0.0884999999999998
  0
CIRCLE
  5
7B3B
330
1F
100
AcDbEntity
  8
0
  6
CONTINUOUS
 62
     7
100
AcDbCircle
 10
10.12292094319941
 20
7.746171152504729
 30
0.0
 40
0.0884999999999998
  0
LINE
  5
7B3C
330
1F
100
AcDbEntity
  8
0
  6
CONTINUOUS
 62
     7
100
AcDbLine
 10
6.632746008694475
 20
7.498730211975654
 30
0.0
 11
6.372938378347724
 21
7.498730211975654
 31
0.0
  0
LINE
  5
7B3D
330
1F
100
AcDbEntity
  8
0
  6
CONTINUOUS
 62
     7
100
AcDbLine
 10
6.372938378347724
 20
7.498730211975654
 30
0.0
 11
6.243034572340908
 21
7.273730157862146
 31
0.0
  0
LINE
  5
7B3E
330
1F
100
AcDbEntity
  8
0
  6
CONTINUOUS
 62
     7
100
AcDbLine
 10
6.243034572340908
 20
7.273730157862146
 30
0.0
 11
6.372938378347724
 21
7.048730250413612
 31
0.0
  0
LINE
  5
7B3F
330
1F
100
AcDbEntity
  8
0
  6
CONTINUOUS
 62
     7
100
AcDbLine
 10
6.372938378347724
 20
7.048730250413612
 30
0.0
 11
6.632746008694475
 21
7.048730250413612
 31
0.0
  0
LINE
  5
7B40
330
1F
100
AcDbEntity
  8
0
  6
CONTINUOUS
 62
     7
100
AcDbLine
 10
6.632746008694475
 20
7.048730250413612
 30
0.0
 11
6.76264982386785
 21
7.273730157862146
 31
0.0
  0
LINE
  5
7B41
330
1F
100
AcDbEntity
  8
0
  6
CONTINUOUS
 62
     7
100
AcDbLine
 10
6.76264982386785
 20
7.273730157862146
 30
0.0
 11
6.632746008694475
 21
7.498730211975654
 31
0.0
  0
LINE
  5
7B42
330
1F
100
AcDbEntity
  8
0
  6
CONTINUOUS
 62
     7
100
AcDbLine
 10
10.1327460580619
 20
7.498730211975654
 30
0.0
 11
9.872938446048275
 21
7.498730211975654
 31
0.0
  0
LINE
  5
7B43
330
1F
100
AcDbEntity
  8
0
  6
CONTINUOUS
 62
     7
100
AcDbLine
 10
9.872938446048275
 20
7.498730211975654
 30
0.0
 11
9.743034640041461
 21
7.273730157862146
 31
0.0
  0
LINE
  5
7B44
330
1F
100
AcDbEntity
  8
0
  6
CONTINUOUS
 62
     7
100
AcDbLine
 10
9.743034640041461
 20
7.273730157862146
 30
0.0
 11
9.872938446048275
 21
7.048730250413612
 31
0.0
  0
LINE
  5
7B45
330
1F
100
AcDbEntity
  8
0
  6
CONTINUOUS
 62
     7
100
AcDbLine
 10
9.872938446048275
 20
7.048730250413612
 30
0.0
 11
10.1327460580619
 21
7.048730250413612
 31
0.0
  0
LINE
  5
7B46
330
1F
100
AcDbEntity
  8
0
  6
CONTINUOUS
 62
     7
100
AcDbLine
 10
10.1327460580619
 20
7.048730250413612
 30
0.0
 11
10.26264986406871
 21
7.273730157862146
 31
0.0
  0
LINE
  5
7B47
330
1F
100
AcDbEntity
  8
0
  6
CONTINUOUS
 62
     7
100
AcDbLine
 10
10.26264986406871
 20
7.273730157862146
 30
0.0
 11
10.1327460580619
 21
7.498730211975654
 31
0.0
  0
ARC
  5
7B48
330
1F
100
AcDbEntity
  8
0
  6
CONTINUOUS
 62
     7
100
AcDbCircle
 10
9.237094171545871
 20
8.089675089512603
 30
0.0
 40
0.4600000000000009
100
AcDbArc
 50
180.0
 51
0.0
  0
LINE
  5
7B49
330
1F
100
AcDbEntity
  8
0
  6
CONTINUOUS
 62
     7
100
AcDbLine
 10
9.69709418408286
 20
8.089675065330276
 30
0.0
 11
9.69709418408286
 21
9.714675073191521
 31
0.0
  0
LINE
  5
7B4A
330
1F
100
AcDbEntity
  8
0
  6
CONTINUOUS
 62
     7
100
AcDbLine
 10
10.20002714749168
 20
9.714675073191521
 30
0.0
 11
9.69709418408286
 21
9.714675073191521
 31
0.0
  0
ARC
  5
7B4B
330
1F
100
AcDbEntity
  8
0
  6
CONTINUOUS
 62
     7
100
AcDbCircle
 10
10.2000272008928
 20
9.674675089512604
 30
0.0
 40
0.0400000000000002
100
AcDbArc
 50
9.999999999997919
 51
90.0
  0
LINE
  5
7B4C
330
1F
100
AcDbEntity
  8
0
  6
CONTINUOUS
 62
     7
100
AcDbLine
 10
10.76533203037477
 20
6.699022583599749
 30
0.0
 11
10.23941959909338
 21
9.681621041701184
 31
0.0
  0
ARC
  5
7B4D
330
1F
100
AcDbEntity
  8
0
  6
CONTINUOUS
 62
     7
100
AcDbCircle
 10
10.72593977587359
 20
6.692076664315749
 30
0.0
 40
0.0400000000000022
100
AcDbArc
 50
270.0000000000008
 51
9.999999999999987
  0
LINE
  5
7B4E
330
1F
100
AcDbEntity
  8
0
  6
CONTINUOUS
 62
     7
100
AcDbLine
 10
5.779744637639101
 20
6.65207659259051
 30
0.0
 11
10.72593987210301
 21
6.65207659259051
 31
0.0
  0
ARC
  5
7B4F
330
1F
100
AcDbEntity
  8
0
  6
CONTINUOUS
 62
     7
100
AcDbCircle
 10
5.77974463021027
 20
6.692076664315749
 30
0.0
 40
0.0400000000000005
100
AcDbArc
 50
169.9999999999995
 51
270.0000000000008
  0
LINE
  5
7B50
330
1F
100
AcDbEntity
  8
0
  6
CONTINUOUS
 62
     7
100
AcDbLine
 10
6.266264910648725
 20
9.681621041701184
 30
0.0
 11
5.74035233270237
 21
6.699022583599749
 31
0.0
  0
ARC
  5
7B51
330
1F
100
AcDbEntity
  8
0
  6
CONTINUOUS
 62
     7
100
AcDbCircle
 10
6.305657205191065
 20
9.674675089512604
 30
0.0
 40
0.0399999999999992
100
AcDbArc
 50
90.0
 51
170.0000000000016
  0
LINE
  5
7B52
330
1F
100
AcDbEntity
  8
0
  6
CONTINUOUS
 62
     7
100
AcDbLine
 10
7.996306738391234
 20
9.714675073191521
 30
0.0
 11
6.305657215585457
 21
9.714675073191521
 31
0.0
  0
ARC
  5
7B53
330
1F
100
AcDbEntity
  8
0
  6
CONTINUOUS
 62
     7
100
AcDbCircle
 10
7.996306769971067
 20
9.674675089512604
 30
0.0
 40
0.0400000000000009
100
AcDbArc
 50
0.0
 51
90.0
  0
ARC
  5
7B54
330
1F
100
AcDbEntity
  8
0
  6
CONTINUOUS
 62
     7
100
AcDbCircle
 10
7.996467244098671
 20
9.678254499835922
 30
0.0
 40
0.0400000000000007
100
AcDbArc
 50
315.0000000000027
 51
354.8660049337044
  0
LINE
  5
7B55
330
1F
100
AcDbEntity
  8
0
  6
CONTINUOUS
 62
     7
100
AcDbLine
 10
8.024751529794576
 20
9.649970227334087
 30
0.0
 11
7.851172141665147
 21
9.476390839204661
 31
0.0
  0
ARC
  5
7B56
330
1F
100
AcDbEntity
  8
0
  6
CONTINUOUS
 62
     7
100
AcDbCircle
 10
7.879456376270281
 20
9.44810654701768
 30
0.0
 40
0.0400000000000009
100
AcDbArc
 50
135.0
 51
180.0
  0
LINE
  5
7B57
330
1F
100
AcDbEntity
  8
0
  6
CONTINUOUS
 62
     7
100
AcDbLine
 10
7.839456397006429
 20
9.448106572613589
 30
0.0
 11
7.839456397006429
 21
8.652312882356874
 31
0.0
  0
ARC
  5
7B58
330
1F
100
AcDbEntity
  8
0
  6
CONTINUOUS
 62
     7
100
AcDbCircle
 10
7.879456376270281
 20
8.652312884788194
 30
0.0
 40
0.0400000000000009
100
AcDbArc
 50
180.0
 51
270.0000000000008
  0
LINE
  5
7B59
330
1F
100
AcDbEntity
  8
0
  6
CONTINUOUS
 62
     7
100
AcDbLine
 10
7.879456408256219
 20
8.612312889440204
 30
0.0
 11
8.626228101485894
 21
8.612312889440204
 31
0.0
  0
ARC
  5
7B5A
330
1F
100
AcDbEntity
  8
0
  6
CONTINUOUS
 62
     7
100
AcDbCircle
 10
8.626228029813587
 20
8.652312884788194
 30
0.0
 40
0.0400000000000009
100
AcDbArc
 50
270.0000000000008
 51
0.0
  0
LINE
  5
7B5B
330
1F
100
AcDbEntity
  8
0
  6
CONTINUOUS
 62
     7
100
AcDbLine
 10
8.666228039403199
 20
8.652312882356874
 30
0.0
 11
8.666228039403199
 21
9.448106572613589
 31
0.0
  0
ARC
  5
7B5C
330
1F
100
AcDbEntity
  8
0
  6
CONTINUOUS
 62
     7
100
AcDbCircle
 10
8.626228029813587
 20
9.44810654701768
 30
0.0
 40
0.0400000000000009
100
AcDbArc
 50
0.0
 51
44.99999999999818
  0
LINE
  5
7B5D
330
1F
100
AcDbEntity
  8
0
  6
CONTINUOUS
 62
     7
100
AcDbLine
 10
8.654512294744479
 20
9.476390839204661
 30
0.0
 11
8.480932833282565
 21
9.649970227334087
 31
0.0
  0
ARC
  5
7B5E
330
1F
100
AcDbEntity
  8
0
  6
CONTINUOUS
 62
     7
100
AcDbCircle
 10
8.509217161985198
 20
9.678254499835922
 30
0.0
 40
0.0400000000000007
100
AcDbArc
 50
185.1339950662971
 51
225.0000000000007
  0
ARC
  5
7B5F
330
1F
100
AcDbEntity
  8
0
  6
CONTINUOUS
 62
     7
100
AcDbCircle
 10
8.509377636112802
 20
9.674675089512604
 30
0.0
 40
0.0400000000000009
100
AcDbArc
 50
90.0
 51
180.0
  0
LINE
  5
7B60
330
1F
100
AcDbEntity
  8
0
  6
CONTINUOUS
 62
     7
100
AcDbLine
 10
8.777094145335148
 20
9.714675073191521
 30
0.0
 11
8.509377624685907
 21
9.714675073191521
 31
0.0
  0
LINE
  5
7B61
330
1F
100
AcDbEntity
  8
0
  6
CONTINUOUS
 62
     7
100
AcDbLine
 10
8.777094145335148
 20
9.714675073191521
 30
0.0
 11
8.777094145335148
 21
8.089675065330276
 31
0.0
  0
LINE
  5
7B62
330
1F
100
AcDbEntity
  8
0
  6
CONTINUOUS
 62
     7
100
AcDbLine
 10
8.509377624685907
 20
9.714675073191521
 30
0.0
 11
7.996306738391234
 21
9.714675073191521
 31
0.0
  0
CIRCLE
  5
7B63
330
1F
100
AcDbEntity
  8
0
  6
CONTINUOUS
 62
     7
100
AcDbCircle
 10
10.00284220304193
 20
7.27373020762284
 30
0.0
 40
0.1360039370078745
  0
CIRCLE
  5
7B64
330
1F
100
AcDbEntity
  8
0
  6
CONTINUOUS
 62
     7
100
AcDbCircle
 10
6.502842203041932
 20
7.27373020762284
 30
0.0
 40
0.1360039370078745
  0
CIRCLE
  5
7B65
330
1F
100
AcDbEntity
  8
0
  6
CONTINUOUS
 62
     7
100
AcDbCircle
 10
9.237094171545869
 20
9.464675089512603
 30
0.0
 40
0.053250000000002
  0
CIRCLE
  5
7B66
330
1F
100
AcDbEntity
  8
0
  6
CONTINUOUS
 62
     7
100
AcDbCircle
 10
9.237094171545869
 20
8.964675089512603
 30
0.0
 40
0.0532499999999985
  0
LINE
  5
7B67
330
1F
100
AcDbEntity
  8
0
  6
CONTINUOUS
 62
     7
100
AcDbLine
 10
9.69709418408286
 20
9.714675073191521
 30
0.0
 11
9.687094272936022
 21
9.714675073191521
 31
0.0
  0
LINE
  5
7B68
330
1F
100
AcDbEntity
  8
0
  6
CONTINUOUS
 62
     7
100
AcDbLine
 10
8.787094203146962
 20
9.714675073191521
 30
0.0
 11
8.777094145335148
 21
9.714675073191521
 31
0.0
  0
CIRCLE
  5
7B69
330
1F
100
AcDbEntity
  8
0
  6
CONTINUOUS
 62
     7
100
AcDbCircle
 10
9.237094171545869
 20
8.964675089512603
 30
0.0
 40
0.1395
  0
CIRCLE
  5
7B6A
330
1F
100
AcDbEntity
  8
0
  6
CONTINUOUS
 62
     7
100
AcDbCircle
 10
9.237094171545869
 20
8.964675089512603
 30
0.0
 40
0.0747499999999999
  0
ARC
  5
7B6B
330
1F
100
AcDbEntity
  8
0
  6
CONTINUOUS
 62
     7
100
AcDbCircle
 10
9.237094171545869
 20
10.3396750895126
 30
0.0
 40
0.4000000000000004
100
AcDbArc
 50
0.0
 51
180.0
  0
LINE
  5
7B6C
330
1F
100
AcDbEntity
  8
0
  6
CONTINUOUS
 62
     7
100
AcDbLine
 10
8.837094198876076
 20
10.33967501980547
 30
0.0
 11
8.787094203146962
 21
10.33967501980547
 31
0.0
  0
ARC
  5
7B6D
330
1F
100
AcDbEntity
  8
0
  6
CONTINUOUS
 62
     7
100
AcDbCircle
 10
9.237094171545869
 20
10.3396750895126
 30
0.0
 40
0.4500000000000029
100
AcDbArc
 50
0.0
 51
180.0
  0
LINE
  5
7B6E
330
1F
100
AcDbEntity
  8
0
  6
CONTINUOUS
 62
     7
100
AcDbLine
 10
9.637094130541933
 20
10.33967501980547
 30
0.0
 11
9.687094272936022
 21
10.33967501980547
 31
0.0
  0
LINE
  5
7B6F
330
1F
100
AcDbEntity
  8
0
  6
CONTINUOUS
 62
     7
100
AcDbLine
 10
9.637094130541933
 20
8.714675085276716
 30
0.0
 11
9.637094130541933
 21
10.33967501980547
 31
0.0
  0
LINE
  5
7B70
330
1F
100
AcDbEntity
  8
0
  6
CONTINUOUS
 62
     7
100
AcDbLine
 10
8.837094198876076
 20
10.33967501980547
 30
0.0
 11
8.837094198876076
 21
8.714675085276716
 31
0.0
  0
CIRCLE
  5
7B71
330
1F
100
AcDbEntity
  8
0
  6
CONTINUOUS
 62
     7
100
AcDbCircle
 10
9.237094171545869
 20
9.464675089512603
 30
0.0
 40
0.1394999999999982
  0
ARC
  5
7B72
330
1F
100
AcDbEntity
  8
0
  6
CONTINUOUS
 62
     7
100
AcDbCircle
 10
9.357094171545872
 20
10.3096750895126
 30
0.0
 40
0.0300000000000011
100
AcDbArc
 50
270.0000000000008
 51
0.0
  0
ARC
  5
7B73
330
1F
100
AcDbEntity
  8
0
  6
CONTINUOUS
 62
     7
100
AcDbCircle
 10
9.357094171545872
 20
10.3696750895126
 30
0.0
 40
0.0299999999999994
100
AcDbArc
 50
0.0
 51
90.0
  0
ARC
  5
7B74
330
1F
100
AcDbEntity
  8
0
  6
CONTINUOUS
 62
     7
100
AcDbCircle
 10
9.11709417154587
 20
10.3096750895126
 30
0.0
 40
0.0300000000000011
100
AcDbArc
 50
180.0
 51
270.0000000000008
  0
ARC
  5
7B75
330
1F
100
AcDbEntity
  8
0
  6
CONTINUOUS
 62
     7
100
AcDbCircle
 10
9.11709417154587
 20
10.3696750895126
 30
0.0
 40
0.0299999999999994
100
AcDbArc
 50
90.0
 51
180.0
  0
LINE
  5
7B76
330
1F
100
AcDbEntity
  8
0
  6
CONTINUOUS
 62
     7
100
AcDbLine
 10
9.387094298561326
 20
10.30967513969998
 30
0.0
 11
9.387094298561326
 21
10.36967504657593
 31
0.0
  0
LINE
  5
7B77
330
1F
100
AcDbEntity
  8
0
  6
CONTINUOUS
 62
     7
100
AcDbLine
 10
9.087094177521656
 20
10.36967504657593
 30
0.0
 11
9.087094177521656
 21
10.30967513969998
 31
0.0
  0
LINE
  5
7B78
330
1F
100
AcDbEntity
  8
0
  6
CONTINUOUS
 62
     7
100
AcDbLine
 10
8.837094198876076
 20
8.714675085276716
 30
0.0
 11
9.637094130541933
 21
8.714675085276716
 31
0.0
  0
LINE
  5
7B79
330
1F
100
AcDbEntity
  8
0
  6
CONTINUOUS
 62
     7
100
AcDbLine
 10
9.11709420429212
 20
10.27967511292951
 30
0.0
 11
9.357094271790861
 21
10.27967511292951
 31
0.0
  0
LINE
  5
7B7A
330
1F
100
AcDbEntity
  8
0
  6
CONTINUOUS
 62
     7
100
AcDbLine
 10
9.357094271790861
 20
10.3996750733464
 30
0.0
 11
9.11709420429212
 21
10.3996750733464
 31
0.0
  0
LINE
  5
7B7B
330
1F
100
AcDbEntity
  8
0
  6
CONTINUOUS
 62
     7
100
AcDbLine
 10
9.687094272936022
 20
10.33967501980547
 30
0.0
 11
9.687094272936022
 21
8.714675085276716
 31
0.0
  0
LINE
  5
7B7C
330
1F
100
AcDbEntity
  8
0
  6
CONTINUOUS
 62
     7
100
AcDbLine
 10
9.687094272936022
 20
8.714675085276716
 30
0.0
 11
9.637094130541933
 21
8.714675085276716
 31
0.0
  0
LINE
  5
7B7D
330
1F
100
AcDbEntity
  8
0
  6
CONTINUOUS
 62
     7
100
AcDbLine
 10
8.787094203146962
 20
8.714675085276716
 30
0.0
 11
8.787094203146962
 21
10.33967501980547
 31
0.0
  0
LINE
  5
7B7E
330
1F
100
AcDbEntity
  8
0
  6
CONTINUOUS
 62
     7
100
AcDbLine
 10
8.837094198876076
 20
8.714675085276716
 30
0.0
 11
8.787094203146962
 21
8.714675085276716
 31
0.0
  0
CIRCLE
  5
7B7F
330
1F
100
AcDbEntity
  8
0
  6
CONTINUOUS
 62
     7
100
AcDbCircle
 10
9.237094171545869
 20
9.464675089512603
 30
0.0
 40
0.0747499999999999
  0
LINE
  5
7B81
330
1F
100
AcDbEntity
  8
0
  6
CONTINUOUS
 62
     7
100
AcDbLine
 10
26.60089816058316
 20
13.9291680746714
 30
0.0
 11
26.60089816058316
 21
14.27635866510894
 31
0.0
  0
LINE
  5
7B82
330
1F
100
AcDbEntity
  8
0
  6
CONTINUOUS
 62
     7
100
AcDbLine
 10
21.2862707891424
 20
14.86322715608745
 30
0.0
 11
21.2862707891424
 21
14.51603656564992
 31
0.0
  0
LINE
  5
7B83
330
1F
100
AcDbEntity
  8
0
  6
CONTINUOUS
 62
     7
100
AcDbLine
 10
25.04263246361514
 20
15.09555811578312
 30
0.0
 11
25.04263246361514
 21
15.17592630413299
 31
0.0
  0
SPLINE
  5
7B84
330
1F
100
AcDbEntity
  8
0
  6
CONTINUOUS
 62
     7
100
AcDbSpline
210
0.0
220
0.0
230
1.0
 70
     8
 71
     3
 72
    15
 73
    11
 74
     0
 42
0.0000000001
 43
0.0000000001
 40
0.0
 40
0.0
 40
0.0
 40
0.0
 40
0.074938133442017
 40
0.2158459894993742
 40
0.3567761363717889
 40
0.4966376988992366
 40
0.6343116907352633
 40
0.7688493716442475
 40
0.899989351347995
 40
0.9999999999999998
 40
0.9999999999999998
 40
0.9999999999999998
 40
0.9999999999999998
 10
24.45139670086147
 20
14.18002006099629
 30
0.0
 10
24.44511595587524
 20
14.17626150340959
 30
0.0
 10
24.42702538497259
 20
14.16543564554351
 30
0.0
 10
24.39995577196903
 20
14.14554298491081
 30
0.0
 10
24.37189333061476
 20
14.11970872605414
 30
0.0
 10
24.34856398145354
 20
14.09171558176075
 30
0.0
 10
24.33030039219126
 20
14.06205912123106
 30
0.0
 10
24.31764342887877
 20
14.03127482530194
 30
0.0
 10
24.31042557340603
 20
14.00223270016621
 30
0.0
 10
24.30992097766722
 20
13.98353990614071
 30
0.0
 10
24.30970265705306
 20
13.97545219957073
 30
0.0
  0
LINE
  5
7B85
330
1F
100
AcDbEntity
  8
0
  6
CONTINUOUS
 62
     7
100
AcDbLine
 10
24.30923747573171
 20
13.97343596942771
 30
0.0
 11
24.30923747573171
 21
13.96735868083252
 31
0.0
  0
LINE
  5
7B86
330
1F
100
AcDbEntity
  8
0
  6
CONTINUOUS
 62
     7
100
AcDbLine
 10
25.60044522584835
 20
14.84335165506124
 30
0.0
 11
24.45139670086147
 21
14.18002006099629
 31
0.0
  0
LWPOLYLINE
  5
7B87
330
1F
100
AcDbEntity
  8
0
  6
CONTINUOUS
 62
     7
100
AcDbPolyline
 90
       34
 70
   128
 43
0.0
 10
23.92045289160429
 20
15.72868922181145
 10
23.94011040627715
 20
15.7149452132925
 10
23.95490699392831
 20
15.69930193556307
 10
23.96430785937798
 20
15.68232477872616
 10
23.96797324292126
 20
15.6646273500712
 10
23.96577069673849
 20
15.64684930000552
 10
23.95777977767311
 20
15.6296331376925
 10
23.94428932490191
 20
15.61360113649358
 10
23.92578692063031
 20
15.59933271088041
 10
23.90294128569381
 20
15.5873435669733
 10
23.87657812860495
 20
15.5780670158557
 10
23.84765026474435
 20
15.57183835518709
 10
23.81720323722624
 20
15.5688826858134
 10
23.78633748947963
 20
15.5693068443873
 10
23.7561685673814
 20
15.57309549690057
 10
23.72778686766777
 20
15.5801117149255
 10
23.70221815119077
 20
15.59010189985956
 10
23.68038658405224
 20
15.6027049953042
 10
23.66308120109517
 20
15.61746550114017
 10
23.65092745107696
 20
15.6338499001493
 10
23.64436458836982
 20
15.65126605564713
 10
23.64362984455834
 20
15.66908447254557
 10
23.64874976883841
 20
15.68666116740131
 10
23.65953929464713
 20
15.70336086774491
 10
23.67560850659649
 20
15.71857998690045
 10
23.69637656324504
 20
15.73176849122408
 10
23.72109287941539
 20
15.74244970185412
 10
23.74886411614821
 20
15.75023758195305
 10
23.7786866153156
 20
15.75485064133777
 10
23.8094824380804
 20
15.75612214418438
 10
23.84013861829716
 20
15.7540061558211
 10
23.86954709001384
 20
15.74857915919769
 10
23.89664497795072
 20
15.74003727096589
 10
23.92045289160429
 20
15.72868922181145
  0
LWPOLYLINE
  5
7B88
330
1F
100
AcDbEntity
  8
0
  6
CONTINUOUS
 62
     7
100
AcDbPolyline
 90
       34
 70
   128
 43
0.0
 10
24.87114954789236
 20
13.15491443791318
 10
24.89080715330954
 20
13.14117037700865
 10
24.90560366317985
 20
13.12552720405038
 10
24.91500456751994
 20
13.10854996489327
 10
24.9186699121728
 20
13.09085255868927
 10
24.91646746969784
 20
13.07307444875435
 10
24.9084764728516
 20
13.0558583912125
 10
24.89498605897083
 20
13.03982630769337
 10
24.87648355099143
 20
13.02555791201482
 10
24.85363807161663
 20
13.01356879804233
 10
24.82727482378344
 20
13.00429223944107
 10
24.79834688214199
 20
12.9980636236744
 10
24.76789982869694
 20
12.9951079393334
 10
24.73703431429287
 20
12.99553205300536
 10
24.70686519774252
 20
12.99932075790422
 10
24.67848358877321
 20
13.00633689360895
 10
24.65291495007705
 20
13.01632709351032
 10
24.63108342182895
 20
13.02893016650399
 10
24.61377780552934
 20
13.04369074717651
 10
24.60162418514587
 20
13.06007510128371
 10
24.59506145207349
 20
13.07749124181423
 10
24.59432657862725
 20
13.09530964374537
 10
24.59944652883427
 20
13.11288635356842
 10
24.61023597686215
 20
13.12958609881395
 10
24.6263051888115
 20
13.14480527783872
 10
24.64707319360616
 20
13.15799369235849
 10
24.67178945792262
 20
13.16867496285777
 10
24.69956085021713
 20
13.17646281302209
 10
24.72938337531147
 20
13.18107579757025
 10
24.76017909436846
 20
13.1823473602861
 10
24.79083522273133
 20
13.18023140185745
 10
24.82024385000971
 20
13.17480437529942
 10
24.84734176387354
 20
13.16626241223107
 10
24.87114954789236
 20
13.15491443791318
  0
LWPOLYLINE
  5
7B89
330
1F
100
AcDbEntity
  8
0
  6
CONTINUOUS
 62
     7
100
AcDbPolyline
 90
       34
 70
   128
 43
0.0
 10
21.86455381108642
 20
14.89058521198003
 10
21.88421131279581
 20
14.87684121094473
 10
21.89900797822781
 20
14.86119794818261
 10
21.90840877886011
 20
14.84422076889474
 10
21.91207417536686
 20
14.82652333275612
 10
21.9098716291841
 20
14.80874528269044
 10
21.90188076197261
 20
14.79152915031205
 10
21.88839024438404
 20
14.77549712666216
 10
21.86988781418549
 20
14.76122868608168
 10
21.84704228295679
 20
14.7492396020438
 10
21.82067908697749
 20
14.73996301350793
 10
21.7917512231169
 20
14.73373435283932
 10
21.76130414374489
 20
14.73077868346563
 10
21.73043847377913
 20
14.73120288694146
 10
21.70026951279048
 20
14.73499150203646
 10
21.67188780011338
 20
14.74200769761042
 10
21.64631910956332
 20
14.75199792744641
 10
21.62448758131522
 20
14.76460100044008
 10
21.60718212057729
 20
14.77936149130875
 10
21.59502839648603
 20
14.79574590528518
 10
21.58846561155975
 20
14.81316207575032
 10
21.58773078996741
 20
14.83098044774684
 10
21.59285074017444
 20
14.84855715756989
 10
21.60364024005621
 20
14.8652568728808
 10
21.61970950385946
 20
14.88047602197095
 10
21.64047745680022
 20
14.89366446642534
 10
21.66519377297058
 20
14.90434570699
 10
21.69296511341119
 20
14.91213358708893
 10
21.72278753479773
 20
14.91674663150635
 10
21.75358335756253
 20
14.91801813435295
 10
21.78423953777929
 20
14.91590214598968
 10
21.81364806134987
 20
14.91047517930089
 10
21.8407459233598
 20
14.90193324616716
 10
21.86455381108642
 20
14.89058521198003
  0
LWPOLYLINE
  5
7B8A
330
1F
100
AcDbEntity
  8
0
  6
CONTINUOUS
 62
     7
100
AcDbPolyline
 90
       34
 70
   128
 43
0.0
 10
26.32294565785211
 20
14.34175966948218
 10
26.3426030558537
 20
14.32801572831612
 10
26.3573997212857
 20
14.31237240568477
 10
26.36680067747969
 20
14.29539519646227
 10
26.37046602213255
 20
14.27769779025828
 10
26.36826337224199
 20
14.25991980006183
 10
26.36027253095745
 20
14.24270359284688
 10
26.34678196151499
 20
14.22667165900085
 10
26.32827968687813
 20
14.21240315855114
 10
26.30543410379553
 20
14.20041398470941
 10
26.27907090781623
 20
14.19113745604277
 10
26.25014296617479
 20
14.18490884027609
 10
26.21969593865669
 20
14.18195317090239
 10
26.18883013905617
 20
14.18237735941092
 10
26.15866128177532
 20
14.18616597450592
 10
26.13027949131736
 20
14.19318224491643
 10
26.10471080076731
 20
14.20317241488317
 10
26.0828792725192
 20
14.21577548787685
 10
26.06557391548908
 20
14.23053597874552
 10
26.05342026917867
 20
14.24692031788541
 10
26.04685727683679
 20
14.26433654821978
 10
26.0461224811714
 20
14.28215499505285
 10
26.05124240545148
 20
14.29973168990859
 10
26.06203206089495
 20
14.31643131541564
 10
26.0781012209904
 20
14.3316504645058
 10
26.09886932949286
 20
14.34483893889481
 10
26.12358556788236
 20
14.35552019442677
 10
26.15135690832298
 20
14.36330801465647
 10
26.18117927785562
 20
14.36792114887773
 10
26.21197520432821
 20
14.36919259185511
 10
26.24263133269108
 20
14.36707663342645
 10
26.27203990811555
 20
14.3616495769338
 10
26.29913766641769
 20
14.35310776353854
 10
26.32294565785211
 20
14.34175966948218
  0
LWPOLYLINE
  5
7B8B
330
1F
100
AcDbEntity
  8
0
  6
CONTINUOUS
 62
     7
100
AcDbPolyline
 90
       25
 70
   128
 43
0.0
 10
22.43544791179698
 20
15.01123202120911
 10
22.45377686477888
 20
15.00311288462415
 10
22.47512138121446
 20
14.99800897233597
 10
22.49802685554957
 20
14.99626812460915
 10
22.52093238173855
 20
14.99800900227059
 10
22.54227687224719
 20
15.00311286965684
 10
22.56060585115605
 20
15.01123205114373
 10
22.57467015805588
 20
15.02181311550827
 10
22.58351132549114
 20
15.03413505753425
 10
22.58652688894482
 20
15.04735810640739
 10
22.58351132549114
 20
15.06058115528053
 10
22.57467013212893
 20
15.0729030823392
 10
22.56060585115605
 20
15.08348416167105
 10
22.54227689817414
 20
15.09160329825601
 10
22.52093238173855
 20
15.09670721054418
 10
22.49802690740346
 20
15.09844805827101
 10
22.47512140714142
 20
15.0967072255115
 10
22.45377689070584
 20
15.09160331322332
 10
22.43544796365088
 20
15.08348416167105
 10
22.42138360489714
 20
15.07290306737189
 10
22.41254246338883
 20
15.06058117024784
 10
22.4095268740082
 20
15.04735807647277
 10
22.41254243746189
 20
15.03413502759963
 10
22.4213836308241
 20
15.02181310054096
 10
22.43544791179698
 20
15.01123202120911
  0
LWPOLYLINE
  5
7B8C
330
1F
100
AcDbEntity
  8
0
  6
CONTINUOUS
 62
     7
100
AcDbPolyline
 90
       25
 70
   128
 43
0.0
 10
25.08013864750068
 20
13.48448455722088
 10
25.09846765233648
 20
13.47636539070131
 10
25.11981211691816
 20
13.47126150834775
 10
25.14271764310716
 20
13.46952063068631
 10
25.16562316929615
 20
13.47126150834775
 10
25.18696747831614
 20
13.47636548050515
 10
25.20529658685974
 20
13.48448458715551
 10
25.21936076412483
 20
13.49506572635659
 10
25.22820211304874
 20
13.50738756361141
 10
25.23121767650242
 20
13.52061061248455
 10
25.22820206119484
 20
13.5338336912923
 10
25.21936091968653
 20
13.54615558841636
 10
25.20529658685974
 20
13.55673669768282
 10
25.18696758202394
 20
13.5648558642024
 10
25.16562311744226
 20
13.56995974655596
 10
25.14271759125326
 20
13.5717006242174
 10
25.11981211691816
 20
13.56995977649058
 10
25.09846754862868
 20
13.56485589413703
 10
25.08013869935458
 20
13.55673669768282
 10
25.06607426282
 20
13.54615564828559
 10
25.05723317316558
 20
13.53383372122692
 10
25.05421755785801
 20
13.52061064241917
 10
25.05723317316558
 20
13.50738756361141
 10
25.0660743146739
 20
13.49506566648735
 10
25.08013864750068
 20
13.48448455722088
  0
LINE
  5
7B8D
330
1F
100
AcDbEntity
  8
0
  6
CONTINUOUS
 62
     7
100
AcDbLine
 10
22.49982407277305
 20
14.84430781128108
 30
0.0
 11
22.31611233555085
 21
14.95036233974534
 31
0.0
  0
LINE
  5
7B8E
330
1F
100
AcDbEntity
  8
0
  6
CONTINUOUS
 62
     7
100
AcDbLine
 10
22.31611233555085
 20
14.95036233974534
 30
0.0
 11
22.06515740939049
 21
14.91154366556624
 31
0.0
  0
LINE
  5
7B8F
330
1F
100
AcDbEntity
  8
0
  6
CONTINUOUS
 62
     7
100
AcDbLine
 10
22.06515740939049
 20
14.91154366556624
 30
0.0
 11
21.99791431119665
 21
14.76667053027576
 31
0.0
  0
LINE
  5
7B90
330
1F
100
AcDbEntity
  8
0
  6
CONTINUOUS
 62
     7
100
AcDbLine
 10
21.99791431119665
 20
14.76667053027576
 30
0.0
 11
22.18162604841884
 21
14.6606160018115
 31
0.0
  0
LINE
  5
7B91
330
1F
100
AcDbEntity
  8
0
  6
CONTINUOUS
 62
     7
100
AcDbLine
 10
22.18162604841884
 20
14.6606160018115
 30
0.0
 11
22.43258087735314
 21
14.69943461237954
 31
0.0
  0
LINE
  5
7B92
330
1F
100
AcDbEntity
  8
0
  6
CONTINUOUS
 62
     7
100
AcDbLine
 10
22.43258087735314
 20
14.69943461237954
 30
0.0
 11
22.49982407277305
 21
14.84430781128108
 31
0.0
  0
LINE
  5
7B93
330
1F
100
AcDbEntity
  8
0
  6
CONTINUOUS
 62
     7
100
AcDbLine
 10
24.97469784183401
 20
13.41559359543935
 30
0.0
 11
24.79098611757529
 21
13.52164811641996
 31
0.0
  0
LINE
  5
7B94
330
1F
100
AcDbEntity
  8
0
  6
CONTINUOUS
 62
     7
100
AcDbLine
 10
24.79098611757529
 20
13.52164811641996
 30
0.0
 11
24.54003119141493
 21
13.48282944224086
 31
0.0
  0
LINE
  5
7B95
330
1F
100
AcDbEntity
  8
0
  6
CONTINUOUS
 62
     7
100
AcDbLine
 10
24.54003119141493
 20
13.48282944224086
 30
0.0
 11
24.47278809322108
 21
13.33795630695038
 31
0.0
  0
LINE
  5
7B96
330
1F
100
AcDbEntity
  8
0
  6
CONTINUOUS
 62
     7
100
AcDbLine
 10
24.47278809322108
 20
13.33795630695038
 30
0.0
 11
24.6564998174798
 21
13.23190178596977
 31
0.0
  0
LINE
  5
7B97
330
1F
100
AcDbEntity
  8
0
  6
CONTINUOUS
 62
     7
100
AcDbLine
 10
24.6564998174798
 20
13.23190178596977
 30
0.0
 11
24.90745463993237
 21
13.27072040027964
 31
0.0
  0
LINE
  5
7B98
330
1F
100
AcDbEntity
  8
0
  6
CONTINUOUS
 62
     7
100
AcDbLine
 10
24.90745463993237
 20
13.27072040027964
 30
0.0
 11
24.97469784183401
 21
13.41559359543935
 31
0.0
  0
LWPOLYLINE
  5
7B99
330
1F
100
AcDbEntity
  8
0
  6
CONTINUOUS
 62
     7
100
AcDbPolyline
 90
       29
 70
   128
 43
0.0
 10
24.43396829453075
 20
14.2102022905777
 10
24.39959496761677
 20
14.18799762889734
 10
24.36974428585567
 20
14.16371080497238
 10
24.34479172332482
 20
14.13764730158249
 10
24.32505109981651
 20
14.11013484292876
 10
24.31077058808785
 20
14.08151941332941
 10
24.30212986189634
 20
14.05216085683094
 10
24.29923739959714
 20
14.02242844688461
 10
24.30212986189634
 20
13.99269597706904
 10
24.31077063994175
 20
13.96333745050518
 10
24.32505109981651
 20
13.93472205084045
 10
24.34479177517872
 20
13.9072095622521
 10
24.36974428585567
 20
13.88114608879684
 10
24.39959501947067
 20
13.85685923493726
 10
24.43396834638465
 20
13.8346545732569
 10
24.47243211620948
 20
13.81481127400595
 10
24.51450263578213
 20
13.79757887216251
 10
24.55965099534027
 20
13.78317397462455
 10
24.60730897986671
 20
13.77177804504815
 10
24.65687788425206
 20
13.76353399130106
 10
24.70773385424628
 20
13.75854577631258
 10
24.75923747942985
 20
13.75687605323882
 10
24.81074110461341
 20
13.75854583618181
 10
24.86159712646153
 20
13.76353402123567
 10
24.91116577157739
 20
13.77177804504815
 10
24.95882401537333
 20
13.78317400455917
 10
25.00397221936977
 20
13.79757881229328
 10
25.04604268708852
 20
13.81481130394058
 10
25.08450656062115
 20
13.83465454332228
  0
LINE
  5
7B9A
330
1F
100
AcDbEntity
  8
0
  6
CONTINUOUS
 62
     7
100
AcDbLine
 10
25.08450656062115
 20
13.83465454332228
 30
0.0
 11
26.23355508560803
 21
14.49798613738722
 31
0.0
  0
LINE
  5
7B9B
330
1F
100
AcDbEntity
  8
0
  6
CONTINUOUS
 62
     7
100
AcDbLine
 10
26.58918239451665
 20
14.29268686187222
 30
0.0
 11
26.23355508560803
 21
14.49798613738722
 31
0.0
  0
LWPOLYLINE
  5
7B9C
330
1F
100
AcDbEntity
  8
0
  6
CONTINUOUS
 62
     7
100
AcDbPolyline
 90
        9
 70
   128
 43
0.0
 10
26.59366433435941
 20
14.26311391363753
 10
26.59715057564765
 20
14.2665997400685
 10
26.59953523272112
 20
14.27038215869752
 10
26.60074596939175
 20
14.27434613078649
 10
26.60074596939175
 20
14.27837125930063
 10
26.59953523272112
 20
14.28233517152035
 10
26.59715052379375
 20
14.28611756021475
 10
26.59366428250551
 20
14.28960338664573
 10
26.58918239451665
 20
14.29268686187222
  0
LINE
  5
7B9D
330
1F
100
AcDbEntity
  8
0
  6
CONTINUOUS
 62
     7
100
AcDbLine
 10
24.85652498554871
 20
12.83092553838232
 30
0.0
 11
26.59366433435941
 21
14.26311391363753
 31
0.0
  0
ARC
  5
7B9E
330
1F
100
AcDbEntity
  8
0
  6
CONTINUOUS
 62
     7
100
AcDbCircle
 10
24.82343283385425
 20
12.88020791992438
 30
0.0
 40
0.059361971279825
100
AcDbArc
 50
241.9022480810217
 51
303.8805853118594
  0
LINE
  5
7B9F
330
1F
100
AcDbEntity
  8
0
  6
CONTINUOUS
 62
     7
100
AcDbLine
 10
21.29798650335501
 20
14.84689898925878
 30
0.0
 11
24.79547469471702
 21
12.82784203322121
 31
0.0
  0
LWPOLYLINE
  5
7BA0
330
1F
100
AcDbEntity
  8
0
  6
CONTINUOUS
 62
     7
100
AcDbPolyline
 90
        9
 70
   128
 43
0.0
 10
21.30332776599983
 20
14.88214263184441
 10
21.29677975943455
 20
14.87882761234541
 10
21.29162978582043
 20
14.87477293836303
 10
21.28812212887221
 20
14.87017093981977
 10
21.28642303218771
 20
14.86523972034452
 10
21.28661297301706
 20
14.86021312917539
 10
21.28868308434365
 20
14.85532941593938
 10
21.29253515488416
 20
14.85082009497435
 10
21.29798650335501
 20
14.84689898925878
  0
LINE
  5
7BA1
330
1F
100
AcDbEntity
  8
0
  6
CONTINUOUS
 62
     7
100
AcDbLine
 10
23.78421971145706
 20
15.88497177222387
 30
0.0
 11
21.30332776599983
 21
14.88214263184441
 31
0.0
  0
ARC
  5
7BA2
330
1F
100
AcDbEntity
  8
0
  6
CONTINUOUS
 62
     7
100
AcDbCircle
 10
23.80695451221553
 20
15.82667852589757
 30
0.0
 40
0.062569750940733
100
AcDbArc
 50
62.9111462107274
 51
111.3061544641508
  0
LINE
  5
7BA3
330
1F
100
AcDbEntity
  8
0
  6
CONTINUOUS
 62
     7
100
AcDbLine
 10
25.03091674940253
 20
15.19225447096165
 30
0.0
 11
23.83544700721677
 21
15.88238446329557
 31
0.0
  0
ARC
  5
7BA4
330
1F
100
AcDbEntity
  8
0
  6
CONTINUOUS
 62
     7
100
AcDbCircle
 10
25.02471968230812
 20
15.17592630413299
 30
0.0
 40
0.0174646120070643
100
AcDbArc
 50
290.7833725821032
 51
69.2166274178996
  0
ARC
  5
7BA5
330
1F
100
AcDbEntity
  8
0
  6
CONTINUOUS
 62
     7
100
AcDbCircle
 10
25.00609651019853
 20
15.21423581966958
 30
0.0
 40
0.0600110040608338
100
AcDbArc
 50
269.2175627371148
 51
294.4308554536515
  0
LINE
  5
7BA6
330
1F
100
AcDbEntity
  8
0
  6
CONTINUOUS
 62
     7
100
AcDbLine
 10
25.00527701901185
 20
15.15423041122513
 30
0.0
 11
24.75979869417079
 21
15.15423041122513
 31
0.0
  0
ARC
  5
7BA7
330
1F
100
AcDbEntity
  8
0
  6
CONTINUOUS
 62
     7
100
AcDbCircle
 10
24.75864617595849
 20
15.09652614507422
 30
0.0
 40
0.0577157745356015
100
AcDbArc
 50
88.85579255770204
 51
118.0403103549636
  0
LINE
  5
7BA8
330
1F
100
AcDbEntity
  8
0
  6
CONTINUOUS
 62
     7
100
AcDbLine
 10
24.73151441496852
 20
15.14746707337189
 30
0.0
 11
24.16880330016253
 21
14.82262086134044
 31
0.0
  0
ARC
  5
7BA9
330
1F
100
AcDbEntity
  8
0
  6
CONTINUOUS
 62
     7
100
AcDbCircle
 10
24.17500036158195
 20
14.80629270071363
 30
0.0
 40
0.0174646041950852
100
AcDbArc
 50
110.783362395335
 51
249.2166830937029
  0
LINE
  5
7BAA
330
1F
100
AcDbEntity
  8
0
  6
CONTINUOUS
 62
     7
100
AcDbLine
 10
24.16880331312601
 20
14.78996453516676
 30
0.0
 11
24.69685064140687
 21
14.48512930115063
 31
0.0
  0
ARC
  5
7BAB
330
1F
100
AcDbEntity
  8
0
  6
CONTINUOUS
 62
     7
100
AcDbCircle
 10
24.72513486653536
 20
14.53971767606371
 30
0.0
 40
0.0614807942919707
100
AcDbArc
 50
242.6096810360043
 51
297.3903644432105
  0
LINE
  5
7BAC
330
1F
100
AcDbEntity
  8
0
  6
CONTINUOUS
 62
     7
100
AcDbLine
 10
24.75341913499403
 20
14.48512932360159
 30
0.0
 11
25.31613024980002
 21
14.80997553563304
 31
0.0
  0
ARC
  5
7BAD
330
1F
100
AcDbEntity
  8
0
  6
CONTINUOUS
 62
     7
100
AcDbCircle
 10
25.30782761477059
 20
14.82829999287947
 30
0.0
 40
0.0201176410597237
100
AcDbArc
 50
294.374822216652
 51
354.305119452848
  0
LINE
  5
7BAE
330
1F
100
AcDbEntity
  8
0
  6
CONTINUOUS
 62
     7
100
AcDbLine
 10
25.32784596401262
 20
14.8263037024617
 30
0.0
 11
25.32784591215873
 21
14.96801535291041
 31
0.0
  0
ARC
  5
7BAF
330
1F
100
AcDbEntity
  8
0
  6
CONTINUOUS
 62
     7
100
AcDbCircle
 10
25.34653603621249
 20
14.96659557592423
 30
0.0
 40
0.0187439724667903
100
AcDbArc
 50
120.0702795514467
 51
175.6559252265925
  0
ARC
  5
7BB0
330
1F
100
AcDbEntity
  8
0
  6
CONTINUOUS
 62
     7
100
AcDbCircle
 10
25.36542842794238
 20
14.92822841735373
 30
0.0
 40
0.0614808489470459
100
AcDbArc
 50
62.60970820377839
 51
117.3903524351638
  0
LINE
  5
7BB1
330
1F
100
AcDbEntity
  8
0
  6
CONTINUOUS
 62
     7
100
AcDbLine
 10
25.58301681951764
 20
14.87353388464264
 30
0.0
 11
25.39371265233089
 21
14.98281685420614
 31
0.0
  0
LINE
  5
7BB2
330
1F
100
AcDbEntity
  8
0
  6
CONTINUOUS
 62
     7
100
AcDbLine
 10
25.58301681951764
 20
14.87353388464264
 30
0.0
 11
24.43396829453075
 21
14.2102022905777
 31
0.0
  0
LINE
  5
7BB3
330
1F
100
AcDbEntity
  8
0
  6
CONTINUOUS
 62
     7
100
AcDbLine
 10
24.79547469471702
 20
12.48065144278367
 30
0.0
 11
24.79547469471702
 21
12.82784203322121
 31
0.0
  0
LINE
  5
7BB4
330
1F
100
AcDbEntity
  8
0
  6
CONTINUOUS
 62
     7
100
AcDbLine
 10
24.85652498554871
 20
12.83092553838232
 30
0.0
 11
24.85652498554871
 21
12.48373494794479
 31
0.0
  0
ARC
  5
7BB5
330
1F
100
AcDbEntity
  8
0
  6
CONTINUOUS
 62
     7
100
AcDbCircle
 10
24.82343283385425
 20
12.53301732948684
 30
0.0
 40
0.0593619712798206
100
AcDbArc
 50
241.9022480810185
 51
303.8805853118623
  0
LINE
  5
7BB6
330
1F
100
AcDbEntity
  8
0
  6
CONTINUOUS
 62
     7
100
AcDbLine
 10
21.29798650335501
 20
14.84689898925878
 30
0.0
 11
21.29798650335501
 21
14.49970839882126
 31
0.0
  0
LINE
  5
7BB7
330
1F
100
AcDbEntity
  8
0
  6
CONTINUOUS
 62
     7
100
AcDbLine
 10
21.29798650335501
 20
14.49970839882126
 30
0.0
 11
24.79547469471702
 21
12.48065144278367
 31
0.0
  0
LINE
  5
7BB8
330
1F
100
AcDbEntity
  8
0
  6
CONTINUOUS
 62
     7
100
AcDbLine
 10
26.59366433435941
 20
13.9159233232
 30
0.0
 11
26.59366433435941
 21
14.26311391363753
 31
0.0
  0
LINE
  5
7BB9
330
1F
100
AcDbEntity
  8
0
  6
CONTINUOUS
 62
     7
100
AcDbLine
 10
24.85652498554871
 20
12.48373494794479
 30
0.0
 11
26.59366433435941
 21
13.9159233232
 31
0.0
  0
LWPOLYLINE
  5
7BBA
330
1F
100
AcDbEntity
  8
0
  6
CONTINUOUS
 62
     7
100
AcDbPolyline
 90
        3
 70
   128
 43
0.0
 10
24.87114954789236
 20
13.07454624956331
 10
24.89080715330954
 20
13.06080218865878
 10
24.9030418731899
 20
13.04843733535748
  0
ARC
  5
7BBB
330
1F
100
AcDbEntity
  8
0
  6
CONTINUOUS
 62
     7
100
AcDbCircle
 10
24.75878039738979
 20
12.87703655851468
 30
0.0
 40
0.2272375498081077
100
AcDbArc
 50
60.36316199192894
 51
131.0374880222584
  0
LINE
  5
7BBC
330
1F
100
AcDbEntity
  8
0
  6
CONTINUOUS
 62
     7
100
AcDbLine
 10
24.54003119141493
 20
13.31952127884337
 30
0.0
 11
24.5325693117466
 21
13.30344525130458
 31
0.0
  0
LINE
  5
7BBD
330
1F
100
AcDbEntity
  8
0
  6
CONTINUOUS
 62
     7
100
AcDbLine
 10
24.79098611757529
 20
13.35833995302247
 30
0.0
 11
24.54003119141493
 21
13.31952127884337
 31
0.0
  0
LINE
  5
7BBE
330
1F
100
AcDbEntity
  8
0
  6
CONTINUOUS
 62
     7
100
AcDbLine
 10
24.9149163121851
 20
13.28679657451785
 30
0.0
 11
24.79098611757529
 21
13.35833995302247
 31
0.0
  0
ARC
  5
7BBF
330
1F
100
AcDbEntity
  8
0
  6
CONTINUOUS
 62
     7
100
AcDbCircle
 10
24.72390192356662
 20
13.09991615292032
 30
0.0
 40
0.1938166452345306
100
AcDbArc
 50
55.35673835534361
 51
125.4269189999144
  0
LINE
  5
7BC0
330
1F
100
AcDbEntity
  8
0
  6
CONTINUOUS
 62
     7
100
AcDbLine
 10
24.54003119141493
 20
13.31952127884337
 30
0.0
 11
24.54003119141493
 21
13.48282944224086
 31
0.0
  0
LINE
  5
7BC1
330
1F
100
AcDbEntity
  8
0
  6
CONTINUOUS
 62
     7
100
AcDbLine
 10
24.79098611757529
 20
13.35833995302247
 30
0.0
 11
24.79098611757529
 21
13.52164811641996
 31
0.0
  0
LWPOLYLINE
  5
7BC2
330
1F
100
AcDbEntity
  8
0
  6
CONTINUOUS
 62
     7
100
AcDbPolyline
 90
        3
 70
   128
 43
0.0
 10
26.32294565785211
 20
14.26139148113231
 10
26.3426030558537
 20
14.24764753996625
 10
26.35483772388016
 20
14.23528265673034
  0
ARC
  5
7BC3
330
1F
100
AcDbEntity
  8
0
  6
CONTINUOUS
 62
     7
100
AcDbCircle
 10
26.21057638759447
 20
14.06388101850965
 30
0.0
 40
0.2272382796618017
100
AcDbArc
 50
60.36323194948709
 51
131.037357143368
  0
LINE
  5
7BC4
330
1F
100
AcDbEntity
  8
0
  6
CONTINUOUS
 62
     7
100
AcDbLine
 10
25.58301681951764
 20
14.83329041298625
 30
0.0
 11
25.58301681951764
 21
14.87353388464264
 31
0.0
  0
ARC
  5
7BC5
330
1F
100
AcDbEntity
  8
0
  6
CONTINUOUS
 62
     7
100
AcDbCircle
 10
26.58364472262009
 20
13.92999349826077
 30
0.0
 40
0.017273171267815
100
AcDbArc
 50
305.4553166954458
 51
357.2609948016335
  0
LINE
  5
7BC6
330
1F
100
AcDbEntity
  8
0
  6
CONTINUOUS
 62
     7
100
AcDbLine
 10
24.73151441496852
 20
15.06709888502203
 30
0.0
 11
24.21012746713222
 21
14.76610860679434
 31
0.0
  0
ARC
  5
7BC7
330
1F
100
AcDbEntity
  8
0
  6
CONTINUOUS
 62
     7
100
AcDbCircle
 10
24.7586461759585
 20
15.0161579567243
 30
0.0
 40
0.0577157745356687
100
AcDbArc
 50
88.85579255771395
 51
118.0403103549406
  0
LINE
  5
7BC8
330
1F
100
AcDbEntity
  8
0
  6
CONTINUOUS
 62
     7
100
AcDbLine
 10
25.00527701901185
 20
15.07386222287527
 30
0.0
 11
24.75979869417079
 21
15.07386222287527
 31
0.0
  0
ARC
  5
7BC9
330
1F
100
AcDbEntity
  8
0
  6
CONTINUOUS
 62
     7
100
AcDbCircle
 10
25.00609651019854
 20
15.13386763131971
 30
0.0
 40
0.060011004060826
100
AcDbArc
 50
269.2175627371079
 51
294.4308554536474
  0
ARC
  5
7BCA
330
1F
100
AcDbEntity
  8
0
  6
CONTINUOUS
 62
     7
100
AcDbCircle
 10
25.02261448313325
 20
15.09755414160974
 30
0.0
 40
0.0201172478652966
100
AcDbArc
 50
294.3741765744288
 51
354.3057650950713
  0
LINE
  5
7BCB
330
1F
100
AcDbEntity
  8
0
  6
CONTINUOUS
 62
     7
100
AcDbLine
 10
25.32784596401262
 20
14.94047269565817
 30
0.0
 11
25.04263251546904
 21
15.10512291482393
 31
0.0
  0
LINE
  5
7BCC
330
1F
100
AcDbEntity
  8
0
  6
CONTINUOUS
 62
     7
100
AcDbLine
 10
22.06515740939049
 20
14.74823550216875
 30
0.0
 11
22.05769563342996
 21
14.73215941476073
 31
0.0
  0
LINE
  5
7BCD
330
1F
100
AcDbEntity
  8
0
  6
CONTINUOUS
 62
     7
100
AcDbLine
 10
22.31611233555085
 20
14.78705417634786
 30
0.0
 11
22.06515740939049
 21
14.74823550216875
 31
0.0
  0
LINE
  5
7BCE
330
1F
100
AcDbEntity
  8
0
  6
CONTINUOUS
 62
     7
100
AcDbLine
 10
22.44004265979541
 20
14.7155107230067
 30
0.0
 11
22.31611233555085
 21
14.78705417634786
 31
0.0
  0
ARC
  5
7BCF
330
1F
100
AcDbEntity
  8
0
  6
CONTINUOUS
 62
     7
100
AcDbCircle
 10
22.24902809536016
 20
14.52863019446321
 30
0.0
 40
0.1938168210412031
100
AcDbArc
 50
55.35675767183274
 51
125.4268840865041
  0
LWPOLYLINE
  5
7BD0
330
1F
100
AcDbEntity
  8
0
  6
CONTINUOUS
 62
     7
100
AcDbPolyline
 90
        3
 70
   128
 43
0.0
 10
21.86455381108642
 20
14.81021702363016
 10
21.88421131279581
 20
14.79647302259487
 10
21.89644603267616
 20
14.78410816929356
  0
ARC
  5
7BD1
330
1F
100
AcDbEntity
  8
0
  6
CONTINUOUS
 62
     7
100
AcDbCircle
 10
21.75218461523077
 20
14.61270729411158
 30
0.0
 40
0.2272376056724494
100
AcDbArc
 50
60.36315684916097
 51
131.0374779346838
  0
LINE
  5
7BD2
330
1F
100
AcDbEntity
  8
0
  6
CONTINUOUS
 62
     7
100
AcDbLine
 10
22.06515740939049
 20
14.74823550216875
 30
0.0
 11
22.06515740939049
 21
14.91154366556624
 31
0.0
  0
LINE
  5
7BD3
330
1F
100
AcDbEntity
  8
0
  6
CONTINUOUS
 62
     7
100
AcDbLine
 10
24.73151441496852
 20
15.06709888502203
 30
0.0
 11
24.73151441496852
 21
15.14746707337189
 31
0.0
  0
LINE
  5
7BD4
330
1F
100
AcDbEntity
  8
0
  6
CONTINUOUS
 62
     7
100
AcDbLine
 10
22.31611233555085
 20
14.78705417634786
 30
0.0
 11
22.31611233555085
 21
14.95036233974534
 31
0.0
  0
ARC
  5
7BD5
330
1F
100
AcDbEntity
  8
0
  6
CONTINUOUS
 62
     7
100
AcDbCircle
 10
21.3059493655539
 20
14.51778906376562
 30
0.0
 40
0.0197564576589243
100
AcDbArc
 50
185.0891155529461
 51
246.2309427775581
  0
LINE
  5
7BD6
330
1F
100
AcDbEntity
  8
0
  6
CONTINUOUS
 62
     7
100
AcDbLine
 10
24.75979869417079
 20
15.15423041122513
 30
0.0
 11
24.75979869417079
 21
15.07386222287527
 31
0.0
  0
LINE
  5
7BD7
330
1F
100
AcDbEntity
  8
0
  6
CONTINUOUS
 62
     7
100
AcDbLine
 10
25.00527701901185
 20
15.07386222287527
 30
0.0
 11
25.00527701901185
 21
15.15423041122513
 31
0.0
  0
LINE
  5
7BD8
330
1F
100
AcDbEntity
  8
0
  6
CONTINUOUS
 62
     7
100
AcDbLine
 10
25.03091674940253
 20
15.07922994895446
 30
0.0
 11
25.03091674940253
 21
15.15959813730433
 31
0.0
  0
LWPOLYLINE
  5
7BD9
330
1F
100
AcDbEntity
  8
0
  6
CONTINUOUS
 62
     7
100
AcDbPolyline
 90
        3
 70
   128
 43
0.0
 10
23.92045289160429
 20
15.64832103346158
 10
23.94011040627715
 20
15.63457702494263
 10
23.95234506134014
 20
15.62221214919037
  0
ARC
  5
7BDA
330
1F
100
AcDbEntity
  8
0
  6
CONTINUOUS
 62
     7
100
AcDbCircle
 10
23.80808369613174
 20
15.45081105369303
 30
0.0
 40
0.2272378229945952
100
AcDbArc
 50
60.36318813516765
 51
131.0374390335083
  0
LWPOLYLINE
  5
7BDB
330
1F
100
AcDbEntity
  8
0
  6
CONTINUOUS
 62
     7
100
AcDbPolyline
 90
       27
 70
   128
 43
0.0
 10
24.4763947392611
 20
14.17754461682328
 10
24.44436406776299
 20
14.15667270421855
 10
24.41692490339467
 20
14.13372413733899
 10
24.39447750639686
 20
14.1090335552825
 10
24.37734907486762
 20
14.08296095176866
 10
24.36578954459659
 20
14.05588661618826
 10
24.35996728519144
 20
14.02820529635274
 10
24.35996723333755
 20
14.00032069052439
 10
24.36578954459659
 20
13.97263940062348
 10
24.37734912672151
 20
13.94556503510847
 10
24.39447755825076
 20
13.91949249146387
 10
24.41692490339467
 20
13.89480193934199
 10
24.44436406776299
 20
13.87185331259319
 10
24.4763947392611
 20
13.85098139998847
 10
24.51254986982732
 20
13.83249048692276
 10
24.55230236458576
 20
13.81665019450303
 10
24.59507239324602
 20
13.80369155811328
 10
24.64023625711975
 20
13.79380352506414
 10
24.68713551540675
 20
13.78713032034658
 10
24.73508611148111
 20
13.7837691716008
 10
24.78338879552469
 20
13.78376926140465
 10
24.83133954716074
 20
13.78713032034658
 10
24.87823864988605
 20
13.79380355499876
 10
24.92340261746758
 20
13.80369158804789
 10
24.96617259427393
 20
13.81665019450303
 10
25.00592508903238
 20
13.83249042705352
 10
25.0420801158908
 20
13.85098139998847
  0
LINE
  5
7BDC
330
1F
100
AcDbEntity
  8
0
  6
CONTINUOUS
 62
     7
100
AcDbLine
 10
24.30923747573171
 20
13.97343596942771
 30
0.0
 11
24.3092466020178
 21
13.97509051565001
 31
0.0
  0
LINE
  5
7BDD
330
1F
100
AcDbEntity
  8
0
  6
CONTINUOUS
 62
     7
100
AcDbLine
 10
25.62544326424798
 20
14.84087621088821
 30
0.0
 11
24.4763947392611
 21
14.17754461682328
 31
0.0
  0
LINE
  5
7BDE
330
1F
100
AcDbEntity
  8
0
  6
CONTINUOUS
 62
     7
100
AcDbLine
 10
26.19112864087768
 20
14.51431299405341
 30
0.0
 11
25.62544326424798
 21
14.84087621088821
 31
0.0
  0
LINE
  5
7BDF
330
1F
100
AcDbEntity
  8
0
  6
CONTINUOUS
 62
     7
100
AcDbLine
 10
25.0420801158908
 20
13.85098139998847
 30
0.0
 11
26.19112864087768
 21
14.51431299405341
 31
0.0
  0
LWPOLYLINE
  5
7BE0
330
1F
100
AcDbEntity
  8
0
  6
CONTINUOUS
 62
     7
100
AcDbPolyline
 90
       31
 70
   128
 43
0.0
 10
25.63286786096345
 20
14.51859912250444
 10
25.65553216281771
 20
14.50800406370585
 10
25.68151698090135
 20
14.50036079774789
 10
25.70968661113455
 20
14.49600345483994
 10
25.73881011975331
 20
14.4951223443178
 10
25.76761454540908
 20
14.49775599203521
 10
25.79484084952502
 20
14.50378943409061
 10
25.81929937404014
 20
14.51295881179107
 10
25.83992104713389
 20
14.52486345027074
 10
25.85580457027356
 20
14.53898304096176
 10
25.86625593088474
 20
14.55470045177339
 10
25.8708180887081
 20
14.57132892269277
 10
25.86929176921263
 20
14.58814155138388
 10
25.86174381207318
 20
14.6044035327715
 10
25.84850385252104
 20
14.61940424895197
 10
25.83015068376864
 20
14.63248807191543
 10
25.80748638191439
 20
14.64308313071402
 10
25.78150166753854
 20
14.65072633680274
 10
25.75333193359755
 20
14.65508373957993
 10
25.72420845090574
 20
14.65596486506938
 10
25.69540397339606
 20
14.65333118741735
 10
25.66817756557233
 20
14.64729780523119
 10
25.64371906698416
 20
14.63812844249803
 10
25.62309739389041
 20
14.62622380401837
 10
25.6072138448238
 20
14.61210419836004
 10
25.59676258792042
 20
14.59638672767917
 10
25.59220048195094
 20
14.57975828669441
 10
25.59372677551946
 20
14.56294564303598
 10
25.60127483636671
 20
14.54668360177913
 10
25.61451469221106
 20
14.5316829454679
 10
25.63286786096345
 20
14.51859912250444
  0
LWPOLYLINE
  5
7BE1
330
1F
100
AcDbEntity
  8
0
  6
CONTINUOUS
 62
     7
100
AcDbPolyline
 90
       31
 70
   128
 43
0.0
 10
25.27931448223872
 20
14.31449710140033
 10
25.30197876880013
 20
14.30390203377337
 10
25.32796360349323
 20
14.29625877740384
 10
25.35613322967534
 20
14.29190143215724
 10
25.38525672046932
 20
14.29102031134507
 10
25.41406115908857
 20
14.29365396654614
 10
25.44128746320451
 20
14.29968740860155
 10
25.46574598123789
 20
14.30885678256018
 10
25.48636764784991
 20
14.32076141729802
 10
25.50225119691651
 20
14.33488102295634
 10
25.51270255752769
 20
14.35059843376798
 10
25.51726467646064
 20
14.3672268822364
 10
25.51573835696517
 20
14.38403951092751
 10
25.50819039982572
 20
14.40030149231513
 10
25.49495045323705
 20
14.41530221597925
 10
25.47659727152119
 20
14.42838603145906
 10
25.4539329826304
 20
14.4389810977413
 10
25.42794825529108
 20
14.44662429634638
 10
25.39977852135008
 20
14.45098169912356
 10
25.37065503865828
 20
14.45186282461301
 10
25.34185060003903
 20
14.44922916941195
 10
25.31462419221529
 20
14.44319578722578
 10
25.29016566770017
 20
14.43402640952531
 10
25.26954400108816
 20
14.42212177478747
 10
25.25366045850328
 20
14.40800217287097
 10
25.2432092015999
 20
14.39228470219011
 10
25.23864708266696
 20
14.37565625372169
 10
25.24017339406026
 20
14.35884362035329
 10
25.24772145895858
 20
14.34258158143508
 10
25.26096129819348
 20
14.32758091553542
 10
25.27931448223872
 20
14.31449710140033
  0
LINE
  5
7BE2
330
1F
100
AcDbEntity
  8
0
  6
CONTINUOUS
 62
     7
100
AcDbLine
 10
24.84409036889054
 20
13.94078624270957
 30
0.0
 11
24.88651676176699
 21
13.96527847798526
 31
0.0
  0
ARC
  5
7BE3
330
1F
100
AcDbEntity
  8
0
  6
CONTINUOUS
 62
     7
100
AcDbCircle
 10
24.88186866132014
 20
13.97752461059041
 30
0.0
 40
0.0130985725003532
100
AcDbArc
 50
290.7845883516126
 51
69.21541164839641
  0
LINE
  5
7BE4
330
1F
100
AcDbEntity
  8
0
  6
CONTINUOUS
 62
     7
100
AcDbLine
 10
24.88651676176699
 20
13.98977074319557
 30
0.0
 11
24.7168110865534
 21
14.08773974416755
 31
0.0
  0
ARC
  5
7BE5
330
1F
100
AcDbEntity
  8
0
  6
CONTINUOUS
 62
     7
100
AcDbCircle
 10
24.69559786418822
 20
14.04679826554309
 30
0.0
 40
0.046110795645613
100
AcDbArc
 50
62.60973485543374
 51
117.3902651445583
  0
LINE
  5
7BE6
330
1F
100
AcDbEntity
  8
0
  6
CONTINUOUS
 62
     7
100
AcDbLine
 10
24.67438464182305
 20
14.08773974416755
 30
0.0
 11
24.63195824894661
 21
14.06324750889186
 31
0.0
  0
ARC
  5
7BE7
330
1F
100
AcDbEntity
  8
0
  6
CONTINUOUS
 62
     7
100
AcDbCircle
 10
24.63660607088927
 20
14.05100137628671
 30
0.0
 40
0.0130984736741999
100
AcDbArc
 50
110.7834493911382
 51
249.2165506088625
  0
LINE
  5
7BE8
330
1F
100
AcDbEntity
  8
0
  6
CONTINUOUS
 62
     7
100
AcDbLine
 10
24.63195824894661
 20
14.03875524368156
 30
0.0
 11
24.80166392416019
 21
13.94078624270957
 31
0.0
  0
ARC
  5
7BE9
330
1F
100
AcDbEntity
  8
0
  6
CONTINUOUS
 62
     7
100
AcDbCircle
 10
24.82287714652537
 20
13.98172862507252
 30
0.0
 40
0.0461115980710768
100
AcDbArc
 50
242.6102514612221
 51
297.3897485387755
  0
ARC
  5
7BEA
330
1F
100
AcDbEntity
  8
0
  6
CONTINUOUS
 62
     7
100
AcDbCircle
 10
26.15295469164291
 20
14.45311351947375
 30
0.0
 40
0.0721292318620234
100
AcDbArc
 50
28.85736394078087
 51
58.04562388899394
  0
ARC
  5
7BEB
330
1F
100
AcDbEntity
  8
0
  6
CONTINUOUS
 62
     7
100
AcDbCircle
 10
25.61079716438356
 20
14.820431842348
 30
0.0
 40
0.0251491639273872
100
AcDbArc
 50
54.38264345240715
 51
114.3067405599428
  0
LWPOLYLINE
  5
7BEC
330
1F
100
AcDbEntity
  8
0
  6
CONTINUOUS
 62
     7
100
AcDbPolyline
 90
       14
 70
   128
 43
0.0
 10
25.45153866776837
 20
14.30302422767884
 10
25.45251541372307
 20
14.30754197523891
 10
25.45099763715734
 20
14.31979306950705
 10
25.44356235853882
 20
14.33130110422896
 10
25.4308121072019
 20
14.34113366843039
 10
25.41377976094615
 20
14.3484942318532
 10
25.39384510015053
 20
14.3527865268356
 10
25.37262328300172
 20
14.35366272059668
 10
25.35183338289852
 20
14.35105193544399
 10
25.3331599061348
 20
14.34516555842643
 10
25.31811545684993
 20
14.33648058271919
 10
25.30791884147746
 20
14.32570061029975
 10
25.30339633892279
 20
14.31369885643468
 10
25.30437316914007
 20
14.3030242351625
  0
LWPOLYLINE
  5
7BED
330
1F
100
AcDbEntity
  8
0
  6
CONTINUOUS
 62
     7
100
AcDbPolyline
 90
       14
 70
   128
 43
0.0
 10
25.80509208001583
 20
14.50712626813521
 10
25.80606880004358
 20
14.51164400072798
 10
25.80455103644132
 20
14.52389510247977
 10
25.79711575782281
 20
14.53540313720167
 10
25.78436550648589
 20
14.5452357014031
 10
25.76733316023014
 20
14.55259626482591
 10
25.74739849943452
 20
14.55688855980832
 10
25.72617666932224
 20
14.55776474608575
 10
25.70538678218251
 20
14.55515396841671
 10
25.68671331190052
 20
14.54926759514098
 10
25.67166883668871
 20
14.54058260446642
 10
25.66147223427972
 20
14.52980263953064
 10
25.65694974468851
 20
14.51780089314923
 10
25.65792656842406
 20
14.50712626813521
  0
LINE
  5
7BEE
330
1F
100
AcDbEntity
  8
0
  6
CONTINUOUS
 62
     8
100
AcDbLine
 10
24.43396829453075
 20
14.16933856637568
 30
0.0
 11
24.43396829453075
 21
14.2102022905777
 31
0.0
  0
LINE
  5
7BEF
330
1F
100
AcDbEntity
  8
0
  6
CONTINUOUS
 62
     8
100
AcDbLine
 10
24.16880330016253
 20
14.82262086134044
 30
0.0
 11
24.16880330016253
 21
14.78996453767992
 31
0.0
  0
ARC
  5
7BF0
330
1F
100
AcDbEntity
  8
0
  6
CONTINUOUS
 62
     8
100
AcDbCircle
 10
25.0039867043767
 20
13.78988317738466
 30
0.0
 40
0.0720007000391451
100
AcDbArc
 50
29.17977429503783
 51
58.05735893916342
  0
LINE
  5
7BF1
330
1F
100
AcDbEntity
  8
0
  6
CONTINUOUS
 62
     8
100
AcDbLine
 10
24.30937634047127
 20
13.96698176637759
 30
0.0
 11
24.30923747573171
 21
13.97343596942771
 31
0.0
  0
ARC
  5
7BF2
330
1F
100
AcDbEntity
  8
0
  6
CONTINUOUS
 62
     8
100
AcDbCircle
 10
24.46188162260836
 20
14.15843880681513
 30
0.0
 40
0.0239929683666625
100
AcDbArc
 50
52.77904318495693
 51
115.9252772739685
  0
LINE
  5
7BF3
330
1F
100
AcDbEntity
  8
0
  6
CONTINUOUS
 62
     8
100
AcDbLine
 10
24.88651676176699
 20
13.96527849951457
 30
0.0
 11
24.88651676176699
 21
13.98977074319557
 31
0.0
  0
LINE
  5
7BF4
330
1F
100
AcDbEntity
  8
0
  6
CONTINUOUS
 62
     8
100
AcDbLine
 10
24.7168110865534
 20
13.98977076757236
 30
0.0
 11
24.7168110865534
 21
14.08773974416755
 31
0.0
  0
LINE
  5
7BF5
330
1F
100
AcDbEntity
  8
0
  6
CONTINUOUS
 62
     8
100
AcDbLine
 10
24.63195824894661
 20
14.03875526521087
 30
0.0
 11
24.63195824894661
 21
14.06324750889186
 31
0.0
  0
LINE
  5
7BF6
330
1F
100
AcDbEntity
  8
0
  6
CONTINUOUS
 62
     8
100
AcDbLine
 10
24.67438464182305
 20
14.01426301686701
 30
0.0
 11
24.67438464182305
 21
14.08773974416755
 31
0.0
  0
CIRCLE
  5
7BF7
330
1F
100
AcDbEntity
  8
0
  6
CONTINUOUS
 62
     7
100
AcDbCircle
 10
6.444049843981987
 20
15.86221999885946
 30
0.0
 40
0.1624015748031482
  0
CIRCLE
  5
7BF8
330
1F
100
AcDbEntity
  8
0
  6
CONTINUOUS
 62
     7
100
AcDbCircle
 10
10.26885299358828
 20
13.38190503822954
 30
0.0
 40
0.16240157480315
  0
CIRCLE
  5
7BF9
330
1F
100
AcDbEntity
  8
0
  6
CONTINUOUS
 62
     7
100
AcDbCircle
 10
6.016884489651278
 20
13.38190503822954
 30
0.0
 40
0.16240157480315
  0
CIRCLE
  5
7BFA
330
1F
100
AcDbEntity
  8
0
  6
CONTINUOUS
 62
     7
100
AcDbCircle
 10
9.841687639257578
 20
15.86221999885946
 30
0.0
 40
0.1624015748031482
  0
CIRCLE
  5
7BFB
330
1F
100
AcDbEntity
  8
0
  6
CONTINUOUS
 62
     7
100
AcDbCircle
 10
6.272790001462302
 20
14.18426724295395
 30
0.0
 40
0.0884999999999998
  0
CIRCLE
  5
7BFC
330
1F
100
AcDbEntity
  8
0
  6
CONTINUOUS
 62
     7
100
AcDbCircle
 10
10.01294748177726
 20
14.18426724295395
 30
0.0
 40
0.0884999999999998
  0
LINE
  5
7BFD
330
1F
100
AcDbEntity
  8
0
  6
CONTINUOUS
 62
     7
100
AcDbLine
 10
6.522772547272323
 20
13.93682630242488
 30
0.0
 11
6.262964916925572
 21
13.93682630242488
 31
0.0
  0
LINE
  5
7BFE
330
1F
100
AcDbEntity
  8
0
  6
CONTINUOUS
 62
     7
100
AcDbLine
 10
6.262964916925572
 20
13.93682630242488
 30
0.0
 11
6.133061110918758
 21
13.71182624831137
 31
0.0
  0
LINE
  5
7BFF
330
1F
100
AcDbEntity
  8
0
  6
CONTINUOUS
 62
     7
100
AcDbLine
 10
6.133061110918758
 20
13.71182624831137
 30
0.0
 11
6.262964916925572
 21
13.48682634086284
 31
0.0
  0
LINE
  5
7C00
330
1F
100
AcDbEntity
  8
0
  6
CONTINUOUS
 62
     7
100
AcDbLine
 10
6.262964916925572
 20
13.48682634086284
 30
0.0
 11
6.522772547272323
 21
13.48682634086284
 31
0.0
  0
LINE
  5
7C01
330
1F
100
AcDbEntity
  8
0
  6
CONTINUOUS
 62
     7
100
AcDbLine
 10
6.522772547272323
 20
13.48682634086284
 30
0.0
 11
6.652676362445697
 21
13.71182624831137
 31
0.0
  0
LINE
  5
7C02
330
1F
100
AcDbEntity
  8
0
  6
CONTINUOUS
 62
     7
100
AcDbLine
 10
6.652676362445697
 20
13.71182624831137
 30
0.0
 11
6.522772547272323
 21
13.93682630242488
 31
0.0
  0
LINE
  5
7C03
330
1F
100
AcDbEntity
  8
0
  6
CONTINUOUS
 62
     7
100
AcDbLine
 10
10.02277259663975
 20
13.93682630242488
 30
0.0
 11
9.762964984626123
 21
13.93682630242488
 31
0.0
  0
LINE
  5
7C04
330
1F
100
AcDbEntity
  8
0
  6
CONTINUOUS
 62
     7
100
AcDbLine
 10
9.762964984626123
 20
13.93682630242488
 30
0.0
 11
9.633061178619309
 21
13.71182624831137
 31
0.0
  0
LINE
  5
7C05
330
1F
100
AcDbEntity
  8
0
  6
CONTINUOUS
 62
     7
100
AcDbLine
 10
9.633061178619309
 20
13.71182624831137
 30
0.0
 11
9.762964984626123
 21
13.48682634086284
 31
0.0
  0
LINE
  5
7C06
330
1F
100
AcDbEntity
  8
0
  6
CONTINUOUS
 62
     7
100
AcDbLine
 10
9.762964984626123
 20
13.48682634086284
 30
0.0
 11
10.02277259663975
 21
13.48682634086284
 31
0.0
  0
LINE
  5
7C07
330
1F
100
AcDbEntity
  8
0
  6
CONTINUOUS
 62
     7
100
AcDbLine
 10
10.02277259663975
 20
13.48682634086284
 30
0.0
 11
10.15267640264656
 21
13.71182624831137
 31
0.0
  0
LINE
  5
7C08
330
1F
100
AcDbEntity
  8
0
  6
CONTINUOUS
 62
     7
100
AcDbLine
 10
10.15267640264656
 20
13.71182624831137
 30
0.0
 11
10.02277259663975
 21
13.93682630242488
 31
0.0
  0
ARC
  5
7C09
330
1F
100
AcDbEntity
  8
0
  6
CONTINUOUS
 62
     7
100
AcDbCircle
 10
9.127120710123721
 20
14.52777117996183
 30
0.0
 40
0.4600000000000027
100
AcDbArc
 50
180.0
 51
0.0
  0
LINE
  5
7C0A
330
1F
100
AcDbEntity
  8
0
  6
CONTINUOUS
 62
     7
100
AcDbLine
 10
9.58712072266071
 20
14.52777115577951
 30
0.0
 11
9.58712072266071
 21
16.15277116364075
 31
0.0
  0
LINE
  5
7C0B
330
1F
100
AcDbEntity
  8
0
  6
CONTINUOUS
 62
     7
100
AcDbLine
 10
10.09005368606953
 20
16.15277116364075
 30
0.0
 11
9.58712072266071
 21
16.15277116364075
 31
0.0
  0
ARC
  5
7C0C
330
1F
100
AcDbEntity
  8
0
  6
CONTINUOUS
 62
     7
100
AcDbCircle
 10
10.09005373947065
 20
16.11277117996183
 30
0.0
 40
0.0400000000000027
100
AcDbArc
 50
10.00000000000101
 51
90.0
  0
LINE
  5
7C0D
330
1F
100
AcDbEntity
  8
0
  6
CONTINUOUS
 62
     7
100
AcDbLine
 10
10.65535856895261
 20
13.13711867404897
 30
0.0
 11
10.12944613767123
 21
16.1197171321504
 31
0.0
  0
ARC
  5
7C0E
330
1F
100
AcDbEntity
  8
0
  6
CONTINUOUS
 62
     7
100
AcDbCircle
 10
10.61596631445144
 20
13.13017275476497
 30
0.0
 40
0.0400000000000009
100
AcDbArc
 50
270.0000000000008
 51
9.999999999997919
  0
LINE
  5
7C0F
330
1F
100
AcDbEntity
  8
0
  6
CONTINUOUS
 62
     7
100
AcDbLine
 10
5.669771176216951
 20
13.09017268303974
 30
0.0
 11
10.61596641068086
 21
13.09017268303974
 31
0.0
  0
ARC
  5
7C10
330
1F
100
AcDbEntity
  8
0
  6
CONTINUOUS
 62
     7
100
AcDbCircle
 10
5.669771168788118
 20
13.13017275476497
 30
0.0
 40
0.0400000000000009
100
AcDbArc
 50
170.0000000000018
 51
270.0000000000008
  0
LINE
  5
7C11
330
1F
100
AcDbEntity
  8
0
  6
CONTINUOUS
 62
     7
100
AcDbLine
 10
6.156291449226573
 20
16.1197171321504
 30
0.0
 11
5.630378871280218
 21
13.13711867404897
 31
0.0
  0
ARC
  5
7C12
330
1F
100
AcDbEntity
  8
0
  6
CONTINUOUS
 62
     7
100
AcDbCircle
 10
6.195683743768913
 20
16.11277117996183
 30
0.0
 40
0.0399999999999992
100
AcDbArc
 50
90.0
 51
169.999999999999
  0
LINE
  5
7C13
330
1F
100
AcDbEntity
  8
0
  6
CONTINUOUS
 62
     7
100
AcDbLine
 10
7.886333276969082
 20
16.15277116364075
 30
0.0
 11
6.195683754163304
 21
16.15277116364075
 31
0.0
  0
ARC
  5
7C14
330
1F
100
AcDbEntity
  8
0
  6
CONTINUOUS
 62
     7
100
AcDbCircle
 10
7.886333308548914
 20
16.11277117996183
 30
0.0
 40
0.0400000000000027
100
AcDbArc
 50
0.0
 51
90.0
  0
ARC
  5
7C15
330
1F
100
AcDbEntity
  8
0
  6
CONTINUOUS
 62
     7
100
AcDbCircle
 10
7.886493782676518
 20
16.11635059028514
 30
0.0
 40
0.0400000000000008
100
AcDbArc
 50
315.0000000000027
 51
354.8660049337018
  0
LINE
  5
7C16
330
1F
100
AcDbEntity
  8
0
  6
CONTINUOUS
 62
     7
100
AcDbLine
 10
7.914778068372424
 20
16.08806631778332
 30
0.0
 11
7.741198680242995
 21
15.91448692965389
 31
0.0
  0
ARC
  5
7C17
330
1F
100
AcDbEntity
  8
0
  6
CONTINUOUS
 62
     7
100
AcDbCircle
 10
7.769482914848129
 20
15.8862026374669
 30
0.0
 40
0.0400000000000009
100
AcDbArc
 50
135.0000000000018
 51
180.0
  0
LINE
  5
7C18
330
1F
100
AcDbEntity
  8
0
  6
CONTINUOUS
 62
     7
100
AcDbLine
 10
7.729482935584277
 20
15.88620266306281
 30
0.0
 11
7.729482935584277
 21
15.0904089728061
 31
0.0
  0
ARC
  5
7C19
330
1F
100
AcDbEntity
  8
0
  6
CONTINUOUS
 62
     7
100
AcDbCircle
 10
7.769482914848129
 20
15.09040897523742
 30
0.0
 40
0.0400000000000009
100
AcDbArc
 50
180.0
 51
270.0000000000008
  0
LINE
  5
7C1A
330
1F
100
AcDbEntity
  8
0
  6
CONTINUOUS
 62
     7
100
AcDbLine
 10
7.769482946834067
 20
15.05040897988943
 30
0.0
 11
8.516254640063742
 21
15.05040897988943
 31
0.0
  0
ARC
  5
7C1B
330
1F
100
AcDbEntity
  8
0
  6
CONTINUOUS
 62
     7
100
AcDbCircle
 10
8.516254568391435
 20
15.09040897523742
 30
0.0
 40
0.0400000000000009
100
AcDbArc
 50
270.0000000000008
 51
0.0
  0
LINE
  5
7C1C
330
1F
100
AcDbEntity
  8
0
  6
CONTINUOUS
 62
     7
100
AcDbLine
 10
8.556254577981047
 20
15.0904089728061
 30
0.0
 11
8.556254577981047
 21
15.88620266306281
 31
0.0
  0
ARC
  5
7C1D
330
1F
100
AcDbEntity
  8
0
  6
CONTINUOUS
 62
     7
100
AcDbCircle
 10
8.516254568391435
 20
15.8862026374669
 30
0.0
 40
0.0400000000000014
100
AcDbArc
 50
0.0
 51
44.99999999999642
  0
LINE
  5
7C1E
330
1F
100
AcDbEntity
  8
0
  6
CONTINUOUS
 62
     7
100
AcDbLine
 10
8.544538833322329
 20
15.91448692965389
 30
0.0
 11
8.370959371860413
 21
16.08806631778332
 31
0.0
  0
ARC
  5
7C1F
330
1F
100
AcDbEntity
  8
0
  6
CONTINUOUS
 62
     7
100
AcDbCircle
 10
8.399243700563046
 20
16.11635059028514
 30
0.0
 40
0.0400000000000008
100
AcDbArc
 50
185.1339950662995
 51
224.999999999999
  0
ARC
  5
7C20
330
1F
100
AcDbEntity
  8
0
  6
CONTINUOUS
 62
     7
100
AcDbCircle
 10
8.39940417469065
 20
16.11277117996183
 30
0.0
 40
0.0400000000000027
100
AcDbArc
 50
90.0
 51
180.0
  0
LINE
  5
7C21
330
1F
100
AcDbEntity
  8
0
  6
CONTINUOUS
 62
     7
100
AcDbLine
 10
8.667120683912997
 20
16.15277116364075
 30
0.0
 11
8.399404163263755
 21
16.15277116364075
 31
0.0
  0
LINE
  5
7C22
330
1F
100
AcDbEntity
  8
0
  6
CONTINUOUS
 62
     7
100
AcDbLine
 10
8.667120683912997
 20
16.15277116364075
 30
0.0
 11
8.667120683912997
 21
14.52777115577951
 31
0.0
  0
LINE
  5
7C23
330
1F
100
AcDbEntity
  8
0
  6
CONTINUOUS
 62
     7
100
AcDbLine
 10
8.399404163263755
 20
16.15277116364075
 30
0.0
 11
7.886333276969082
 21
16.15277116364075
 31
0.0
  0
CIRCLE
  5
7C24
330
1F
100
AcDbEntity
  8
0
  6
CONTINUOUS
 62
     7
100
AcDbCircle
 10
6.392868741619782
 20
13.71182629807206
 30
0.0
 40
0.1360039370078745
  0
CIRCLE
  5
7C25
330
1F
100
AcDbEntity
  8
0
  6
CONTINUOUS
 62
     7
100
AcDbCircle
 10
9.892868741619782
 20
13.71182629807206
 30
0.0
 40
0.1360039370078745
  0
CIRCLE
  5
7C26
330
1F
100
AcDbEntity
  8
0
  6
CONTINUOUS
 62
     7
100
AcDbCircle
 10
9.127120710123721
 20
15.40277117996183
 30
0.0
 40
0.0532500000000003
  0
CIRCLE
  5
7C27
330
1F
100
AcDbEntity
  8
0
  6
CONTINUOUS
 62
     7
100
AcDbCircle
 10
9.127120710123721
 20
15.90277117996183
 30
0.0
 40
0.0532500000000003
  0
LINE
  5
7C28
330
1F
100
AcDbEntity
  8
0
  6
CONTINUOUS
 62
     7
100
AcDbLine
 10
9.58712072266071
 20
16.15277116364075
 30
0.0
 11
9.57712081151387
 21
16.15277116364075
 31
0.0
  0
LINE
  5
7C29
330
1F
100
AcDbEntity
  8
0
  6
CONTINUOUS
 62
     7
100
AcDbLine
 10
8.677120741724809
 20
16.15277116364075
 30
0.0
 11
8.667120683912997
 21
16.15277116364075
 31
0.0
  0
LINE
  5
7C2A
330
1F
100
AcDbEntity
  8
0
  6
CONTINUOUS
 62
     7
100
AcDbLine
 10
9.527120669119781
 20
14.52777115577951
 30
0.0
 11
9.527120669119781
 21
16.15277116364075
 31
0.0
  0
LINE
  5
7C2B
330
1F
100
AcDbEntity
  8
0
  6
CONTINUOUS
 62
     7
100
AcDbLine
 10
9.57712081151387
 20
16.15277116364075
 30
0.0
 11
9.57712081151387
 21
14.52777115577951
 31
0.0
  0
LINE
  5
7C2C
330
1F
100
AcDbEntity
  8
0
  6
CONTINUOUS
 62
     7
100
AcDbLine
 10
9.527120669119781
 20
14.52777115577951
 30
0.0
 11
9.57712081151387
 21
14.52777115577951
 31
0.0
  0
LINE
  5
7C2D
330
1F
100
AcDbEntity
  8
0
  6
CONTINUOUS
 62
     7
100
AcDbLine
 10
9.527120669119781
 20
16.15277116364075
 30
0.0
 11
9.57712081151387
 21
16.15277116364075
 31
0.0
  0
LINE
  5
7C2E
330
1F
100
AcDbEntity
  8
0
  6
CONTINUOUS
 62
     7
100
AcDbLine
 10
8.727120737453924
 20
16.15277116364075
 30
0.0
 11
8.727120737453924
 21
14.52777115577951
 31
0.0
  0
ARC
  5
7C2F
330
1F
100
AcDbEntity
  8
0
  6
CONTINUOUS
 62
     7
100
AcDbCircle
 10
9.127120710123721
 20
14.52777117996183
 30
0.0
 40
0.4000000000000004
100
AcDbArc
 50
180.0
 51
0.0
  0
CIRCLE
  5
7C30
330
1F
100
AcDbEntity
  8
0
  6
CONTINUOUS
 62
     7
100
AcDbCircle
 10
9.127120710123721
 20
15.90277117996183
 30
0.0
 40
0.1394999999999982
  0
CIRCLE
  5
7C31
330
1F
100
AcDbEntity
  8
0
  6
CONTINUOUS
 62
     7
100
AcDbCircle
 10
9.127120710123721
 20
15.40277117996183
 30
0.0
 40
0.1395
  0
LINE
  5
7C32
330
1F
100
AcDbEntity
  8
0
  6
CONTINUOUS
 62
     7
100
AcDbLine
 10
9.277120837139174
 20
14.49777120234153
 30
0.0
 11
9.277120837139174
 21
14.55777118254997
 31
0.0
  0
ARC
  5
7C33
330
1F
100
AcDbEntity
  8
0
  6
CONTINUOUS
 62
     7
100
AcDbCircle
 10
9.24712071012372
 20
14.55777117996183
 30
0.0
 40
0.0299999999999994
100
AcDbArc
 50
0.0
 51
90.0
  0
LINE
  5
7C34
330
1F
100
AcDbEntity
  8
0
  6
CONTINUOUS
 62
     7
100
AcDbLine
 10
9.247120810368709
 20
14.58777120932043
 30
0.0
 11
9.007120742869968
 21
14.58777120932043
 31
0.0
  0
ARC
  5
7C35
330
1F
100
AcDbEntity
  8
0
  6
CONTINUOUS
 62
     7
100
AcDbCircle
 10
9.007120710123718
 20
14.55777117996183
 30
0.0
 40
0.0299999999999994
100
AcDbArc
 50
90.0
 51
180.0
  0
LINE
  5
7C36
330
1F
100
AcDbEntity
  8
0
  6
CONTINUOUS
 62
     7
100
AcDbLine
 10
8.977120716099506
 20
14.55777118254997
 30
0.0
 11
8.977120716099506
 21
14.49777120234153
 31
0.0
  0
ARC
  5
7C37
330
1F
100
AcDbEntity
  8
0
  6
CONTINUOUS
 62
     7
100
AcDbCircle
 10
9.007120710123718
 20
14.49777117996183
 30
0.0
 40
0.0300000000000029
100
AcDbArc
 50
180.0
 51
270.0000000000008
  0
LINE
  5
7C38
330
1F
100
AcDbEntity
  8
0
  6
CONTINUOUS
 62
     7
100
AcDbLine
 10
9.007120742869968
 20
14.46777117557106
 30
0.0
 11
9.247120810368709
 21
14.46777117557106
 31
0.0
  0
ARC
  5
7C39
330
1F
100
AcDbEntity
  8
0
  6
CONTINUOUS
 62
     7
100
AcDbCircle
 10
9.24712071012372
 20
14.49777117996183
 30
0.0
 40
0.0300000000000029
100
AcDbArc
 50
270.0000000000008
 51
0.0
  0
LINE
  5
7C3A
330
1F
100
AcDbEntity
  8
0
  6
CONTINUOUS
 62
     7
100
AcDbLine
 10
9.527120669119781
 20
16.15277116364075
 30
0.0
 11
8.727120737453924
 21
16.15277116364075
 31
0.0
  0
LINE
  5
7C3B
330
1F
100
AcDbEntity
  8
0
  6
CONTINUOUS
 62
     7
100
AcDbLine
 10
8.727120737453924
 20
14.52777115577951
 30
0.0
 11
8.677120741724809
 21
14.52777115577951
 31
0.0
  0
LINE
  5
7C3C
330
1F
100
AcDbEntity
  8
0
  6
CONTINUOUS
 62
     7
100
AcDbLine
 10
8.677120741724809
 20
14.52777115577951
 30
0.0
 11
8.677120741724809
 21
16.15277116364075
 31
0.0
  0
LINE
  5
7C3D
330
1F
100
AcDbEntity
  8
0
  6
CONTINUOUS
 62
     7
100
AcDbLine
 10
8.677120741724809
 20
16.15277116364075
 30
0.0
 11
8.727120737453924
 21
16.15277116364075
 31
0.0
  0
CIRCLE
  5
7C3E
330
1F
100
AcDbEntity
  8
0
  6
CONTINUOUS
 62
     7
100
AcDbCircle
 10
9.127120710123721
 20
15.90277117996183
 30
0.0
 40
0.0747499999999999
  0
CIRCLE
  5
7C3F
330
1F
100
AcDbEntity
  8
0
  6
CONTINUOUS
 62
     7
100
AcDbCircle
 10
9.127120710123721
 20
15.40277117996183
 30
0.0
 40
0.0747499999999999
  0
ARC
  5
7C40
330
1F
100
AcDbEntity
  8
0
  6
CONTINUOUS
 62
     7
100
AcDbCircle
 10
9.127120710123721
 20
14.52777117996183
 30
0.0
 40
0.4500000000000029
100
AcDbArc
 50
180.0
 51
0.0
  0
LINE
  5
7C41
330
1F
100
AcDbEntity
  8
0
  6
CONTINUOUS
 62
     7
100
AcDbLine
 10
17.18125598965871
 20
13.09017268303974
 30
0.0
 11
16.75605912823581
 21
13.09017268303974
 31
0.0
  0
LINE
  5
7C42
330
1F
100
AcDbEntity
  8
0
  6
CONTINUOUS
 62
     7
100
AcDbLine
 10
16.75605912823581
 20
13.09017268303974
 30
0.0
 11
16.75605912823581
 21
13.13711867404898
 31
0.0
  0
LINE
  5
7C43
330
1F
100
AcDbEntity
  8
0
  6
CONTINUOUS
 62
     7
100
AcDbLine
 10
16.75605912823581
 20
13.13711867404898
 30
0.0
 11
17.18125598965871
 21
13.13711867404898
 31
0.0
  0
LINE
  5
7C44
330
1F
100
AcDbEntity
  8
0
  6
CONTINUOUS
 62
     7
100
AcDbLine
 10
17.18125598965871
 20
13.13711867404898
 30
0.0
 11
17.18125598965871
 21
13.09017268303974
 31
0.0
  0
LINE
  5
7C45
330
1F
100
AcDbEntity
  8
0
  6
CONTINUOUS
 62
     7
100
AcDbLine
 10
17.18125598965871
 20
16.11971713215041
 30
0.0
 11
16.75605912823581
 21
16.11971713215041
 31
0.0
  0
LINE
  5
7C46
330
1F
100
AcDbEntity
  8
0
  6
CONTINUOUS
 62
     7
100
AcDbLine
 10
16.75605912823581
 20
13.13711867404898
 30
0.0
 11
16.75605912823581
 21
16.11971713215041
 31
0.0
  0
LINE
  5
7C47
330
1F
100
AcDbEntity
  8
0
  6
CONTINUOUS
 62
     7
100
AcDbLine
 10
17.18125598965871
 20
13.13711867404898
 30
0.0
 11
17.18125598965871
 21
16.11971713215041
 31
0.0
  0
LINE
  5
7C48
330
1F
100
AcDbEntity
  8
0
  6
CONTINUOUS
 62
     7
100
AcDbLine
 10
16.75605912823581
 20
16.15277116364075
 30
0.0
 11
17.18125598965871
 21
16.15277116364075
 31
0.0
  0
LINE
  5
7C49
330
1F
100
AcDbEntity
  8
0
  6
CONTINUOUS
 62
     7
100
AcDbLine
 10
16.75605912823581
 20
16.11971713215041
 30
0.0
 11
16.75605912823581
 21
16.15277116364075
 31
0.0
  0
LINE
  5
7C4A
330
1F
100
AcDbEntity
  8
0
  6
CONTINUOUS
 62
     7
100
AcDbLine
 10
17.18125598965871
 20
16.15277116364075
 30
0.0
 11
17.18125598965871
 21
16.11971713215041
 31
0.0
  0
DIMENSION
  5
7C9B
330
1F
100
AcDbEntity
  8
DIM
100
AcDbDimension
  2
*D23
 10
10.00284220304193
 20
5.550048666445803
 30
0.0
 11
8.252842203041934
 21
5.550048666445803
 31
0.0
 70
    32
  3
STANDARD
100
AcDbAlignedDimension
 13
6.502842203041932
 23
7.27373020762284
 33
0.0
 14
10.00284220304193
 24
7.27373020762284
 34
0.0
100
AcDbRotatedDimension
1001
ACAD
1000
DSTYLE
1002
{
1070
    41
1040
0.2
1070
    42
1040
0.2
1070
    43
1040
0.2
1070
    44
1040
0.2
1070
    78
1070
     4
1070
    79
1070
     1
1070
   140
1040
0.2
1070
   141
1040
0.2
1070
   147
1040
0.2
1070
   170
1070
     1
1070
   179
1070
     1
1070
   271
1070
     3
1070
   272
1070
     3
1070
   285
1070
     4
1002
}
  0
DIMENSION
  5
7CA9
330
1F
100
AcDbEntity
  8
DIM
100
AcDbDimension
  2
*D24
 10
10.76533208599409
 20
4.966355479581778
 30
0.0
 11
8.25284220934823
 21
4.966355479581778
 31
0.0
 70
    32
  3
STANDARD
100
AcDbAlignedDimension
 13
5.74035233270237
 23
6.699022583599749
 33
0.0
 14
10.76533208599409
 24
6.699022591422426
 34
0.0
100
AcDbRotatedDimension
1001
ACAD
1000
DSTYLE
1002
{
1070
    41
1040
0.2
1070
    42
1040
0.2
1070
    43
1040
0.2
1070
    44
1040
0.2
1070
    78
1070
     4
1070
    79
1070
     1
1070
   140
1040
0.2
1070
   141
1040
0.2
1070
   147
1040
0.2
1070
   170
1070
     1
1070
   179
1070
     1
1070
   271
1070
     3
1070
   272
1070
     3
1070
   285
1070
     4
1002
}
  0
DIMENSION
  5
7CB7
330
1F
100
AcDbEntity
  8
DIM
100
AcDbDimension
  2
*D25
 10
4.19776428893806
 20
6.65207659259051
 30
0.0
 11
4.197764288938058
 21
6.962903400106677
 31
0.0
 70
    32
  3
STANDARD
100
AcDbAlignedDimension
 13
6.502842203041932
 23
7.27373020762284
 33
0.0
 14
5.779744637639101
 24
6.65207659259051
 34
0.0
 50
90.0
100
AcDbRotatedDimension
1001
ACAD
1000
DSTYLE
1002
{
1070
    41
1040
0.2
1070
    42
1040
0.2
1070
    43
1040
0.2
1070
    44
1040
0.2
1070
    78
1070
     4
1070
    79
1070
     1
1070
   140
1040
0.2
1070
   141
1040
0.2
1070
   147
1040
0.2
1070
   170
1070
     1
1070
   179
1070
     1
1070
   271
1070
     3
1070
   272
1070
     3
1070
   285
1070
     4
1002
}
  0
DIMENSION
  5
7CC5
330
1F
100
AcDbEntity
  8
DIM
100
AcDbDimension
  2
*D26
 10
12.77422661022066
 20
10.7896750895126
 30
0.0
 11
12.77422661022066
 21
8.720875841051562
 31
0.0
 70
    32
  3
STANDARD
100
AcDbAlignedDimension
 13
10.72593987210301
 23
6.65207659259051
 33
0.0
 14
9.237094171545869
 24
10.7896750895126
 34
0.0
 50
90.0
100
AcDbRotatedDimension
1001
ACAD
1000
DSTYLE
1002
{
1070
    41
1040
0.2
1070
    42
1040
0.2
1070
    43
1040
0.2
1070
    44
1040
0.2
1070
    78
1070
     4
1070
    79
1070
     1
1070
   140
1040
0.2
1070
   141
1040
0.2
1070
   147
1040
0.2
1070
   170
1070
     1
1070
   179
1070
     1
1070
   271
1070
     3
1070
   272
1070
     3
1070
   285
1070
     4
1002
}
  0
DIMENSION
  5
7CD3
330
1F
100
AcDbEntity
  8
DIM
100
AcDbDimension
  2
*D27
 10
5.73974463021027
 20
5.550048666445803
 30
0.0
 11
4.206411296876937
 21
5.550048666445803
 31
0.0
 70
    32
  3
STANDARD
100
AcDbAlignedDimension
 13
6.502842203041932
 23
7.27373020762284
 33
0.0
 14
5.73974463021027
 24
6.692076664315749
 34
0.0
100
AcDbRotatedDimension
1001
ACAD
1000
DSTYLE
1002
{
1070
    41
1040
0.2
1070
    42
1040
0.2
1070
    43
1040
0.2
1070
    44
1040
0.2
1070
    78
1070
     4
1070
    79
1070
     1
1070
   140
1040
0.2
1070
   141
1040
0.2
1070
   147
1040
0.2
1070
   170
1070
     1
1070
   179
1070
     1
1070
   271
1070
     3
1070
   272
1070
     3
1070
   285
1070
     4
1002
}
  0
DIMENSION
  5
7CE1
330
1F
100
AcDbEntity
  8
DIM
100
AcDbDimension
  2
*D28
 10
12.77705146865821
 20
16.15277116364075
 30
0.0
 11
12.77705146865821
 21
14.62147192334025
 31
0.0
 70
    32
  3
STANDARD
100
AcDbAlignedDimension
 13
10.61596641068086
 23
13.09017268303974
 33
0.0
 14
10.09005368606953
 24
16.15277116364075
 34
0.0
 50
90.0
100
AcDbRotatedDimension
1001
ACAD
1000
DSTYLE
1002
{
1070
    41
1040
0.2
1070
    42
1040
0.2
1070
    43
1040
0.2
1070
    44
1040
0.2
1070
    78
1070
     4
1070
    79
1070
     1
1070
   140
1040
0.2
1070
   141
1040
0.2
1070
   147
1040
0.2
1070
   170
1070
     1
1070
   179
1070
     1
1070
   271
1070
     3
1070
   272
1070
     3
1070
   285
1070
     4
1002
}
  0
DIMENSION
  5
7CEF
330
1F
100
AcDbEntity
  8
DIM
100
AcDbDimension
  2
*D29
 10
5.630378858667628
 20
17.01137313870861
 30
0.0
 11
7.378749784395675
 21
17.01137313870861
 31
0.0
 70
    32
  3
STANDARD
100
AcDbAlignedDimension
 13
9.127120710123721
 23
15.90277117996183
 33
0.0
 14
5.630378858667628
 24
13.13711868187165
 34
0.0
100
AcDbRotatedDimension
1001
ACAD
1000
DSTYLE
1002
{
1070
    41
1040
0.2
1070
    42
1040
0.2
1070
    43
1040
0.2
1070
    44
1040
0.2
1070
    78
1070
     4
1070
    79
1070
     1
1070
   140
1040
0.2
1070
   141
1040
0.2
1070
   147
1040
0.2
1070
   170
1070
     1
1070
   179
1070
     1
1070
   271
1070
     3
1070
   272
1070
     3
1070
   285
1070
     4
1002
}
  0
DIMENSION
  5
7CFD
330
1F
100
AcDbEntity
  8
DIM
100
AcDbDimension
  2
*D30
 10
16.75605912823581
 20
12.49100030843397
 30
0.0
 11
15.2560591282358
 21
12.49100030843397
 31
0.0
 70
    32
  3
STANDARD
100
AcDbAlignedDimension
 13
17.18125598965871
 23
13.09017268303974
 33
0.0
 14
16.75605912823581
 24
13.09017268303974
 34
0.0
100
AcDbRotatedDimension
1001
ACAD
1000
DSTYLE
1002
{
1070
    41
1040
0.2
1070
    42
1040
0.2
1070
    43
1040
0.2
1070
    44
1040
0.2
1070
    78
1070
     4
1070
    79
1070
     1
1070
   140
1040
0.2
1070
   141
1040
0.2
1070
   147
1040
0.2
1070
   170
1070
     1
1070
   179
1070
     1
1070
   271
1070
     3
1070
   272
1070
     3
1070
   285
1070
     4
1002
}
  0
ENDSEC
  0
SECTION
  2
OBJECTS
  0
DICTIONARY
  5
C
330
0
100
AcDbDictionary
  3
ACAD_GROUP
350
D
  3
ACAD_LAYOUT
350
1A
  3
ACAD_MLINESTYLE
350
17
  3
ACAD_PLOTSETTINGS
350
19
  3
ACAD_PLOTSTYLENAME
350
E
  3
ACAD_SCALELIST
350
1454
  3
ACDBHEADERROUNDTRIPXREC
350
7DE2
  3
ACDBVARIABLEDICTIONARY
350
1476
  0
DICTIONARY
  5
7E05
330
1F
100
AcDbDictionary
280
     1
  3
ACAD_LAYOUTSELFREF
360
7E06
  0
DICTIONARY
  5
7E03
330
1B
100
AcDbDictionary
280
     1
  3
ACAD_LAYOUTSELFREF
360
7E04
  0
DICTIONARY
  5
D
102
{ACAD_REACTORS
330
C
102
}
330
C
100
AcDbDictionary
  0
DICTIONARY
  5
1A
102
{ACAD_REACTORS
330
C
102
}
330
C
100
AcDbDictionary
  0
DICTIONARY
  5
17
102
{ACAD_REACTORS
330
C
102
}
330
C
100
AcDbDictionary
  3
STANDARD
350
18
  0
DICTIONARY
  5
19
102
{ACAD_REACTORS
330
C
102
}
330
C
100
AcDbDictionary
  0
ACDBDICTIONARYWDFLT
  5
E
102
{ACAD_REACTORS
330
C
102
}
330
C
100
AcDbDictionary
281
     1
  3
Normal
350
F
100
AcDbDictionaryWithDefault
340
F
  0
DICTIONARY
  5
1454
102
{ACAD_REACTORS
330
C
102
}
330
C
100
AcDbDictionary
  3
A0
350
1455
  3
A1
350
1456
  3
A2
350
1457
  3
A3
350
1458
  3
A4
350
1459
  3
A5
350
145A
  3
A6
350
145B
  3
A7
350
145C
  3
A8
350
145D
  3
A9
350
145E
  3
B0
350
145F
  3
B1
350
1460
  3
B2
350
1461
  3
B3
350
1462
  3
B4
350
1463
  3
B5
350
1464
  3
B6
350
1465
  3
B7
350
1466
  3
B8
350
1467
  3
B9
350
1468
  3
C0
350
1469
  3
C1
350
146A
  3
C2
350
146B
  3
C3
350
146C
  3
C4
350
146D
  3
C5
350
146E
  3
C6
350
146F
  3
C7
350
1470
  3
C8
350
1471
  3
C9
350
1472
  3
D0
350
1473
  3
D1
350
1474
  3
D2
350
1475
  0
DICTIONARY
  5
7DE2
102
{ACAD_REACTORS
330
C
102
}
330
C
100
AcDbDictionary
  3
CEPSNTYPE
350
7DEC
  3
DIMSTYLEDATA
350
7DF0
  3
FINGERPRINTGUID
350
7DED
  3
HYPERLINKBASE
350
7DE5
  3
INSUNITS
350
7DEB
  3
LAYOUTDICT
350
7DE7
  3
LWETCUNION
350
7DEA
  3
PLOTSETDICT
350
7DE8
  3
PLOTSTYLNAMDICT
350
7DE9
  3
PSVPSCALE
350
7DEF
  3
PUCSBASE
350
7DF3
  3
PUCSORGBACK
350
7DF9
  3
PUCSORGBOTTOM
350
7DF5
  3
PUCSORGFRONT
350
7DF8
  3
PUCSORGLEFT
350
7DF6
  3
PUCSORGRIGHT
350
7DF7
  3
PUCSORGTOP
350
7DF4
  3
PUCSORTHOREF
350
7DF1
  3
PUCSORTHOVIEW
350
7DF2
  3
STYLESHEET
350
7DE6
  3
TSTACKALIGN
350
7DE3
  3
TSTACKSIZE
350
7DE4
  3
UCSBASE
350
7DFC
  3
UCSORGBACK
350
7E02
  3
UCSORGBOTTOM
350
7DFE
  3
UCSORGFRONT
350
7E01
  3
UCSORGLEFT
350
7DFF
  3
UCSORGRIGHT
350
7E00
  3
UCSORGTOP
350
7DFD
  3
UCSORTHOREF
350
7DFA
  3
UCSORTHOVIEW
350
7DFB
  3
VERSIONGUID
350
7DEE
  0
DICTIONARY
  5
1476
102
{ACAD_REACTORS
330
C
102
}
330
C
100
AcDbDictionary
  3
CANNOSCALE
350
1477
  3
DIMASSOC
350
1629
  0
XRECORD
  5
7E06
102
{ACAD_REACTORS
330
7E05
102
}
330
7E05
100
AcDbXrecord
340
1F
  0
XRECORD
  5
7E04
102
{ACAD_REACTORS
330
7E03
102
}
330
7E03
100
AcDbXrecord
340
1B
  0
MLINESTYLE
  5
18
102
{ACAD_REACTORS
330
17
102
}
330
17
100
AcDbMlineStyle
  2
STANDARD
 70
     0
  3

 62
   256
 51
90.0
 52
90.0
 71
     2
 49
0.5
 62
   256
  6
BYLAYER
 49
-0.5
 62
   256
  6
BYLAYER
  0
ACDBPLACEHOLDER
  5
F
102
{ACAD_REACTORS
330
E
102
}
330
E
100
AcDbPlaceHolder
280
     0
  0
ACAD_PROXY_OBJECT
  5
1455
102
{ACAD_REACTORS
330
1454
102
}
330
1454
100
AcDbProxyObject
 90
      499
 91
      507
 93
       41
310
903313A31582
 94
        0
1001
ACAD
1000
AcadProxyRoundTripData
1071
      503
1071
   851991
1070
     0
  0
ACAD_PROXY_OBJECT
  5
1456
102
{ACAD_REACTORS
330
1454
102
}
330
1454
100
AcDbProxyObject
 90
      499
 91
      507
 93
      105
310
903313A324000000000000004040
 94
        0
1001
ACAD
1000
AcadProxyRoundTripData
1071
      503
1071
   851991
1070
     0
  0
ACAD_PROXY_OBJECT
  5
1457
102
{ACAD_REACTORS
330
1454
102
}
330
1454
100
AcDbProxyObject
 90
      499
 91
      507
 93
      105
310
903313A344000000000000104040
 94
        0
1001
ACAD
1000
AcadProxyRoundTripData
1071
      503
1071
   851991
1070
     0
  0
ACAD_PROXY_OBJECT
  5
1458
102
{ACAD_REACTORS
330
1454
102
}
330
1454
100
AcDbProxyObject
 90
      499
 91
      507
 93
      105
310
903313A354000000000000144040
 94
        0
1001
ACAD
1000
AcadProxyRoundTripData
1071
      503
1071
   851991
1070
     0
  0
ACAD_PROXY_OBJECT
  5
1459
102
{ACAD_REACTORS
330
1454
102
}
330
1454
100
AcDbProxyObject
 90
      499
 91
      507
 93
      105
310
903313A384000000000000204040
 94
        0
1001
ACAD
1000
AcadProxyRoundTripData
1071
      503
1071
   851991
1070
     0
  0
ACAD_PROXY_OBJECT
  5
145A
102
{ACAD_REACTORS
330
1454
102
}
330
1454
100
AcDbProxyObject
 90
      499
 91
      507
 93
      113
310
904313A31304000000000000244058
 94
        0
1001
ACAD
1000
AcadProxyRoundTripData
1071
      503
1071
   851991
1070
     0
  0
ACAD_PROXY_OBJECT
  5
145B
102
{ACAD_REACTORS
330
1454
102
}
330
1454
100
AcDbProxyObject
 90
      499
 91
      507
 93
      113
310
904313A31364000000000000304058
 94
        0
1001
ACAD
1000
AcadProxyRoundTripData
1071
      503
1071
   851991
1070
     0
  0
ACAD_PROXY_OBJECT
  5
145C
102
{ACAD_REACTORS
330
1454
102
}
330
1454
100
AcDbProxyObject
 90
      499
 91
      507
 93
      113
310
904313A32304000000000000344058
 94
        0
1001
ACAD
1000
AcadProxyRoundTripData
1071
      503
1071
   851991
1070
     0
  0
ACAD_PROXY_OBJECT
  5
145D
102
{ACAD_REACTORS
330
1454
102
}
330
1454
100
AcDbProxyObject
 90
      499
 91
      507
 93
      113
310
904313A333040000000000003E4058
 94
        0
1001
ACAD
1000
AcadProxyRoundTripData
1071
      503
1071
   851991
1070
     0
  0
ACAD_PROXY_OBJECT
  5
145E
102
{ACAD_REACTORS
330
1454
102
}
330
1454
100
AcDbProxyObject
 90
      499
 91
      507
 93
      113
310
904313A34304000000000000444058
 94
        0
1001
ACAD
1000
AcadProxyRoundTripData
1071
      503
1071
   851991
1070
     0
  0
ACAD_PROXY_OBJECT
  5
145F
102
{ACAD_REACTORS
330
1454
102
}
330
1454
100
AcDbProxyObject
 90
      499
 91
      507
 93
      113
310
904313A35304000000000000494058
 94
        0
1001
ACAD
1000
AcadProxyRoundTripData
1071
      503
1071
   851991
1070
     0
  0
ACAD_PROXY_OBJECT
  5
1460
102
{ACAD_REACTORS
330
1454
102
}
330
1454
100
AcDbProxyObject
 90
      499
 91
      507
 93
      121
310
905313A3130304000000000000594012
 94
        0
1001
ACAD
1000
AcadProxyRoundTripData
1071
      503
1071
   851991
1070
     0
  0
ACAD_PROXY_OBJECT
  5
1461
102
{ACAD_REACTORS
330
1454
102
}
330
1454
100
AcDbProxyObject
 90
      499
 91
      507
 93
      105
310
903323A310000000000000010159
 94
        0
1001
ACAD
1000
AcadProxyRoundTripData
1071
      503
1071
   851991
1070
     0
  0
ACAD_PROXY_OBJECT
  5
1462
102
{ACAD_REACTORS
330
1454
102
}
330
1454
100
AcDbProxyObject
 90
      499
 91
      507
 93
      105
310
903343A310000000000000410159
 94
        0
1001
ACAD
1000
AcadProxyRoundTripData
1071
      503
1071
   851991
1070
     0
  0
ACAD_PROXY_OBJECT
  5
1463
102
{ACAD_REACTORS
330
1454
102
}
330
1454
100
AcDbProxyObject
 90
      499
 91
      507
 93
      105
310
903383A310000000000000810159
 94
        0
1001
ACAD
1000
AcadProxyRoundTripData
1071
      503
1071
   851991
1070
     0
  0
ACAD_PROXY_OBJECT
  5
1464
102
{ACAD_REACTORS
330
1454
102
}
330
1454
100
AcDbProxyObject
 90
      499
 91
      507
 93
      113
310
90431303A310000000000000910140
 94
        0
1001
ACAD
1000
AcadProxyRoundTripData
1071
      503
1071
   851991
1070
     0
  0
ACAD_PROXY_OBJECT
  5
1465
102
{ACAD_REACTORS
330
1454
102
}
330
1454
100
AcDbProxyObject
 90
      499
 91
      507
 93
      121
310
9053130303A310000000000001650112
 94
        0
1001
ACAD
1000
AcadProxyRoundTripData
1071
      503
1071
   851991
1070
     0
  0
ACAD_PROXY_OBJECT
  5
1466
102
{ACAD_REACTORS
330
1454
102
}
330
1454
100
AcDbProxyObject
 90
      499
 91
      507
 93
      257
310
90E312F31323822203D2031272D3022000000000000200FC000000000000284009
 94
        0
1001
ACAD
1000
AcadProxyRoundTripData
1071
      503
1071
   851991
1070
     0
  0
ACAD_PROXY_OBJECT
  5
1467
102
{ACAD_REACTORS
330
1454
102
}
330
1454
100
AcDbProxyObject
 90
      499
 91
      507
 93
      249
310
90D312F363422203D2031272D3022000000000000240FC000000000000284040
 94
        0
1001
ACAD
1000
AcadProxyRoundTripData
1071
      503
1071
   851991
1070
     0
  0
ACAD_PROXY_OBJECT
  5
1468
102
{ACAD_REACTORS
330
1454
102
}
330
1454
100
AcDbProxyObject
 90
      499
 91
      507
 93
      249
310
90D312F333222203D2031272D3022000000000000280FC000000000000284040
 94
        0
1001
ACAD
1000
AcadProxyRoundTripData
1071
      503
1071
   851991
1070
     0
  0
ACAD_PROXY_OBJECT
  5
1469
102
{ACAD_REACTORS
330
1454
102
}
330
1454
100
AcDbProxyObject
 90
      499
 91
      507
 93
      249
310
90D312F313622203D2031272D30220000000000002C0FC000000000000284040
 94
        0
1001
ACAD
1000
AcadProxyRoundTripData
1071
      503
1071
   851991
1070
     0
  0
ACAD_PROXY_OBJECT
  5
146A
102
{ACAD_REACTORS
330
1454
102
}
330
1454
100
AcDbProxyObject
 90
      499
 91
      507
 93
      249
310
90D332F333222203D2031272D30220000000000002E0FC000000000000284040
 94
        0
1001
ACAD
1000
AcadProxyRoundTripData
1071
      503
1071
   851991
1070
     0
  0
ACAD_PROXY_OBJECT
  5
146B
102
{ACAD_REACTORS
330
1454
102
}
330
1454
100
AcDbProxyObject
 90
      499
 91
      507
 93
      241
310
90C312F3822203D2031272D3022000000000000300FC000000000000284040
 94
        0
1001
ACAD
1000
AcadProxyRoundTripData
1071
      503
1071
   851991
1070
     0
  0
ACAD_PROXY_OBJECT
  5
146C
102
{ACAD_REACTORS
330
1454
102
}
330
1454
100
AcDbProxyObject
 90
      499
 91
      507
 93
      249
310
90D332F313622203D2031272D3022000000000000320FC000000000000284040
 94
        0
1001
ACAD
1000
AcadProxyRoundTripData
1071
      503
1071
   851991
1070
     0
  0
ACAD_PROXY_OBJECT
  5
146D
102
{ACAD_REACTORS
330
1454
102
}
330
1454
100
AcDbProxyObject
 90
      499
 91
      507
 93
      241
310
90C312F3422203D2031272D3022000000000000340FC000000000000284040
 94
        0
1001
ACAD
1000
AcadProxyRoundTripData
1071
      503
1071
   851991
1070
     0
  0
ACAD_PROXY_OBJECT
  5
146E
102
{ACAD_REACTORS
330
1454
102
}
330
1454
100
AcDbProxyObject
 90
      499
 91
      507
 93
      241
310
90C332F3822203D2031272D3022000000000000360FC000000000000284040
 94
        0
1001
ACAD
1000
AcadProxyRoundTripData
1071
      503
1071
   851991
1070
     0
  0
ACAD_PROXY_OBJECT
  5
146F
102
{ACAD_REACTORS
330
1454
102
}
330
1454
100
AcDbProxyObject
 90
      499
 91
      507
 93
      241
310
90C312F3222203D2031272D3022000000000000380FC000000000000284040
 94
        0
1001
ACAD
1000
AcadProxyRoundTripData
1071
      503
1071
   851991
1070
     0
  0
ACAD_PROXY_OBJECT
  5
1470
102
{ACAD_REACTORS
330
1454
102
}
330
1454
100
AcDbProxyObject
 90
      499
 91
      507
 93
      241
310
90C332F3422203D2031272D30220000000000003A0FC000000000000284040
 94
        0
1001
ACAD
1000
AcadProxyRoundTripData
1071
      503
1071
   851991
1070
     0
  0
ACAD_PROXY_OBJECT
  5
1471
102
{ACAD_REACTORS
330
1454
102
}
330
1454
100
AcDbProxyObject
 90
      499
 91
      507
 93
      161
310
90A3122203D2031272D30224000000000000284020
 94
        0
1001
ACAD
1000
AcadProxyRoundTripData
1071
      503
1071
   851991
1070
     0
  0
ACAD_PROXY_OBJECT
  5
1472
102
{ACAD_REACTORS
330
1454
102
}
330
1454
100
AcDbProxyObject
 90
      499
 91
      507
 93
      257
310
90E312D312F3222203D2031272D30220000000000003E0FC000000000000284009
 94
        0
1001
ACAD
1000
AcadProxyRoundTripData
1071
      503
1071
   851991
1070
     0
  0
ACAD_PROXY_OBJECT
  5
1473
102
{ACAD_REACTORS
330
1454
102
}
330
1454
100
AcDbProxyObject
 90
      499
 91
      507
 93
      225
310
90A3322203D2031272D302200000000000002100000000000000284000
 94
        0
1001
ACAD
1000
AcadProxyRoundTripData
1071
      503
1071
   851991
1070
     0
  0
ACAD_PROXY_OBJECT
  5
1474
102
{ACAD_REACTORS
330
1454
102
}
330
1454
100
AcDbProxyObject
 90
      499
 91
      507
 93
      225
310
90A3622203D2031272D302200000000000006100000000000000284000
 94
        0
1001
ACAD
1000
AcadProxyRoundTripData
1071
      503
1071
   851991
1070
     0
  0
ACAD_PROXY_OBJECT
  5
1475
102
{ACAD_REACTORS
330
1454
102
}
330
1454
100
AcDbProxyObject
 90
      499
 91
      507
 93
      249
310
90D31272D3022203D2031272D30220000000000000A100000000000000284040
 94
        0
1001
ACAD
1000
AcadProxyRoundTripData
1071
      503
1071
   851991
1070
     0
  0
XRECORD
  5
7DEC
102
{ACAD_REACTORS
330
7DE2
102
}
330
7DE2
100
AcDbXrecord
 90
        0
  0
XRECORD
  5
7DF0
102
{ACAD_REACTORS
330
7DE2
102
}
330
7DE2
100
AcDbXrecord
1000
DSTYLE
1002
{
1070
    79
 70
     1
1070
   179
 70
     1
1002
}
  0
XRECORD
  5
7DED
102
{ACAD_REACTORS
330
7DE2
102
}
330
7DE2
100
AcDbXrecord
  1
{32377D59-A20B-4C09-8E10-FF2C3873D64F}
  0
XRECORD
  5
7DE5
102
{ACAD_REACTORS
330
7DE2
102
}
330
7DE2
100
AcDbXrecord
  1

  0
XRECORD
  5
7DEB
102
{ACAD_REACTORS
330
7DE2
102
}
330
7DE2
100
AcDbXrecord
 90
        1
  0
XRECORD
  5
7DE7
102
{ACAD_REACTORS
330
7DE2
102
}
330
7DE2
100
AcDbXrecord
340
1A
  0
XRECORD
  5
7DEA
102
{ACAD_REACTORS
330
7DE2
102
}
330
7DE2
100
AcDbXrecord
 90
    10269
  0
XRECORD
  5
7DE8
102
{ACAD_REACTORS
330
7DE2
102
}
330
7DE2
100
AcDbXrecord
340
19
  0
XRECORD
  5
7DE9
102
{ACAD_REACTORS
330
7DE2
102
}
330
7DE2
100
AcDbXrecord
340
E
  0
XRECORD
  5
7DEF
102
{ACAD_REACTORS
330
7DE2
102
}
330
7DE2
100
AcDbXrecord
 40
0.0
  0
XRECORD
  5
7DF3
102
{ACAD_REACTORS
330
7DE2
102
}
330
7DE2
100
AcDbXrecord
340
0
  0
XRECORD
  5
7DF9
102
{ACAD_REACTORS
330
7DE2
102
}
330
7DE2
100
AcDbXrecord
 10
0.0
 20
0.0
 30
0.0
  0
XRECORD
  5
7DF5
102
{ACAD_REACTORS
330
7DE2
102
}
330
7DE2
100
AcDbXrecord
 10
0.0
 20
0.0
 30
0.0
  0
XRECORD
  5
7DF8
102
{ACAD_REACTORS
330
7DE2
102
}
330
7DE2
100
AcDbXrecord
 10
0.0
 20
0.0
 30
0.0
  0
XRECORD
  5
7DF6
102
{ACAD_REACTORS
330
7DE2
102
}
330
7DE2
100
AcDbXrecord
 10
0.0
 20
0.0
 30
0.0
  0
XRECORD
  5
7DF7
102
{ACAD_REACTORS
330
7DE2
102
}
330
7DE2
100
AcDbXrecord
 10
0.0
 20
0.0
 30
0.0
  0
XRECORD
  5
7DF4
102
{ACAD_REACTORS
330
7DE2
102
}
330
7DE2
100
AcDbXrecord
 10
0.0
 20
0.0
 30
0.0
  0
XRECORD
  5
7DF1
102
{ACAD_REACTORS
330
7DE2
102
}
330
7DE2
100
AcDbXrecord
340
0
  0
XRECORD
  5
7DF2
102
{ACAD_REACTORS
330
7DE2
102
}
330
7DE2
100
AcDbXrecord
 70
     0
  0
XRECORD
  5
7DE6
102
{ACAD_REACTORS
330
7DE2
102
}
330
7DE2
100
AcDbXrecord
  1
monochrome.ctb
  0
XRECORD
  5
7DE3
102
{ACAD_REACTORS
330
7DE2
102
}
330
7DE2
100
AcDbXrecord
 90
        1
  0
XRECORD
  5
7DE4
102
{ACAD_REACTORS
330
7DE2
102
}
330
7DE2
100
AcDbXrecord
 90
       70
  0
XRECORD
  5
7DFC
102
{ACAD_REACTORS
330
7DE2
102
}
330
7DE2
100
AcDbXrecord
340
0
  0
XRECORD
  5
7E02
102
{ACAD_REACTORS
330
7DE2
102
}
330
7DE2
100
AcDbXrecord
 10
0.0
 20
0.0
 30
0.0
  0
XRECORD
  5
7DFE
102
{ACAD_REACTORS
330
7DE2
102
}
330
7DE2
100
AcDbXrecord
 10
0.0
 20
0.0
 30
0.0
  0
XRECORD
  5
7E01
102
{ACAD_REACTORS
330
7DE2
102
}
330
7DE2
100
AcDbXrecord
 10
0.0
 20
0.0
 30
0.0
  0
XRECORD
  5
7DFF
102
{ACAD_REACTORS
330
7DE2
102
}
330
7DE2
100
AcDbXrecord
 10
0.0
 20
0.0
 30
0.0
  0
XRECORD
  5
7E00
102
{ACAD_REACTORS
330
7DE2
102
}
330
7DE2
100
AcDbXrecord
 10
0.0
 20
0.0
 30
0.0
  0
XRECORD
  5
7DFD
102
{ACAD_REACTORS
330
7DE2
102
}
330
7DE2
100
AcDbXrecord
 10
0.0
 20
0.0
 30
0.0
  0
XRECORD
  5
7DFA
102
{ACAD_REACTORS
330
7DE2
102
}
330
7DE2
100
AcDbXrecord
340
0
  0
XRECORD
  5
7DFB
102
{ACAD_REACTORS
330
7DE2
102
}
330
7DE2
100
AcDbXrecord
 70
     0
  0
XRECORD
  5
7DEE
102
{ACAD_REACTORS
330
7DE2
102
}
330
7DE2
100
AcDbXrecord
  1
{978BCD19-13F5-4604-9047-37E0E041CDA4}
  0
DICTIONARYVAR
  5
1477
102
{ACAD_REACTORS
330
1476
102
}
330
1476
100
DictionaryVariables
280
     0
  1
1:1
  0
DICTIONARYVAR
  5
1629
102
{ACAD_REACTORS
330
1476
102
}
330
1476
100
DictionaryVariables
280
     0
  1
1
  0
ENDSEC
  0
EOF
