999
DXF file: R:\Mech\DEV\_2011\Talismon\Engineering\ProE\4.3 Data for JMP\68-5968-08_rev-a.dxf
999
Pro/ENGINEER 2010280 by Parametric Technology Corporation
  0
SECTION
  2
HEADER
  9
$ACADVER
  1
AC1014
  9
$DWGCODEPAGE
  3
ANSI_1252
  9
$EXTMAX
 10
34.0
 20
22.0
 30
0.0
  9
$EXTMIN
 10
0.0
 20
0.0
 30
0.0
  9
$LIMMIN
 10
0.0
 20
0.0
  9
$LIMMAX
 10
34.0
 20
22.0
  9
$VIEWCTR
 10
17.0
 20
11.0
  9
$VIEWSIZE
 40
22.0
  9
$CLAYER
  8
0
  9
$LTSCALE
 40
1.87
  9
$CELTYPE
  6
BYLAYER
  9
$DIMSCALE
 40
1.0
  9
$DIMASZ
 40
0.1875
  9
$DIMEXO
 40
0.2125
  9
$DIMDLI
 40
1.292
  9
$DIMEXE
 40
0.612
  9
$DIMCEN
 40
0.306
  9
$DIMLFAC
 40
1.0
  9
$DIMBLK
  1
_ARROW_FILLED
  9
$DIMTXT
 40
0.15
  9
$DIMTOL
 70
1
  9
$DIMLIM
 70
0
  9
$DIMTFAC
 40
1.0
  9
$DIMTP
 40
0.005
  9
$DIMTM
 40
0.005
  9
$PDMODE
 70
3
  9
$PDSIZE
 40
0.3125
  9
$HANDSEED
  5
A76
  9
$TILEMODE
 70
1
  9
$MEASUREMENT
 70
0
  0
ENDSEC
  0
SECTION
  2
CLASSES
  0
ENDSEC
  0
SECTION
  2
TABLES
  0
TABLE
  2
VPORT
  5
8
100
AcDbSymbolTable
 70
2
  0
VPORT
  5
1F4
100
AcDbSymbolTableRecord
100
AcDbViewportTableRecord
  2
*ACTIVE
 70
0
 10
0.0
 20
0.0
 11
1.0
 21
1.0
 12
17.0
 22
11.0
 13
0.0
 23
0.0
 14
1.0
 24
1.0
 15
0.0
 25
0.0
 16
0.0
 26
0.0
 36
1.0
 17
0.0
 27
0.0
 37
0.0
 40
22.0
 41
1.5454545455
 42
50.0
 43
0.0
 44
0.0
 50
0.0
 51
0.0
 71
0
 72
100
 73
1
 74
1
 75
0
 76
0
 77
0
 78
0
  0
ENDTAB
  0
TABLE
  2
LTYPE
  5
5
100
AcDbSymbolTable
 70
6
  0
LTYPE
  5
14
100
AcDbSymbolTableRecord
100
AcDbLinetypeTableRecord
  2
BYBLOCK
 70
0
  3

 72
65
 73
0
 40
0.0
  0
LTYPE
  5
15
100
AcDbSymbolTableRecord
100
AcDbLinetypeTableRecord
  2
BYLAYER
 70
0
  3

 72
65
 73
0
 40
0.0
  0
LTYPE
  5
16
100
AcDbSymbolTableRecord
100
AcDbLinetypeTableRecord
  2
CONTINUOUS
 70
64
  3
Solid line
 72
65
 73
0
 40
0.0
  0
LTYPE
  5
1F5
100
AcDbSymbolTableRecord
100
AcDbLinetypeTableRecord
  2
CENTER
 70
64
  3
____ _ ____ _ ____ _ ____ _ ____ _ ____ _ ____
 72
65
 73
4
 40
0.6
 49
0.375
 74
0
 49
-0.075
 74
0
 49
0.075
 74
0
 49
-0.075
 74
0
  0
LTYPE
  5
1F6
100
AcDbSymbolTableRecord
100
AcDbLinetypeTableRecord
  2
HIDDEN
 70
64
  3
- - - - - - - - - - - - - - - - - - - -
 72
65
 73
2
 40
0.2
 49
0.1
 74
0
 49
-0.1
 74
0
  0
LTYPE
  5
1F7
100
AcDbSymbolTableRecord
100
AcDbLinetypeTableRecord
  2
PHANTOM
 70
64
  3
_____ _ _ _____ _ _ _____ _ _ _____
 72
65
 73
6
 40
0.8
 49
0.45
 74
0
 49
-0.05
 74
0
 49
0.1
 74
0
 49
-0.05
 74
0
 49
0.1
 74
0
 49
-0.05
 74
0
  0
LTYPE
  5
1F8
100
AcDbSymbolTableRecord
100
AcDbLinetypeTableRecord
  2
DOT
 70
64
  3
. . . . . . . . . . . . . . . . . . . .
 72
65
 73
2
 40
0.2
 49
0.1
 74
0
 49
-0.1
 74
0
  0
LTYPE
  5
1F9
100
AcDbSymbolTableRecord
100
AcDbLinetypeTableRecord
  2
DASHED
 70
64
  3
- - - - - - - - - - - - - - - - - - - -
 72
65
 73
2
 40
0.2
 49
0.1
 74
0
 49
-0.1
 74
0
  0
ENDTAB
  0
TABLE
  2
LAYER
  5
2
100
AcDbSymbolTable
 70
36
  0
LAYER
  5
10
100
AcDbSymbolTableRecord
100
AcDbLayerTableRecord
  2
0
 70
0
 62
7
  6
CONTINUOUS
  0
LAYER
  5
1FA
100
AcDbSymbolTableRecord
100
AcDbLayerTableRecord
  2
DEFAULT_1
 70
0
 62
7
  6
CENTER
  0
LAYER
  5
1FB
100
AcDbSymbolTableRecord
100
AcDbLayerTableRecord
  2
DEFAULT_2
 70
0
 62
8
  6
HIDDEN
  0
LAYER
  5
1FC
100
AcDbSymbolTableRecord
100
AcDbLayerTableRecord
  2
DEFAULT_3
 70
0
 62
7
  6
PHANTOM
  0
LAYER
  5
1FD
100
AcDbSymbolTableRecord
100
AcDbLayerTableRecord
  2
ALL_FEATURES
 70
0
 62
7
  6
CONTINUOUS
  0
LAYER
  5
1FE
100
AcDbSymbolTableRecord
100
AcDbLayerTableRecord
  2
ALL_GEOM_FEAT
 70
0
 62
7
  6
CONTINUOUS
  0
LAYER
  5
1FF
100
AcDbSymbolTableRecord
100
AcDbLayerTableRecord
  2
AXIS
 70
0
 62
7
  6
CONTINUOUS
  0
LAYER
  5
200
100
AcDbSymbolTableRecord
100
AcDbLayerTableRecord
  2
BOM
 70
0
 62
7
  6
CONTINUOUS
  0
LAYER
  5
201
100
AcDbSymbolTableRecord
100
AcDbLayerTableRecord
  2
CHAMFERS
 70
0
 62
7
  6
CONTINUOUS
  0
LAYER
  5
202
100
AcDbSymbolTableRecord
100
AcDbLayerTableRecord
  2
COORDINATES
 70
0
 62
7
  6
CONTINUOUS
  0
LAYER
  5
203
100
AcDbSymbolTableRecord
100
AcDbLayerTableRecord
  2
COSM_SKETCH
 70
0
 62
7
  6
CONTINUOUS
  0
LAYER
  5
204
100
AcDbSymbolTableRecord
100
AcDbLayerTableRecord
  2
CURVES
 70
0
 62
7
  6
CONTINUOUS
  0
LAYER
  5
205
100
AcDbSymbolTableRecord
100
AcDbLayerTableRecord
  2
DETAIL
 70
0
 62
7
  6
CONTINUOUS
  0
LAYER
  5
206
100
AcDbSymbolTableRecord
100
AcDbLayerTableRecord
  2
DRAFT_DIMENSIONS
 70
0
 62
7
  6
CONTINUOUS
  0
LAYER
  5
207
100
AcDbSymbolTableRecord
100
AcDbLayerTableRecord
  2
FEATURES
 70
0
 62
7
  6
CONTINUOUS
  0
LAYER
  5
208
100
AcDbSymbolTableRecord
100
AcDbLayerTableRecord
  2
FORMAT
 70
0
 62
7
  6
CONTINUOUS
  0
LAYER
  5
209
100
AcDbSymbolTableRecord
100
AcDbLayerTableRecord
  2
PLANES
 70
0
 62
7
  6
CONTINUOUS
  0
LAYER
  5
20A
100
AcDbSymbolTableRecord
100
AcDbLayerTableRecord
  2
POINTS
 70
0
 62
7
  6
CONTINUOUS
  0
LAYER
  5
20B
100
AcDbSymbolTableRecord
100
AcDbLayerTableRecord
  2
QUILTS
 70
0
 62
7
  6
CONTINUOUS
  0
LAYER
  5
20C
100
AcDbSymbolTableRecord
100
AcDbLayerTableRecord
  2
RIBS
 70
0
 62
7
  6
CONTINUOUS
  0
LAYER
  5
20D
100
AcDbSymbolTableRecord
100
AcDbLayerTableRecord
  2
ROUNDS
 70
0
 62
7
  6
CONTINUOUS
  0
LAYER
  5
20E
100
AcDbSymbolTableRecord
100
AcDbLayerTableRecord
  2
SURFACES
 70
0
 62
7
  6
CONTINUOUS
  0
LAYER
  5
20F
100
AcDbSymbolTableRecord
100
AcDbLayerTableRecord
  2
THREADS
 70
0
 62
7
  6
CONTINUOUS
  0
ENDTAB
  0
TABLE
  2
STYLE
  5
3
100
AcDbSymbolTable
 70
1
  0
STYLE
  5
11
100
AcDbSymbolTableRecord
100
AcDbTextStyleTableRecord
  2
STANDARD
 70
0
 40
0.0
 41
0.8
 50
0.0
 71
0
 42
0.2
  3
txt
  4

  0
STYLE
  5
210
100
AcDbSymbolTableRecord
100
AcDbTextStyleTableRecord
  2
TEXTSTYLE_1
 70
0
 40
0.0
 41
0.8
 50
0.0
 71
0
 42
0.2
  3
gdt
  4

  0
STYLE
  5
211
100
AcDbSymbolTableRecord
100
AcDbTextStyleTableRecord
  2
TEXTSTYLE_2
 70
0
 40
0.0
 41
0.8
 50
0.0
 71
0
 42
0.2
  3
txt
  4

  0
STYLE
  5
212
100
AcDbSymbolTableRecord
100
AcDbTextStyleTableRecord
  2
TEXTSTYLE_3
 70
0
 40
0.0
 41
1.4
 50
0.0
 71
0
 42
0.2
  3
txt
  4

  0
STYLE
  5
213
100
AcDbSymbolTableRecord
100
AcDbTextStyleTableRecord
  2
TEXTSTYLE_4
 70
0
 40
0.0
 41
0.85
 50
0.0
 71
0
 42
0.2
  3
txt
  4

  0
STYLE
  5
214
100
AcDbSymbolTableRecord
100
AcDbTextStyleTableRecord
  2
TEXTSTYLE_5
 70
0
 40
0.0
 41
1.5
 50
0.0
 71
0
 42
0.2
  3
txt
  4

  0
ENDTAB
  0
TABLE
  2
VIEW
  5
6
100
AcDbSymbolTable
 70
0
  0
ENDTAB
  0
TABLE
  2
UCS
  5
7
100
AcDbSymbolTable
 70
0
  0
ENDTAB
  0
TABLE
  2
APPID
  5
9
100
AcDbSymbolTable
 70
1
  0
APPID
  5
215
100
AcDbSymbolTableRecord
100
AcDbRegAppTableRecord
  2
ACAD
 70
0
  0
ENDTAB
  0
TABLE
  2
BLOCK_RECORD
  5
1
100
AcDbSymbolTable
 70
0
  0
BLOCK_RECORD
  5
1F
100
AcDbSymbolTableRecord
100
AcDbBlockTableRecord
  2
*MODEL_SPACE
  0
BLOCK_RECORD
  5
1B
100
AcDbSymbolTableRecord
100
AcDbBlockTableRecord
  2
*PAPER_SPACE
  0
BLOCK_RECORD
  5
216
100
AcDbSymbolTableRecord
100
AcDbBlockTableRecord
  2
_ARROW_FILLED
  0
BLOCK_RECORD
  5
217
100
AcDbSymbolTableRecord
100
AcDbBlockTableRecord
  2
*D0
  0
BLOCK_RECORD
  5
218
100
AcDbSymbolTableRecord
100
AcDbBlockTableRecord
  2
*D1
  0
BLOCK_RECORD
  5
219
100
AcDbSymbolTableRecord
100
AcDbBlockTableRecord
  2
*D2
  0
BLOCK_RECORD
  5
21A
100
AcDbSymbolTableRecord
100
AcDbBlockTableRecord
  2
*D3
  0
BLOCK_RECORD
  5
21B
100
AcDbSymbolTableRecord
100
AcDbBlockTableRecord
  2
*D4
  0
BLOCK_RECORD
  5
21C
100
AcDbSymbolTableRecord
100
AcDbBlockTableRecord
  2
*D5
  0
ENDTAB
  0
TABLE
  2
DIMSTYLE
  5
A
100
AcDbSymbolTable
 70
1
  0
DIMSTYLE
105
21D
100
AcDbSymbolTableRecord
100
AcDbDimStyleTableRecord
  2
STANDARD
 70
0
  3

  4

  5
_ARROW_FILLED
  6
_ARROW_FILLED
  7
_ARROW_FILLED
 40
1.0
 41
0.1875
 42
0.0625
 43
0.38
 44
0.18
 45
0.0
 46
0.0
 47
0.005
 48
0.005
140
0.15
141
0.09
142
0.0
143
25.4
144
1.0
145
0.0
146
1.0
147
0.09
 71
1.0
 72
0.0
 73
1
 74
1
 75
0
 76
0
 77
0
 78
4
170
0
171
2
172
0
173
0
174
0
175
0
176
0
177
0
178
0
270
2
271
3
272
3
273
2
274
2
275
0
280
0
281
0
282
0
283
1
284
4
285
0
286
0
287
3
288
0
340
11
  0
DIMSTYLE
105
21E
100
AcDbSymbolTableRecord
100
AcDbDimStyleTableRecord
  2
DIMSTYLE_1
 70
0
  3

  4

  5
_ARROW_FILLED
  6
_ARROW_FILLED
  7
_ARROW_FILLED
 40
1.0
 41
0.1875
 42
0.0625
 43
0.38
 44
0.18
 45
0.0
 46
0.0
 47
0.005
 48
0.005
140
0.15
141
0.09
142
0.0
143
25.4
144
1.0
145
0.0
146
1.0
147
0.09
 71
0.0
 72
0.0
 73
1
 74
1
 75
0
 76
0
 77
0
 78
4
170
0
171
2
172
0
173
0
174
0
175
0
176
0
177
0
178
0
270
2
271
3
272
3
273
2
274
2
275
0
280
0
281
0
282
0
283
1
284
4
285
0
286
0
287
3
288
0
340
11
  0
ENDTAB
  0
ENDSEC
  0
SECTION
  2
BLOCKS
  0
BLOCK
  5
20
100
AcDbEntity
  8
0
100
AcDbBlockBegin
  2
*MODEL_SPACE
 70
0
 10
0.0
 20
0.0
 30
0.0
  3
*MODEL_SPACE
  1

  0
ENDBLK
  5
21
100
AcDbEntity
  8
0
100
AcDbBlockEnd
  0
BLOCK
  5
1C
100
AcDbEntity
  8
0
100
AcDbBlockBegin
  2
*PAPER_SPACE
 70
0
 10
0.0
 20
0.0
 30
0.0
  3
*PAPER_SPACE
  1

  0
ENDBLK
  5
1D
100
AcDbEntity
  8
0
100
AcDbBlockEnd
  0
BLOCK
  5
21F
100
AcDbEntity
  8
0
100
AcDbBlockBegin
  2
_ARROW_FILLED
 70
64
 10
0.0
 20
0.0
  3
_ARROW_FILLED
  1

  0
SOLID
  5
220
100
AcDbEntity
  8
0
  6
BYBLOCK
 62
0
100
AcDbTrace
 10
0.0
 20
0.0
 11
-1.0
 21
0.1666666667
 12
-1.0
 22
-0.1666666667
 13
-1.0
 23
-0.1666666667
  0
ENDBLK
  5
221
100
AcDbEntity
  8
0
  6
BYBLOCK
 62
0
100
AcDbBlockEnd
  0
BLOCK
  5
222
100
AcDbEntity
  8
0
100
AcDbBlockBegin
 62
2
  6
CONTINUOUS
  2
*D0
 70
65
 10
0.0
 20
0.0
  3
*D0
  1

  0
MTEXT
  5
223
100
AcDbEntity
  8
0
100
AcDbMText
 62
2
  6
CONTINUOUS
  7
STANDARD
 71
2
 72
1
 10
17.4284853636
 20
15.3118755572
 30
0.0
 11
1.0
 21
0.0
 31
0.0
  1
6.496
 40
0.15
 41
0.6
  0
LINE
  5
224
100
AcDbEntity
  8
0
100
AcDbLine
 62
2
  6
CONTINUOUS
 10
14.9301266531
 20
12.2622046981
 11
14.9301266531
 21
15.3618755572
  0
LINE
  5
225
100
AcDbEntity
  8
0
100
AcDbLine
 62
2
  6
CONTINUOUS
 10
21.426060127
 20
12.2622046981
 11
21.426060127
 21
15.3618755572
  0
LINE
  5
226
100
AcDbEntity
  8
0
100
AcDbLine
 62
2
  6
CONTINUOUS
 10
14.9301266531
 20
15.2368755572
 11
17.0759853636
 21
15.2368755572
  0
LINE
  5
227
100
AcDbEntity
  8
0
100
AcDbLine
 62
2
  6
CONTINUOUS
 10
21.426060127
 20
15.2368755572
 11
17.7809853636
 21
15.2368755572
  0
INSERT
  5
228
100
AcDbEntity
  8
0
100
AcDbBlockReference
 62
2
  6
CONTINUOUS
  2
_ARROW_FILLED
 10
14.9301266531
 20
15.2368755572
 41
0.1875
 42
0.1875
 43
0.1875
 50
180.0
  0
INSERT
  5
229
100
AcDbEntity
  8
0
100
AcDbBlockReference
 62
2
  6
CONTINUOUS
  2
_ARROW_FILLED
 10
21.426060127
 20
15.2368755572
 41
0.1875
 42
0.1875
 43
0.1875
  0
ENDBLK
  5
22A
100
AcDbEntity
  8
0
  6
BYBLOCK
 62
0
100
AcDbBlockEnd
  0
BLOCK
  5
22B
100
AcDbEntity
  8
0
100
AcDbBlockBegin
 62
2
  6
CONTINUOUS
  2
*D1
 70
65
 10
0.0
 20
0.0
  3
*D1
  1

  0
MTEXT
  5
22C
100
AcDbEntity
  8
0
100
AcDbMText
 62
2
  6
CONTINUOUS
  7
STANDARD
 71
2
 72
1
 10
17.6890968567
 20
14.6332423913
 30
0.0
 11
1.0
 21
0.0
 31
0.0
  1
4.996
 40
0.15
 41
0.6
  0
LINE
  5
22D
100
AcDbEntity
  8
0
100
AcDbLine
 62
2
  6
CONTINUOUS
 10
20.676060127
 20
11.5122046981
 11
20.676060127
 21
14.6832423913
  0
LINE
  5
22E
100
AcDbEntity
  8
0
100
AcDbLine
 62
2
  6
CONTINUOUS
 10
15.6801266531
 20
11.5122046981
 11
15.6801266531
 21
14.6832423913
  0
LINE
  5
22F
100
AcDbEntity
  8
0
100
AcDbLine
 62
2
  6
CONTINUOUS
 10
20.676060127
 20
14.5582423913
 11
18.0415968567
 21
14.5582423913
  0
LINE
  5
230
100
AcDbEntity
  8
0
100
AcDbLine
 62
2
  6
CONTINUOUS
 10
15.6801266531
 20
14.5582423913
 11
17.3365968567
 21
14.5582423913
  0
INSERT
  5
231
100
AcDbEntity
  8
0
100
AcDbBlockReference
 62
2
  6
CONTINUOUS
  2
_ARROW_FILLED
 10
20.676060127
 20
14.5582423913
 41
0.1875
 42
0.1875
 43
0.1875
  0
INSERT
  5
232
100
AcDbEntity
  8
0
100
AcDbBlockReference
 62
2
  6
CONTINUOUS
  2
_ARROW_FILLED
 10
15.6801266531
 20
14.5582423913
 41
0.1875
 42
0.1875
 43
0.1875
 50
180.0
  0
ENDBLK
  5
233
100
AcDbEntity
  8
0
  6
BYBLOCK
 62
0
100
AcDbBlockEnd
  0
BLOCK
  5
234
100
AcDbEntity
  8
0
100
AcDbBlockBegin
 62
2
  6
CONTINUOUS
  2
*D2
 70
65
 10
0.0
 20
0.0
  3
*D2
  1

  0
MTEXT
  5
235
100
AcDbEntity
  8
0
100
AcDbMText
 62
2
  6
CONTINUOUS
  7
STANDARD
 71
2
 72
1
 10
12.0053247234
 20
9.4763938307
 30
0.0
 11
1.0
 21
0.0
 31
0.0
  1
3.522
 40
0.15
 41
0.6
  0
LINE
  5
236
100
AcDbEntity
  8
0
100
AcDbLine
 62
2
  6
CONTINUOUS
 10
15.6176266531
 20
11.4497046981
 11
11.8803247234
 21
11.4497046981
  0
LINE
  5
237
100
AcDbEntity
  8
0
100
AcDbLine
 62
2
  6
CONTINUOUS
 10
19.0002679288
 20
7.9277869723
 11
11.8803247234
 21
7.9277869723
  0
LINE
  5
238
100
AcDbEntity
  8
0
100
AcDbLine
 62
2
  6
CONTINUOUS
 10
12.0053247234
 20
11.4497046981
 11
12.0053247234
 21
9.5288938307
  0
LINE
  5
239
100
AcDbEntity
  8
0
100
AcDbLine
 62
2
  6
CONTINUOUS
 10
12.0053247234
 20
7.9277869723
 11
12.0053247234
 21
9.2738938307
  0
INSERT
  5
23A
100
AcDbEntity
  8
0
100
AcDbBlockReference
 62
2
  6
CONTINUOUS
  2
_ARROW_FILLED
 10
12.0053247234
 20
11.4497046981
 41
0.1875
 42
0.1875
 43
0.1875
 50
90.0
  0
INSERT
  5
23B
100
AcDbEntity
  8
0
100
AcDbBlockReference
 62
2
  6
CONTINUOUS
  2
_ARROW_FILLED
 10
12.0053247234
 20
7.9277869723
 41
0.1875
 42
0.1875
 43
0.1875
 50
270.0
  0
ENDBLK
  5
23C
100
AcDbEntity
  8
0
  6
BYBLOCK
 62
0
100
AcDbBlockEnd
  0
BLOCK
  5
23D
100
AcDbEntity
  8
0
100
AcDbBlockBegin
 62
2
  6
CONTINUOUS
  2
*D3
 70
65
 10
0.0
 20
0.0
  3
*D3
  1

  0
MTEXT
  5
23E
100
AcDbEntity
  8
0
100
AcDbMText
 62
2
  6
CONTINUOUS
  7
STANDARD
 71
2
 72
1
 10
11.2092805023
 20
8.9468518317
 30
0.0
 11
1.0
 21
0.0
 31
0.0
  1
5.022
 40
0.15
 41
0.6
  0
LINE
  5
23F
100
AcDbEntity
  8
0
100
AcDbLine
 62
2
  6
CONTINUOUS
 10
14.8676266531
 20
12.1997046981
 11
11.0842805023
 21
12.1997046981
  0
LINE
  5
240
100
AcDbEntity
  8
0
100
AcDbLine
 62
2
  6
CONTINUOUS
 10
14.8676266531
 20
7.1777869723
 11
11.0842805023
 21
7.1777869723
  0
LINE
  5
241
100
AcDbEntity
  8
0
100
AcDbLine
 62
2
  6
CONTINUOUS
 10
11.2092805023
 20
12.1997046981
 11
11.2092805023
 21
8.9993518317
  0
LINE
  5
242
100
AcDbEntity
  8
0
100
AcDbLine
 62
2
  6
CONTINUOUS
 10
11.2092805023
 20
7.1777869723
 11
11.2092805023
 21
8.7443518317
  0
INSERT
  5
243
100
AcDbEntity
  8
0
100
AcDbBlockReference
 62
2
  6
CONTINUOUS
  2
_ARROW_FILLED
 10
11.2092805023
 20
12.1997046981
 41
0.1875
 42
0.1875
 43
0.1875
 50
90.0
  0
INSERT
  5
244
100
AcDbEntity
  8
0
100
AcDbBlockReference
 62
2
  6
CONTINUOUS
  2
_ARROW_FILLED
 10
11.2092805023
 20
7.1777869723
 41
0.1875
 42
0.1875
 43
0.1875
 50
270.0
  0
ENDBLK
  5
245
100
AcDbEntity
  8
0
  6
BYBLOCK
 62
0
100
AcDbBlockEnd
  0
BLOCK
  5
246
100
AcDbEntity
  8
0
100
AcDbBlockBegin
 62
2
  6
CONTINUOUS
  2
*D4
 70
65
 10
0.0
 20
0.0
  3
*D4
  1

  0
MTEXT
  5
247
100
AcDbEntity
  8
0
100
AcDbMText
 62
2
  6
CONTINUOUS
  7
STANDARD
 71
2
 72
1
 10
12.0053247234
 20
11.8997046981
 30
0.0
 11
1.0
 21
0.0
 31
0.0
  1
.750
 40
0.15
 41
0.48
  0
LINE
  5
248
100
AcDbEntity
  8
0
100
AcDbLine
 62
2
  6
CONTINUOUS
 10
14.8676266531
 20
12.1997046981
 11
11.8803247234
 21
12.1997046981
  0
LINE
  5
249
100
AcDbEntity
  8
0
100
AcDbLine
 62
2
  6
CONTINUOUS
 10
15.6176266531
 20
11.4497046981
 11
11.8803247234
 21
11.4497046981
  0
LINE
  5
24A
100
AcDbEntity
  8
0
100
AcDbLine
 62
2
  6
CONTINUOUS
 10
12.0053247234
 20
12.1997046981
 11
12.0053247234
 21
11.9522046981
  0
LINE
  5
24B
100
AcDbEntity
  8
0
100
AcDbLine
 62
2
  6
CONTINUOUS
 10
12.0053247234
 20
11.4497046981
 11
12.0053247234
 21
11.6972046981
  0
INSERT
  5
24C
100
AcDbEntity
  8
0
100
AcDbBlockReference
 62
2
  6
CONTINUOUS
  2
_ARROW_FILLED
 10
12.0053247234
 20
12.1997046981
 41
0.1875
 42
0.1875
 43
0.1875
 50
90.0
  0
INSERT
  5
24D
100
AcDbEntity
  8
0
100
AcDbBlockReference
 62
2
  6
CONTINUOUS
  2
_ARROW_FILLED
 10
12.0053247234
 20
11.4497046981
 41
0.1875
 42
0.1875
 43
0.1875
 50
270.0
  0
ENDBLK
  5
24E
100
AcDbEntity
  8
0
  6
BYBLOCK
 62
0
100
AcDbBlockEnd
  0
BLOCK
  5
24F
100
AcDbEntity
  8
0
100
AcDbBlockBegin
 62
2
  6
CONTINUOUS
  2
*D5
 70
65
 10
0.0
 20
0.0
  3
*D5
  1

  0
MTEXT
  5
250
100
AcDbEntity
  8
0
100
AcDbMText
 62
2
  6
CONTINUOUS
  7
STANDARD
 71
2
 72
1
 10
15.3051266531
 20
14.6332423913
 30
0.0
 11
1.0
 21
0.0
 31
0.0
  1
.750
 40
0.15
 41
0.48
  0
LINE
  5
251
100
AcDbEntity
  8
0
100
AcDbLine
 62
2
  6
CONTINUOUS
 10
15.6801266531
 20
11.5122046981
 11
15.6801266531
 21
14.6832423913
  0
LINE
  5
252
100
AcDbEntity
  8
0
100
AcDbLine
 62
2
  6
CONTINUOUS
 10
14.9301266531
 20
12.2622046981
 11
14.9301266531
 21
14.6832423913
  0
LINE
  5
253
100
AcDbEntity
  8
0
100
AcDbLine
 62
2
  6
CONTINUOUS
 10
15.6801266531
 20
14.5582423913
 11
16.0301266531
 21
14.5582423913
  0
LINE
  5
254
100
AcDbEntity
  8
0
100
AcDbLine
 62
2
  6
CONTINUOUS
 10
14.9301266531
 20
14.5582423913
 11
14.5801266531
 21
14.5582423913
  0
INSERT
  5
255
100
AcDbEntity
  8
0
100
AcDbBlockReference
 62
2
  6
CONTINUOUS
  2
_ARROW_FILLED
 10
15.6801266531
 20
14.5582423913
 41
0.1875
 42
0.1875
 43
0.1875
 50
180.0
  0
INSERT
  5
256
100
AcDbEntity
  8
0
100
AcDbBlockReference
 62
2
  6
CONTINUOUS
  2
_ARROW_FILLED
 10
14.9301266531
 20
14.5582423913
 41
0.1875
 42
0.1875
 43
0.1875
  0
ENDBLK
  5
257
100
AcDbEntity
  8
0
  6
BYBLOCK
 62
0
100
AcDbBlockEnd
  0
ENDSEC
  0
SECTION
  2
ENTITIES
  0
LINE
  5
258
100
AcDbEntity
  8
FORMAT
100
AcDbLine
 62
2
  6
CONTINUOUS
 10
20.3735848803
 20
2.2712701595
 11
20.3736891143
 21
2.271064323
  0
MTEXT
  5
259
100
AcDbEntity
  8
FORMAT
100
AcDbMText
 62
2
  6
CONTINUOUS
  7
TEXTSTYLE_2
 71
1
 72
1
 10
33.45
 20
2.875
 30
0.0
 11
1.0
 21
0.0
 31
0.0
  1
4
 40
0.25
 41
0.2
  0
MTEXT
  5
25A
100
AcDbEntity
  8
FORMAT
100
AcDbMText
 62
2
  6
CONTINUOUS
  7
TEXTSTYLE_2
 71
1
 72
1
 10
33.45
 20
8.375
 30
0.0
 11
1.0
 21
0.0
 31
0.0
  1
3
 40
0.25
 41
0.1833333333
  0
MTEXT
  5
25B
100
AcDbEntity
  8
FORMAT
100
AcDbMText
 62
2
  6
CONTINUOUS
  7
TEXTSTYLE_2
 71
1
 72
1
 10
33.45
 20
13.875
 30
0.0
 11
1.0
 21
0.0
 31
0.0
  1
2
 40
0.25
 41
0.1833333333
  0
MTEXT
  5
25C
100
AcDbEntity
  8
FORMAT
100
AcDbMText
 62
2
  6
CONTINUOUS
  7
TEXTSTYLE_2
 71
1
 72
1
 10
33.45
 20
19.375
 30
0.0
 11
1.0
 21
0.0
 31
0.0
  1
1
 40
0.25
 41
0.0833333333
  0
MTEXT
  5
25D
100
AcDbEntity
  8
FORMAT
100
AcDbMText
 62
2
  6
CONTINUOUS
  7
TEXTSTYLE_2
 71
3
 72
1
 10
0.55
 20
2.875
 30
0.0
 11
1.0
 21
0.0
 31
0.0
  1
4
 40
0.25
 41
0.2
  0
MTEXT
  5
25E
100
AcDbEntity
  8
FORMAT
100
AcDbMText
 62
2
  6
CONTINUOUS
  7
TEXTSTYLE_2
 71
3
 72
1
 10
0.55
 20
8.375
 30
0.0
 11
1.0
 21
0.0
 31
0.0
  1
3
 40
0.25
 41
0.1833333333
  0
MTEXT
  5
25F
100
AcDbEntity
  8
FORMAT
100
AcDbMText
 62
2
  6
CONTINUOUS
  7
TEXTSTYLE_2
 71
3
 72
1
 10
0.55
 20
13.875
 30
0.0
 11
1.0
 21
0.0
 31
0.0
  1
2
 40
0.25
 41
0.1833333333
  0
MTEXT
  5
260
100
AcDbEntity
  8
FORMAT
100
AcDbMText
 62
2
  6
CONTINUOUS
  7
TEXTSTYLE_2
 71
3
 72
1
 10
0.55
 20
19.375
 30
0.0
 11
1.0
 21
0.0
 31
0.0
  1
1
 40
0.25
 41
0.0833333333
  0
MTEXT
  5
261
100
AcDbEntity
  8
FORMAT
100
AcDbMText
 62
2
  6
CONTINUOUS
  7
TEXTSTYLE_2
 71
2
 72
1
 10
31.875
 20
21.85
 30
0.0
 11
1.0
 21
0.0
 31
0.0
  1
H
 40
0.25
 41
0.2
  0
MTEXT
  5
262
100
AcDbEntity
  8
FORMAT
100
AcDbMText
 62
2
  6
CONTINUOUS
  7
TEXTSTYLE_2
 71
2
 72
1
 10
23.375
 20
21.85
 30
0.0
 11
1.0
 21
0.0
 31
0.0
  1
F
 40
0.25
 41
0.1833333333
  0
MTEXT
  5
263
100
AcDbEntity
  8
FORMAT
100
AcDbMText
 62
2
  6
CONTINUOUS
  7
TEXTSTYLE_2
 71
2
 72
1
 10
19.125
 20
21.85
 30
0.0
 11
1.0
 21
0.0
 31
0.0
  1
E
 40
0.25
 41
0.1833333333
  0
MTEXT
  5
264
100
AcDbEntity
  8
FORMAT
100
AcDbMText
 62
2
  6
CONTINUOUS
  7
TEXTSTYLE_2
 71
2
 72
1
 10
14.875
 20
21.85
 30
0.0
 11
1.0
 21
0.0
 31
0.0
  1
D
 40
0.25
 41
0.2
  0
MTEXT
  5
265
100
AcDbEntity
  8
FORMAT
100
AcDbMText
 62
2
  6
CONTINUOUS
  7
TEXTSTYLE_2
 71
2
 72
1
 10
10.625
 20
21.85
 30
0.0
 11
1.0
 21
0.0
 31
0.0
  1
C
 40
0.25
 41
0.2
  0
MTEXT
  5
266
100
AcDbEntity
  8
FORMAT
100
AcDbMText
 62
2
  6
CONTINUOUS
  7
TEXTSTYLE_2
 71
2
 72
1
 10
6.375
 20
21.85
 30
0.0
 11
1.0
 21
0.0
 31
0.0
  1
B
 40
0.25
 41
0.1833333333
  0
MTEXT
  5
267
100
AcDbEntity
  8
FORMAT
100
AcDbMText
 62
2
  6
CONTINUOUS
  7
TEXTSTYLE_2
 71
2
 72
1
 10
2.125
 20
21.85
 30
0.0
 11
1.0
 21
0.0
 31
0.0
  1
A
 40
0.25
 41
0.2
  0
MTEXT
  5
268
100
AcDbEntity
  8
FORMAT
100
AcDbMText
 62
2
  6
CONTINUOUS
  7
TEXTSTYLE_2
 71
2
 72
1
 10
31.875
 20
0.4
 30
0.0
 11
1.0
 21
0.0
 31
0.0
  1
H
 40
0.25
 41
0.2
  0
MTEXT
  5
269
100
AcDbEntity
  8
FORMAT
100
AcDbMText
 62
2
  6
CONTINUOUS
  7
TEXTSTYLE_2
 71
2
 72
1
 10
27.625
 20
0.4
 30
0.0
 11
1.0
 21
0.0
 31
0.0
  1
G
 40
0.25
 41
0.2
  0
MTEXT
  5
26A
100
AcDbEntity
  8
FORMAT
100
AcDbMText
 62
2
  6
CONTINUOUS
  7
TEXTSTYLE_2
 71
2
 72
1
 10
23.375
 20
0.4
 30
0.0
 11
1.0
 21
0.0
 31
0.0
  1
F
 40
0.25
 41
0.1833333333
  0
MTEXT
  5
26B
100
AcDbEntity
  8
FORMAT
100
AcDbMText
 62
2
  6
CONTINUOUS
  7
TEXTSTYLE_2
 71
2
 72
1
 10
19.125
 20
0.4
 30
0.0
 11
1.0
 21
0.0
 31
0.0
  1
E
 40
0.25
 41
0.1833333333
  0
MTEXT
  5
26C
100
AcDbEntity
  8
FORMAT
100
AcDbMText
 62
2
  6
CONTINUOUS
  7
TEXTSTYLE_2
 71
2
 72
1
 10
14.875
 20
0.4
 30
0.0
 11
1.0
 21
0.0
 31
0.0
  1
D
 40
0.25
 41
0.2
  0
MTEXT
  5
26D
100
AcDbEntity
  8
FORMAT
100
AcDbMText
 62
2
  6
CONTINUOUS
  7
TEXTSTYLE_2
 71
2
 72
1
 10
10.625
 20
0.4
 30
0.0
 11
1.0
 21
0.0
 31
0.0
  1
C
 40
0.25
 41
0.2
  0
MTEXT
  5
26E
100
AcDbEntity
  8
FORMAT
100
AcDbMText
 62
2
  6
CONTINUOUS
  7
TEXTSTYLE_2
 71
2
 72
1
 10
6.375
 20
0.4
 30
0.0
 11
1.0
 21
0.0
 31
0.0
  1
B
 40
0.25
 41
0.1833333333
  0
MTEXT
  5
26F
100
AcDbEntity
  8
FORMAT
100
AcDbMText
 62
2
  6
CONTINUOUS
  7
TEXTSTYLE_2
 71
2
 72
1
 10
2.125
 20
0.4
 30
0.0
 11
1.0
 21
0.0
 31
0.0
  1
A
 40
0.25
 41
0.2
  0
MTEXT
  5
270
100
AcDbEntity
  8
FORMAT
100
AcDbMText
 62
2
  6
CONTINUOUS
  7
STANDARD
 71
2
 72
1
 10
27.8977792252
 20
1.2567963012
 30
0.0
 11
1.0
 21
0.0
 31
0.0
  1
SIZE
 40
0.08
 41
0.256
  0
MTEXT
  5
271
100
AcDbEntity
  8
FORMAT
100
AcDbMText
 62
2
  6
CONTINUOUS
  7
STANDARD
 71
1
 72
1
 10
28.2727209301
 20
1.1688998698
 30
0.0
 11
1.0
 21
0.0
 31
0.0
  1
DRAWING\PNUMBER
 40
0.08
 41
0.448
  0
MTEXT
  5
272
100
AcDbEntity
  8
FORMAT
100
AcDbMText
 62
2
  6
CONTINUOUS
  7
STANDARD
 71
2
 72
1
 10
32.5053423577
 20
0.7241884424
 30
0.0
 11
1.0
 21
0.0
 31
0.0
  1
1 OF 1
 40
0.12
 41
0.576
  0
MTEXT
  5
273
100
AcDbEntity
  8
FORMAT
100
AcDbMText
 62
2
  6
CONTINUOUS
  7
STANDARD
 71
2
 72
1
 10
28.4032278572
 20
0.7302717037
 30
0.0
 11
1.0
 21
0.0
 31
0.0
  1
1:1
 40
0.12
 41
0.288
  0
MTEXT
  5
274
100
AcDbEntity
  8
FORMAT
100
AcDbMText
 62
2
  6
CONTINUOUS
  7
STANDARD
 71
2
 72
1
 10
28.8966079318
 20
21.760855959
 30
0.0
 11
1.0
 21
0.0
 31
0.0
  1
1
 40
0.15
 41
0.12
  0
MTEXT
  5
275
100
AcDbEntity
  8
FORMAT
100
AcDbMText
 62
2
  6
CONTINUOUS
  7
STANDARD
 71
1
 72
1
 10
32.8770800261
 20
1.2602381029
 30
0.0
 11
1.0
 21
0.0
 31
0.0
  1
REV
 40
0.08
 41
0.192
  0
MTEXT
  5
276
100
AcDbEntity
  8
FORMAT
100
AcDbMText
 62
2
  6
CONTINUOUS
  7
TEXTSTYLE_2
 71
2
 72
1
 10
27.912054594
 20
1.108716815
 30
0.0
 11
1.0
 21
0.0
 31
0.0
  1
D
 40
0.2
 41
0.16
  0
MTEXT
  5
277
100
AcDbEntity
  8
FORMAT
100
AcDbMText
 62
2
  6
CONTINUOUS
  7
TEXTSTYLE_3
 71
1
 72
1
 10
29.933082431
 20
2.7046411336
 30
0.0
 11
1.0
 21
0.0
 31
0.0
  1
®
 40
0.063
 41
0.0882
  0
MTEXT
  5
278
100
AcDbEntity
  8
FORMAT
100
AcDbMText
 62
2
  6
CONTINUOUS
  7
STANDARD
 71
1
 72
1
 10
31.6275371823
 20
3.0095384485
 30
0.0
 11
1.0
 21
0.0
 31
0.0
  1
AMX LLC\P3000 RESEARCH DRIVE\PRICHARDSON, TX 75082
 40
0.08
 41
1.28
  0
DIMENSION
  5
279
100
AcDbEntity
  8
0
100
AcDbDimension
 62
2
  6
CONTINUOUS
  2
*D0
 10
21.426060127
 20
15.2368755572
 11
17.1284853636
 21
15.2368755572
 70
160
  3
DIMSTYLE_1
100
AcDbAlignedDimension
 13
14.9301266531
 23
12.2622046981
 14
21.426060127
 24
12.2622046981
100
AcDbRotatedDimension
  0
DIMENSION
  5
27A
100
AcDbEntity
  8
0
100
AcDbDimension
 62
2
  6
CONTINUOUS
  2
*D1
 10
15.6801266531
 20
14.5582423913
 11
17.3890968567
 21
14.5582423913
 70
160
  3
DIMSTYLE_1
100
AcDbAlignedDimension
 13
20.676060127
 23
11.5122046981
 14
15.6801266531
 24
11.5122046981
 50
180.0
100
AcDbRotatedDimension
  0
DIMENSION
  5
27B
100
AcDbEntity
  8
0
100
AcDbDimension
 62
2
  6
CONTINUOUS
  2
*D2
 10
12.0053247234
 20
7.9277869723
 11
11.7053247234
 21
9.4013938307
 70
160
  3
DIMSTYLE_1
100
AcDbAlignedDimension
 13
15.6176266531
 23
11.4497046981
 14
19.0002679288
 24
7.9277869723
 50
270.0
100
AcDbRotatedDimension
  0
DIMENSION
  5
27C
100
AcDbEntity
  8
0
100
AcDbDimension
 62
2
  6
CONTINUOUS
  2
*D3
 10
11.2092805023
 20
7.1777869723
 11
10.9092805023
 21
8.8718518317
 70
160
  3
DIMSTYLE_1
100
AcDbAlignedDimension
 13
14.8676266531
 23
12.1997046981
 14
14.8676266531
 24
7.1777869723
 50
270.0
100
AcDbRotatedDimension
  0
DIMENSION
  5
27D
100
AcDbEntity
  8
0
100
AcDbDimension
 62
2
  6
CONTINUOUS
  2
*D4
 10
12.0053247234
 20
11.4497046981
 11
11.7653247234
 21
11.8247046981
 70
160
  3
DIMSTYLE_1
100
AcDbAlignedDimension
 13
14.8676266531
 23
12.1997046981
 14
15.6176266531
 24
11.4497046981
 50
270.0
100
AcDbRotatedDimension
  0
DIMENSION
  5
27E
100
AcDbEntity
  8
0
100
AcDbDimension
 62
2
  6
CONTINUOUS
  2
*D5
 10
14.9301266531
 20
14.5582423913
 11
15.0651266531
 21
14.5582423913
 70
160
  3
DIMSTYLE_1
100
AcDbAlignedDimension
 13
15.6801266531
 23
11.5122046981
 14
14.9301266531
 24
12.2622046981
 50
180.0
100
AcDbRotatedDimension
  0
LINE
  5
27F
100
AcDbEntity
  8
FORMAT
100
AcDbLine
 62
2
  6
CONTINUOUS
 10
33.25
 20
0.5
 11
19.44
 21
0.5
  0
LINE
  5
280
100
AcDbEntity
  8
FORMAT
100
AcDbLine
 62
2
  6
CONTINUOUS
 10
33.25
 20
0.5
 11
33.25
 21
3.205
  0
LINE
  5
281
100
AcDbEntity
  8
FORMAT
100
AcDbLine
 62
2
  6
CONTINUOUS
 10
33.25
 20
0.835
 11
27.64
 21
0.835
  0
LINE
  5
282
100
AcDbEntity
  8
FORMAT
100
AcDbLine
 62
2
  6
CONTINUOUS
 10
27.64
 20
1.075
 11
23.54
 21
1.075
  0
LINE
  5
283
100
AcDbEntity
  8
FORMAT
100
AcDbLine
 62
2
  6
CONTINUOUS
 10
33.25
 20
1.3
 11
27.64
 21
1.3
  0
LINE
  5
284
100
AcDbEntity
  8
FORMAT
100
AcDbLine
 62
2
  6
CONTINUOUS
 10
33.25
 20
2.51
 11
27.64
 21
2.51
  0
LINE
  5
285
100
AcDbEntity
  8
FORMAT
100
AcDbLine
 62
2
  6
CONTINUOUS
 10
33.25
 20
3.205
 11
19.44
 21
3.205
  0
LINE
  5
286
100
AcDbEntity
  8
FORMAT
100
AcDbLine
 62
2
  6
CONTINUOUS
 10
32.68
 20
0.835
 11
32.68
 21
1.3
  0
LINE
  5
287
100
AcDbEntity
  8
FORMAT
100
AcDbLine
 62
2
  6
CONTINUOUS
 10
31.51
 20
0.5
 11
31.51
 21
0.835
  0
LINE
  5
288
100
AcDbEntity
  8
FORMAT
100
AcDbLine
 62
2
  6
CONTINUOUS
 10
28.15
 20
0.835
 11
28.15
 21
1.3
  0
LINE
  5
289
100
AcDbEntity
  8
FORMAT
100
AcDbLine
 62
2
  6
CONTINUOUS
 10
27.64
 20
0.5
 11
27.64
 21
3.205
  0
LINE
  5
28A
100
AcDbEntity
  8
FORMAT
100
AcDbLine
 62
2
  6
CONTINUOUS
 10
23.54
 20
0.5
 11
23.54
 21
3.205
  0
LINE
  5
28B
100
AcDbEntity
  8
FORMAT
100
AcDbLine
 62
2
  6
CONTINUOUS
 10
19.44
 20
0.5
 11
19.44
 21
3.205
  0
MTEXT
  5
28C
100
AcDbEntity
  8
FORMAT
100
AcDbMText
 62
2
  6
CONTINUOUS
  7
STANDARD
 71
1
 72
1
 10
31.56
 20
0.7075
 30
0.0
 11
1.0
 21
0.0
 31
0.0
  1
SHEET 
 40
0.08
 41
0.384
  0
MTEXT
  5
28D
100
AcDbEntity
  8
FORMAT
100
AcDbMText
 62
2
  6
CONTINUOUS
  7
STANDARD
 71
1
 72
1
 10
27.69
 20
0.7075
 30
0.0
 11
1.0
 21
0.0
 31
0.0
  1
SCALE
 40
0.08
 41
0.32
  0
MTEXT
  5
28E
100
AcDbEntity
  8
FORMAT
100
AcDbMText
 62
2
  6
CONTINUOUS
  7
STANDARD
 71
1
 72
1
 10
23.59
 20
0.9125
 30
0.0
 11
1.0
 21
0.0
 31
0.0
  1
          THIRD ANGLE\P          PROJECTION 
 40
0.1
 41
1.68
  0
MTEXT
  5
28F
100
AcDbEntity
  8
FORMAT
100
AcDbMText
 62
2
  6
CONTINUOUS
  7
TEXTSTYLE_4
 71
1
 72
1
 10
19.49
 20
3.0225
 30
0.0
 11
1.0
 21
0.0
 31
0.0
  3
NOTICE: This drawing is the\Pproperty of AMX LLC\PAll information contained herein\Pthis is not generally known\Pshall be confidential except\Pto the extent the information\Phad been previously established.\PThis drawings may not be copied,\Preproduc
  1
ed, or used as the basis\Pfor manufacture or sale without\Pwritten permission.
 40
0.13
 41
3.536
  0
MTEXT
  5
290
100
AcDbEntity
  8
FORMAT
100
AcDbMText
 62
2
  6
CONTINUOUS
  7
STANDARD
 71
1
 72
1
 10
33.015
 20
1.03
 30
0.0
 11
1.0
 21
0.0
 31
0.0
  1
-
 40
0.15
 41
0.12
  0
MTEXT
  5
291
100
AcDbEntity
  8
FORMAT
100
AcDbMText
 62
2
  6
CONTINUOUS
  7
STANDARD
 71
3
 72
1
 10
32.915
 20
1.03
 30
0.0
 11
1.0
 21
0.0
 31
0.0
  1
A
 40
0.15
 41
0.12
  0
MTEXT
  5
292
100
AcDbEntity
  8
FORMAT
100
AcDbMText
 62
2
  6
CONTINUOUS
  7
STANDARD
 71
2
 72
1
 10
30.415
 20
1.1675
 30
0.0
 11
1.0
 21
0.0
 31
0.0
  1
68-5968-08
 40
0.2
 41
1.6
  0
MTEXT
  5
293
100
AcDbEntity
  8
FORMAT
100
AcDbMText
 62
2
  6
CONTINUOUS
  7
STANDARD
 71
2
 72
1
 10
30.445
 20
2.305
 30
0.0
 11
1.0
 21
0.0
 31
0.0
  1
TEMPLATE, FLUSH MOUNT KIT,\P4.3" TOUCH PANEL,\PMODERO X SERIES
 40
0.2
 41
4.16
  0
LINE
  5
294
100
AcDbEntity
  8
FORMAT
100
AcDbLine
 62
2
  6
CONTINUOUS
 10
29.275
 20
21.5
 11
25.975
 21
21.5
  0
LINE
  5
295
100
AcDbEntity
  8
FORMAT
100
AcDbLine
 62
2
  6
CONTINUOUS
 10
29.275
 20
21.5
 11
29.275
 21
21.87
  0
LINE
  5
296
100
AcDbEntity
  8
FORMAT
100
AcDbLine
 62
2
  6
CONTINUOUS
 10
29.275
 20
21.87
 11
25.975
 21
21.87
  0
LINE
  5
297
100
AcDbEntity
  8
FORMAT
100
AcDbLine
 62
2
  6
CONTINUOUS
 10
28.525
 20
21.5
 11
28.525
 21
21.87
  0
LINE
  5
298
100
AcDbEntity
  8
FORMAT
100
AcDbLine
 62
2
  6
CONTINUOUS
 10
25.975
 20
21.5
 11
25.975
 21
21.87
  0
MTEXT
  5
299
100
AcDbEntity
  8
FORMAT
100
AcDbMText
 62
2
  6
CONTINUOUS
  7
STANDARD
 71
2
 72
1
 10
27.25
 20
21.76
 30
0.0
 11
1.0
 21
0.0
 31
0.0
  1
68-5968-08
 40
0.15
 41
1.2
  0
LINE
  5
29A
100
AcDbEntity
  8
FORMAT
100
AcDbLine
 62
2
  6
CONTINUOUS
 10
33.25
 20
21.5
 11
22.97
 21
21.5
  0
LINE
  5
29B
100
AcDbEntity
  8
FORMAT
100
AcDbLine
 62
2
  6
CONTINUOUS
 10
33.25
 20
21.5
 11
33.25
 21
20.58
  0
LINE
  5
29C
100
AcDbEntity
  8
FORMAT
100
AcDbLine
 62
2
  6
CONTINUOUS
 10
33.25
 20
21.19
 11
22.97
 21
21.19
  0
LINE
  5
29D
100
AcDbEntity
  8
FORMAT
100
AcDbLine
 62
2
  6
CONTINUOUS
 10
33.25
 20
20.88
 11
22.97
 21
20.88
  0
LINE
  5
29E
100
AcDbEntity
  8
FORMAT
100
AcDbLine
 62
2
  6
CONTINUOUS
 10
33.25
 20
20.58
 11
22.97
 21
20.58
  0
LINE
  5
29F
100
AcDbEntity
  8
FORMAT
100
AcDbLine
 62
2
  6
CONTINUOUS
 10
31.75
 20
21.19
 11
31.75
 21
20.58
  0
LINE
  5
2A0
100
AcDbEntity
  8
FORMAT
100
AcDbLine
 62
2
  6
CONTINUOUS
 10
30.67
 20
21.19
 11
30.67
 21
20.58
  0
LINE
  5
2A1
100
AcDbEntity
  8
FORMAT
100
AcDbLine
 62
2
  6
CONTINUOUS
 10
24.55
 20
21.19
 11
24.55
 21
20.58
  0
LINE
  5
2A2
100
AcDbEntity
  8
FORMAT
100
AcDbLine
 62
2
  6
CONTINUOUS
 10
23.47
 20
21.19
 11
23.47
 21
20.58
  0
LINE
  5
2A3
100
AcDbEntity
  8
FORMAT
100
AcDbLine
 62
2
  6
CONTINUOUS
 10
22.97
 20
21.5
 11
22.97
 21
20.58
  0
MTEXT
  5
2A4
100
AcDbEntity
  8
FORMAT
100
AcDbMText
 62
2
  6
CONTINUOUS
  7
TEXTSTYLE_5
 71
2
 72
1
 10
28.11
 20
21.4
 30
0.0
 11
1.0
 21
0.0
 31
0.0
  1
REVISIONS
 40
0.11
 41
1.485
  0
MTEXT
  5
2A5
100
AcDbEntity
  8
FORMAT
100
AcDbMText
 62
2
  6
CONTINUOUS
  7
STANDARD
 71
2
 72
1
 10
32.5
 20
21.075
 30
0.0
 11
1.0
 21
0.0
 31
0.0
  1
APPROVED
 40
0.08
 41
0.512
  0
MTEXT
  5
2A6
100
AcDbEntity
  8
FORMAT
100
AcDbMText
 62
2
  6
CONTINUOUS
  7
STANDARD
 71
2
 72
1
 10
31.21
 20
21.075
 30
0.0
 11
1.0
 21
0.0
 31
0.0
  1
DATE
 40
0.08
 41
0.256
  0
MTEXT
  5
2A7
100
AcDbEntity
  8
FORMAT
100
AcDbMText
 62
2
  6
CONTINUOUS
  7
STANDARD
 71
2
 72
1
 10
27.61
 20
21.075
 30
0.0
 11
1.0
 21
0.0
 31
0.0
  1
DESCRIPTION
 40
0.08
 41
0.704
  0
MTEXT
  5
2A8
100
AcDbEntity
  8
FORMAT
100
AcDbMText
 62
2
  6
CONTINUOUS
  7
STANDARD
 71
2
 72
1
 10
24.01
 20
21.075
 30
0.0
 11
1.0
 21
0.0
 31
0.0
  1
ECN NUMBER
 40
0.08
 41
0.64
  0
MTEXT
  5
2A9
100
AcDbEntity
  8
FORMAT
100
AcDbMText
 62
2
  6
CONTINUOUS
  7
STANDARD
 71
2
 72
1
 10
23.22
 20
21.075
 30
0.0
 11
1.0
 21
0.0
 31
0.0
  1
REV
 40
0.08
 41
0.192
  0
MTEXT
  5
2AA
100
AcDbEntity
  8
FORMAT
100
AcDbMText
 62
2
  6
CONTINUOUS
  7
STANDARD
 71
2
 72
1
 10
32.5
 20
20.79
 30
0.0
 11
1.0
 21
0.0
 31
0.0
  1
J. PORTER
 40
0.12
 41
0.864
  0
MTEXT
  5
2AB
100
AcDbEntity
  8
FORMAT
100
AcDbMText
 62
2
  6
CONTINUOUS
  7
STANDARD
 71
2
 72
1
 10
31.21
 20
20.79
 30
0.0
 11
1.0
 21
0.0
 31
0.0
  1
11-20-13
 40
0.12
 41
0.768
  0
MTEXT
  5
2AC
100
AcDbEntity
  8
FORMAT
100
AcDbMText
 62
2
  6
CONTINUOUS
  7
STANDARD
 71
1
 72
1
 10
24.61
 20
20.79
 30
0.0
 11
1.0
 21
0.0
 31
0.0
  1
INITIAL RELEASE
 40
0.12
 41
1.44
  0
MTEXT
  5
2AD
100
AcDbEntity
  8
FORMAT
100
AcDbMText
 62
2
  6
CONTINUOUS
  7
STANDARD
 71
2
 72
1
 10
24.01
 20
20.79
 30
0.0
 11
1.0
 21
0.0
 31
0.0
  1
21756
 40
0.12
 41
0.48
  0
MTEXT
  5
2AE
100
AcDbEntity
  8
FORMAT
100
AcDbMText
 62
2
  6
CONTINUOUS
  7
STANDARD
 71
2
 72
1
 10
23.22
 20
20.79
 30
0.0
 11
1.0
 21
0.0
 31
0.0
  1
A
 40
0.12
 41
0.096
  0
LINE
  5
2AF
100
AcDbEntity
  8
FORMAT
100
AcDbLine
 62
2
  6
CONTINUOUS
 10
0.75
 20
0.5
 11
6.75
 21
0.5
  0
LINE
  5
2B0
100
AcDbEntity
  8
FORMAT
100
AcDbLine
 62
2
  6
CONTINUOUS
 10
0.75
 20
0.5
 11
0.75
 21
1.38
  0
LINE
  5
2B1
100
AcDbEntity
  8
FORMAT
100
AcDbLine
 62
2
  6
CONTINUOUS
 10
0.75
 20
0.94
 11
6.75
 21
0.94
  0
LINE
  5
2B2
100
AcDbEntity
  8
FORMAT
100
AcDbLine
 62
2
  6
CONTINUOUS
 10
0.75
 20
1.38
 11
6.75
 21
1.38
  0
LINE
  5
2B3
100
AcDbEntity
  8
FORMAT
100
AcDbLine
 62
2
  6
CONTINUOUS
 10
6.75
 20
0.5
 11
6.75
 21
1.38
  0
MTEXT
  5
2B4
100
AcDbEntity
  8
FORMAT
100
AcDbMText
 62
2
  6
CONTINUOUS
  7
STANDARD
 71
1
 72
1
 10
0.81
 20
0.795
 30
0.0
 11
1.0
 21
0.0
 31
0.0
  1
REF. PRO/E PART REV. = A
 40
0.15
 41
2.88
  0
MTEXT
  5
2B5
100
AcDbEntity
  8
FORMAT
100
AcDbMText
 62
2
  6
CONTINUOUS
  7
STANDARD
 71
1
 72
1
 10
0.81
 20
1.235
 30
0.0
 11
1.0
 21
0.0
 31
0.0
  1
REF. PRO/E PART FILE = 68-5968-08
 40
0.15
 41
3.96
  0
LINE
  5
2B6
100
AcDbEntity
  8
FORMAT
100
AcDbLine
 62
2
  6
CONTINUOUS
 10
23.5399977977
 20
3.2049909803
 11
27.6399977977
 21
3.2049909803
  0
LINE
  5
2B7
100
AcDbEntity
  8
FORMAT
100
AcDbLine
 62
2
  6
CONTINUOUS
 10
23.5399977977
 20
3.2049909803
 11
23.5399977977
 21
1.0749909803
  0
LINE
  5
2B8
100
AcDbEntity
  8
FORMAT
100
AcDbLine
 62
2
  6
CONTINUOUS
 10
23.5399977977
 20
1.0749909803
 11
27.6399977977
 21
1.0749909803
  0
LINE
  5
2B9
100
AcDbEntity
  8
FORMAT
100
AcDbLine
 62
2
  6
CONTINUOUS
 10
27.6399977977
 20
3.2049909803
 11
27.6399977977
 21
1.0749909803
  0
MTEXT
  5
2BA
100
AcDbEntity
  8
FORMAT
100
AcDbMText
 62
2
  6
CONTINUOUS
  7
STANDARD
 71
2
 72
1
 10
25.5899977977
 20
2.9499909803
 30
0.0
 11
1.0
 21
0.0
 31
0.0
  1
UNLESS OTHERWISE SPECIFIED
 40
0.13
 41
2.704
  0
MTEXT
  5
2BB
100
AcDbEntity
  8
FORMAT
100
AcDbMText
 62
2
  6
CONTINUOUS
  7
STANDARD
 71
3
 72
1
 10
27.6079977977
 20
2.4959909803
 30
0.0
 11
1.0
 21
0.0
 31
0.0
  1
TOLERANCE ON DECIMAL DIMENSIONS:   .X = \Fgdt;{\Fgdt;`}\Ftxt;0.0    \P.XX = \Fgdt;{\Fgdt;`}\Ftxt;0.01   \P.XXX = \Fgdt;{\Fgdt;`}\Ftxt;0.005  \PANGLES:  \Fgdt;{\Fgdt;`}\Ftxt;1.0    \P \PSURFACE FLATNESS .003 TIR PER LINEAR INCH  
 40
0.1
 41
3.8766666667
  0
MTEXT
  5
2BC
100
AcDbEntity
  8
FORMAT
100
AcDbMText
 62
2
  6
CONTINUOUS
  7
STANDARD
 71
2
 72
1
 10
25.5899977977
 20
1.4697409803
 30
0.0
 11
1.0
 21
0.0
 31
0.0
  1
ALL DIMENSIONS IN INCHES. \P\H0.13;DO NOT SCALE DRAWING
 40
0.1
 41
2.08
  0
MTEXT
  5
2BD
100
AcDbEntity
  8
DETAIL
100
AcDbMText
 62
2
  6
CONTINUOUS
  7
STANDARD
 71
1
 72
1
 10
1.5
 20
20.275
 30
0.0
 11
1.0
 21
0.0
 31
0.0
  3
NOTES: UNLESS OTHERWISE SPECIFIED\P \PRoHS COMPLIANCE:\P      THIS PRODUCT MUST MEET THE REQUIREMENTS OF DIRECTIVE 2002/95/EC OF THE\P      EUROPEAN PARLIAMENT AND OF THE COUNCIL OF JANUARY 27, 2003 ON THE\P      RESTRICTION OF THE USE OF CERTAIN HAZ
  3
ARDOUS SUBSTANCES IN ELECTRICAL AND\P      ELECTRONIC EQUIPMENT AND ITS AMENDMENTS (RoHS).  USE OF MERCURY, CADMIUM,\P      LEAD, CHROMIUM VI, PBB AND PBDE IN ANY MATERIALS USED TO CONSTRUCT THIS\P      COMPONENT OR ASSEMBLY SHALL NOT EXCEED THE MAXI
  3
MUM CONCENTRATION VALUES\P      SPECIFIED EXCEPT IN EXEMPTED APPLICATIONS.\P \P  1.  3D DATABASE FEATURES TAKE PRECEDENCE OVER 2D DRAWINGS. REFER TO 3D\P      DATABASE FILE (SEE MODEL NAME AND REVISION IN TITLE BLOCK).\P \P  2.  ALL DIMENSIONS IN INC
  3
HES AND DIMENSIONS IN [ ] ARE IN MILLIMETERS.\P \P  3.  MATERIAL:  WHITE COATED CARDSTOCK, INTERNATIONAL PAPER, CAROLINA SERIES, .024" THICK.\P \P  4.  ALL TEXT AND GRAPHICS ARE PRINTED BLACK.\P \P  5.  TOLERANCE \Fgdt;{\Fgdt;`}\Ftxt;.02 UNLESS OTHER
  1
WISE SPECIFIED.
 40
0.15
 41
10.92
  0
MTEXT
  5
2BE
100
AcDbEntity
  8
DETAIL
100
AcDbMText
 62
2
  6
CONTINUOUS
  7
TEXTSTYLE_1
 71
1
 72
1
 10
24.4436476021
 20
9.7421340369
 30
0.0
 11
1.0
 21
0.0
 31
0.0
  1
{\Fgdt;q}
 40
0.15
 41
0.2375
  0
MTEXT
  5
2BF
100
AcDbEntity
  8
DETAIL
100
AcDbMText
 62
2
  6
CONTINUOUS
  7
TEXTSTYLE_1
 71
1
 72
1
 10
18.089093697
 20
15.1158856127
 30
0.0
 11
1.0
 21
0.0
 31
0.0
  1
{\Fgdt;q}
 40
0.15
 41
0.2375
  0
LWPOLYLINE
  5
2C0
100
AcDbEntity
  8
FORMAT
100
AcDbPolyline
 62
9
  6
PHANTOM
 90
2
 70
0
 43
0.001
 10
0.0
 20
22.0
 10
0.0
 20
0.0
  0
LINE
  5
2C1
100
AcDbEntity
  8
FORMAT
100
AcDbLine
 62
7
  6
CONTINUOUS
 10
0.553427
 20
11.113491
 11
0.553427
 21
10.886508
  0
LINE
  5
2C2
100
AcDbEntity
  8
FORMAT
100
AcDbLine
 62
7
  6
CONTINUOUS
 10
0.553427
 20
10.886508
 11
0.75
 21
11.0
  0
LINE
  5
2C3
100
AcDbEntity
  8
FORMAT
100
AcDbLine
 62
7
  6
CONTINUOUS
 10
0.75
 20
11.0
 11
0.553427
 21
11.113491
  0
HATCH
  5
2C4
100
AcDbEntity
  8
FORMAT
100
AcDbHatch
 62
7
  6
CONTINUOUS
 10
0.0
 20
0.0
 30
0.0
210
0.0
220
0.0
230
1.0
  2
arrow_left
 70
1
 71
1
 91
1
 92
1
 93
3
 72
1
 10
0.553427
 20
10.886508
 11
0.75
 21
11.0
 72
1
 10
0.75
 20
11.0
 11
0.553427
 21
11.113491
 72
1
 10
0.553427
 20
11.113491
 11
0.553427
 21
10.886508
 97
3
330
2C1
330
2C2
330
2C3
 75
0
 76
1
 98
1
 10
0.0
 20
0.0
  0
LINE
  5
2C5
100
AcDbEntity
  8
FORMAT
100
AcDbLine
 62
7
  6
CONTINUOUS
 10
0.75
 20
21.5
 11
0.75
 21
0.5
  0
LINE
  5
2C6
100
AcDbEntity
  8
FORMAT
100
AcDbLine
 62
7
  6
CONTINUOUS
 10
4.25
 20
0.0
 11
4.25
 21
0.5
  0
LINE
  5
2C7
100
AcDbEntity
  8
FORMAT
100
AcDbLine
 62
7
  6
CONTINUOUS
 10
4.25
 20
21.5
 11
4.25
 21
22.0
  0
LINE
  5
2C8
100
AcDbEntity
  8
FORMAT
100
AcDbLine
 62
2
  6
CONTINUOUS
 10
26.778896667
 20
0.9797689904
 11
26.3529632996
 21
0.9047689904
  0
LWPOLYLINE
  5
2C9
100
AcDbEntity
  8
FORMAT
100
AcDbPolyline
 62
9
  6
PHANTOM
 90
2
 70
0
 43
0.001
 10
0.0
 20
0.0
 10
34.0
 20
0.0
  0
LINE
  5
2CA
100
AcDbEntity
  8
FORMAT
100
AcDbLine
 62
7
  6
CONTINUOUS
 10
16.886509
 20
0.303427
 11
17.113492
 21
0.303427
  0
LINE
  5
2CB
100
AcDbEntity
  8
FORMAT
100
AcDbLine
 62
7
  6
CONTINUOUS
 10
17.113492
 20
0.303427
 11
17.0
 21
0.5
  0
LINE
  5
2CC
100
AcDbEntity
  8
FORMAT
100
AcDbLine
 62
7
  6
CONTINUOUS
 10
17.0
 20
0.5
 11
16.886509
 21
0.303427
  0
HATCH
  5
2CD
100
AcDbEntity
  8
FORMAT
100
AcDbHatch
 62
7
  6
CONTINUOUS
 10
0.0
 20
0.0
 30
0.0
210
0.0
220
0.0
230
1.0
  2
arrow_bottom
 70
1
 71
1
 91
1
 92
1
 93
3
 72
1
 10
17.113492
 20
0.303427
 11
17.0
 21
0.5
 72
1
 10
17.0
 20
0.5
 11
16.886509
 21
0.303427
 72
1
 10
16.886509
 20
0.303427
 11
17.113492
 21
0.303427
 97
3
330
2CA
330
2CB
330
2CC
 75
0
 76
1
 98
1
 10
0.0
 20
0.0
  0
LINE
  5
2CE
100
AcDbEntity
  8
FORMAT
100
AcDbLine
 62
7
  6
CONTINUOUS
 10
0.75
 20
0.5
 11
33.25
 21
0.5
  0
LINE
  5
2CF
100
AcDbEntity
  8
FORMAT
100
AcDbLine
 62
2
  6
CENTER
 10
26.1741031828
 20
0.7797689904
 11
25.6741031828
 21
0.7797689904
  0
LINE
  5
2D0
100
AcDbEntity
  8
FORMAT
100
AcDbLine
 62
2
  6
CENTER
 10
26.3029632996
 20
0.7797689904
 11
26.828896667
 21
0.7797689904
  0
LINE
  5
2D1
100
AcDbEntity
  8
FORMAT
100
AcDbLine
 62
7
  6
CONTINUOUS
 10
8.5
 20
0.0
 11
8.5
 21
0.5
  0
LINE
  5
2D2
100
AcDbEntity
  8
FORMAT
100
AcDbLine
 62
7
  6
CONTINUOUS
 10
8.5
 20
21.5
 11
8.5
 21
22.0
  0
LINE
  5
2D3
100
AcDbEntity
  8
FORMAT
100
AcDbLine
 62
2
  6
CONTINUOUS
 10
28.4050850453
 20
2.8126982502
 11
28.5032965998
 21
2.8128889539
  0
LINE
  5
2D4
100
AcDbEntity
  8
FORMAT
100
AcDbLine
 62
2
  6
CONTINUOUS
 10
28.5625352464
 20
2.6463881271
 11
28.8591983041
 21
2.6463881271
  0
LINE
  5
2D5
100
AcDbEntity
  8
FORMAT
100
AcDbLine
 62
2
  6
CONTINUOUS
 10
29.1005538126
 20
2.6463881271
 11
29.4167527338
 21
2.6463881271
  0
LINE
  5
2D6
100
AcDbEntity
  8
FORMAT
100
AcDbLine
 62
2
  6
CONTINUOUS
 10
29.654208351
 20
2.6463881271
 11
29.8451591298
 21
2.6463881271
  0
LINE
  5
2D7
100
AcDbEntity
  8
FORMAT
100
AcDbLine
 62
2
  6
CONTINUOUS
 10
28.4102981919
 20
3.0485190163
 11
28.5649684526
 21
3.0485190163
  0
LINE
  5
2D8
100
AcDbEntity
  8
FORMAT
100
AcDbLine
 62
2
  6
CONTINUOUS
 10
28.7790958026
 20
3.0485190163
 11
28.9022071964
 21
3.0485190163
  0
LINE
  5
2D9
100
AcDbEntity
  8
FORMAT
100
AcDbLine
 62
2
  6
CONTINUOUS
 10
29.1897892892
 20
3.0485190163
 11
29.4953781483
 21
3.0485190163
  0
LINE
  5
2DA
100
AcDbEntity
  8
FORMAT
100
AcDbLine
 62
2
  6
CONTINUOUS
 10
29.7043825025
 20
3.0485190163
 11
29.8953133441
 21
3.0485190163
  0
LINE
  5
2DB
100
AcDbEntity
  8
FORMAT
100
AcDbLine
 62
2
  6
CONTINUOUS
 10
28.5032965998
 20
2.8128889539
 11
28.5034933714
 21
2.8126982502
  0
LINE
  5
2DC
100
AcDbEntity
  8
FORMAT
100
AcDbLine
 62
2
  6
CONTINUOUS
 10
28.9022071964
 20
3.0485190163
 11
29.0237392167
 21
2.9155040309
  0
LINE
  5
2DD
100
AcDbEntity
  8
FORMAT
100
AcDbLine
 62
2
  6
CONTINUOUS
 10
29.4341579166
 20
2.8993713622
 11
29.31288508
 21
3.0387939928
  0
LINE
  5
2DE
100
AcDbEntity
  8
FORMAT
100
AcDbLine
 62
2
  6
CONTINUOUS
 10
29.5539389298
 20
2.7616641982
 11
29.654208351
 21
2.6463881271
  0
LINE
  5
2DF
100
AcDbEntity
  8
FORMAT
100
AcDbLine
 62
2
  6
CONTINUOUS
 10
29.8451591298
 20
2.6463881271
 11
29.6776553747
 21
2.8389607544
  0
LINE
  5
2E0
100
AcDbEntity
  8
FORMAT
100
AcDbLine
 62
2
  6
CONTINUOUS
 10
29.4953781483
 20
3.0485190163
 11
29.5836332345
 21
2.9470542295
  0
LINE
  5
2E1
100
AcDbEntity
  8
FORMAT
100
AcDbLine
 62
2
  6
CONTINUOUS
 10
28.714787904
 20
2.6624323787
 11
28.672655382
 21
2.771008681
  0
LINE
  5
2E2
100
AcDbEntity
  8
FORMAT
100
AcDbLine
 62
2
  6
CONTINUOUS
 10
28.5649684526
 20
3.0485190163
 11
28.6550768322
 21
2.8163077517
  0
LINE
  5
2E3
100
AcDbEntity
  8
FORMAT
100
AcDbLine
 62
2
  6
CONTINUOUS
 10
28.5279199188
 20
2.7439365527
 11
28.5625352464
 21
2.6463881271
  0
LINE
  5
2E4
100
AcDbEntity
  8
FORMAT
100
AcDbLine
 62
2
  6
CONTINUOUS
 10
28.5034933714
 20
2.8126982502
 11
28.4684810332
 21
2.912243864
  0
LINE
  5
2E5
100
AcDbEntity
  8
FORMAT
100
AcDbLine
 62
2
  6
CONTINUOUS
 10
28.7346401624
 20
2.7816230772
 11
28.714787904
 21
2.6624323787
  0
LINE
  5
2E6
100
AcDbEntity
  8
FORMAT
100
AcDbLine
 62
2
  6
CONTINUOUS
 10
28.7433301847
 20
2.8337952838
 11
28.7790958026
 21
3.0485190163
  0
LINE
  5
2E7
100
AcDbEntity
  8
FORMAT
100
AcDbLine
 62
2
  6
CONTINUOUS
 10
28.8591983041
 20
2.6463881271
 11
28.8851695517
 21
2.8022112787
  0
LINE
  5
2E8
100
AcDbEntity
  8
FORMAT
100
AcDbLine
 62
2
  6
CONTINUOUS
 10
29.1302619865
 20
2.8246337032
 11
29.1005538126
 21
2.6463881271
  0
LINE
  5
2E9
100
AcDbEntity
  8
FORMAT
100
AcDbLine
 62
2
  6
CONTINUOUS
 10
29.31288508
 20
3.0387939928
 11
29.2885599524
 21
2.8928423599
  0
LINE
  5
2EA
100
AcDbEntity
  8
FORMAT
100
AcDbLine
 62
2
  6
CONTINUOUS
 10
29.2510121214
 20
2.6675545075
 11
29.2783512349
 21
2.8315900552
  0
LINE
  5
2EB
100
AcDbEntity
  8
FORMAT
100
AcDbLine
 62
2
  6
CONTINUOUS
 10
28.4684810332
 20
2.912243864
 11
28.4050850453
 21
2.8126982502
  0
LINE
  5
2EC
100
AcDbEntity
  8
FORMAT
100
AcDbLine
 62
2
  6
CONTINUOUS
 10
28.141008921
 20
2.6463881271
 11
28.4102981919
 21
3.0485190163
  0
LINE
  5
2ED
100
AcDbEntity
  8
FORMAT
100
AcDbLine
 62
2
  6
CONTINUOUS
 10
29.5836332345
 20
2.9470542295
 11
29.7043825025
 21
3.0485190163
  0
LINE
  5
2EE
100
AcDbEntity
  8
FORMAT
100
AcDbLine
 62
2
  6
CONTINUOUS
 10
29.453173679
 20
2.8374299235
 11
29.2510121214
 21
2.6675545075
  0
LINE
  5
2EF
100
AcDbEntity
  8
FORMAT
100
AcDbLine
 62
2
  6
CONTINUOUS
 10
29.4167527338
 20
2.6463881271
 11
29.5539389298
 21
2.7616641982
  0
LINE
  5
2F0
100
AcDbEntity
  8
FORMAT
100
AcDbLine
 62
2
  6
CONTINUOUS
 10
29.8953133441
 20
3.0485190163
 11
29.7248554149
 21
2.9052840446
  0
LINE
  5
2F1
100
AcDbEntity
  8
FORMAT
100
AcDbLine
 62
2
  6
CONTINUOUS
 10
29.0237392167
 20
2.9155040309
 11
29.1897892892
 21
3.0485190163
  0
ARC
  5
2F2
100
AcDbEntity
  8
FORMAT
100
AcDbCircle
 62
2
  6
CONTINUOUS
 10
30.2247108838
 20
-28.8191882834
 40
31.7284099819
100
AcDbArc
 50
90.9026860654
 51
91.4277436702
  0
ARC
  5
2F3
100
AcDbEntity
  8
FORMAT
100
AcDbCircle
 62
2
  6
CONTINUOUS
 10
29.6017757325
 20
-2.4938274958
 40
5.3333280644
100
AcDbArc
 50
89.1847998314
 51
91.5966339278
  0
ARC
  5
2F4
100
AcDbEntity
  8
FORMAT
100
AcDbCircle
 62
2
  6
CONTINUOUS
 10
29.5529957134
 20
-2.0957073982
 40
4.9955535189
100
AcDbArc
 50
93.0343259382
 51
99.327487296
  0
ARC
  5
2F5
100
AcDbEntity
  8
FORMAT
100
AcDbCircle
 62
2
  6
CONTINUOUS
 10
29.4132166899
 20
-1.619238778
 40
4.452871657
100
AcDbArc
 50
91.7355998212
 51
93.6432760363
  0
ARC
  5
2F6
100
AcDbEntity
  8
FORMAT
100
AcDbCircle
 62
2
  6
CONTINUOUS
 10
29.413195885
 20
-1.6190086845
 40
4.4526394163
100
AcDbArc
 50
96.8105766804
 51
98.7656904317
  0
ARC
  5
2F7
100
AcDbEntity
  8
FORMAT
100
AcDbCircle
 62
2
  6
CONTINUOUS
 10
29.0627070354
 20
0.2852442316
 40
2.516180675
100
AcDbArc
 50
98.9178023333
 51
102.2711995651
  0
ARC
  5
2F8
100
AcDbEntity
  8
FORMAT
100
AcDbCircle
 62
2
  6
CONTINUOUS
 10
29.0387272599
 20
0.7930475021
 40
2.0593129165
100
AcDbArc
 50
100.7369468805
 51
115.8445496536
  0
HATCH
  5
2F9
100
AcDbEntity
  8
FORMAT
100
AcDbHatch
 62
2
  6
CONTINUOUS
 10
0.0
 20
0.0
 30
0.0
210
0.0
220
0.0
230
1.0
  2
A
 70
1
 71
1
 91
5
 92
1
 93
4
 72
1
 10
28.5032965998
 20
2.8128889539
 11
28.5034933714
 21
2.8126982502
 72
1
 10
28.5034933714
 20
2.8126982502
 11
28.4684810332
 21
2.912243864
 72
1
 10
28.4684810332
 20
2.912243864
 11
28.4050850453
 21
2.8126982502
 72
1
 10
28.4050850453
 20
2.8126982502
 11
28.5032965998
 21
2.8128889539
 97
38
330
2D3
330
2D4
330
2D5
330
2D6
330
2D7
330
2D8
330
2D9
330
2DA
330
2DB
330
2DC
330
2DD
330
2DE
330
2DF
330
2E0
330
2E1
330
2E2
330
2E3
330
2E4
330
2E5
330
2E6
330
2E7
330
2E8
330
2E9
330
2EA
330
2EB
330
2EC
330
2ED
330
2EE
330
2EF
330
2F0
330
2F1
330
2F2
330
2F3
330
2F4
330
2F5
330
2F6
330
2F7
330
2F8
 92
1
 93
7
 72
1
 10
28.8591983041
 20
2.6463881271
 11
28.8851695517
 21
2.8022112787
 72
2
 10
29.413195885
 20
-1.6190086845
 40
4.4526394163
 50
96.8105766804
 51
98.7656904317
 73
1
 72
1
 10
28.7346401624
 20
2.7816230772
 11
28.714787904
 21
2.6624323787
 72
1
 10
28.714787904
 20
2.6624323787
 11
28.672655382
 21
2.771008681
 72
2
 10
29.0627070354
 20
0.2852442316
 40
2.516180675
 50
98.9178023333
 51
102.2711995651
 73
1
 72
1
 10
28.5279199188
 20
2.7439365527
 11
28.5625352464
 21
2.6463881271
 72
1
 10
28.5625352464
 20
2.6463881271
 11
28.8591983041
 21
2.6463881271
 97
38
330
2D3
330
2D4
330
2D5
330
2D6
330
2D7
330
2D8
330
2D9
330
2DA
330
2DB
330
2DC
330
2DD
330
2DE
330
2DF
330
2E0
330
2E1
330
2E2
330
2E3
330
2E4
330
2E5
330
2E6
330
2E7
330
2E8
330
2E9
330
2EA
330
2EB
330
2EC
330
2ED
330
2EE
330
2EF
330
2F0
330
2F1
330
2F2
330
2F3
330
2F4
330
2F5
330
2F6
330
2F7
330
2F8
 92
1
 93
10
 72
1
 10
29.4167527338
 20
2.6463881271
 11
29.5539389298
 21
2.7616641982
 72
1
 10
29.5539389298
 20
2.7616641982
 11
29.654208351
 21
2.6463881271
 72
1
 10
29.654208351
 20
2.6463881271
 11
29.8451591298
 21
2.6463881271
 72
1
 10
29.8451591298
 20
2.6463881271
 11
29.6776553747
 21
2.8389607544
 72
2
 10
29.6017757325
 20
-2.4938274958
 40
5.3333280644
 50
89.1847998314
 51
91.5966339278
 73
1
 72
1
 10
29.453173679
 20
2.8374299235
 11
29.2510121214
 21
2.6675545075
 72
1
 10
29.2510121214
 20
2.6675545075
 11
29.2783512349
 21
2.8315900552
 72
2
 10
29.4132166899
 20
-1.619238778
 40
4.452871657
 50
91.7355998212
 51
93.6432760363
 73
1
 72
1
 10
29.1302619865
 20
2.8246337032
 11
29.1005538126
 21
2.6463881271
 72
1
 10
29.1005538126
 20
2.6463881271
 11
29.4167527338
 21
2.6463881271
 97
38
330
2D3
330
2D4
330
2D5
330
2D6
330
2D7
330
2D8
330
2D9
330
2DA
330
2DB
330
2DC
330
2DD
330
2DE
330
2DF
330
2E0
330
2E1
330
2E2
330
2E3
330
2E4
330
2E5
330
2E6
330
2E7
330
2E8
330
2E9
330
2EA
330
2EB
330
2EC
330
2ED
330
2EE
330
2EF
330
2F0
330
2F1
330
2F2
330
2F3
330
2F4
330
2F5
330
2F6
330
2F7
330
2F8
 92
1
 93
4
 72
1
 10
28.5649684526
 20
3.0485190163
 11
28.6550768322
 21
2.8163077517
 72
2
 10
29.0387272599
 20
0.7930475021
 40
2.0593129165
 50
100.7369468805
 51
115.8445496536
 73
1
 72
1
 10
28.141008921
 20
2.6463881271
 11
28.4102981919
 21
3.0485190163
 72
1
 10
28.4102981919
 20
3.0485190163
 11
28.5649684526
 21
3.0485190163
 97
38
330
2D3
330
2D4
330
2D5
330
2D6
330
2D7
330
2D8
330
2D9
330
2DA
330
2DB
330
2DC
330
2DD
330
2DE
330
2DF
330
2E0
330
2E1
330
2E2
330
2E3
330
2E4
330
2E5
330
2E6
330
2E7
330
2E8
330
2E9
330
2EA
330
2EB
330
2EC
330
2ED
330
2EE
330
2EF
330
2F0
330
2F1
330
2F2
330
2F3
330
2F4
330
2F5
330
2F6
330
2F7
330
2F8
 92
1
 93
13
 72
1
 10
28.9022071964
 20
3.0485190163
 11
29.0237392167
 21
2.9155040309
 72
1
 10
29.0237392167
 20
2.9155040309
 11
29.1897892892
 21
3.0485190163
 72
1
 10
29.1897892892
 20
3.0485190163
 11
29.4953781483
 21
3.0485190163
 72
1
 10
29.4953781483
 20
3.0485190163
 11
29.5836332345
 21
2.9470542295
 72
1
 10
29.5836332345
 20
2.9470542295
 11
29.7043825025
 21
3.0485190163
 72
1
 10
29.7043825025
 20
3.0485190163
 11
29.8953133441
 21
3.0485190163
 72
1
 10
29.8953133441
 20
3.0485190163
 11
29.7248554149
 21
2.9052840446
 72
2
 10
30.2247108838
 20
-28.8191882834
 40
31.7284099819
 50
90.9026860654
 51
91.4277436702
 73
1
 72
1
 10
29.4341579166
 20
2.8993713622
 11
29.31288508
 21
3.0387939928
 72
1
 10
29.31288508
 20
3.0387939928
 11
29.2885599524
 21
2.8928423599
 72
2
 10
29.5529957134
 20
-2.0957073982
 40
4.9955535189
 50
93.0343259382
 51
99.327487296
 73
1
 72
1
 10
28.7433301847
 20
2.8337952838
 11
28.7790958026
 21
3.0485190163
 72
1
 10
28.7790958026
 20
3.0485190163
 11
28.9022071964
 21
3.0485190163
 97
38
330
2D3
330
2D4
330
2D5
330
2D6
330
2D7
330
2D8
330
2D9
330
2DA
330
2DB
330
2DC
330
2DD
330
2DE
330
2DF
330
2E0
330
2E1
330
2E2
330
2E3
330
2E4
330
2E5
330
2E6
330
2E7
330
2E8
330
2E9
330
2EA
330
2EB
330
2EC
330
2ED
330
2EE
330
2EF
330
2F0
330
2F1
330
2F2
330
2F3
330
2F4
330
2F5
330
2F6
330
2F7
330
2F8
 75
0
 76
1
 98
1
 10
0.0
 20
0.0
  0
LINE
  5
2FA
100
AcDbEntity
  8
FORMAT
100
AcDbLine
 62
2
  6
CONTINUOUS
 10
26.778896667
 20
0.5797689904
 11
26.3529632996
 21
0.6547689904
  0
LINE
  5
2FB
100
AcDbEntity
  8
FORMAT
100
AcDbLine
 62
7
  6
CONTINUOUS
 10
17.0
 20
21.5
 11
17.113491
 21
21.696573
  0
LINE
  5
2FC
100
AcDbEntity
  8
FORMAT
100
AcDbLine
 62
7
  6
CONTINUOUS
 10
16.886508
 20
21.696573
 11
17.0
 21
21.5
  0
LINE
  5
2FD
100
AcDbEntity
  8
FORMAT
100
AcDbLine
 62
7
  6
CONTINUOUS
 10
17.113491
 20
21.696573
 11
16.886508
 21
21.696573
  0
HATCH
  5
2FE
100
AcDbEntity
  8
FORMAT
100
AcDbHatch
 62
7
  6
CONTINUOUS
 10
0.0
 20
0.0
 30
0.0
210
0.0
220
0.0
230
1.0
  2
arrow_top
 70
1
 71
1
 91
1
 92
1
 93
3
 72
1
 10
17.113491
 20
21.696573
 11
16.886508
 21
21.696573
 72
1
 10
16.886508
 20
21.696573
 11
17.0
 21
21.5
 72
1
 10
17.0
 20
21.5
 11
17.113491
 21
21.696573
 97
3
330
2FB
330
2FC
330
2FD
 75
0
 76
1
 98
1
 10
0.0
 20
0.0
  0
LINE
  5
2FF
100
AcDbEntity
  8
FORMAT
100
AcDbLine
 62
7
  6
CONTINUOUS
 10
0.25
 20
5.5
 11
0.75
 21
5.5
  0
LINE
  5
300
100
AcDbEntity
  8
FORMAT
100
AcDbLine
 62
7
  6
CONTINUOUS
 10
33.25
 20
5.5
 11
33.75
 21
5.5
  0
LINE
  5
301
100
AcDbEntity
  8
FORMAT
100
AcDbLine
 62
7
  6
CONTINUOUS
 10
12.75
 20
0.0
 11
12.75
 21
0.5
  0
LINE
  5
302
100
AcDbEntity
  8
FORMAT
100
AcDbLine
 62
7
  6
CONTINUOUS
 10
12.75
 20
21.5
 11
12.75
 21
22.0
  0
LINE
  5
303
100
AcDbEntity
  8
DETAIL
100
AcDbLine
 62
2
  6
CENTER
 10
11.5043860125
 20
9.6887458352
 11
24.5603860125
 21
9.6887458352
  0
LINE
  5
304
100
AcDbEntity
  8
FORMAT
100
AcDbLine
 62
7
  6
CONTINUOUS
 10
17.0
 20
0.0
 11
17.0
 21
0.5
  0
LINE
  5
305
100
AcDbEntity
  8
FORMAT
100
AcDbLine
 62
7
  6
CONTINUOUS
 10
17.0
 20
21.5
 11
17.0
 21
22.0
  0
LINE
  5
306
100
AcDbEntity
  8
FORMAT
100
AcDbLine
 62
7
  6
CONTINUOUS
 10
0.25
 20
11.0
 11
0.75
 21
11.0
  0
LINE
  5
307
100
AcDbEntity
  8
FORMAT
100
AcDbLine
 62
7
  6
CONTINUOUS
 10
33.25
 20
11.0
 11
33.75
 21
11.0
  0
LINE
  5
308
100
AcDbEntity
  8
DETAIL
100
AcDbLine
 62
2
  6
CENTER
 10
18.1780933901
 20
15.3060518798
 11
18.1780933901
 21
4.5900719803
  0
LINE
  5
309
100
AcDbEntity
  8
FORMAT
100
AcDbLine
 62
7
  6
CONTINUOUS
 10
21.25
 20
0.0
 11
21.25
 21
0.5
  0
LINE
  5
30A
100
AcDbEntity
  8
FORMAT
100
AcDbLine
 62
7
  6
CONTINUOUS
 10
21.25
 20
21.5
 11
21.25
 21
22.0
  0
LINE
  5
30B
100
AcDbEntity
  8
FORMAT
100
AcDbLine
 62
7
  6
CONTINUOUS
 10
0.25
 20
16.5
 11
0.75
 21
16.5
  0
LINE
  5
30C
100
AcDbEntity
  8
FORMAT
100
AcDbLine
 62
7
  6
CONTINUOUS
 10
33.25
 20
16.5
 11
33.75
 21
16.5
  0
LINE
  5
30D
100
AcDbEntity
  8
FORMAT
100
AcDbLine
 62
7
  6
CONTINUOUS
 10
33.446573
 20
11.113492
 11
33.25
 21
11.0
  0
LINE
  5
30E
100
AcDbEntity
  8
FORMAT
100
AcDbLine
 62
7
  6
CONTINUOUS
 10
33.25
 20
11.0
 11
33.446573
 21
10.886509
  0
LINE
  5
30F
100
AcDbEntity
  8
FORMAT
100
AcDbLine
 62
7
  6
CONTINUOUS
 10
33.446573
 20
10.886509
 11
33.446573
 21
11.113492
  0
HATCH
  5
310
100
AcDbEntity
  8
FORMAT
100
AcDbHatch
 62
7
  6
CONTINUOUS
 10
0.0
 20
0.0
 30
0.0
210
0.0
220
0.0
230
1.0
  2
arrow_right
 70
1
 71
1
 91
1
 92
1
 93
3
 72
1
 10
33.25
 20
11.0
 11
33.446573
 21
10.886509
 72
1
 10
33.446573
 20
10.886509
 11
33.446573
 21
11.113492
 72
1
 10
33.446573
 20
11.113492
 11
33.25
 21
11.0
 97
3
330
30D
330
30E
330
30F
 75
0
 76
1
 98
1
 10
0.0
 20
0.0
  0
LINE
  5
311
100
AcDbEntity
  8
FORMAT
100
AcDbLine
 62
7
  6
CONTINUOUS
 10
25.5
 20
0.0
 11
25.5
 21
0.5
  0
LINE
  5
312
100
AcDbEntity
  8
FORMAT
100
AcDbLine
 62
7
  6
CONTINUOUS
 10
25.5
 20
21.5
 11
25.5
 21
22.0
  0
LINE
  5
313
100
AcDbEntity
  8
FORMAT
100
AcDbLine
 62
2
  6
CENTER
 10
25.9241031828
 20
1.0297689904
 11
25.9241031828
 21
0.5297689904
  0
LINE
  5
314
100
AcDbEntity
  8
FORMAT
100
AcDbLine
 62
2
  6
CONTINUOUS
 10
26.3529632996
 20
0.6547689904
 11
26.3529632996
 21
0.9047689904
  0
LINE
  5
315
100
AcDbEntity
  8
FORMAT
100
AcDbLine
 62
2
  6
CONTINUOUS
 10
26.778896667
 20
0.5797689904
 11
26.778896667
 21
0.9797689904
  0
LINE
  5
316
100
AcDbEntity
  8
FORMAT
100
AcDbLine
 62
7
  6
CONTINUOUS
 10
33.25
 20
21.5
 11
0.75
 21
21.5
  0
LWPOLYLINE
  5
317
100
AcDbEntity
  8
FORMAT
100
AcDbPolyline
 62
9
  6
PHANTOM
 90
2
 70
0
 43
0.001
 10
34.0
 20
22.0
 10
0.0
 20
22.0
  0
LINE
  5
318
100
AcDbEntity
  8
FORMAT
100
AcDbLine
 62
7
  6
CONTINUOUS
 10
29.75
 20
0.0
 11
29.75
 21
0.5
  0
LINE
  5
319
100
AcDbEntity
  8
FORMAT
100
AcDbLine
 62
7
  6
CONTINUOUS
 10
29.75
 20
21.5
 11
29.75
 21
22.0
  0
LINE
  5
31A
100
AcDbEntity
  8
FORMAT
100
AcDbLine
 62
7
  6
CONTINUOUS
 10
33.25
 20
0.5
 11
33.25
 21
21.5
  0
LWPOLYLINE
  5
31B
100
AcDbEntity
  8
FORMAT
100
AcDbPolyline
 62
9
  6
PHANTOM
 90
2
 70
0
 43
0.001
 10
34.0
 20
0.0
 10
34.0
 20
22.0
  0
LINE
  5
31C
100
AcDbEntity
  8
ALL_FEATURES
100
AcDbLine
 62
7
  6
CONTINUOUS
 10
15.1243955221
 20
7.2428947714
 11
15.1189788528
 21
7.2484266861
  0
LINE
  5
31D
100
AcDbEntity
  8
ALL_FEATURES
100
AcDbLine
 62
7
  6
CONTINUOUS
 10
15.0946038528
 20
7.2926820068
 11
15.0918955182
 21
7.2954479639
  0
LINE
  5
31E
100
AcDbEntity
  8
ALL_FEATURES
100
AcDbLine
 62
7
  6
CONTINUOUS
 10
15.0986663528
 20
7.298213921
 11
15.1027288528
 21
7.2926820068
  0
LINE
  5
31F
100
AcDbEntity
  8
ALL_FEATURES
100
AcDbLine
 62
7
  6
CONTINUOUS
 10
15.1271038528
 20
7.2511926442
 11
15.1243955221
 21
7.2553415799
  0
LINE
  5
320
100
AcDbEntity
  8
ALL_FEATURES
100
AcDbLine
 62
7
  6
CONTINUOUS
 10
15.1568955221
 20
7.2912990282
 11
15.1596038528
 21
7.2871500887
  0
LINE
  5
321
100
AcDbEntity
  8
ALL_FEATURES
100
AcDbLine
 62
7
  6
CONTINUOUS
 10
15.1230412932
 20
11.5816181744
 11
15.1243954625
 21
11.5871500887
  0
LINE
  5
322
100
AcDbEntity
  8
ALL_FEATURES
100
AcDbLine
 62
7
  6
CONTINUOUS
 10
15.0946037932
 20
11.5802351959
 11
15.0959579586
 21
11.5843841315
  0
LINE
  5
323
100
AcDbEntity
  8
ALL_FEATURES
100
AcDbLine
 62
7
  6
CONTINUOUS
 10
15.1040829586
 20
11.583001153
 11
15.1027287932
 21
11.5788522173
  0
LINE
  5
324
100
AcDbEntity
  8
ALL_FEATURES
100
AcDbLine
 62
7
  6
CONTINUOUS
 10
15.1162704586
 20
11.5885330711
 11
15.1189787932
 21
11.5940649853
  0
LINE
  5
325
100
AcDbEntity
  8
ALL_FEATURES
100
AcDbLine
 62
7
  6
CONTINUOUS
 10
15.1677287932
 20
11.5539586013
 11
15.1650204625
 21
11.5484266861
  0
LINE
  5
326
100
AcDbEntity
  8
ALL_FEATURES
100
AcDbLine
 62
7
  6
CONTINUOUS
 10
15.1243954625
 20
11.5871500887
 11
15.1271037932
 21
11.5912990282
  0
LINE
  5
327
100
AcDbEntity
  8
ALL_FEATURES
100
AcDbLine
 62
7
  6
CONTINUOUS
 10
15.1596037932
 20
11.5553415799
 11
15.1568954625
 21
11.5511926442
  0
LINE
  5
328
100
AcDbEntity
  8
ALL_FEATURES
100
AcDbLine
 62
7
  6
CONTINUOUS
 10
15.1027287932
 20
11.5788522173
 11
15.0986662932
 21
11.5733203031
  0
LINE
  5
329
100
AcDbEntity
  8
ALL_FEATURES
100
AcDbLine
 62
7
  6
CONTINUOUS
 10
15.2246037932
 20
11.5733203031
 11
15.2286662932
 21
11.5788522173
  0
LINE
  5
32A
100
AcDbEntity
  8
ALL_FEATURES
100
AcDbLine
 62
7
  6
CONTINUOUS
 10
15.0918954586
 20
11.5774692387
 11
15.0946037932
 21
11.5802351959
  0
LINE
  5
32B
100
AcDbEntity
  8
ALL_FEATURES
100
AcDbLine
 62
7
  6
CONTINUOUS
 10
15.1189787932
 20
11.5940649853
 11
15.1243954625
 21
11.5995968996
  0
LINE
  5
32C
100
AcDbEntity
  8
ALL_FEATURES
100
AcDbLine
 62
7
  6
CONTINUOUS
 10
15.1650204625
 20
11.5484266861
 11
15.1596037932
 21
11.5428947714
  0
LINE
  5
32D
100
AcDbEntity
  8
ALL_FEATURES
100
AcDbLine
 62
7
  6
CONTINUOUS
 10
15.2178329547
 20
11.5774692387
 11
15.2205412932
 21
11.5802351959
  0
LINE
  5
32E
100
AcDbEntity
  8
ALL_FEATURES
100
AcDbLine
 62
7
  6
CONTINUOUS
 10
15.1298121836
 20
7.2401288139
 11
15.1243955221
 21
7.2428947714
  0
LINE
  5
32F
100
AcDbEntity
  8
ALL_FEATURES
100
AcDbLine
 62
7
  6
CONTINUOUS
 10
15.1541871836
 20
7.3023628567
 11
15.1596038528
 21
7.2995968996
  0
LINE
  5
330
100
AcDbEntity
  8
ALL_FEATURES
100
AcDbLine
 62
7
  6
CONTINUOUS
 10
15.1311663528
 20
7.2484266861
 11
15.1271038528
 21
7.2511926442
  0
LINE
  5
331
100
AcDbEntity
  8
ALL_FEATURES
100
AcDbLine
 62
7
  6
CONTINUOUS
 10
15.1528330221
 20
7.2940649853
 11
15.1568955221
 21
7.2912990282
  0
LINE
  5
332
100
AcDbEntity
  8
ALL_FEATURES
100
AcDbLine
 62
7
  6
CONTINUOUS
 10
15.0932496875
 20
7.3023628567
 11
15.0986663528
 21
7.298213921
  0
LINE
  5
333
100
AcDbEntity
  8
ALL_FEATURES
100
AcDbLine
 62
7
  6
CONTINUOUS
 10
15.2246038528
 20
7.298213921
 11
15.2191871913
 21
7.3023628567
  0
LINE
  5
334
100
AcDbEntity
  8
ALL_FEATURES
100
AcDbLine
 62
7
  6
CONTINUOUS
 10
15.3491871758
 20
7.298213921
 11
15.3437705298
 21
7.3023628567
  0
LINE
  5
335
100
AcDbEntity
  8
ALL_FEATURES
100
AcDbLine
 62
7
  6
CONTINUOUS
 10
15.1596038528
 20
7.2995968996
 11
15.1650205221
 21
7.2940649853
  0
LINE
  5
336
100
AcDbEntity
  8
ALL_FEATURES
100
AcDbLine
 62
7
  6
CONTINUOUS
 10
15.2205413528
 20
7.2926820068
 11
15.2178330143
 21
7.2954479639
  0
LINE
  5
337
100
AcDbEntity
  8
ALL_FEATURES
100
AcDbLine
 62
7
  6
CONTINUOUS
 10
15.3451246758
 20
7.2926820068
 11
15.3424163528
 21
7.2954479639
  0
LINE
  5
338
100
AcDbEntity
  8
ALL_FEATURES
100
AcDbLine
 62
7
  6
CONTINUOUS
 10
15.2286663528
 20
7.2926820068
 11
15.2246038528
 21
7.298213921
  0
LINE
  5
339
100
AcDbEntity
  8
ALL_FEATURES
100
AcDbLine
 62
7
  6
CONTINUOUS
 10
15.3532496758
 20
7.2926820068
 11
15.3491871758
 21
7.298213921
  0
LINE
  5
33A
100
AcDbEntity
  8
ALL_FEATURES
100
AcDbLine
 62
7
  6
CONTINUOUS
 10
15.1189788528
 20
7.2484266861
 11
15.1162705182
 21
7.2539586013
  0
LINE
  5
33B
100
AcDbEntity
  8
ALL_FEATURES
100
AcDbLine
 62
7
  6
CONTINUOUS
 10
15.1650205221
 20
7.2940649853
 11
15.1677288528
 21
7.2885330711
  0
LINE
  5
33C
100
AcDbEntity
  8
ALL_FEATURES
100
AcDbLine
 62
7
  6
CONTINUOUS
 10
15.2313746913
 20
7.2387458352
 11
15.2191871913
 21
7.270554346
  0
LINE
  5
33D
100
AcDbEntity
  8
ALL_FEATURES
100
AcDbLine
 62
7
  6
CONTINUOUS
 10
15.3559580298
 20
7.2387458352
 11
15.3437705298
 21
7.270554346
  0
LINE
  5
33E
100
AcDbEntity
  8
ALL_FEATURES
100
AcDbLine
 62
7
  6
CONTINUOUS
 10
15.2110621913
 20
7.2677883888
 11
15.2218955143
 21
7.2387458352
  0
LINE
  5
33F
100
AcDbEntity
  8
ALL_FEATURES
100
AcDbLine
 62
7
  6
CONTINUOUS
 10
15.3356455298
 20
7.2677883888
 11
15.3464788528
 21
7.2387458352
  0
LINE
  5
340
100
AcDbEntity
  8
ALL_FEATURES
100
AcDbLine
 62
7
  6
CONTINUOUS
 10
15.0959580182
 20
7.2885330711
 11
15.0946038528
 21
7.2926820068
  0
LINE
  5
341
100
AcDbEntity
  8
ALL_FEATURES
100
AcDbLine
 62
7
  6
CONTINUOUS
 10
15.1027288528
 20
7.2926820068
 11
15.1040830182
 21
7.2885330711
  0
LINE
  5
342
100
AcDbEntity
  8
ALL_FEATURES
100
AcDbLine
 62
7
  6
CONTINUOUS
 10
15.2218955143
 20
7.2885330711
 11
15.2205413528
 21
7.2926820068
  0
LINE
  5
343
100
AcDbEntity
  8
ALL_FEATURES
100
AcDbLine
 62
7
  6
CONTINUOUS
 10
15.2300205143
 20
7.2885330711
 11
15.2286663528
 21
7.2926820068
  0
LINE
  5
344
100
AcDbEntity
  8
ALL_FEATURES
100
AcDbLine
 62
7
  6
CONTINUOUS
 10
15.3464788528
 20
7.2885330711
 11
15.3451246758
 21
7.2926820068
  0
LINE
  5
345
100
AcDbEntity
  8
ALL_FEATURES
100
AcDbLine
 62
7
  6
CONTINUOUS
 10
15.3546038528
 20
7.2885330711
 11
15.3532496758
 21
7.2926820068
  0
LINE
  5
346
100
AcDbEntity
  8
ALL_FEATURES
100
AcDbLine
 62
7
  6
CONTINUOUS
 10
15.1243955221
 20
7.2553415799
 11
15.1230413528
 21
7.2608734941
  0
LINE
  5
347
100
AcDbEntity
  8
ALL_FEATURES
100
AcDbLine
 62
7
  6
CONTINUOUS
 10
15.1596038528
 20
7.2871500887
 11
15.1609580221
 21
7.2816181744
  0
LINE
  5
348
100
AcDbEntity
  8
ALL_FEATURES
100
AcDbLine
 62
7
  6
CONTINUOUS
 10
15.1162705182
 20
7.2539586013
 11
15.1149163528
 21
7.2608734941
  0
LINE
  5
349
100
AcDbEntity
  8
ALL_FEATURES
100
AcDbLine
 62
7
  6
CONTINUOUS
 10
15.1677288528
 20
7.2885330711
 11
15.1690830221
 21
7.2816181744
  0
LINE
  5
34A
100
AcDbEntity
  8
ALL_FEATURES
100
AcDbLine
 62
7
  6
CONTINUOUS
 10
14.9301266531
 20
12.1997046981
 11
14.9301266531
 21
7.1777869723
  0
LINE
  5
34B
100
AcDbEntity
  8
ALL_FEATURES
100
AcDbLine
 62
7
  6
CONTINUOUS
 10
15.0539787932
 20
11.5387458352
 11
15.0539787932
 21
11.6037458352
  0
LINE
  5
34C
100
AcDbEntity
  8
ALL_FEATURES
100
AcDbLine
 62
7
  6
CONTINUOUS
 10
15.0539788528
 20
7.2387458352
 11
15.0539788528
 21
7.3037458352
  0
LINE
  5
34D
100
AcDbEntity
  8
ALL_FEATURES
100
AcDbLine
 62
7
  6
CONTINUOUS
 10
15.0621037932
 20
11.5968309424
 11
15.0621037932
 21
11.5760862602
  0
LINE
  5
34E
100
AcDbEntity
  8
ALL_FEATURES
100
AcDbLine
 62
7
  6
CONTINUOUS
 10
15.0621037932
 20
11.5677883888
 11
15.0621037932
 21
11.5387458352
  0
LINE
  5
34F
100
AcDbEntity
  8
ALL_FEATURES
100
AcDbLine
 62
7
  6
CONTINUOUS
 10
15.0621038528
 20
7.2677883888
 11
15.0621038528
 21
7.2387458352
  0
LINE
  5
350
100
AcDbEntity
  8
ALL_FEATURES
100
AcDbLine
 62
7
  6
CONTINUOUS
 10
15.0621038528
 20
7.2968309424
 11
15.0621038528
 21
7.2760862602
  0
LINE
  5
351
100
AcDbEntity
  8
ALL_FEATURES
100
AcDbLine
 62
7
  6
CONTINUOUS
 10
15.0780933901
 20
11.9737458352
 11
15.0780933901
 21
11.7237458352
  0
LINE
  5
352
100
AcDbEntity
  8
ALL_FEATURES
100
AcDbLine
 62
7
  6
CONTINUOUS
 10
15.0780933901
 20
7.4037458352
 11
15.0780933901
 21
7.6537458352
  0
LINE
  5
353
100
AcDbEntity
  8
ALL_FEATURES
100
AcDbLine
 62
7
  6
CONTINUOUS
 10
15.0959580182
 20
7.2843841315
 11
15.0959580182
 21
7.2885330711
  0
LINE
  5
354
100
AcDbEntity
  8
ALL_FEATURES
100
AcDbLine
 62
7
  6
CONTINUOUS
 10
15.0959579586
 20
11.5843841315
 11
15.0959579586
 21
11.5885330711
  0
LINE
  5
355
100
AcDbEntity
  8
ALL_FEATURES
100
AcDbLine
 62
7
  6
CONTINUOUS
 10
15.1040829586
 20
11.5885330711
 11
15.1040829586
 21
11.583001153
  0
LINE
  5
356
100
AcDbEntity
  8
ALL_FEATURES
100
AcDbLine
 62
7
  6
CONTINUOUS
 10
15.1040830182
 20
7.2885330711
 11
15.1040830182
 21
7.283001153
  0
LINE
  5
357
100
AcDbEntity
  8
ALL_FEATURES
100
AcDbLine
 62
7
  6
CONTINUOUS
 10
15.1149163528
 20
7.2608734941
 11
15.1149163528
 21
7.2816181744
  0
LINE
  5
358
100
AcDbEntity
  8
ALL_FEATURES
100
AcDbLine
 62
7
  6
CONTINUOUS
 10
15.1149162932
 20
11.5608734941
 11
15.1149162932
 21
11.5816181744
  0
LINE
  5
359
100
AcDbEntity
  8
ALL_FEATURES
100
AcDbLine
 62
7
  6
CONTINUOUS
 10
15.1230412932
 20
11.5608734941
 11
15.1230412932
 21
11.5816181744
  0
LINE
  5
35A
100
AcDbEntity
  8
ALL_FEATURES
100
AcDbLine
 62
7
  6
CONTINUOUS
 10
15.1230413528
 20
7.2608734941
 11
15.1230413528
 21
7.2816181744
  0
LINE
  5
35B
100
AcDbEntity
  8
ALL_FEATURES
100
AcDbLine
 62
7
  6
CONTINUOUS
 10
15.1609579625
 20
11.5816181744
 11
15.1609579625
 21
11.5608734941
  0
LINE
  5
35C
100
AcDbEntity
  8
ALL_FEATURES
100
AcDbLine
 62
7
  6
CONTINUOUS
 10
15.1609580221
 20
7.2816181744
 11
15.1609580221
 21
7.2608734941
  0
LINE
  5
35D
100
AcDbEntity
  8
ALL_FEATURES
100
AcDbLine
 62
7
  6
CONTINUOUS
 10
15.1690829625
 20
11.5816181744
 11
15.1690829625
 21
11.5608734941
  0
LINE
  5
35E
100
AcDbEntity
  8
ALL_FEATURES
100
AcDbLine
 62
7
  6
CONTINUOUS
 10
15.1690830221
 20
7.2816181744
 11
15.1690830221
 21
7.2608734941
  0
LINE
  5
35F
100
AcDbEntity
  8
ALL_FEATURES
100
AcDbLine
 62
7
  6
CONTINUOUS
 10
15.1799162932
 20
11.6037458352
 11
15.1799162932
 21
11.5387458352
  0
LINE
  5
360
100
AcDbEntity
  8
ALL_FEATURES
100
AcDbLine
 62
7
  6
CONTINUOUS
 10
15.1799163528
 20
7.3037458352
 11
15.1799163528
 21
7.2387458352
  0
LINE
  5
361
100
AcDbEntity
  8
ALL_FEATURES
100
AcDbLine
 62
7
  6
CONTINUOUS
 10
15.1880412932
 20
11.5968309424
 11
15.1880412932
 21
11.5760862602
  0
LINE
  5
362
100
AcDbEntity
  8
ALL_FEATURES
100
AcDbLine
 62
7
  6
CONTINUOUS
 10
15.1880412932
 20
11.5387458352
 11
15.1880412932
 21
11.5677883888
  0
LINE
  5
363
100
AcDbEntity
  8
ALL_FEATURES
100
AcDbLine
 62
7
  6
CONTINUOUS
 10
15.1880413528
 20
7.2968309424
 11
15.1880413528
 21
7.2760862602
  0
LINE
  5
364
100
AcDbEntity
  8
ALL_FEATURES
100
AcDbLine
 62
7
  6
CONTINUOUS
 10
15.1880413528
 20
7.2387458352
 11
15.1880413528
 21
7.2677883888
  0
LINE
  5
365
100
AcDbEntity
  8
ALL_FEATURES
100
AcDbLine
 62
7
  6
CONTINUOUS
 10
15.1149162932
 20
11.5816181744
 11
15.1162704586
 21
11.5885330711
  0
LINE
  5
366
100
AcDbEntity
  8
ALL_FEATURES
100
AcDbLine
 62
7
  6
CONTINUOUS
 10
15.1690829625
 20
11.5608734941
 11
15.1677287932
 21
11.5539586013
  0
LINE
  5
367
100
AcDbEntity
  8
ALL_FEATURES
100
AcDbLine
 62
7
  6
CONTINUOUS
 10
15.1609579625
 20
11.5608734941
 11
15.1596037932
 21
11.5553415799
  0
LINE
  5
368
100
AcDbEntity
  8
ALL_FEATURES
100
AcDbLine
 62
7
  6
CONTINUOUS
 10
15.2205412932
 20
11.5802351959
 11
15.2218954547
 21
11.5843841315
  0
LINE
  5
369
100
AcDbEntity
  8
ALL_FEATURES
100
AcDbLine
 62
7
  6
CONTINUOUS
 10
15.2286662932
 20
11.5788522173
 11
15.2300204547
 21
11.583001153
  0
LINE
  5
36A
100
AcDbEntity
  8
ALL_FEATURES
100
AcDbLine
 62
7
  6
CONTINUOUS
 10
15.3451246162
 20
11.5802351959
 11
15.3464787932
 21
11.5843841315
  0
LINE
  5
36B
100
AcDbEntity
  8
ALL_FEATURES
100
AcDbLine
 62
7
  6
CONTINUOUS
 10
15.3532496162
 20
11.5788522173
 11
15.3546037932
 21
11.583001153
  0
LINE
  5
36C
100
AcDbEntity
  8
ALL_FEATURES
100
AcDbLine
 62
7
  6
CONTINUOUS
 10
15.3816871162
 20
11.5608734941
 11
15.3938746162
 21
11.598213921
  0
LINE
  5
36D
100
AcDbEntity
  8
ALL_FEATURES
100
AcDbLine
 62
7
  6
CONTINUOUS
 10
15.3803329702
 20
11.5553415799
 11
15.3749162932
 21
11.5387458352
  0
LINE
  5
36E
100
AcDbEntity
  8
ALL_FEATURES
100
AcDbLine
 62
7
  6
CONTINUOUS
 10
15.3667912932
 20
11.5387458352
 11
15.3884579702
 21
11.6037458352
  0
LINE
  5
36F
100
AcDbEntity
  8
ALL_FEATURES
100
AcDbLine
 62
7
  6
CONTINUOUS
 10
15.3491871162
 20
11.5733203031
 11
15.3532496162
 21
11.5788522173
  0
LINE
  5
370
100
AcDbEntity
  8
ALL_FEATURES
100
AcDbLine
 62
7
  6
CONTINUOUS
 10
15.3424162932
 20
11.5774692387
 11
15.3451246162
 21
11.5802351959
  0
LINE
  5
371
100
AcDbEntity
  8
ALL_FEATURES
100
AcDbLine
 62
7
  6
CONTINUOUS
 10
15.5780933901
 20
11.5737458352
 11
15.9280933901
 21
11.8487458352
  0
LINE
  5
372
100
AcDbEntity
  8
ALL_FEATURES
100
AcDbLine
 62
7
  6
CONTINUOUS
 10
15.0986662932
 20
11.5733203031
 11
15.0932496278
 21
11.5691713674
  0
LINE
  5
373
100
AcDbEntity
  8
ALL_FEATURES
100
AcDbLine
 62
7
  6
CONTINUOUS
 10
15.1271037932
 20
11.5912990282
 11
15.1311662932
 21
11.5940649853
  0
LINE
  5
374
100
AcDbEntity
  8
ALL_FEATURES
100
AcDbLine
 62
7
  6
CONTINUOUS
 10
15.1568954625
 20
11.5511926442
 11
15.1528329625
 21
11.5484266861
  0
LINE
  5
375
100
AcDbEntity
  8
ALL_FEATURES
100
AcDbLine
 62
7
  6
CONTINUOUS
 10
15.1243954625
 20
11.5995968996
 11
15.129812124
 21
11.6023628567
  0
LINE
  5
376
100
AcDbEntity
  8
ALL_FEATURES
100
AcDbLine
 62
7
  6
CONTINUOUS
 10
15.1596037932
 20
11.5428947714
 11
15.154187124
 21
11.5401288139
  0
LINE
  5
377
100
AcDbEntity
  8
ALL_FEATURES
100
AcDbLine
 62
7
  6
CONTINUOUS
 10
15.2191871317
 20
11.570554346
 11
15.2246037932
 21
11.5733203031
  0
LINE
  5
378
100
AcDbEntity
  8
ALL_FEATURES
100
AcDbLine
 62
7
  6
CONTINUOUS
 10
15.1365830221
 20
7.2387458352
 11
15.1298121836
 21
7.2401288139
  0
LINE
  5
379
100
AcDbEntity
  8
ALL_FEATURES
100
AcDbLine
 62
7
  6
CONTINUOUS
 10
15.1365830221
 20
7.2470437075
 11
15.1311663528
 21
7.2484266861
  0
LINE
  5
37A
100
AcDbEntity
  8
ALL_FEATURES
100
AcDbLine
 62
7
  6
CONTINUOUS
 10
15.1474163528
 20
7.2954479639
 11
15.1528330221
 21
7.2940649853
  0
LINE
  5
37B
100
AcDbEntity
  8
ALL_FEATURES
100
AcDbLine
 62
7
  6
CONTINUOUS
 10
15.0918955182
 20
7.2954479639
 11
15.0878330182
 21
7.2968309424
  0
LINE
  5
37C
100
AcDbEntity
  8
ALL_FEATURES
100
AcDbLine
 62
7
  6
CONTINUOUS
 10
15.2178330143
 20
7.2954479639
 11
15.2137705143
 21
7.2968309424
  0
LINE
  5
37D
100
AcDbEntity
  8
ALL_FEATURES
100
AcDbLine
 62
7
  6
CONTINUOUS
 10
15.3424163528
 20
7.2954479639
 11
15.3383538528
 21
7.2968309424
  0
LINE
  5
37E
100
AcDbEntity
  8
ALL_FEATURES
100
AcDbLine
 62
7
  6
CONTINUOUS
 10
15.5780933901
 20
7.8037458352
 11
15.9280933901
 21
7.5287458352
  0
LINE
  5
37F
100
AcDbEntity
  8
ALL_FEATURES
100
AcDbLine
 62
7
  6
CONTINUOUS
 10
15.3992913528
 20
7.3037458352
 11
15.4209580298
 21
7.2387458352
  0
LINE
  5
380
100
AcDbEntity
  8
ALL_FEATURES
100
AcDbLine
 62
7
  6
CONTINUOUS
 10
15.4128330298
 20
7.2387458352
 11
15.4074163528
 21
7.2553415799
  0
LINE
  5
381
100
AcDbEntity
  8
ALL_FEATURES
100
AcDbLine
 62
7
  6
CONTINUOUS
 10
15.3938746758
 20
7.298213921
 11
15.4060621758
 21
7.2608734941
  0
LINE
  5
382
100
AcDbEntity
  8
ALL_FEATURES
100
AcDbLine
 62
7
  6
CONTINUOUS
 10
15.2218955143
 20
7.2843841315
 11
15.2218955143
 21
7.2885330711
  0
LINE
  5
383
100
AcDbEntity
  8
ALL_FEATURES
100
AcDbLine
 62
7
  6
CONTINUOUS
 10
15.2218954547
 20
11.5843841315
 11
15.2218954547
 21
11.5885330711
  0
LINE
  5
384
100
AcDbEntity
  8
ALL_FEATURES
100
AcDbLine
 62
7
  6
CONTINUOUS
 10
15.2300204547
 20
11.583001153
 11
15.2300204547
 21
11.5885330711
  0
LINE
  5
385
100
AcDbEntity
  8
ALL_FEATURES
100
AcDbLine
 62
7
  6
CONTINUOUS
 10
15.2300205143
 20
7.283001153
 11
15.2300205143
 21
7.2885330711
  0
LINE
  5
386
100
AcDbEntity
  8
ALL_FEATURES
100
AcDbLine
 62
7
  6
CONTINUOUS
 10
15.2422080143
 20
7.2968309424
 11
15.2422080143
 21
7.3037458352
  0
LINE
  5
387
100
AcDbEntity
  8
ALL_FEATURES
100
AcDbLine
 62
7
  6
CONTINUOUS
 10
15.2422079547
 20
11.5968309424
 11
15.2422079547
 21
11.6037458352
  0
LINE
  5
388
100
AcDbEntity
  8
ALL_FEATURES
100
AcDbLine
 62
7
  6
CONTINUOUS
 10
15.2638746913
 20
7.2387458352
 11
15.2638746913
 21
7.2968309424
  0
LINE
  5
389
100
AcDbEntity
  8
ALL_FEATURES
100
AcDbLine
 62
7
  6
CONTINUOUS
 10
15.2638746317
 20
11.5387458352
 11
15.2638746317
 21
11.5968309424
  0
LINE
  5
38A
100
AcDbEntity
  8
ALL_FEATURES
100
AcDbLine
 62
7
  6
CONTINUOUS
 10
15.2719996317
 20
11.5968309424
 11
15.2719996317
 21
11.5387458352
  0
LINE
  5
38B
100
AcDbEntity
  8
ALL_FEATURES
100
AcDbLine
 62
7
  6
CONTINUOUS
 10
15.2719996913
 20
7.2968309424
 11
15.2719996913
 21
7.2387458352
  0
LINE
  5
38C
100
AcDbEntity
  8
ALL_FEATURES
100
AcDbLine
 62
7
  6
CONTINUOUS
 10
15.2936662932
 20
11.6037458352
 11
15.2936662932
 21
11.5968309424
  0
LINE
  5
38D
100
AcDbEntity
  8
ALL_FEATURES
100
AcDbLine
 62
7
  6
CONTINUOUS
 10
15.2936663528
 20
7.3037458352
 11
15.2936663528
 21
7.2968309424
  0
LINE
  5
38E
100
AcDbEntity
  8
ALL_FEATURES
100
AcDbLine
 62
7
  6
CONTINUOUS
 10
15.3044996317
 20
11.6037458352
 11
15.3044996317
 21
11.5387458352
  0
LINE
  5
38F
100
AcDbEntity
  8
ALL_FEATURES
100
AcDbLine
 62
7
  6
CONTINUOUS
 10
15.3044996913
 20
7.3037458352
 11
15.3044996913
 21
7.2387458352
  0
LINE
  5
390
100
AcDbEntity
  8
ALL_FEATURES
100
AcDbLine
 62
7
  6
CONTINUOUS
 10
15.3126246317
 20
11.5968309424
 11
15.3126246317
 21
11.5760862602
  0
LINE
  5
391
100
AcDbEntity
  8
ALL_FEATURES
100
AcDbLine
 62
7
  6
CONTINUOUS
 10
15.3126246317
 20
11.5387458352
 11
15.3126246317
 21
11.5677883888
  0
LINE
  5
392
100
AcDbEntity
  8
ALL_FEATURES
100
AcDbLine
 62
7
  6
CONTINUOUS
 10
15.3126246913
 20
7.2968309424
 11
15.3126246913
 21
7.2760862602
  0
LINE
  5
393
100
AcDbEntity
  8
ALL_FEATURES
100
AcDbLine
 62
7
  6
CONTINUOUS
 10
15.3126246913
 20
7.2387458352
 11
15.3126246913
 21
7.2677883888
  0
LINE
  5
394
100
AcDbEntity
  8
ALL_FEATURES
100
AcDbLine
 62
7
  6
CONTINUOUS
 10
15.3464788528
 20
7.2843841315
 11
15.3464788528
 21
7.2885330711
  0
LINE
  5
395
100
AcDbEntity
  8
ALL_FEATURES
100
AcDbLine
 62
7
  6
CONTINUOUS
 10
15.3464787932
 20
11.5843841315
 11
15.3464787932
 21
11.5885330711
  0
LINE
  5
396
100
AcDbEntity
  8
ALL_FEATURES
100
AcDbLine
 62
7
  6
CONTINUOUS
 10
15.3546038528
 20
7.283001153
 11
15.3546038528
 21
7.2885330711
  0
LINE
  5
397
100
AcDbEntity
  8
ALL_FEATURES
100
AcDbLine
 62
7
  6
CONTINUOUS
 10
15.3546037932
 20
11.583001153
 11
15.3546037932
 21
11.5885330711
  0
LINE
  5
398
100
AcDbEntity
  8
ALL_FEATURES
100
AcDbLine
 62
7
  6
CONTINUOUS
 10
15.4317913528
 20
7.2387458352
 11
15.4317913528
 21
7.3037458352
  0
LINE
  5
399
100
AcDbEntity
  8
ALL_FEATURES
100
AcDbLine
 62
7
  6
CONTINUOUS
 10
15.4317912932
 20
11.5387458352
 11
15.4317912932
 21
11.6037458352
  0
LINE
  5
39A
100
AcDbEntity
  8
ALL_FEATURES
100
AcDbLine
 62
7
  6
CONTINUOUS
 10
15.4399162932
 20
11.6037458352
 11
15.4399162932
 21
11.5387458352
  0
LINE
  5
39B
100
AcDbEntity
  8
ALL_FEATURES
100
AcDbLine
 62
7
  6
CONTINUOUS
 10
15.4399163528
 20
7.3037458352
 11
15.4399163528
 21
7.2387458352
  0
LINE
  5
39C
100
AcDbEntity
  8
ALL_FEATURES
100
AcDbLine
 62
7
  6
CONTINUOUS
 10
15.4507496162
 20
11.5968309424
 11
15.4507496162
 21
11.6037458352
  0
LINE
  5
39D
100
AcDbEntity
  8
ALL_FEATURES
100
AcDbLine
 62
7
  6
CONTINUOUS
 10
15.4507496758
 20
7.2968309424
 11
15.4507496758
 21
7.3037458352
  0
LINE
  5
39E
100
AcDbEntity
  8
ALL_FEATURES
100
AcDbLine
 62
7
  6
CONTINUOUS
 10
15.4724163528
 20
7.2387458352
 11
15.4724163528
 21
7.2968309424
  0
LINE
  5
39F
100
AcDbEntity
  8
ALL_FEATURES
100
AcDbLine
 62
7
  6
CONTINUOUS
 10
15.4724162932
 20
11.5387458352
 11
15.4724162932
 21
11.5968309424
  0
LINE
  5
3A0
100
AcDbEntity
  8
ALL_FEATURES
100
AcDbLine
 62
7
  6
CONTINUOUS
 10
15.4805412932
 20
11.5968309424
 11
15.4805412932
 21
11.5387458352
  0
LINE
  5
3A1
100
AcDbEntity
  8
ALL_FEATURES
100
AcDbLine
 62
7
  6
CONTINUOUS
 10
15.4805413528
 20
7.2968309424
 11
15.4805413528
 21
7.2387458352
  0
LINE
  5
3A2
100
AcDbEntity
  8
ALL_FEATURES
100
AcDbLine
 62
7
  6
CONTINUOUS
 10
15.5022079702
 20
11.6037458352
 11
15.5022079702
 21
11.5968309424
  0
LINE
  5
3A3
100
AcDbEntity
  8
ALL_FEATURES
100
AcDbLine
 62
7
  6
CONTINUOUS
 10
15.5022080298
 20
7.3037458352
 11
15.5022080298
 21
7.2968309424
  0
LINE
  5
3A4
100
AcDbEntity
  8
ALL_FEATURES
100
AcDbLine
 62
7
  6
CONTINUOUS
 10
15.5780933901
 20
7.8037458352
 11
15.5780933901
 21
7.6537458352
  0
LINE
  5
3A5
100
AcDbEntity
  8
ALL_FEATURES
100
AcDbLine
 62
7
  6
CONTINUOUS
 10
15.5780933901
 20
7.4037458352
 11
15.5780933901
 21
7.2537458352
  0
LINE
  5
3A6
100
AcDbEntity
  8
ALL_FEATURES
100
AcDbLine
 62
7
  6
CONTINUOUS
 10
15.5780933901
 20
11.5737458352
 11
15.5780933901
 21
11.7237458352
  0
LINE
  5
3A7
100
AcDbEntity
  8
ALL_FEATURES
100
AcDbLine
 62
7
  6
CONTINUOUS
 10
15.5780933901
 20
11.9737458352
 11
15.5780933901
 21
12.1237458352
  0
LINE
  5
3A8
100
AcDbEntity
  8
ALL_FEATURES
100
AcDbLine
 62
7
  6
CONTINUOUS
 10
15.1149163528
 20
7.2816181744
 11
15.1162705182
 21
7.2885330711
  0
LINE
  5
3A9
100
AcDbEntity
  8
ALL_FEATURES
100
AcDbLine
 62
7
  6
CONTINUOUS
 10
16.6218433662
 20
12.0114068244
 11
16.6155933662
 21
12.0028961871
  0
LINE
  5
3AA
100
AcDbEntity
  8
ALL_FEATURES
100
AcDbLine
 62
7
  6
CONTINUOUS
 10
16.6051766916
 20
12.0092791651
 11
16.6093433662
 21
12.0135344837
  0
LINE
  5
3AB
100
AcDbEntity
  8
ALL_FEATURES
100
AcDbLine
 62
7
  6
CONTINUOUS
 10
16.6155933662
 20
12.0028961871
 11
16.607260017
 21
11.9965132092
  0
LINE
  5
3AC
100
AcDbEntity
  8
ALL_FEATURES
100
AcDbLine
 62
7
  6
CONTINUOUS
 10
15.3437704702
 20
11.570554346
 11
15.3491871162
 21
11.5733203031
  0
LINE
  5
3AD
100
AcDbEntity
  8
ALL_FEATURES
100
AcDbLine
 62
7
  6
CONTINUOUS
 10
15.0878329586
 20
11.5760862602
 11
15.0918954586
 21
11.5774692387
  0
LINE
  5
3AE
100
AcDbEntity
  8
ALL_FEATURES
100
AcDbLine
 62
7
  6
CONTINUOUS
 10
15.2137704547
 20
11.5760862602
 11
15.2178329547
 21
11.5774692387
  0
LINE
  5
3AF
100
AcDbEntity
  8
ALL_FEATURES
100
AcDbLine
 62
7
  6
CONTINUOUS
 10
16.5989266916
 20
12.0071515058
 11
16.6051766916
 21
12.0092791651
  0
LINE
  5
3B0
100
AcDbEntity
  8
ALL_FEATURES
100
AcDbLine
 62
7
  6
CONTINUOUS
 10
15.3383537932
 20
11.5760862602
 11
15.3424162932
 21
11.5774692387
  0
LINE
  5
3B1
100
AcDbEntity
  8
ALL_FEATURES
100
AcDbLine
 62
7
  6
CONTINUOUS
 10
15.0864788528
 20
7.3037458352
 11
15.0932496875
 21
7.3023628567
  0
LINE
  5
3B2
100
AcDbEntity
  8
ALL_FEATURES
100
AcDbLine
 62
7
  6
CONTINUOUS
 10
15.1474163528
 20
7.3037458352
 11
15.1541871836
 21
7.3023628567
  0
LINE
  5
3B3
100
AcDbEntity
  8
ALL_FEATURES
100
AcDbLine
 62
7
  6
CONTINUOUS
 10
15.2191871913
 20
7.3023628567
 11
15.2124163528
 21
7.3037458352
  0
LINE
  5
3B4
100
AcDbEntity
  8
ALL_FEATURES
100
AcDbLine
 62
7
  6
CONTINUOUS
 10
15.3437705298
 20
7.3023628567
 11
15.3369996758
 21
7.3037458352
  0
LINE
  5
3B5
100
AcDbEntity
  8
ALL_FEATURES
100
AcDbLine
 62
7
  6
CONTINUOUS
 10
16.2095894531
 20
7.6143363864
 11
16.3080146499
 21
7.4962261502
  0
LINE
  5
3B6
100
AcDbEntity
  8
ALL_FEATURES
100
AcDbLine
 62
7
  6
CONTINUOUS
 10
15.1162704586
 20
11.5539586013
 11
15.1149162932
 21
11.5608734941
  0
LINE
  5
3B7
100
AcDbEntity
  8
ALL_FEATURES
100
AcDbLine
 62
7
  6
CONTINUOUS
 10
15.1677287932
 20
11.5885330711
 11
15.1690829625
 21
11.5816181744
  0
LINE
  5
3B8
100
AcDbEntity
  8
ALL_FEATURES
100
AcDbLine
 62
7
  6
CONTINUOUS
 10
15.6801266531
 20
7.9277869723
 11
15.6801266531
 21
11.4497046981
  0
LINE
  5
3B9
100
AcDbEntity
  8
ALL_FEATURES
100
AcDbLine
 62
7
  6
CONTINUOUS
 10
15.1690830221
 20
7.2608734941
 11
15.1677288528
 21
7.2539586013
  0
LINE
  5
3BA
100
AcDbEntity
  8
ALL_FEATURES
100
AcDbLine
 62
7
  6
CONTINUOUS
 10
15.1230413528
 20
7.2816181744
 11
15.1243955221
 21
7.2871500887
  0
LINE
  5
3BB
100
AcDbEntity
  8
ALL_FEATURES
100
AcDbLine
 62
7
  6
CONTINUOUS
 10
15.1609580221
 20
7.2608734941
 11
15.1596038528
 21
7.2553415799
  0
LINE
  5
3BC
100
AcDbEntity
  8
ALL_FEATURES
100
AcDbLine
 62
7
  6
CONTINUOUS
 10
16.6093433662
 20
12.0135344837
 11
16.6114266916
 21
12.0199174617
  0
LINE
  5
3BD
100
AcDbEntity
  8
ALL_FEATURES
100
AcDbLine
 62
7
  6
CONTINUOUS
 10
16.6239266916
 20
12.0177898024
 11
16.6218433662
 21
12.0114068244
  0
LINE
  5
3BE
100
AcDbEntity
  8
ALL_FEATURES
100
AcDbLine
 62
7
  6
CONTINUOUS
 10
15.0946038528
 20
7.2802351959
 11
15.0959580182
 21
7.2843841315
  0
LINE
  5
3BF
100
AcDbEntity
  8
ALL_FEATURES
100
AcDbLine
 62
7
  6
CONTINUOUS
 10
15.1040830182
 20
7.283001153
 11
15.1027288528
 21
7.2788522173
  0
LINE
  5
3C0
100
AcDbEntity
  8
ALL_FEATURES
100
AcDbLine
 62
7
  6
CONTINUOUS
 10
16.4801766916
 20
11.9603429962
 11
16.5114266916
 21
12.0497046981
  0
LINE
  5
3C1
100
AcDbEntity
  8
ALL_FEATURES
100
AcDbLine
 62
7
  6
CONTINUOUS
 10
16.5176766916
 20
12.0284281049
 11
16.488510017
 21
11.9497046981
  0
LINE
  5
3C2
100
AcDbEntity
  8
ALL_FEATURES
100
AcDbLine
 62
7
  6
CONTINUOUS
 10
17.4510099932
 20
12.0433217202
 11
17.4426766916
 21
12.0348110829
  0
LINE
  5
3C3
100
AcDbEntity
  8
ALL_FEATURES
100
AcDbLine
 62
7
  6
CONTINUOUS
 10
17.4030933901
 20
11.9560876768
 11
17.4114266916
 21
11.9645983149
  0
LINE
  5
3C4
100
AcDbEntity
  8
ALL_FEATURES
100
AcDbLine
 62
7
  6
CONTINUOUS
 10
17.4551766916
 20
12.0305557643
 11
17.4614266916
 21
12.0348110829
  0
LINE
  5
3C5
100
AcDbEntity
  8
ALL_FEATURES
100
AcDbLine
 62
7
  6
CONTINUOUS
 10
17.3989266916
 20
11.968853635
 11
17.3926766916
 21
11.9645983149
  0
LINE
  5
3C6
100
AcDbEntity
  8
ALL_FEATURES
100
AcDbLine
 62
7
  6
CONTINUOUS
 10
17.4947599932
 20
11.968853635
 11
17.4885099932
 21
11.9645983149
  0
LINE
  5
3C7
100
AcDbEntity
  8
ALL_FEATURES
100
AcDbLine
 62
7
  6
CONTINUOUS
 10
17.8635100885
 20
12.0305557643
 11
17.8697600885
 21
12.0348110829
  0
LINE
  5
3C8
100
AcDbEntity
  8
ALL_FEATURES
100
AcDbLine
 62
7
  6
CONTINUOUS
 10
17.4593433901
 20
12.0475770388
 11
17.4510099932
 21
12.0433217202
  0
LINE
  5
3C9
100
AcDbEntity
  8
ALL_FEATURES
100
AcDbLine
 62
7
  6
CONTINUOUS
 10
17.3947599932
 20
11.9518323576
 11
17.4030933901
 21
11.9560876768
  0
LINE
  5
3CA
100
AcDbEntity
  8
ALL_FEATURES
100
AcDbLine
 62
7
  6
CONTINUOUS
 10
17.4905933901
 20
11.9518323576
 11
17.4989266916
 21
11.9560876768
  0
LINE
  5
3CB
100
AcDbEntity
  8
ALL_FEATURES
100
AcDbLine
 62
7
  6
CONTINUOUS
 10
17.8593432947
 20
12.0433217202
 11
17.8676766916
 21
12.0475770388
  0
LINE
  5
3CC
100
AcDbEntity
  8
ALL_FEATURES
100
AcDbLine
 62
7
  6
CONTINUOUS
 10
17.9135100885
 20
11.9560876768
 11
17.9051766916
 21
11.9518323576
  0
LINE
  5
3CD
100
AcDbEntity
  8
ALL_FEATURES
100
AcDbLine
 62
7
  6
CONTINUOUS
 10
17.4614266916
 20
12.0348110829
 11
17.4676766916
 21
12.0369387422
  0
LINE
  5
3CE
100
AcDbEntity
  8
ALL_FEATURES
100
AcDbLine
 62
7
  6
CONTINUOUS
 10
17.8674388358
 20
11.8312468316
 11
17.8735904106
 21
11.8333409845
  0
LINE
  5
3CF
100
AcDbEntity
  8
ALL_FEATURES
100
AcDbLine
 62
7
  6
CONTINUOUS
 10
19.1463513795
 20
7.3813367211
 11
19.1365087848
 21
7.3788237377
  0
LINE
  5
3D0
100
AcDbEntity
  8
ALL_FEATURES
100
AcDbLine
 62
7
  6
CONTINUOUS
 10
19.1069812257
 20
7.4642651873
 11
19.1168238205
 21
7.4667781708
  0
LINE
  5
3D1
100
AcDbEntity
  8
ALL_FEATURES
100
AcDbLine
 62
7
  6
CONTINUOUS
 10
18.2752882748
 20
7.3813367211
 11
18.2654457926
 21
7.3788237377
  0
LINE
  5
3D2
100
AcDbEntity
  8
ALL_FEATURES
100
AcDbLine
 62
7
  6
CONTINUOUS
 10
18.2359182336
 20
7.4642651873
 11
18.2457607157
 21
7.4667781708
  0
LINE
  5
3D3
100
AcDbEntity
  8
ALL_FEATURES
100
AcDbLine
 62
7
  6
CONTINUOUS
 10
17.6970402808
 20
7.3788237377
 11
17.7068828193
 21
7.3813367211
  0
LINE
  5
3D4
100
AcDbEntity
  8
ALL_FEATURES
100
AcDbLine
 62
7
  6
CONTINUOUS
 10
19.1488118593
 20
7.3662588189
 11
19.1365087848
 21
7.3637458352
  0
LINE
  5
3D5
100
AcDbEntity
  8
ALL_FEATURES
100
AcDbLine
 62
7
  6
CONTINUOUS
 10
19.1045205207
 20
7.479343088
 11
19.1168238205
 21
7.4818560715
  0
LINE
  5
3D6
100
AcDbEntity
  8
ALL_FEATURES
100
AcDbLine
 62
7
  6
CONTINUOUS
 10
18.2777489798
 20
7.3662588189
 11
18.2654457926
 21
7.3637458352
  0
LINE
  5
3D7
100
AcDbEntity
  8
ALL_FEATURES
100
AcDbLine
 62
7
  6
CONTINUOUS
 10
17.7093434117
 20
7.3662588189
 11
17.6970402808
 21
7.3637458352
  0
LINE
  5
3D8
100
AcDbEntity
  8
ALL_FEATURES
100
AcDbLine
 62
7
  6
CONTINUOUS
 10
17.940642643
 20
7.4190314782
 11
17.9283395122
 21
7.4165184947
  0
LINE
  5
3D9
100
AcDbEntity
  8
ALL_FEATURES
100
AcDbLine
 62
7
  6
CONTINUOUS
 10
18.2334576412
 20
7.479343088
 11
18.2457607157
 21
7.4818560715
  0
LINE
  5
3DA
100
AcDbEntity
  8
ALL_FEATURES
100
AcDbLine
 62
7
  6
CONTINUOUS
 10
17.5789300446
 20
7.3637458352
 11
17.5912331754
 21
7.3662588189
  0
LINE
  5
3DB
100
AcDbEntity
  8
ALL_FEATURES
100
AcDbLine
 62
7
  6
CONTINUOUS
 10
17.4780442084
 20
7.3662588189
 11
17.4657410776
 21
7.3637458352
  0
LINE
  5
3DC
100
AcDbEntity
  8
ALL_FEATURES
100
AcDbLine
 62
7
  6
CONTINUOUS
 10
14.9301266531
 20
7.1777869723
 11
21.426060127
 21
7.1777869723
  0
LINE
  5
3DD
100
AcDbEntity
  8
ALL_FEATURES
100
AcDbLine
 62
7
  6
CONTINUOUS
 10
15.4805413528
 20
7.2387458352
 11
15.4724163528
 21
7.2387458352
  0
LINE
  5
3DE
100
AcDbEntity
  8
ALL_FEATURES
100
AcDbLine
 62
7
  6
CONTINUOUS
 10
15.4399163528
 20
7.2387458352
 11
15.4317913528
 21
7.2387458352
  0
LINE
  5
3DF
100
AcDbEntity
  8
ALL_FEATURES
100
AcDbLine
 62
7
  6
CONTINUOUS
 10
15.4209580298
 20
7.2387458352
 11
15.4128330298
 21
7.2387458352
  0
LINE
  5
3E0
100
AcDbEntity
  8
ALL_FEATURES
100
AcDbLine
 62
7
  6
CONTINUOUS
 10
15.3749163528
 20
7.2387458352
 11
15.3667913528
 21
7.2387458352
  0
LINE
  5
3E1
100
AcDbEntity
  8
ALL_FEATURES
100
AcDbLine
 62
7
  6
CONTINUOUS
 10
15.2719996913
 20
7.2387458352
 11
15.2638746913
 21
7.2387458352
  0
LINE
  5
3E2
100
AcDbEntity
  8
ALL_FEATURES
100
AcDbLine
 62
7
  6
CONTINUOUS
 10
15.1474163528
 20
7.2387458352
 11
15.1365830221
 21
7.2387458352
  0
LINE
  5
3E3
100
AcDbEntity
  8
ALL_FEATURES
100
AcDbLine
 62
7
  6
CONTINUOUS
 10
15.0621038528
 20
7.2387458352
 11
15.0539788528
 21
7.2387458352
  0
LINE
  5
3E4
100
AcDbEntity
  8
ALL_FEATURES
100
AcDbLine
 62
7
  6
CONTINUOUS
 10
15.1799163528
 20
7.2387458352
 11
15.1880413528
 21
7.2387458352
  0
LINE
  5
3E5
100
AcDbEntity
  8
ALL_FEATURES
100
AcDbLine
 62
7
  6
CONTINUOUS
 10
15.2218955143
 20
7.2387458352
 11
15.2313746913
 21
7.2387458352
  0
LINE
  5
3E6
100
AcDbEntity
  8
ALL_FEATURES
100
AcDbLine
 62
7
  6
CONTINUOUS
 10
15.3044996913
 20
7.2387458352
 11
15.3126246913
 21
7.2387458352
  0
LINE
  5
3E7
100
AcDbEntity
  8
ALL_FEATURES
100
AcDbLine
 62
7
  6
CONTINUOUS
 10
15.3464788528
 20
7.2387458352
 11
15.3559580298
 21
7.2387458352
  0
LINE
  5
3E8
100
AcDbEntity
  8
ALL_FEATURES
100
AcDbLine
 62
7
  6
CONTINUOUS
 10
15.1474163528
 20
7.2470437075
 11
15.1365830221
 21
7.2470437075
  0
LINE
  5
3E9
100
AcDbEntity
  8
ALL_FEATURES
100
AcDbLine
 62
7
  6
CONTINUOUS
 10
15.4074163528
 20
7.2553415799
 11
15.3803330298
 21
7.2553415799
  0
LINE
  5
3EA
100
AcDbEntity
  8
ALL_FEATURES
100
AcDbLine
 62
7
  6
CONTINUOUS
 10
15.4060621758
 20
7.2608734941
 11
15.3816871758
 21
7.2608734941
  0
LINE
  5
3EB
100
AcDbEntity
  8
ALL_FEATURES
100
AcDbLine
 62
7
  6
CONTINUOUS
 10
15.0864788528
 20
7.2677883888
 11
15.0621038528
 21
7.2677883888
  0
LINE
  5
3EC
100
AcDbEntity
  8
ALL_FEATURES
100
AcDbLine
 62
7
  6
CONTINUOUS
 10
15.1880413528
 20
7.2677883888
 11
15.2110621913
 21
7.2677883888
  0
LINE
  5
3ED
100
AcDbEntity
  8
ALL_FEATURES
100
AcDbLine
 62
7
  6
CONTINUOUS
 10
15.3126246913
 20
7.2677883888
 11
15.3356455298
 21
7.2677883888
  0
LINE
  5
3EE
100
AcDbEntity
  8
ALL_FEATURES
100
AcDbLine
 62
7
  6
CONTINUOUS
 10
15.0621038528
 20
7.2760862602
 11
15.0878330182
 21
7.2760862602
  0
LINE
  5
3EF
100
AcDbEntity
  8
ALL_FEATURES
100
AcDbLine
 62
7
  6
CONTINUOUS
 10
15.1880413528
 20
7.2760862602
 11
15.2137705143
 21
7.2760862602
  0
LINE
  5
3F0
100
AcDbEntity
  8
ALL_FEATURES
100
AcDbLine
 62
7
  6
CONTINUOUS
 10
15.3126246913
 20
7.2760862602
 11
15.3383538528
 21
7.2760862602
  0
LINE
  5
3F1
100
AcDbEntity
  8
ALL_FEATURES
100
AcDbLine
 62
7
  6
CONTINUOUS
 10
15.1365830221
 20
7.2954479639
 11
15.1474163528
 21
7.2954479639
  0
LINE
  5
3F2
100
AcDbEntity
  8
ALL_FEATURES
100
AcDbLine
 62
7
  6
CONTINUOUS
 10
15.5022080298
 20
7.2968309424
 11
15.4805413528
 21
7.2968309424
  0
LINE
  5
3F3
100
AcDbEntity
  8
ALL_FEATURES
100
AcDbLine
 62
7
  6
CONTINUOUS
 10
15.4724163528
 20
7.2968309424
 11
15.4507496758
 21
7.2968309424
  0
LINE
  5
3F4
100
AcDbEntity
  8
ALL_FEATURES
100
AcDbLine
 62
7
  6
CONTINUOUS
 10
15.3383538528
 20
7.2968309424
 11
15.3126246913
 21
7.2968309424
  0
LINE
  5
3F5
100
AcDbEntity
  8
ALL_FEATURES
100
AcDbLine
 62
7
  6
CONTINUOUS
 10
15.2936663528
 20
7.2968309424
 11
15.2719996913
 21
7.2968309424
  0
LINE
  5
3F6
100
AcDbEntity
  8
ALL_FEATURES
100
AcDbLine
 62
7
  6
CONTINUOUS
 10
15.2638746913
 20
7.2968309424
 11
15.2422080143
 21
7.2968309424
  0
LINE
  5
3F7
100
AcDbEntity
  8
ALL_FEATURES
100
AcDbLine
 62
7
  6
CONTINUOUS
 10
15.2137705143
 20
7.2968309424
 11
15.1880413528
 21
7.2968309424
  0
LINE
  5
3F8
100
AcDbEntity
  8
ALL_FEATURES
100
AcDbLine
 62
7
  6
CONTINUOUS
 10
15.0878330182
 20
7.2968309424
 11
15.0621038528
 21
7.2968309424
  0
LINE
  5
3F9
100
AcDbEntity
  8
ALL_FEATURES
100
AcDbLine
 62
7
  6
CONTINUOUS
 10
15.3369996758
 20
7.3037458352
 11
15.3044996913
 21
7.3037458352
  0
LINE
  5
3FA
100
AcDbEntity
  8
ALL_FEATURES
100
AcDbLine
 62
7
  6
CONTINUOUS
 10
15.2124163528
 20
7.3037458352
 11
15.1799163528
 21
7.3037458352
  0
LINE
  5
3FB
100
AcDbEntity
  8
ALL_FEATURES
100
AcDbLine
 62
7
  6
CONTINUOUS
 10
15.0539788528
 20
7.3037458352
 11
15.0864788528
 21
7.3037458352
  0
LINE
  5
3FC
100
AcDbEntity
  8
ALL_FEATURES
100
AcDbLine
 62
7
  6
CONTINUOUS
 10
15.1365830221
 20
7.3037458352
 11
15.1474163528
 21
7.3037458352
  0
LINE
  5
3FD
100
AcDbEntity
  8
ALL_FEATURES
100
AcDbLine
 62
7
  6
CONTINUOUS
 10
15.2422080143
 20
7.3037458352
 11
15.2936663528
 21
7.3037458352
  0
LINE
  5
3FE
100
AcDbEntity
  8
ALL_FEATURES
100
AcDbLine
 62
7
  6
CONTINUOUS
 10
15.3884580298
 20
7.3037458352
 11
15.3992913528
 21
7.3037458352
  0
LINE
  5
3FF
100
AcDbEntity
  8
ALL_FEATURES
100
AcDbLine
 62
7
  6
CONTINUOUS
 10
15.4317913528
 20
7.3037458352
 11
15.4399163528
 21
7.3037458352
  0
LINE
  5
400
100
AcDbEntity
  8
ALL_FEATURES
100
AcDbLine
 62
7
  6
CONTINUOUS
 10
15.4507496758
 20
7.3037458352
 11
15.5022080298
 21
7.3037458352
  0
LINE
  5
401
100
AcDbEntity
  8
ALL_FEATURES
100
AcDbLine
 62
7
  6
CONTINUOUS
 10
16.2489595318
 20
7.3387458352
 11
16.1702193743
 21
7.3387458352
  0
LINE
  5
402
100
AcDbEntity
  8
ALL_FEATURES
100
AcDbLine
 62
7
  6
CONTINUOUS
 10
20.1072272483
 20
7.3387458352
 11
20.1859674058
 21
7.3387458352
  0
LINE
  5
403
100
AcDbEntity
  8
ALL_FEATURES
100
AcDbLine
 62
7
  6
CONTINUOUS
 10
19.2939891748
 20
7.3637458352
 11
19.2718435055
 21
7.3637458352
  0
LINE
  5
404
100
AcDbEntity
  8
ALL_FEATURES
100
AcDbLine
 62
7
  6
CONTINUOUS
 10
19.2103276824
 20
7.3637458352
 11
19.1955639029
 21
7.3637458352
  0
LINE
  5
405
100
AcDbEntity
  8
ALL_FEATURES
100
AcDbLine
 62
7
  6
CONTINUOUS
 10
19.1365087848
 20
7.3637458352
 11
19.1168238205
 21
7.3637458352
  0
LINE
  5
406
100
AcDbEntity
  8
ALL_FEATURES
100
AcDbLine
 62
7
  6
CONTINUOUS
 10
19.0577687024
 20
7.3637458352
 11
19.0430049228
 21
7.3637458352
  0
LINE
  5
407
100
AcDbEntity
  8
ALL_FEATURES
100
AcDbLine
 62
7
  6
CONTINUOUS
 10
18.9839498047
 20
7.3637458352
 11
18.9691860252
 21
7.3637458352
  0
LINE
  5
408
100
AcDbEntity
  8
ALL_FEATURES
100
AcDbLine
 62
7
  6
CONTINUOUS
 10
18.9101307945
 20
7.3637458352
 11
18.8953670149
 21
7.3637458352
  0
LINE
  5
409
100
AcDbEntity
  8
ALL_FEATURES
100
AcDbLine
 62
7
  6
CONTINUOUS
 10
18.8264694147
 20
7.3637458352
 11
18.8117056352
 21
7.3637458352
  0
LINE
  5
40A
100
AcDbEntity
  8
ALL_FEATURES
100
AcDbLine
 62
7
  6
CONTINUOUS
 10
18.752650517
 20
7.3637458352
 11
18.7378867375
 21
7.3637458352
  0
LINE
  5
40B
100
AcDbEntity
  8
ALL_FEATURES
100
AcDbLine
 62
7
  6
CONTINUOUS
 10
18.6788316194
 20
7.3637458352
 11
18.6566859501
 21
7.3637458352
  0
LINE
  5
40C
100
AcDbEntity
  8
ALL_FEATURES
100
AcDbLine
 62
7
  6
CONTINUOUS
 10
18.5951702396
 20
7.3637458352
 11
18.5804064601
 21
7.3637458352
  0
LINE
  5
40D
100
AcDbEntity
  8
ALL_FEATURES
100
AcDbLine
 62
7
  6
CONTINUOUS
 10
18.5607213832
 20
7.3637458352
 11
18.472138706
 21
7.3637458352
  0
LINE
  5
40E
100
AcDbEntity
  8
ALL_FEATURES
100
AcDbLine
 62
7
  6
CONTINUOUS
 10
18.4524536291
 20
7.3637458352
 11
18.4376898496
 21
7.3637458352
  0
LINE
  5
40F
100
AcDbEntity
  8
ALL_FEATURES
100
AcDbLine
 62
7
  6
CONTINUOUS
 10
18.2654457926
 20
7.3637458352
 11
18.2457607157
 21
7.3637458352
  0
LINE
  5
410
100
AcDbEntity
  8
ALL_FEATURES
100
AcDbLine
 62
7
  6
CONTINUOUS
 10
18.0685953614
 20
7.3637458352
 11
17.9800127405
 21
7.3637458352
  0
LINE
  5
411
100
AcDbEntity
  8
ALL_FEATURES
100
AcDbLine
 62
7
  6
CONTINUOUS
 10
17.8840481736
 20
7.3637458352
 11
17.8692843941
 21
7.3637458352
  0
LINE
  5
412
100
AcDbEntity
  8
ALL_FEATURES
100
AcDbLine
 62
7
  6
CONTINUOUS
 10
17.8495993172
 20
7.3637458352
 11
17.8348355376
 21
7.3637458352
  0
LINE
  5
413
100
AcDbEntity
  8
ALL_FEATURES
100
AcDbLine
 62
7
  6
CONTINUOUS
 10
17.7659379374
 20
7.3637458352
 11
17.7511741579
 21
7.3637458352
  0
LINE
  5
414
100
AcDbEntity
  8
ALL_FEATURES
100
AcDbLine
 62
7
  6
CONTINUOUS
 10
17.6970402808
 20
7.3637458352
 11
17.6748946115
 21
7.3637458352
  0
LINE
  5
415
100
AcDbEntity
  8
ALL_FEATURES
100
AcDbLine
 62
7
  6
CONTINUOUS
 10
17.4657410776
 20
7.3637458352
 11
17.4066859595
 21
7.3637458352
  0
LINE
  5
416
100
AcDbEntity
  8
ALL_FEATURES
100
AcDbLine
 62
7
  6
CONTINUOUS
 10
17.3870009107
 20
7.3637458352
 11
17.3648552415
 21
7.3637458352
  0
LINE
  5
417
100
AcDbEntity
  8
ALL_FEATURES
100
AcDbLine
 62
7
  6
CONTINUOUS
 10
17.3033395028
 20
7.3637458352
 11
17.2885757092
 21
7.3637458352
  0
LINE
  5
418
100
AcDbEntity
  8
ALL_FEATURES
100
AcDbLine
 62
7
  6
CONTINUOUS
 10
17.2688906745
 20
7.3637458352
 11
17.254126895
 21
7.3637458352
  0
LINE
  5
419
100
AcDbEntity
  8
ALL_FEATURES
100
AcDbLine
 62
7
  6
CONTINUOUS
 10
17.1852292525
 20
7.3637458352
 11
17.17046548
 21
7.3637458352
  0
LINE
  5
41A
100
AcDbEntity
  8
ALL_FEATURES
100
AcDbLine
 62
7
  6
CONTINUOUS
 10
17.1507804383
 20
7.3637458352
 11
17.0621977611
 21
7.3637458352
  0
LINE
  5
41B
100
AcDbEntity
  8
ALL_FEATURES
100
AcDbLine
 62
7
  6
CONTINUOUS
 10
17.559245024
 20
7.3637458352
 11
17.5789300446
 21
7.3637458352
  0
LINE
  5
41C
100
AcDbEntity
  8
ALL_FEATURES
100
AcDbLine
 62
7
  6
CONTINUOUS
 10
18.3245009107
 20
7.3637458352
 11
18.3392646903
 21
7.3637458352
  0
LINE
  5
41D
100
AcDbEntity
  8
ALL_FEATURES
100
AcDbLine
 62
7
  6
CONTINUOUS
 10
18.4007804008
 20
7.3637458352
 11
18.4180048853
 21
7.3637458352
  0
LINE
  5
41E
100
AcDbEntity
  8
ALL_FEATURES
100
AcDbLine
 62
7
  6
CONTINUOUS
 10
19.1365087848
 20
7.3788237377
 11
19.1168238205
 21
7.3788237377
  0
LINE
  5
41F
100
AcDbEntity
  8
ALL_FEATURES
100
AcDbLine
 62
7
  6
CONTINUOUS
 10
18.2654457926
 20
7.3788237377
 11
18.2457607157
 21
7.3788237377
  0
LINE
  5
420
100
AcDbEntity
  8
ALL_FEATURES
100
AcDbLine
 62
7
  6
CONTINUOUS
 10
17.5789300446
 20
7.3788237377
 11
17.559245024
 21
7.3788237377
  0
LINE
  5
421
100
AcDbEntity
  8
ALL_FEATURES
100
AcDbLine
 62
7
  6
CONTINUOUS
 10
17.4657410776
 20
7.3788237377
 11
17.421449739
 21
7.3788237377
  0
LINE
  5
422
100
AcDbEntity
  8
ALL_FEATURES
100
AcDbLine
 62
7
  6
CONTINUOUS
 10
17.0769615407
 20
7.3788237377
 11
17.1507804383
 21
7.3788237377
  0
LINE
  5
423
100
AcDbEntity
  8
ALL_FEATURES
100
AcDbLine
 62
7
  6
CONTINUOUS
 10
17.6748946115
 20
7.3788237377
 11
17.6970402808
 21
7.3788237377
  0
LINE
  5
424
100
AcDbEntity
  8
ALL_FEATURES
100
AcDbLine
 62
7
  6
CONTINUOUS
 10
17.9947765201
 20
7.3788237377
 11
18.0685953614
 21
7.3788237377
  0
LINE
  5
425
100
AcDbEntity
  8
ALL_FEATURES
100
AcDbLine
 62
7
  6
CONTINUOUS
 10
18.4869024855
 20
7.3788237377
 11
18.5607213832
 21
7.3788237377
  0
LINE
  5
426
100
AcDbEntity
  8
ALL_FEATURES
100
AcDbLine
 62
7
  6
CONTINUOUS
 10
18.8855245328
 20
7.3939016401
 11
18.8363118968
 21
7.3939016401
  0
LINE
  5
427
100
AcDbEntity
  8
ALL_FEATURES
100
AcDbLine
 62
7
  6
CONTINUOUS
 10
17.8249930555
 20
7.3939016401
 11
17.7757804195
 21
7.3939016401
  0
LINE
  5
428
100
AcDbEntity
  8
ALL_FEATURES
100
AcDbLine
 62
7
  6
CONTINUOUS
 10
17.2442843706
 20
7.3939016401
 11
17.1950717769
 21
7.3939016401
  0
LINE
  5
429
100
AcDbEntity
  8
ALL_FEATURES
100
AcDbLine
 62
7
  6
CONTINUOUS
 10
17.7167253014
 20
7.3939016401
 11
17.7314890809
 21
7.3939016401
  0
LINE
  5
42A
100
AcDbEntity
  8
ALL_FEATURES
100
AcDbLine
 62
7
  6
CONTINUOUS
 10
17.5395599471
 20
7.3964146236
 11
17.5247961957
 21
7.3964146236
  0
LINE
  5
42B
100
AcDbEntity
  8
ALL_FEATURES
100
AcDbLine
 62
7
  6
CONTINUOUS
 10
15.5780933901
 20
7.4037458352
 11
15.0780933901
 21
7.4037458352
  0
LINE
  5
42C
100
AcDbEntity
  8
ALL_FEATURES
100
AcDbLine
 62
7
  6
CONTINUOUS
 10
18.8830639404
 20
7.4039535739
 11
18.8387726018
 21
7.4039535739
  0
LINE
  5
42D
100
AcDbEntity
  8
ALL_FEATURES
100
AcDbLine
 62
7
  6
CONTINUOUS
 10
17.8225324068
 20
7.4039535739
 11
17.7782410682
 21
7.4039535739
  0
LINE
  5
42E
100
AcDbEntity
  8
ALL_FEATURES
100
AcDbLine
 62
7
  6
CONTINUOUS
 10
17.2418237501
 20
7.4039535739
 11
17.1975324115
 21
7.4039535739
  0
LINE
  5
42F
100
AcDbEntity
  8
ALL_FEATURES
100
AcDbLine
 62
7
  6
CONTINUOUS
 10
17.9283395122
 20
7.4165184947
 11
17.8840481736
 21
7.4165184947
  0
LINE
  5
430
100
AcDbEntity
  8
ALL_FEATURES
100
AcDbLine
 62
7
  6
CONTINUOUS
 10
17.5641662651
 20
7.4165184947
 11
17.5789300446
 21
7.4165184947
  0
LINE
  5
431
100
AcDbEntity
  8
ALL_FEATURES
100
AcDbLine
 62
7
  6
CONTINUOUS
 10
18.3392646903
 20
7.4165184947
 11
18.3810954365
 21
7.4165184947
  0
LINE
  5
432
100
AcDbEntity
  8
ALL_FEATURES
100
AcDbLine
 62
7
  6
CONTINUOUS
 10
18.550878901
 20
7.4190314782
 11
18.4869024855
 21
7.4190314782
  0
LINE
  5
433
100
AcDbEntity
  8
ALL_FEATURES
100
AcDbLine
 62
7
  6
CONTINUOUS
 10
18.0587528792
 20
7.4190314782
 11
17.9947765201
 21
7.4190314782
  0
LINE
  5
434
100
AcDbEntity
  8
ALL_FEATURES
100
AcDbLine
 62
7
  6
CONTINUOUS
 10
17.5789300446
 20
7.4315963954
 11
17.5641662651
 21
7.4315963954
  0
LINE
  5
435
100
AcDbEntity
  8
ALL_FEATURES
100
AcDbLine
 62
7
  6
CONTINUOUS
 10
17.8840481736
 20
7.4315963954
 11
17.9308001046
 21
7.4315963954
  0
LINE
  5
436
100
AcDbEntity
  8
ALL_FEATURES
100
AcDbLine
 62
7
  6
CONTINUOUS
 10
18.3392646903
 20
7.4315963954
 11
18.3860166212
 21
7.4315963954
  0
LINE
  5
437
100
AcDbEntity
  8
ALL_FEATURES
100
AcDbLine
 62
7
  6
CONTINUOUS
 10
17.9947765201
 20
7.4341093789
 11
18.0587528792
 21
7.4341093789
  0
LINE
  5
438
100
AcDbEntity
  8
ALL_FEATURES
100
AcDbLine
 62
7
  6
CONTINUOUS
 10
18.4869024855
 20
7.4341093789
 11
18.550878901
 21
7.4341093789
  0
LINE
  5
439
100
AcDbEntity
  8
ALL_FEATURES
100
AcDbLine
 62
7
  6
CONTINUOUS
 10
17.7314890809
 20
7.451700263
 11
17.7167253014
 21
7.451700263
  0
LINE
  5
43A
100
AcDbEntity
  8
ALL_FEATURES
100
AcDbLine
 62
7
  6
CONTINUOUS
 10
17.5936938241
 20
7.4542132535
 11
17.6084576037
 21
7.4542132535
  0
LINE
  5
43B
100
AcDbEntity
  8
ALL_FEATURES
100
AcDbLine
 62
7
  6
CONTINUOUS
 10
18.5607213832
 20
7.4667781708
 11
18.4869024855
 21
7.4667781708
  0
LINE
  5
43C
100
AcDbEntity
  8
ALL_FEATURES
100
AcDbLine
 62
7
  6
CONTINUOUS
 10
18.0685953614
 20
7.4667781708
 11
17.9947765201
 21
7.4667781708
  0
LINE
  5
43D
100
AcDbEntity
  8
ALL_FEATURES
100
AcDbLine
 62
7
  6
CONTINUOUS
 10
17.6970402808
 20
7.4667781708
 11
17.6748946115
 21
7.4667781708
  0
LINE
  5
43E
100
AcDbEntity
  8
ALL_FEATURES
100
AcDbLine
 62
7
  6
CONTINUOUS
 10
17.421449739
 20
7.4667781708
 11
17.4657410776
 21
7.4667781708
  0
LINE
  5
43F
100
AcDbEntity
  8
ALL_FEATURES
100
AcDbLine
 62
7
  6
CONTINUOUS
 10
17.5641662651
 20
7.4667781708
 11
17.5789300446
 21
7.4667781708
  0
LINE
  5
440
100
AcDbEntity
  8
ALL_FEATURES
100
AcDbLine
 62
7
  6
CONTINUOUS
 10
18.2457607157
 20
7.4667781708
 11
18.2654457926
 21
7.4667781708
  0
LINE
  5
441
100
AcDbEntity
  8
ALL_FEATURES
100
AcDbLine
 62
7
  6
CONTINUOUS
 10
19.1168238205
 20
7.4667781708
 11
19.1365087848
 21
7.4667781708
  0
LINE
  5
442
100
AcDbEntity
  8
ALL_FEATURES
100
AcDbLine
 62
7
  6
CONTINUOUS
 10
19.0233197333
 20
7.4692911542
 11
18.9839498047
 21
7.4692911542
  0
LINE
  5
443
100
AcDbEntity
  8
ALL_FEATURES
100
AcDbLine
 62
7
  6
CONTINUOUS
 10
18.9691860252
 20
7.4692911542
 11
18.9298158714
 21
7.4692911542
  0
LINE
  5
444
100
AcDbEntity
  8
ALL_FEATURES
100
AcDbLine
 62
7
  6
CONTINUOUS
 10
18.7920205582
 20
7.4692911542
 11
18.752650517
 21
7.4692911542
  0
LINE
  5
445
100
AcDbEntity
  8
ALL_FEATURES
100
AcDbLine
 62
7
  6
CONTINUOUS
 10
18.7378867375
 20
7.4692911542
 11
18.6985166963
 21
7.4692911542
  0
LINE
  5
446
100
AcDbEntity
  8
ALL_FEATURES
100
AcDbLine
 62
7
  6
CONTINUOUS
 10
18.3860166212
 20
7.4692911542
 11
18.3392646903
 21
7.4692911542
  0
LINE
  5
447
100
AcDbEntity
  8
ALL_FEATURES
100
AcDbLine
 62
7
  6
CONTINUOUS
 10
17.9308001046
 20
7.4692911542
 11
17.8840481736
 21
7.4692911542
  0
LINE
  5
448
100
AcDbEntity
  8
ALL_FEATURES
100
AcDbLine
 62
7
  6
CONTINUOUS
 10
18.3835560289
 20
7.4818560715
 11
18.3245009107
 21
7.4818560715
  0
LINE
  5
449
100
AcDbEntity
  8
ALL_FEATURES
100
AcDbLine
 62
7
  6
CONTINUOUS
 10
17.5764693959
 20
7.4818560715
 11
17.5641662651
 21
7.4818560715
  0
LINE
  5
44A
100
AcDbEntity
  8
ALL_FEATURES
100
AcDbLine
 62
7
  6
CONTINUOUS
 10
17.0621977611
 20
7.4818560715
 11
17.0769615407
 21
7.4818560715
  0
LINE
  5
44B
100
AcDbEntity
  8
ALL_FEATURES
100
AcDbLine
 62
7
  6
CONTINUOUS
 10
17.2098355564
 20
7.4818560715
 11
17.2295205911
 21
7.4818560715
  0
LINE
  5
44C
100
AcDbEntity
  8
ALL_FEATURES
100
AcDbLine
 62
7
  6
CONTINUOUS
 10
17.2885757092
 20
7.4818560715
 11
17.3107213926
 21
7.4818560715
  0
LINE
  5
44D
100
AcDbEntity
  8
ALL_FEATURES
100
AcDbLine
 62
7
  6
CONTINUOUS
 10
17.3722371312
 20
7.4818560715
 11
17.3870009107
 21
7.4818560715
  0
LINE
  5
44E
100
AcDbEntity
  8
ALL_FEATURES
100
AcDbLine
 62
7
  6
CONTINUOUS
 10
17.4066859595
 20
7.4818560715
 11
17.4657410776
 21
7.4818560715
  0
LINE
  5
44F
100
AcDbEntity
  8
ALL_FEATURES
100
AcDbLine
 62
7
  6
CONTINUOUS
 10
17.6748946115
 20
7.4818560715
 11
17.6970402808
 21
7.4818560715
  0
LINE
  5
450
100
AcDbEntity
  8
ALL_FEATURES
100
AcDbLine
 62
7
  6
CONTINUOUS
 10
17.7905441991
 20
7.4818560715
 11
17.810229276
 21
7.4818560715
  0
LINE
  5
451
100
AcDbEntity
  8
ALL_FEATURES
100
AcDbLine
 62
7
  6
CONTINUOUS
 10
17.8692843941
 20
7.4818560715
 11
17.9283395122
 21
7.4818560715
  0
LINE
  5
452
100
AcDbEntity
  8
ALL_FEATURES
100
AcDbLine
 62
7
  6
CONTINUOUS
 10
17.9800127405
 20
7.4818560715
 11
18.0685953614
 21
7.4818560715
  0
LINE
  5
453
100
AcDbEntity
  8
ALL_FEATURES
100
AcDbLine
 62
7
  6
CONTINUOUS
 10
18.2457607157
 20
7.4818560715
 11
18.2654457926
 21
7.4818560715
  0
LINE
  5
454
100
AcDbEntity
  8
ALL_FEATURES
100
AcDbLine
 62
7
  6
CONTINUOUS
 10
18.4376898496
 20
7.4818560715
 11
18.4524536291
 21
7.4818560715
  0
LINE
  5
455
100
AcDbEntity
  8
ALL_FEATURES
100
AcDbLine
 62
7
  6
CONTINUOUS
 10
18.472138706
 20
7.4818560715
 11
18.5607213832
 21
7.4818560715
  0
LINE
  5
456
100
AcDbEntity
  8
ALL_FEATURES
100
AcDbLine
 62
7
  6
CONTINUOUS
 10
18.5804064601
 20
7.4818560715
 11
18.6025521294
 21
7.4818560715
  0
LINE
  5
457
100
AcDbEntity
  8
ALL_FEATURES
100
AcDbLine
 62
7
  6
CONTINUOUS
 10
18.6640678399
 20
7.4818560715
 11
18.6788316194
 21
7.4818560715
  0
LINE
  5
458
100
AcDbEntity
  8
ALL_FEATURES
100
AcDbLine
 62
7
  6
CONTINUOUS
 10
18.6985166963
 20
7.4818560715
 11
18.7920205582
 21
7.4818560715
  0
LINE
  5
459
100
AcDbEntity
  8
ALL_FEATURES
100
AcDbLine
 62
7
  6
CONTINUOUS
 10
18.8510756763
 20
7.4818560715
 11
18.8707607533
 21
7.4818560715
  0
LINE
  5
45A
100
AcDbEntity
  8
ALL_FEATURES
100
AcDbLine
 62
7
  6
CONTINUOUS
 10
18.9298158714
 20
7.4818560715
 11
19.0233197333
 21
7.4818560715
  0
LINE
  5
45B
100
AcDbEntity
  8
ALL_FEATURES
100
AcDbLine
 62
7
  6
CONTINUOUS
 10
19.0430049228
 20
7.4818560715
 11
19.0577687024
 21
7.4818560715
  0
LINE
  5
45C
100
AcDbEntity
  8
ALL_FEATURES
100
AcDbLine
 62
7
  6
CONTINUOUS
 10
19.1168238205
 20
7.4818560715
 11
19.1365087848
 21
7.4818560715
  0
LINE
  5
45D
100
AcDbEntity
  8
ALL_FEATURES
100
AcDbLine
 62
7
  6
CONTINUOUS
 10
19.1955639029
 20
7.4818560715
 11
19.2177095722
 21
7.4818560715
  0
LINE
  5
45E
100
AcDbEntity
  8
ALL_FEATURES
100
AcDbLine
 62
7
  6
CONTINUOUS
 10
19.2792253953
 20
7.4818560715
 11
19.2939891748
 21
7.4818560715
  0
LINE
  5
45F
100
AcDbEntity
  8
ALL_FEATURES
100
AcDbLine
 62
7
  6
CONTINUOUS
 10
20.2450225239
 20
7.4962261502
 11
20.1859674058
 21
7.4962261502
  0
LINE
  5
460
100
AcDbEntity
  8
ALL_FEATURES
100
AcDbLine
 62
7
  6
CONTINUOUS
 10
20.1072272483
 20
7.4962261502
 11
20.0481721302
 21
7.4962261502
  0
LINE
  5
461
100
AcDbEntity
  8
ALL_FEATURES
100
AcDbLine
 62
7
  6
CONTINUOUS
 10
16.1111642562
 20
7.4962261502
 11
16.1702193743
 21
7.4962261502
  0
LINE
  5
462
100
AcDbEntity
  8
ALL_FEATURES
100
AcDbLine
 62
7
  6
CONTINUOUS
 10
16.2489595318
 20
7.4962261502
 11
16.3080146499
 21
7.4962261502
  0
LINE
  5
463
100
AcDbEntity
  8
ALL_FEATURES
100
AcDbLine
 62
7
  6
CONTINUOUS
 10
17.5469418369
 20
7.3662588189
 11
17.559245024
 21
7.3637458352
  0
LINE
  5
464
100
AcDbEntity
  8
ALL_FEATURES
100
AcDbLine
 62
7
  6
CONTINUOUS
 10
17.6748946115
 20
7.3637458352
 11
17.6625914807
 21
7.3662588189
  0
LINE
  5
465
100
AcDbEntity
  8
ALL_FEATURES
100
AcDbLine
 62
7
  6
CONTINUOUS
 10
17.5912331754
 20
7.429083412
 11
17.5789300446
 21
7.4315963954
  0
LINE
  5
466
100
AcDbEntity
  8
ALL_FEATURES
100
AcDbLine
 62
7
  6
CONTINUOUS
 10
17.4657410776
 20
7.4818560715
 11
17.4780442084
 21
7.479343088
  0
LINE
  5
467
100
AcDbEntity
  8
ALL_FEATURES
100
AcDbLine
 62
7
  6
CONTINUOUS
 10
17.5887725831
 20
7.479343088
 11
17.5764693959
 21
7.4818560715
  0
LINE
  5
468
100
AcDbEntity
  8
ALL_FEATURES
100
AcDbLine
 62
7
  6
CONTINUOUS
 10
18.2457607157
 20
7.3637458352
 11
18.2334576412
 21
7.3662588189
  0
LINE
  5
469
100
AcDbEntity
  8
ALL_FEATURES
100
AcDbLine
 62
7
  6
CONTINUOUS
 10
17.6970402808
 20
7.4818560715
 11
17.7093434117
 21
7.479343088
  0
LINE
  5
46A
100
AcDbEntity
  8
ALL_FEATURES
100
AcDbLine
 62
7
  6
CONTINUOUS
 10
17.9283395122
 20
7.4818560715
 11
17.940642643
 21
7.479343088
  0
LINE
  5
46B
100
AcDbEntity
  8
ALL_FEATURES
100
AcDbLine
 62
7
  6
CONTINUOUS
 10
18.2654457926
 20
7.4818560715
 11
18.2777489798
 21
7.479343088
  0
LINE
  5
46C
100
AcDbEntity
  8
ALL_FEATURES
100
AcDbLine
 62
7
  6
CONTINUOUS
 10
18.395859216
 20
7.479343088
 11
18.3835560289
 21
7.4818560715
  0
LINE
  5
46D
100
AcDbEntity
  8
ALL_FEATURES
100
AcDbLine
 62
7
  6
CONTINUOUS
 10
17.559245024
 20
7.3788237377
 11
17.5494024855
 21
7.3813367211
  0
LINE
  5
46E
100
AcDbEntity
  8
ALL_FEATURES
100
AcDbLine
 62
7
  6
CONTINUOUS
 10
17.6650520731
 20
7.3813367211
 11
17.6748946115
 21
7.3788237377
  0
LINE
  5
46F
100
AcDbEntity
  8
ALL_FEATURES
100
AcDbLine
 62
7
  6
CONTINUOUS
 10
17.5543237266
 20
7.4190314782
 11
17.5641662651
 21
7.4165184947
  0
LINE
  5
470
100
AcDbEntity
  8
ALL_FEATURES
100
AcDbLine
 62
7
  6
CONTINUOUS
 10
17.5789300446
 20
7.4165184947
 11
17.5887725831
 21
7.4140055113
  0
LINE
  5
471
100
AcDbEntity
  8
ALL_FEATURES
100
AcDbLine
 62
7
  6
CONTINUOUS
 10
17.4657410776
 20
7.4667781708
 11
17.4755835879
 21
7.4642651873
  0
LINE
  5
472
100
AcDbEntity
  8
ALL_FEATURES
100
AcDbLine
 62
7
  6
CONTINUOUS
 10
17.7068828193
 20
7.4642651873
 11
17.6970402808
 21
7.4667781708
  0
LINE
  5
473
100
AcDbEntity
  8
ALL_FEATURES
100
AcDbLine
 62
7
  6
CONTINUOUS
 10
18.2457607157
 20
7.3788237377
 11
18.2359182336
 21
7.3813367211
  0
LINE
  5
474
100
AcDbEntity
  8
ALL_FEATURES
100
AcDbLine
 62
7
  6
CONTINUOUS
 10
18.2654457926
 20
7.4667781708
 11
18.2752882748
 21
7.4642651873
  0
LINE
  5
475
100
AcDbEntity
  8
ALL_FEATURES
100
AcDbLine
 62
7
  6
CONTINUOUS
 10
17.5641662651
 20
7.4315963954
 11
17.5567843753
 21
7.4341093789
  0
LINE
  5
476
100
AcDbEntity
  8
ALL_FEATURES
100
AcDbLine
 62
7
  6
CONTINUOUS
 10
17.5789300446
 20
7.4667781708
 11
17.5863119344
 21
7.4642651873
  0
LINE
  5
477
100
AcDbEntity
  8
ALL_FEATURES
100
AcDbLine
 62
7
  6
CONTINUOUS
 10
17.9381819943
 20
7.4667781708
 11
17.9308001046
 21
7.4692911542
  0
LINE
  5
478
100
AcDbEntity
  8
ALL_FEATURES
100
AcDbLine
 62
7
  6
CONTINUOUS
 10
17.5444812445
 20
7.4240574451
 11
17.5543237266
 21
7.4190314782
  0
LINE
  5
479
100
AcDbEntity
  8
ALL_FEATURES
100
AcDbLine
 62
7
  6
CONTINUOUS
 10
17.6625914807
 20
7.3662588189
 11
17.6527489422
 21
7.3712847865
  0
LINE
  5
47A
100
AcDbEntity
  8
ALL_FEATURES
100
AcDbLine
 62
7
  6
CONTINUOUS
 10
17.4780442084
 20
7.479343088
 11
17.4878867469
 21
7.4743171211
  0
LINE
  5
47B
100
AcDbEntity
  8
ALL_FEATURES
100
AcDbLine
 62
7
  6
CONTINUOUS
 10
17.6010757139
 20
7.4240574451
 11
17.5912331754
 21
7.429083412
  0
LINE
  5
47C
100
AcDbEntity
  8
ALL_FEATURES
100
AcDbLine
 62
7
  6
CONTINUOUS
 10
17.7093434117
 20
7.479343088
 11
17.7191859501
 21
7.4743171211
  0
LINE
  5
47D
100
AcDbEntity
  8
ALL_FEATURES
100
AcDbLine
 62
7
  6
CONTINUOUS
 10
17.534638706
 20
7.3737977699
 11
17.5469418369
 21
7.3662588189
  0
LINE
  5
47E
100
AcDbEntity
  8
ALL_FEATURES
100
AcDbLine
 62
7
  6
CONTINUOUS
 10
17.4755835879
 20
7.4642651873
 11
17.4829654777
 21
7.4592392204
  0
LINE
  5
47F
100
AcDbEntity
  8
ALL_FEATURES
100
AcDbLine
 62
7
  6
CONTINUOUS
 10
17.5567843753
 20
7.4341093789
 11
17.5494024855
 21
7.4391353458
  0
LINE
  5
480
100
AcDbEntity
  8
ALL_FEATURES
100
AcDbLine
 62
7
  6
CONTINUOUS
 10
17.5887725831
 20
7.4140055113
 11
17.5961544728
 21
7.4089795444
  0
LINE
  5
481
100
AcDbEntity
  8
ALL_FEATURES
100
AcDbLine
 62
7
  6
CONTINUOUS
 10
17.6576701833
 20
7.3863626898
 11
17.6650520731
 21
7.3813367211
  0
LINE
  5
482
100
AcDbEntity
  8
ALL_FEATURES
100
AcDbLine
 62
7
  6
CONTINUOUS
 10
17.5986150652
 20
7.4718041377
 11
17.5887725831
 21
7.479343088
  0
LINE
  5
483
100
AcDbEntity
  8
ALL_FEATURES
100
AcDbLine
 62
7
  6
CONTINUOUS
 10
15.2110621317
 20
11.5677883888
 11
15.2218954547
 21
11.5387458352
  0
LINE
  5
484
100
AcDbEntity
  8
ALL_FEATURES
100
AcDbLine
 62
7
  6
CONTINUOUS
 10
15.0959579586
 20
11.5885330711
 11
15.0946037932
 21
11.5926820068
  0
LINE
  5
485
100
AcDbEntity
  8
ALL_FEATURES
100
AcDbLine
 62
7
  6
CONTINUOUS
 10
15.1027287932
 20
11.5926820068
 11
15.1040829586
 21
11.5885330711
  0
LINE
  5
486
100
AcDbEntity
  8
ALL_FEATURES
100
AcDbLine
 62
7
  6
CONTINUOUS
 10
15.2218954547
 20
11.5885330711
 11
15.2205412932
 21
11.5926820068
  0
LINE
  5
487
100
AcDbEntity
  8
ALL_FEATURES
100
AcDbLine
 62
7
  6
CONTINUOUS
 10
15.2300204547
 20
11.5885330711
 11
15.2286662932
 21
11.5926820068
  0
LINE
  5
488
100
AcDbEntity
  8
ALL_FEATURES
100
AcDbLine
 62
7
  6
CONTINUOUS
 10
15.1243954625
 20
11.5553415799
 11
15.1230412932
 21
11.5608734941
  0
LINE
  5
489
100
AcDbEntity
  8
ALL_FEATURES
100
AcDbLine
 62
7
  6
CONTINUOUS
 10
15.1596037932
 20
11.5871500887
 11
15.1609579625
 21
11.5816181744
  0
LINE
  5
48A
100
AcDbEntity
  8
ALL_FEATURES
100
AcDbLine
 62
7
  6
CONTINUOUS
 10
16.1702193743
 20
7.3387458352
 11
16.1702193743
 21
7.4962261502
  0
LINE
  5
48B
100
AcDbEntity
  8
ALL_FEATURES
100
AcDbLine
 62
7
  6
CONTINUOUS
 10
16.2426766916
 20
12.0390664015
 11
16.2426766916
 21
12.0497046981
  0
LINE
  5
48C
100
AcDbEntity
  8
ALL_FEATURES
100
AcDbLine
 62
7
  6
CONTINUOUS
 10
16.2489595318
 20
7.4962261502
 11
16.2489595318
 21
7.3387458352
  0
LINE
  5
48D
100
AcDbEntity
  8
ALL_FEATURES
100
AcDbLine
 62
7
  6
CONTINUOUS
 10
16.2760100259
 20
11.9497046981
 11
16.2760100259
 21
12.0390664015
  0
LINE
  5
48E
100
AcDbEntity
  8
ALL_FEATURES
100
AcDbLine
 62
7
  6
CONTINUOUS
 10
16.2885100259
 20
12.0390664015
 11
16.2885100259
 21
11.9497046981
  0
LINE
  5
48F
100
AcDbEntity
  8
ALL_FEATURES
100
AcDbLine
 62
7
  6
CONTINUOUS
 10
16.3218433603
 20
12.0497046981
 11
16.3218433603
 21
12.0390664015
  0
LINE
  5
490
100
AcDbEntity
  8
ALL_FEATURES
100
AcDbLine
 62
7
  6
CONTINUOUS
 10
16.338510023
 20
11.9497046981
 11
16.338510023
 21
12.0497046981
  0
LINE
  5
491
100
AcDbEntity
  8
ALL_FEATURES
100
AcDbLine
 62
7
  6
CONTINUOUS
 10
16.3510100289
 20
12.0369387422
 11
16.3510100289
 21
12.0092791651
  0
LINE
  5
492
100
AcDbEntity
  8
ALL_FEATURES
100
AcDbLine
 62
7
  6
CONTINUOUS
 10
16.3510100289
 20
11.9965132092
 11
16.3510100289
 21
11.9624706556
  0
LINE
  5
493
100
AcDbEntity
  8
ALL_FEATURES
100
AcDbLine
 62
7
  6
CONTINUOUS
 10
16.4051766916
 20
12.0092791651
 11
16.4051766916
 21
11.9965132092
  0
LINE
  5
494
100
AcDbEntity
  8
ALL_FEATURES
100
AcDbLine
 62
7
  6
CONTINUOUS
 10
16.4135100289
 20
12.0497046981
 11
16.4135100289
 21
12.0369387422
  0
LINE
  5
495
100
AcDbEntity
  8
ALL_FEATURES
100
AcDbLine
 62
7
  6
CONTINUOUS
 10
16.4135100289
 20
11.9624706556
 11
16.4135100289
 21
11.9497046981
  0
LINE
  5
496
100
AcDbEntity
  8
ALL_FEATURES
100
AcDbLine
 62
7
  6
CONTINUOUS
 10
16.4301766916
 20
11.9497046981
 11
16.4301766916
 21
12.0497046981
  0
LINE
  5
497
100
AcDbEntity
  8
ALL_FEATURES
100
AcDbLine
 62
7
  6
CONTINUOUS
 10
16.4426766916
 20
12.0284281049
 11
16.4426766916
 21
11.9497046981
  0
LINE
  5
498
100
AcDbEntity
  8
ALL_FEATURES
100
AcDbLine
 62
7
  6
CONTINUOUS
 10
16.7551766916
 20
11.9837472503
 11
16.7739266916
 21
12.0411940609
  0
LINE
  5
499
100
AcDbEntity
  8
ALL_FEATURES
100
AcDbLine
 62
7
  6
CONTINUOUS
 10
15.2205413528
 20
7.2802351959
 11
15.2218955143
 21
7.2843841315
  0
LINE
  5
49A
100
AcDbEntity
  8
ALL_FEATURES
100
AcDbLine
 62
7
  6
CONTINUOUS
 10
16.7530933424
 20
11.975236613
 11
16.7447600408
 21
11.9497046981
  0
LINE
  5
49B
100
AcDbEntity
  8
ALL_FEATURES
100
AcDbLine
 62
7
  6
CONTINUOUS
 10
15.2286663528
 20
7.2788522173
 11
15.2300205143
 21
7.283001153
  0
LINE
  5
49C
100
AcDbEntity
  8
ALL_FEATURES
100
AcDbLine
 62
7
  6
CONTINUOUS
 10
15.3451246758
 20
7.2802351959
 11
15.3464788528
 21
7.2843841315
  0
LINE
  5
49D
100
AcDbEntity
  8
ALL_FEATURES
100
AcDbLine
 62
7
  6
CONTINUOUS
 10
15.3532496758
 20
7.2788522173
 11
15.3546038528
 21
7.283001153
  0
LINE
  5
49E
100
AcDbEntity
  8
ALL_FEATURES
100
AcDbLine
 62
7
  6
CONTINUOUS
 10
15.3816871758
 20
7.2608734941
 11
15.3938746758
 21
7.298213921
  0
LINE
  5
49F
100
AcDbEntity
  8
ALL_FEATURES
100
AcDbLine
 62
7
  6
CONTINUOUS
 10
15.3803330298
 20
7.2553415799
 11
15.3749163528
 21
7.2387458352
  0
LINE
  5
4A0
100
AcDbEntity
  8
ALL_FEATURES
100
AcDbLine
 62
7
  6
CONTINUOUS
 10
16.7322600408
 20
11.9497046981
 11
16.7655933424
 21
12.0497046981
  0
LINE
  5
4A1
100
AcDbEntity
  8
ALL_FEATURES
100
AcDbLine
 62
7
  6
CONTINUOUS
 10
15.3667913528
 20
7.2387458352
 11
15.3884580298
 21
7.3037458352
  0
LINE
  5
4A2
100
AcDbEntity
  8
ALL_FEATURES
100
AcDbLine
 62
7
  6
CONTINUOUS
 10
15.1162705182
 20
7.2885330711
 11
15.1189788528
 21
7.2940649853
  0
LINE
  5
4A3
100
AcDbEntity
  8
ALL_FEATURES
100
AcDbLine
 62
7
  6
CONTINUOUS
 10
17.4114266916
 20
11.9645983149
 11
17.4155933901
 21
11.9731089536
  0
LINE
  5
4A4
100
AcDbEntity
  8
ALL_FEATURES
100
AcDbLine
 62
7
  6
CONTINUOUS
 10
17.0197600408
 20
11.9369387407
 11
17.0322600408
 21
11.9603429962
  0
LINE
  5
4A5
100
AcDbEntity
  8
ALL_FEATURES
100
AcDbLine
 62
7
  6
CONTINUOUS
 10
17.0426766916
 20
11.9603429962
 11
17.0301766916
 21
11.9369387407
  0
LINE
  5
4A6
100
AcDbEntity
  8
ALL_FEATURES
100
AcDbLine
 62
7
  6
CONTINUOUS
 10
17.4030933901
 20
11.975236613
 11
17.3989266916
 21
11.968853635
  0
LINE
  5
4A7
100
AcDbEntity
  8
ALL_FEATURES
100
AcDbLine
 62
7
  6
CONTINUOUS
 10
17.4989266916
 20
11.975236613
 11
17.4947599932
 21
11.968853635
  0
LINE
  5
4A8
100
AcDbEntity
  8
ALL_FEATURES
100
AcDbLine
 62
7
  6
CONTINUOUS
 10
17.6603358096
 20
11.8333409845
 11
17.6890431665
 21
11.873129895
  0
LINE
  5
4A9
100
AcDbEntity
  8
ALL_FEATURES
100
AcDbLine
 62
7
  6
CONTINUOUS
 10
17.4989266916
 20
11.9560876768
 11
17.5072599932
 21
11.9645983149
  0
LINE
  5
4AA
100
AcDbEntity
  8
ALL_FEATURES
100
AcDbLine
 62
7
  6
CONTINUOUS
 10
17.8510100885
 20
12.0348110829
 11
17.8593432947
 21
12.0433217202
  0
LINE
  5
4AB
100
AcDbEntity
  8
ALL_FEATURES
100
AcDbLine
 62
7
  6
CONTINUOUS
 10
17.9218432947
 20
11.9645983149
 11
17.9135100885
 21
11.9560876768
  0
LINE
  5
4AC
100
AcDbEntity
  8
ALL_FEATURES
100
AcDbLine
 62
7
  6
CONTINUOUS
 10
17.8735904106
 20
11.8333409845
 11
17.8776914448
 21
11.8375292902
  0
LINE
  5
4AD
100
AcDbEntity
  8
ALL_FEATURES
100
AcDbLine
 62
7
  6
CONTINUOUS
 10
18.0051766916
 20
11.9560876768
 11
18.0135100885
 21
11.9645983149
  0
LINE
  5
4AE
100
AcDbEntity
  8
ALL_FEATURES
100
AcDbLine
 62
7
  6
CONTINUOUS
 10
17.8838430196
 20
11.8270585259
 11
17.8756409511
 21
11.8207760673
  0
LINE
  5
4AF
100
AcDbEntity
  8
ALL_FEATURES
100
AcDbLine
 62
7
  6
CONTINUOUS
 10
17.9093432947
 20
11.968853635
 11
17.9030932947
 21
11.9645983149
  0
LINE
  5
4B0
100
AcDbEntity
  8
ALL_FEATURES
100
AcDbLine
 62
7
  6
CONTINUOUS
 10
18.0010100885
 20
11.968853635
 11
17.9947600885
 21
11.9645983149
  0
LINE
  5
4B1
100
AcDbEntity
  8
ALL_FEATURES
100
AcDbLine
 62
7
  6
CONTINUOUS
 10
18.1729670353
 20
11.856376672
 11
18.1791186101
 21
11.8605649777
  0
LINE
  5
4B2
100
AcDbEntity
  8
ALL_FEATURES
100
AcDbLine
 62
7
  6
CONTINUOUS
 10
18.1770681165
 20
11.8354351374
 11
18.1647649669
 21
11.8270585259
  0
LINE
  5
4B3
100
AcDbEntity
  8
ALL_FEATURES
100
AcDbLine
 62
7
  6
CONTINUOUS
 10
18.1791186101
 20
11.824964373
 11
18.1729670353
 21
11.8207760673
  0
LINE
  5
4B4
100
AcDbEntity
  8
ALL_FEATURES
100
AcDbLine
 62
7
  6
CONTINUOUS
 10
18.2057754499
 20
11.7872696169
 11
18.2119270247
 21
11.7914579226
  0
LINE
  5
4B5
100
AcDbEntity
  8
ALL_FEATURES
100
AcDbLine
 62
7
  6
CONTINUOUS
 10
18.1770681165
 20
11.8710357421
 11
18.1668154605
 21
11.8647532835
  0
LINE
  5
4B6
100
AcDbEntity
  8
ALL_FEATURES
100
AcDbLine
 62
7
  6
CONTINUOUS
 10
18.267291198
 20
11.8710357421
 11
18.257038542
 21
11.8647532835
  0
LINE
  5
4B7
100
AcDbEntity
  8
ALL_FEATURES
100
AcDbLine
 62
7
  6
CONTINUOUS
 10
18.2078259436
 20
11.7767988512
 11
18.2180785995
 21
11.7830813104
  0
LINE
  5
4B8
100
AcDbEntity
  8
ALL_FEATURES
100
AcDbLine
 62
7
  6
CONTINUOUS
 10
18.298049072
 20
11.7767988512
 11
18.3083017279
 21
11.7830813104
  0
LINE
  5
4B9
100
AcDbEntity
  8
ALL_FEATURES
100
AcDbLine
 62
7
  6
CONTINUOUS
 10
18.40057535
 20
11.8354351374
 11
18.390322694
 21
11.8291526787
  0
LINE
  5
4BA
100
AcDbEntity
  8
ALL_FEATURES
100
AcDbLine
 62
7
  6
CONTINUOUS
 10
18.4907983845
 20
11.8710357421
 11
18.4805458224
 21
11.8647532835
  0
LINE
  5
4BB
100
AcDbEntity
  8
ALL_FEATURES
100
AcDbLine
 62
7
  6
CONTINUOUS
 10
17.9968432947
 20
11.9518323576
 11
18.0051766916
 21
11.9560876768
  0
LINE
  5
4BC
100
AcDbEntity
  8
ALL_FEATURES
100
AcDbLine
 62
7
  6
CONTINUOUS
 10
18.2611396232
 20
11.824964373
 11
18.257038542
 21
11.8228702201
  0
LINE
  5
4BD
100
AcDbEntity
  8
ALL_FEATURES
100
AcDbLine
 62
7
  6
CONTINUOUS
 10
18.2693416916
 20
11.8186819144
 11
18.2611396232
 21
11.8144936086
  0
LINE
  5
4BE
100
AcDbEntity
  8
ALL_FEATURES
100
AcDbLine
 62
7
  6
CONTINUOUS
 10
18.3021501531
 20
11.824964373
 11
18.3062511404
 21
11.8270585259
  0
LINE
  5
4BF
100
AcDbEntity
  8
ALL_FEATURES
100
AcDbLine
 62
7
  6
CONTINUOUS
 10
18.2939479908
 20
11.7872696169
 11
18.3021501531
 21
11.7914579226
  0
LINE
  5
4C0
100
AcDbEntity
  8
ALL_FEATURES
100
AcDbLine
 62
7
  6
CONTINUOUS
 10
18.8280932947
 20
12.0433217202
 11
18.8364266916
 21
12.0475770388
  0
LINE
  5
4C1
100
AcDbEntity
  8
ALL_FEATURES
100
AcDbLine
 62
7
  6
CONTINUOUS
 10
18.8697600885
 20
11.9624706556
 11
18.8739266916
 21
11.9645983149
  0
LINE
  5
4C2
100
AcDbEntity
  8
ALL_FEATURES
100
AcDbLine
 62
7
  6
CONTINUOUS
 10
18.8780932947
 20
11.9560876768
 11
18.8697600885
 21
11.9518323576
  0
LINE
  5
4C3
100
AcDbEntity
  8
ALL_FEATURES
100
AcDbLine
 62
7
  6
CONTINUOUS
 10
18.6671435602
 20
11.824964373
 11
18.663042479
 21
11.8228702201
  0
LINE
  5
4C4
100
AcDbEntity
  8
ALL_FEATURES
100
AcDbLine
 62
7
  6
CONTINUOUS
 10
18.1791186101
 20
11.8605649777
 11
18.1852701849
 21
11.8626591306
  0
LINE
  5
4C5
100
AcDbEntity
  8
ALL_FEATURES
100
AcDbLine
 62
7
  6
CONTINUOUS
 10
18.1852701849
 20
11.8270585259
 11
18.1791186101
 21
11.824964373
  0
LINE
  5
4C6
100
AcDbEntity
  8
ALL_FEATURES
100
AcDbLine
 62
7
  6
CONTINUOUS
 10
18.1996238751
 20
11.785175464
 11
18.2057754499
 21
11.7872696169
  0
LINE
  5
4C7
100
AcDbEntity
  8
ALL_FEATURES
100
AcDbLine
 62
7
  6
CONTINUOUS
 10
18.8572600885
 20
12.0050238464
 11
18.8697600885
 21
12.0092791651
  0
LINE
  5
4C8
100
AcDbEntity
  8
ALL_FEATURES
100
AcDbLine
 62
7
  6
CONTINUOUS
 10
18.4990005468
 20
11.8626591306
 11
18.492848972
 21
11.8605649777
  0
LINE
  5
4C9
100
AcDbEntity
  8
ALL_FEATURES
100
AcDbLine
 62
7
  6
CONTINUOUS
 10
18.5851225941
 20
11.8605649777
 11
18.5912741689
 21
11.8626591306
  0
LINE
  5
4CA
100
AcDbEntity
  8
ALL_FEATURES
100
AcDbLine
 62
7
  6
CONTINUOUS
 10
18.5133541901
 20
11.8207760673
 11
18.5195057649
 21
11.8228702201
  0
LINE
  5
4CB
100
AcDbEntity
  8
ALL_FEATURES
100
AcDbLine
 62
7
  6
CONTINUOUS
 10
18.5912741689
 20
11.8270585259
 11
18.5851225941
 21
11.824964373
  0
LINE
  5
4CC
100
AcDbEntity
  8
ALL_FEATURES
100
AcDbLine
 62
7
  6
CONTINUOUS
 10
18.5195057649
 20
11.7872696169
 11
18.5133541901
 21
11.785175464
  0
LINE
  5
4CD
100
AcDbEntity
  8
ALL_FEATURES
100
AcDbLine
 62
7
  6
CONTINUOUS
 10
18.6056278121
 20
11.785175464
 11
18.6117793869
 21
11.7872696169
  0
LINE
  5
4CE
100
AcDbEntity
  8
ALL_FEATURES
100
AcDbLine
 62
7
  6
CONTINUOUS
 10
19.7051766916
 20
12.0071515058
 11
19.7114266916
 21
12.0092791651
  0
LINE
  5
4CF
100
AcDbEntity
  8
ALL_FEATURES
100
AcDbLine
 62
7
  6
CONTINUOUS
 10
17.5887725831
 20
7.3813367211
 11
17.5789300446
 21
7.3788237377
  0
LINE
  5
4D0
100
AcDbEntity
  8
ALL_FEATURES
100
AcDbLine
 62
7
  6
CONTINUOUS
 10
17.4755835879
 20
7.3813367211
 11
17.4657410776
 21
7.3788237377
  0
LINE
  5
4D1
100
AcDbEntity
  8
ALL_FEATURES
100
AcDbLine
 62
7
  6
CONTINUOUS
 10
17.6748946115
 20
7.4667781708
 11
17.6650520731
 21
7.4642651873
  0
LINE
  5
4D2
100
AcDbEntity
  8
ALL_FEATURES
100
AcDbLine
 62
7
  6
CONTINUOUS
 10
17.5641662651
 20
7.4818560715
 11
17.5543237266
 21
7.479343088
  0
LINE
  5
4D3
100
AcDbEntity
  8
ALL_FEATURES
100
AcDbLine
 62
7
  6
CONTINUOUS
 10
17.6625914807
 20
7.479343088
 11
17.6748946115
 21
7.4818560715
  0
LINE
  5
4D4
100
AcDbEntity
  8
ALL_FEATURES
100
AcDbLine
 62
7
  6
CONTINUOUS
 10
15.1541871836
 20
7.2401288139
 11
15.1474163528
 21
7.2387458352
  0
LINE
  5
4D5
100
AcDbEntity
  8
ALL_FEATURES
100
AcDbLine
 62
7
  6
CONTINUOUS
 10
15.0932496875
 20
7.2691713674
 11
15.0864788528
 21
7.2677883888
  0
LINE
  5
4D6
100
AcDbEntity
  8
ALL_FEATURES
100
AcDbLine
 62
7
  6
CONTINUOUS
 10
15.1298121836
 20
7.3023628567
 11
15.1365830221
 21
7.3037458352
  0
LINE
  5
4D7
100
AcDbEntity
  8
ALL_FEATURES
100
AcDbLine
 62
7
  6
CONTINUOUS
 10
15.0780933901
 20
7.6537458352
 11
15.5780933901
 21
7.6537458352
  0
LINE
  5
4D8
100
AcDbEntity
  8
ALL_FEATURES
100
AcDbLine
 62
7
  6
CONTINUOUS
 10
19.0627679288
 20
7.6587955596
 11
17.2934188513
 21
7.6587955596
  0
LINE
  5
4D9
100
AcDbEntity
  8
ALL_FEATURES
100
AcDbLine
 62
7
  6
CONTINUOUS
 10
20.676060127
 20
7.9277869723
 11
19.0627679288
 21
7.9277869723
  0
LINE
  5
4DA
100
AcDbEntity
  8
ALL_FEATURES
100
AcDbLine
 62
7
  6
CONTINUOUS
 10
17.2934188513
 20
7.9277869723
 11
15.6801266531
 21
7.9277869723
  0
LINE
  5
4DB
100
AcDbEntity
  8
ALL_FEATURES
100
AcDbLine
 62
7
  6
CONTINUOUS
 10
19.1168238205
 20
7.3637458352
 11
19.1045205207
 21
7.3662588189
  0
LINE
  5
4DC
100
AcDbEntity
  8
ALL_FEATURES
100
AcDbLine
 62
7
  6
CONTINUOUS
 10
19.1365087848
 20
7.4818560715
 11
19.1488118593
 21
7.479343088
  0
LINE
  5
4DD
100
AcDbEntity
  8
ALL_FEATURES
100
AcDbLine
 62
7
  6
CONTINUOUS
 10
19.1168238205
 20
7.3788237377
 11
19.1069812257
 21
7.3813367211
  0
LINE
  5
4DE
100
AcDbEntity
  8
ALL_FEATURES
100
AcDbLine
 62
7
  6
CONTINUOUS
 10
19.1365087848
 20
7.4667781708
 11
19.1463513795
 21
7.4642651873
  0
LINE
  5
4DF
100
AcDbEntity
  8
ALL_FEATURES
100
AcDbLine
 62
7
  6
CONTINUOUS
 10
18.393398511
 20
7.4667781708
 11
18.3860166212
 21
7.4692911542
  0
LINE
  5
4E0
100
AcDbEntity
  8
ALL_FEATURES
100
AcDbLine
 62
7
  6
CONTINUOUS
 10
18.2334576412
 20
7.3662588189
 11
18.2236150464
 21
7.3712847865
  0
LINE
  5
4E1
100
AcDbEntity
  8
ALL_FEATURES
100
AcDbLine
 62
7
  6
CONTINUOUS
 10
18.2777489798
 20
7.479343088
 11
18.2875914619
 21
7.4743171211
  0
LINE
  5
4E2
100
AcDbEntity
  8
ALL_FEATURES
100
AcDbLine
 62
7
  6
CONTINUOUS
 10
17.714264709
 20
7.4592392204
 11
17.7068828193
 21
7.4642651873
  0
LINE
  5
4E3
100
AcDbEntity
  8
ALL_FEATURES
100
AcDbLine
 62
7
  6
CONTINUOUS
 10
18.2359182336
 20
7.3813367211
 11
18.2285363438
 21
7.3863626898
  0
LINE
  5
4E4
100
AcDbEntity
  8
ALL_FEATURES
100
AcDbLine
 62
7
  6
CONTINUOUS
 10
18.2752882748
 20
7.4642651873
 11
18.2826701645
 21
7.4592392204
  0
LINE
  5
4E5
100
AcDbEntity
  8
ALL_FEATURES
100
AcDbLine
 62
7
  6
CONTINUOUS
 10
17.940642643
 20
7.479343088
 11
17.9504851815
 21
7.4718041377
  0
LINE
  5
4E6
100
AcDbEntity
  8
ALL_FEATURES
100
AcDbLine
 62
7
  6
CONTINUOUS
 10
17.5494024855
 20
7.3813367211
 11
17.5420205958
 21
7.3888756732
  0
LINE
  5
4E7
100
AcDbEntity
  8
ALL_FEATURES
100
AcDbLine
 62
7
  6
CONTINUOUS
 10
17.4878867469
 20
7.4743171211
 11
17.4977292572
 21
7.4642651873
  0
LINE
  5
4E8
100
AcDbEntity
  8
ALL_FEATURES
100
AcDbLine
 62
7
  6
CONTINUOUS
 10
17.534638706
 20
7.4341093789
 11
17.5444812445
 21
7.4240574451
  0
LINE
  5
4E9
100
AcDbEntity
  8
ALL_FEATURES
100
AcDbLine
 62
7
  6
CONTINUOUS
 10
17.6527489422
 20
7.3712847865
 11
17.6429064038
 21
7.3813367211
  0
LINE
  5
4EA
100
AcDbEntity
  8
ALL_FEATURES
100
AcDbLine
 62
7
  6
CONTINUOUS
 10
17.6109182524
 20
7.4140055113
 11
17.6010757139
 21
7.4240574451
  0
LINE
  5
4EB
100
AcDbEntity
  8
ALL_FEATURES
100
AcDbLine
 62
7
  6
CONTINUOUS
 10
17.5863119344
 20
7.4642651873
 11
17.5912331754
 21
7.4592392204
  0
LINE
  5
4EC
100
AcDbEntity
  8
ALL_FEATURES
100
AcDbLine
 62
7
  6
CONTINUOUS
 10
17.7191859501
 20
7.4743171211
 11
17.7290284886
 21
7.4642651873
  0
LINE
  5
4ED
100
AcDbEntity
  8
ALL_FEATURES
100
AcDbLine
 62
7
  6
CONTINUOUS
 10
17.9431032917
 20
7.4617522039
 11
17.9381819943
 21
7.4667781708
  0
LINE
  5
4EE
100
AcDbEntity
  8
ALL_FEATURES
100
AcDbLine
 62
7
  6
CONTINUOUS
 10
17.605996955
 20
7.4617522039
 11
17.5986150652
 21
7.4718041377
  0
LINE
  5
4EF
100
AcDbEntity
  8
ALL_FEATURES
100
AcDbLine
 62
7
  6
CONTINUOUS
 10
17.4829654777
 20
7.4592392204
 11
17.4878867469
 21
7.451700263
  0
LINE
  5
4F0
100
AcDbEntity
  8
ALL_FEATURES
100
AcDbLine
 62
7
  6
CONTINUOUS
 10
17.5961544728
 20
7.4089795444
 11
17.6010757139
 21
7.4014405905
  0
LINE
  5
4F1
100
AcDbEntity
  8
ALL_FEATURES
100
AcDbLine
 62
7
  6
CONTINUOUS
 10
17.6527489422
 20
7.3939016401
 11
17.6576701833
 21
7.3863626898
  0
LINE
  5
4F2
100
AcDbEntity
  8
ALL_FEATURES
100
AcDbLine
 62
7
  6
CONTINUOUS
 10
17.3107213926
 20
7.4818560715
 11
17.3722371312
 21
7.3813367211
  0
LINE
  5
4F3
100
AcDbEntity
  8
ALL_FEATURES
100
AcDbLine
 62
7
  6
CONTINUOUS
 10
17.3648552415
 20
7.3637458352
 11
17.3033395028
 21
7.4667781708
  0
LINE
  5
4F4
100
AcDbEntity
  8
ALL_FEATURES
100
AcDbLine
 62
7
  6
CONTINUOUS
 10
17.5272568163
 20
7.3863626898
 11
17.534638706
 21
7.3737977699
  0
LINE
  5
4F5
100
AcDbEntity
  8
ALL_FEATURES
100
AcDbLine
 62
7
  6
CONTINUOUS
 10
15.1189787932
 20
11.5484266861
 11
15.1162704586
 21
11.5539586013
  0
LINE
  5
4F6
100
AcDbEntity
  8
ALL_FEATURES
100
AcDbLine
 62
7
  6
CONTINUOUS
 10
15.1650204625
 20
11.5940649853
 11
15.1677287932
 21
11.5885330711
  0
LINE
  5
4F7
100
AcDbEntity
  8
ALL_FEATURES
100
AcDbLine
 62
7
  6
CONTINUOUS
 10
15.2313746317
 20
11.5387458352
 11
15.2191871317
 21
11.570554346
  0
LINE
  5
4F8
100
AcDbEntity
  8
ALL_FEATURES
100
AcDbLine
 62
7
  6
CONTINUOUS
 10
15.3559579702
 20
11.5387458352
 11
15.3437704702
 21
11.570554346
  0
LINE
  5
4F9
100
AcDbEntity
  8
ALL_FEATURES
100
AcDbLine
 62
7
  6
CONTINUOUS
 10
15.3356454702
 20
11.5677883888
 11
15.3464787932
 21
11.5387458352
  0
LINE
  5
4FA
100
AcDbEntity
  8
ALL_FEATURES
100
AcDbLine
 62
7
  6
CONTINUOUS
 10
15.3992912932
 20
11.6037458352
 11
15.4209579702
 21
11.5387458352
  0
LINE
  5
4FB
100
AcDbEntity
  8
ALL_FEATURES
100
AcDbLine
 62
7
  6
CONTINUOUS
 10
15.3464787932
 20
11.5885330711
 11
15.3451246162
 21
11.5926820068
  0
LINE
  5
4FC
100
AcDbEntity
  8
ALL_FEATURES
100
AcDbLine
 62
7
  6
CONTINUOUS
 10
15.3546037932
 20
11.5885330711
 11
15.3532496162
 21
11.5926820068
  0
LINE
  5
4FD
100
AcDbEntity
  8
ALL_FEATURES
100
AcDbLine
 62
7
  6
CONTINUOUS
 10
15.4128329702
 20
11.5387458352
 11
15.4074162932
 21
11.5553415799
  0
LINE
  5
4FE
100
AcDbEntity
  8
ALL_FEATURES
100
AcDbLine
 62
7
  6
CONTINUOUS
 10
15.3938746162
 20
11.598213921
 11
15.4060621162
 21
11.5608734941
  0
LINE
  5
4FF
100
AcDbEntity
  8
ALL_FEATURES
100
AcDbLine
 62
7
  6
CONTINUOUS
 10
16.5176766916
 20
11.9497046981
 11
16.5176766916
 21
12.0284281049
  0
LINE
  5
500
100
AcDbEntity
  8
ALL_FEATURES
100
AcDbLine
 62
7
  6
CONTINUOUS
 10
16.5301766916
 20
12.0497046981
 11
16.5301766916
 21
11.9497046981
  0
LINE
  5
501
100
AcDbEntity
  8
ALL_FEATURES
100
AcDbLine
 62
7
  6
CONTINUOUS
 10
16.5468433662
 20
11.9497046981
 11
16.5468433662
 21
12.0497046981
  0
LINE
  5
502
100
AcDbEntity
  8
ALL_FEATURES
100
AcDbLine
 62
7
  6
CONTINUOUS
 10
16.5593433662
 20
12.0390664015
 11
16.5593433662
 21
12.0071515058
  0
LINE
  5
503
100
AcDbEntity
  8
ALL_FEATURES
100
AcDbLine
 62
7
  6
CONTINUOUS
 10
16.5593433662
 20
11.9943855498
 11
16.5593433662
 21
11.9497046981
  0
LINE
  5
504
100
AcDbEntity
  8
ALL_FEATURES
100
AcDbLine
 62
7
  6
CONTINUOUS
 10
16.6114266916
 20
12.0199174617
 11
16.6114266916
 21
12.0263004456
  0
LINE
  5
505
100
AcDbEntity
  8
ALL_FEATURES
100
AcDbLine
 62
7
  6
CONTINUOUS
 10
16.6239266916
 20
12.0263004456
 11
16.6239266916
 21
12.0177898024
  0
LINE
  5
506
100
AcDbEntity
  8
ALL_FEATURES
100
AcDbLine
 62
7
  6
CONTINUOUS
 10
16.6405933662
 20
11.9497046981
 11
16.6405933662
 21
12.0497046981
  0
LINE
  5
507
100
AcDbEntity
  8
ALL_FEATURES
100
AcDbLine
 62
7
  6
CONTINUOUS
 10
16.6530933424
 20
12.0497046981
 11
16.6530933424
 21
11.9624706556
  0
LINE
  5
508
100
AcDbEntity
  8
ALL_FEATURES
100
AcDbLine
 62
7
  6
CONTINUOUS
 10
16.7155933424
 20
11.9624706556
 11
16.7155933424
 21
11.9497046981
  0
LINE
  5
509
100
AcDbEntity
  8
ALL_FEATURES
100
AcDbLine
 62
7
  6
CONTINUOUS
 10
16.8322600408
 20
12.0390664015
 11
16.8322600408
 21
12.0497046981
  0
LINE
  5
50A
100
AcDbEntity
  8
ALL_FEATURES
100
AcDbLine
 62
7
  6
CONTINUOUS
 10
16.8655933424
 20
11.9497046981
 11
16.8655933424
 21
12.0390664015
  0
LINE
  5
50B
100
AcDbEntity
  8
ALL_FEATURES
100
AcDbLine
 62
7
  6
CONTINUOUS
 10
16.8780933424
 20
12.0390664015
 11
16.8780933424
 21
11.9497046981
  0
LINE
  5
50C
100
AcDbEntity
  8
ALL_FEATURES
100
AcDbLine
 62
7
  6
CONTINUOUS
 10
16.9114266916
 20
12.0497046981
 11
16.9114266916
 21
12.0390664015
  0
LINE
  5
50D
100
AcDbEntity
  8
ALL_FEATURES
100
AcDbLine
 62
7
  6
CONTINUOUS
 10
16.9280933424
 20
11.9497046981
 11
16.9280933424
 21
12.0497046981
  0
LINE
  5
50E
100
AcDbEntity
  8
ALL_FEATURES
100
AcDbLine
 62
7
  6
CONTINUOUS
 10
17.4051766916
 20
11.9837472503
 11
17.4030933901
 21
11.975236613
  0
LINE
  5
50F
100
AcDbEntity
  8
ALL_FEATURES
100
AcDbLine
 62
7
  6
CONTINUOUS
 10
17.4426766916
 20
12.0348110829
 11
17.4405933901
 21
12.0263004456
  0
LINE
  5
510
100
AcDbEntity
  8
ALL_FEATURES
100
AcDbLine
 62
7
  6
CONTINUOUS
 10
17.4530933901
 20
12.0241727803
 11
17.4551766916
 21
12.0305557643
  0
LINE
  5
511
100
AcDbEntity
  8
ALL_FEATURES
100
AcDbLine
 62
7
  6
CONTINUOUS
 10
17.4286265003
 20
11.8082111471
 11
17.4470812232
 21
11.8647532835
  0
LINE
  5
512
100
AcDbEntity
  8
ALL_FEATURES
100
AcDbLine
 62
7
  6
CONTINUOUS
 10
17.4265759744
 20
11.7998345356
 11
17.4183738751
 21
11.7747046981
  0
LINE
  5
513
100
AcDbEntity
  8
ALL_FEATURES
100
AcDbLine
 62
7
  6
CONTINUOUS
 10
17.4060707255
 20
11.7747046981
 11
17.4388791254
 21
11.873129895
  0
LINE
  5
514
100
AcDbEntity
  8
ALL_FEATURES
100
AcDbLine
 62
7
  6
CONTINUOUS
 10
17.5537085208
 20
11.785175464
 11
17.5844663948
 21
11.873129895
  0
LINE
  5
515
100
AcDbEntity
  8
ALL_FEATURES
100
AcDbLine
 62
7
  6
CONTINUOUS
 10
17.5906179696
 20
11.8521883662
 11
17.5619106244
 21
11.7747046981
  0
LINE
  5
516
100
AcDbEntity
  8
ALL_FEATURES
100
AcDbLine
 62
7
  6
CONTINUOUS
 10
15.1677288528
 20
7.2539586013
 11
15.1650205221
 21
7.2484266861
  0
LINE
  5
517
100
AcDbEntity
  8
ALL_FEATURES
100
AcDbLine
 62
7
  6
CONTINUOUS
 10
17.5072599932
 20
11.9645983149
 11
17.5114266916
 21
11.9731089536
  0
LINE
  5
518
100
AcDbEntity
  8
ALL_FEATURES
100
AcDbLine
 62
7
  6
CONTINUOUS
 10
17.8468432947
 20
12.0263004456
 11
17.8510100885
 21
12.0348110829
  0
LINE
  5
519
100
AcDbEntity
  8
ALL_FEATURES
100
AcDbLine
 62
7
  6
CONTINUOUS
 10
17.8593432947
 20
12.0241727803
 11
17.8635100885
 21
12.0305557643
  0
LINE
  5
51A
100
AcDbEntity
  8
ALL_FEATURES
100
AcDbLine
 62
7
  6
CONTINUOUS
 10
17.9135100885
 20
11.975236613
 11
17.9093432947
 21
11.968853635
  0
LINE
  5
51B
100
AcDbEntity
  8
ALL_FEATURES
100
AcDbLine
 62
7
  6
CONTINUOUS
 10
18.0051766916
 20
11.975236613
 11
18.0010100885
 21
11.968853635
  0
LINE
  5
51C
100
AcDbEntity
  8
ALL_FEATURES
100
AcDbLine
 62
7
  6
CONTINUOUS
 10
15.1243955221
 20
7.2871500887
 11
15.1271038528
 21
7.2912990282
  0
LINE
  5
51D
100
AcDbEntity
  8
ALL_FEATURES
100
AcDbLine
 62
7
  6
CONTINUOUS
 10
17.6193253265
 20
11.7747046981
 11
17.6541842348
 21
11.824964373
  0
LINE
  5
51E
100
AcDbEntity
  8
ALL_FEATURES
100
AcDbLine
 62
7
  6
CONTINUOUS
 10
17.6603358096
 20
11.8144936086
 11
17.6316284761
 21
11.7747046981
  0
LINE
  5
51F
100
AcDbEntity
  8
ALL_FEATURES
100
AcDbLine
 62
7
  6
CONTINUOUS
 10
17.7013463161
 20
11.873129895
 11
17.6664873844
 21
11.824964373
  0
LINE
  5
520
100
AcDbEntity
  8
ALL_FEATURES
100
AcDbLine
 62
7
  6
CONTINUOUS
 10
17.8899945944
 20
11.8354351374
 11
17.8838430196
 21
11.8270585259
  0
LINE
  5
521
100
AcDbEntity
  8
ALL_FEATURES
100
AcDbLine
 62
7
  6
CONTINUOUS
 10
18.1668154605
 20
11.8647532835
 11
18.1606638857
 21
11.856376672
  0
LINE
  5
522
100
AcDbEntity
  8
ALL_FEATURES
100
AcDbLine
 62
7
  6
CONTINUOUS
 10
18.4072600885
 20
12.0497046981
 11
18.3697600885
 21
12.0092791651
  0
LINE
  5
523
100
AcDbEntity
  8
ALL_FEATURES
100
AcDbLine
 62
7
  6
CONTINUOUS
 10
18.3447600885
 20
12.0007685278
 11
18.3905932947
 21
12.0497046981
  0
LINE
  5
524
100
AcDbEntity
  8
ALL_FEATURES
100
AcDbLine
 62
7
  6
CONTINUOUS
 10
18.1729670353
 20
11.8207760673
 11
18.1688660011
 21
11.8165877615
  0
LINE
  5
525
100
AcDbEntity
  8
ALL_FEATURES
100
AcDbLine
 62
7
  6
CONTINUOUS
 10
18.3593432947
 20
11.9986408685
 11
18.3447600885
 21
11.9837472503
  0
LINE
  5
526
100
AcDbEntity
  8
ALL_FEATURES
100
AcDbLine
 62
7
  6
CONTINUOUS
 10
18.257038542
 20
11.8647532835
 11
18.2508869672
 21
11.8584708249
  0
LINE
  5
527
100
AcDbEntity
  8
ALL_FEATURES
100
AcDbLine
 62
7
  6
CONTINUOUS
 10
18.3062511404
 20
11.8270585259
 11
18.3124027152
 21
11.8333409845
  0
LINE
  5
528
100
AcDbEntity
  8
ALL_FEATURES
100
AcDbLine
 62
7
  6
CONTINUOUS
 10
18.3083017279
 20
11.7830813104
 11
18.3144533027
 21
11.7893637697
  0
LINE
  5
529
100
AcDbEntity
  8
ALL_FEATURES
100
AcDbLine
 62
7
  6
CONTINUOUS
 10
18.2693416916
 20
11.8605649777
 11
18.2611396232
 21
11.8542825191
  0
LINE
  5
52A
100
AcDbEntity
  8
ALL_FEATURES
100
AcDbLine
 62
7
  6
CONTINUOUS
 10
18.257038542
 20
11.8228702201
 11
18.2488364736
 21
11.8165877615
  0
LINE
  5
52B
100
AcDbEntity
  8
ALL_FEATURES
100
AcDbLine
 62
7
  6
CONTINUOUS
 10
18.2939479908
 20
11.8312468316
 11
18.3021501531
 21
11.8375292902
  0
LINE
  5
52C
100
AcDbEntity
  8
ALL_FEATURES
100
AcDbLine
 62
7
  6
CONTINUOUS
 10
18.3944237752
 20
11.8186819144
 11
18.4026258436
 21
11.824964373
  0
LINE
  5
52D
100
AcDbEntity
  8
ALL_FEATURES
100
AcDbLine
 62
7
  6
CONTINUOUS
 10
18.6753456286
 20
11.8605649777
 11
18.6671435602
 21
11.8542825191
  0
LINE
  5
52E
100
AcDbEntity
  8
ALL_FEATURES
100
AcDbLine
 62
7
  6
CONTINUOUS
 10
18.8822600885
 20
12.0071515058
 11
18.8739266916
 21
12.0007685278
  0
LINE
  5
52F
100
AcDbEntity
  8
ALL_FEATURES
100
AcDbLine
 62
7
  6
CONTINUOUS
 10
18.663042479
 20
11.8228702201
 11
18.6548404106
 21
11.8165877615
  0
LINE
  5
530
100
AcDbEntity
  8
ALL_FEATURES
100
AcDbLine
 62
7
  6
CONTINUOUS
 10
18.6999519278
 20
11.8312468316
 11
18.7081540901
 21
11.8375292902
  0
LINE
  5
531
100
AcDbEntity
  8
ALL_FEATURES
100
AcDbLine
 62
7
  6
CONTINUOUS
 10
18.9009034027
 20
11.8605649777
 11
18.8927013342
 21
11.8542825191
  0
LINE
  5
532
100
AcDbEntity
  8
ALL_FEATURES
100
AcDbLine
 62
7
  6
CONTINUOUS
 10
18.8886002531
 20
11.8228702201
 11
18.8803981846
 21
11.8165877615
  0
LINE
  5
533
100
AcDbEntity
  8
ALL_FEATURES
100
AcDbLine
 62
7
  6
CONTINUOUS
 10
18.9255097019
 20
11.8312468316
 11
18.9337117703
 21
11.8375292902
  0
LINE
  5
534
100
AcDbEntity
  8
ALL_FEATURES
100
AcDbLine
 62
7
  6
CONTINUOUS
 10
18.492848972
 20
11.8605649777
 11
18.4866973972
 21
11.856376672
  0
LINE
  5
535
100
AcDbEntity
  8
ALL_FEATURES
100
AcDbLine
 62
7
  6
CONTINUOUS
 10
18.4374847988
 20
11.7914579226
 11
18.431333224
 21
11.7872696169
  0
LINE
  5
536
100
AcDbEntity
  8
ALL_FEATURES
100
AcDbLine
 62
7
  6
CONTINUOUS
 10
18.5195057649
 20
11.8228702201
 11
18.5256573397
 21
11.8270585259
  0
LINE
  5
537
100
AcDbEntity
  8
ALL_FEATURES
100
AcDbLine
 62
7
  6
CONTINUOUS
 10
18.8385100885
 20
12.0369387422
 11
18.8322600885
 21
12.0326834236
  0
LINE
  5
538
100
AcDbEntity
  8
ALL_FEATURES
100
AcDbLine
 62
7
  6
CONTINUOUS
 10
18.5789710193
 20
11.856376672
 11
18.5851225941
 21
11.8605649777
  0
LINE
  5
539
100
AcDbEntity
  8
ALL_FEATURES
100
AcDbLine
 62
7
  6
CONTINUOUS
 10
18.5215562585
 20
11.8123994558
 11
18.5338594081
 21
11.8207760673
  0
LINE
  5
53A
100
AcDbEntity
  8
ALL_FEATURES
100
AcDbLine
 62
7
  6
CONTINUOUS
 10
18.5830720066
 20
11.8354351374
 11
18.570768857
 21
11.8270585259
  0
LINE
  5
53B
100
AcDbEntity
  8
ALL_FEATURES
100
AcDbLine
 62
7
  6
CONTINUOUS
 10
18.5256573397
 20
11.7914579226
 11
18.5195057649
 21
11.7872696169
  0
LINE
  5
53C
100
AcDbEntity
  8
ALL_FEATURES
100
AcDbLine
 62
7
  6
CONTINUOUS
 10
18.5851225941
 20
11.824964373
 11
18.5789710193
 21
11.8207760673
  0
LINE
  5
53D
100
AcDbEntity
  8
ALL_FEATURES
100
AcDbLine
 62
7
  6
CONTINUOUS
 10
18.6117793869
 20
11.7872696169
 11
18.6179309617
 21
11.7914579226
  0
LINE
  5
53E
100
AcDbEntity
  8
ALL_FEATURES
100
AcDbLine
 62
7
  6
CONTINUOUS
 10
18.8843432947
 20
11.9603429962
 11
18.8780932947
 21
11.9560876768
  0
LINE
  5
53F
100
AcDbEntity
  8
ALL_FEATURES
100
AcDbLine
 62
7
  6
CONTINUOUS
 10
18.8127308618
 20
11.8605649777
 11
18.806579287
 21
11.856376672
  0
LINE
  5
540
100
AcDbEntity
  8
ALL_FEATURES
100
AcDbLine
 62
7
  6
CONTINUOUS
 10
19.1822600885
 20
12.0305557643
 11
19.1885100885
 21
12.0348110829
  0
LINE
  5
541
100
AcDbEntity
  8
ALL_FEATURES
100
AcDbLine
 62
7
  6
CONTINUOUS
 10
18.8332360799
 20
11.7872696169
 11
18.8393876547
 21
11.7914579226
  0
LINE
  5
542
100
AcDbEntity
  8
ALL_FEATURES
100
AcDbLine
 62
7
  6
CONTINUOUS
 10
19.2280932947
 20
11.968853635
 11
19.2218432947
 21
11.9645983149
  0
LINE
  5
543
100
AcDbEntity
  8
ALL_FEATURES
100
AcDbLine
 62
7
  6
CONTINUOUS
 10
19.3801766916
 20
12.0348110829
 11
19.3739266916
 21
12.0305557643
  0
LINE
  5
544
100
AcDbEntity
  8
ALL_FEATURES
100
AcDbLine
 62
7
  6
CONTINUOUS
 10
19.3197600885
 20
11.968853635
 11
19.3135100885
 21
11.9645983149
  0
LINE
  5
545
100
AcDbEntity
  8
ALL_FEATURES
100
AcDbLine
 62
7
  6
CONTINUOUS
 10
18.5830720066
 20
11.8710357421
 11
18.5728194445
 21
11.8647532835
  0
LINE
  5
546
100
AcDbEntity
  8
ALL_FEATURES
100
AcDbLine
 62
7
  6
CONTINUOUS
 10
18.4333837176
 20
11.7767988512
 11
18.4436363736
 21
11.7830813104
  0
LINE
  5
547
100
AcDbEntity
  8
ALL_FEATURES
100
AcDbLine
 62
7
  6
CONTINUOUS
 10
18.673295135
 20
11.8710357421
 11
18.663042479
 21
11.8647532835
  0
LINE
  5
548
100
AcDbEntity
  8
ALL_FEATURES
100
AcDbLine
 62
7
  6
CONTINUOUS
 10
18.5215562585
 20
11.7767988512
 11
18.5318089145
 21
11.7830813104
  0
LINE
  5
549
100
AcDbEntity
  8
ALL_FEATURES
100
AcDbLine
 62
7
  6
CONTINUOUS
 10
18.6138298806
 20
11.7767988512
 11
18.6240825365
 21
11.7830813104
  0
LINE
  5
54A
100
AcDbEntity
  8
ALL_FEATURES
100
AcDbLine
 62
7
  6
CONTINUOUS
 10
18.8106802743
 20
11.8710357421
 11
18.8004277122
 21
11.8647532835
  0
LINE
  5
54B
100
AcDbEntity
  8
ALL_FEATURES
100
AcDbLine
 62
7
  6
CONTINUOUS
 10
18.704053009
 20
11.7767988512
 11
18.7143056649
 21
11.7830813104
  0
LINE
  5
54C
100
AcDbEntity
  8
ALL_FEATURES
100
AcDbLine
 62
7
  6
CONTINUOUS
 10
18.898852909
 20
11.8710357421
 11
18.8886002531
 21
11.8647532835
  0
LINE
  5
54D
100
AcDbEntity
  8
ALL_FEATURES
100
AcDbLine
 62
7
  6
CONTINUOUS
 10
18.8352865735
 20
11.7767988512
 11
18.8455392295
 21
11.7830813104
  0
LINE
  5
54E
100
AcDbEntity
  8
ALL_FEATURES
100
AcDbLine
 62
7
  6
CONTINUOUS
 10
18.9296107831
 20
11.7767988512
 11
18.9398633452
 21
11.7830813104
  0
LINE
  5
54F
100
AcDbEntity
  8
ALL_FEATURES
100
AcDbLine
 62
7
  6
CONTINUOUS
 10
18.6753456286
 20
11.8186819144
 11
18.6671435602
 21
11.8144936086
  0
LINE
  5
550
100
AcDbEntity
  8
ALL_FEATURES
100
AcDbLine
 62
7
  6
CONTINUOUS
 10
18.7081540901
 20
11.824964373
 11
18.7122550774
 21
11.8270585259
  0
LINE
  5
551
100
AcDbEntity
  8
ALL_FEATURES
100
AcDbLine
 62
7
  6
CONTINUOUS
 10
19.1780932947
 20
12.0433217202
 11
19.1864266916
 21
12.0475770388
  0
LINE
  5
552
100
AcDbEntity
  8
ALL_FEATURES
100
AcDbLine
 62
7
  6
CONTINUOUS
 10
18.6999519278
 20
11.7872696169
 11
18.7081540901
 21
11.7914579226
  0
LINE
  5
553
100
AcDbEntity
  8
ALL_FEATURES
100
AcDbLine
 62
7
  6
CONTINUOUS
 10
18.8927013342
 20
11.824964373
 11
18.8886002531
 21
11.8228702201
  0
LINE
  5
554
100
AcDbEntity
  8
ALL_FEATURES
100
AcDbLine
 62
7
  6
CONTINUOUS
 10
18.9009034027
 20
11.8186819144
 11
18.8927013342
 21
11.8144936086
  0
LINE
  5
555
100
AcDbEntity
  8
ALL_FEATURES
100
AcDbLine
 62
7
  6
CONTINUOUS
 10
18.9337117703
 20
11.824964373
 11
18.9378128515
 21
11.8270585259
  0
LINE
  5
556
100
AcDbEntity
  8
ALL_FEATURES
100
AcDbLine
 62
7
  6
CONTINUOUS
 10
19.3697600885
 20
12.0433217202
 11
19.3780932947
 21
12.0475770388
  0
LINE
  5
557
100
AcDbEntity
  8
ALL_FEATURES
100
AcDbLine
 62
7
  6
CONTINUOUS
 10
19.2322600885
 20
11.9560876768
 11
19.2239266916
 21
11.9518323576
  0
LINE
  5
558
100
AcDbEntity
  8
ALL_FEATURES
100
AcDbLine
 62
7
  6
CONTINUOUS
 10
18.9255097019
 20
11.7872696169
 11
18.9337117703
 21
11.7914579226
  0
LINE
  5
559
100
AcDbEntity
  8
ALL_FEATURES
100
AcDbLine
 62
7
  6
CONTINUOUS
 10
19.3155932947
 20
11.9518323576
 11
19.3239266916
 21
11.9560876768
  0
LINE
  5
55A
100
AcDbEntity
  8
ALL_FEATURES
100
AcDbLine
 62
7
  6
CONTINUOUS
 10
19.4260100885
 20
11.9560876768
 11
19.4176766916
 21
11.9518323576
  0
LINE
  5
55B
100
AcDbEntity
  8
ALL_FEATURES
100
AcDbLine
 62
7
  6
CONTINUOUS
 10
15.1528330221
 20
7.2484266861
 11
15.1474163528
 21
7.2470437075
  0
LINE
  5
55C
100
AcDbEntity
  8
ALL_FEATURES
100
AcDbLine
 62
7
  6
CONTINUOUS
 10
15.1311663528
 20
7.2940649853
 11
15.1365830221
 21
7.2954479639
  0
LINE
  5
55D
100
AcDbEntity
  8
ALL_FEATURES
100
AcDbLine
 62
7
  6
CONTINUOUS
 10
19.1045205207
 20
7.3662588189
 11
19.0946781512
 21
7.3712847865
  0
LINE
  5
55E
100
AcDbEntity
  8
ALL_FEATURES
100
AcDbLine
 62
7
  6
CONTINUOUS
 10
19.1488118593
 20
7.479343088
 11
19.1586544541
 21
7.4743171211
  0
LINE
  5
55F
100
AcDbEntity
  8
ALL_FEATURES
100
AcDbLine
 62
7
  6
CONTINUOUS
 10
19.1069812257
 20
7.3813367211
 11
19.0995993359
 21
7.3863626898
  0
LINE
  5
560
100
AcDbEntity
  8
ALL_FEATURES
100
AcDbLine
 62
7
  6
CONTINUOUS
 10
19.1463513795
 20
7.4642651873
 11
19.1537332693
 21
7.4592392204
  0
LINE
  5
561
100
AcDbEntity
  8
ALL_FEATURES
100
AcDbLine
 62
7
  6
CONTINUOUS
 10
18.4057016981
 20
7.4718041377
 11
18.395859216
 21
7.479343088
  0
LINE
  5
562
100
AcDbEntity
  8
ALL_FEATURES
100
AcDbLine
 62
7
  6
CONTINUOUS
 10
18.2236150464
 20
7.3712847865
 11
18.2137725643
 21
7.3813367211
  0
LINE
  5
563
100
AcDbEntity
  8
ALL_FEATURES
100
AcDbLine
 62
7
  6
CONTINUOUS
 10
18.2875914619
 20
7.4743171211
 11
18.2974339441
 21
7.4642651873
  0
LINE
  5
564
100
AcDbEntity
  8
ALL_FEATURES
100
AcDbLine
 62
7
  6
CONTINUOUS
 10
18.3983198084
 20
7.4617522039
 11
18.393398511
 21
7.4667781708
  0
LINE
  5
565
100
AcDbEntity
  8
ALL_FEATURES
100
AcDbLine
 62
7
  6
CONTINUOUS
 10
17.9504851815
 20
7.4718041377
 11
17.9578670713
 21
7.4617522039
  0
LINE
  5
566
100
AcDbEntity
  8
ALL_FEATURES
100
AcDbLine
 62
7
  6
CONTINUOUS
 10
15.0986662932
 20
11.598213921
 11
15.1027287932
 21
11.5926820068
  0
LINE
  5
567
100
AcDbEntity
  8
ALL_FEATURES
100
AcDbLine
 62
7
  6
CONTINUOUS
 10
15.2286662932
 20
11.5926820068
 11
15.2246037932
 21
11.598213921
  0
LINE
  5
568
100
AcDbEntity
  8
ALL_FEATURES
100
AcDbLine
 62
7
  6
CONTINUOUS
 10
15.1271037932
 20
11.5511926442
 11
15.1243954625
 21
11.5553415799
  0
LINE
  5
569
100
AcDbEntity
  8
ALL_FEATURES
100
AcDbLine
 62
7
  6
CONTINUOUS
 10
15.1568954625
 20
11.5912990282
 11
15.1596037932
 21
11.5871500887
  0
LINE
  5
56A
100
AcDbEntity
  8
ALL_FEATURES
100
AcDbLine
 62
7
  6
CONTINUOUS
 10
17.4977292572
 20
7.4642651873
 11
17.5026505264
 21
7.4542132535
  0
LINE
  5
56B
100
AcDbEntity
  8
ALL_FEATURES
100
AcDbLine
 62
7
  6
CONTINUOUS
 10
17.6158394934
 20
7.4039535739
 11
17.6109182524
 21
7.4140055113
  0
LINE
  5
56C
100
AcDbEntity
  8
ALL_FEATURES
100
AcDbLine
 62
7
  6
CONTINUOUS
 10
17.5912331754
 20
7.4592392204
 11
17.5936938241
 21
7.4542132535
  0
LINE
  5
56D
100
AcDbEntity
  8
ALL_FEATURES
100
AcDbLine
 62
7
  6
CONTINUOUS
 10
17.6429064038
 20
7.3813367211
 11
17.6379851627
 21
7.3913886567
  0
LINE
  5
56E
100
AcDbEntity
  8
ALL_FEATURES
100
AcDbLine
 62
7
  6
CONTINUOUS
 10
17.2295205911
 20
7.4818560715
 11
17.2688906745
 21
7.3637458352
  0
LINE
  5
56F
100
AcDbEntity
  8
ALL_FEATURES
100
AcDbLine
 62
7
  6
CONTINUOUS
 10
17.254126895
 20
7.3637458352
 11
17.2442843706
 21
7.3939016401
  0
LINE
  5
570
100
AcDbEntity
  8
ALL_FEATURES
100
AcDbLine
 62
7
  6
CONTINUOUS
 10
17.2196780808
 20
7.4718041377
 11
17.2418237501
 21
7.4039535739
  0
LINE
  5
571
100
AcDbEntity
  8
ALL_FEATURES
100
AcDbLine
 62
7
  6
CONTINUOUS
 10
17.5420205958
 20
7.3888756732
 11
17.5395599471
 21
7.3964146236
  0
LINE
  5
572
100
AcDbEntity
  8
ALL_FEATURES
100
AcDbLine
 62
7
  6
CONTINUOUS
 10
17.5494024855
 20
7.4391353458
 11
17.5469418369
 21
7.4466742961
  0
LINE
  5
573
100
AcDbEntity
  8
ALL_FEATURES
100
AcDbLine
 62
7
  6
CONTINUOUS
 10
16.9405933424
 20
12.0369387422
 11
16.9405933424
 21
12.0092791651
  0
LINE
  5
574
100
AcDbEntity
  8
ALL_FEATURES
100
AcDbLine
 62
7
  6
CONTINUOUS
 10
16.9405933424
 20
11.9965132092
 11
16.9405933424
 21
11.9624706556
  0
LINE
  5
575
100
AcDbEntity
  8
ALL_FEATURES
100
AcDbLine
 62
7
  6
CONTINUOUS
 10
16.9947600408
 20
12.0092791651
 11
16.9947600408
 21
11.9965132092
  0
LINE
  5
576
100
AcDbEntity
  8
ALL_FEATURES
100
AcDbLine
 62
7
  6
CONTINUOUS
 10
17.0030933424
 20
12.0497046981
 11
17.0030933424
 21
12.0369387422
  0
LINE
  5
577
100
AcDbEntity
  8
ALL_FEATURES
100
AcDbLine
 62
7
  6
CONTINUOUS
 10
17.0030933424
 20
11.9624706556
 11
17.0030933424
 21
11.9497046981
  0
LINE
  5
578
100
AcDbEntity
  8
ALL_FEATURES
100
AcDbLine
 62
7
  6
CONTINUOUS
 10
17.0621977611
 20
7.3637458352
 11
17.0621977611
 21
7.4818560715
  0
LINE
  5
579
100
AcDbEntity
  8
ALL_FEATURES
100
AcDbLine
 62
7
  6
CONTINUOUS
 10
17.0769615407
 20
7.4818560715
 11
17.0769615407
 21
7.3788237377
  0
LINE
  5
57A
100
AcDbEntity
  8
ALL_FEATURES
100
AcDbLine
 62
7
  6
CONTINUOUS
 10
17.1507804383
 20
7.3788237377
 11
17.1507804383
 21
7.3637458352
  0
LINE
  5
57B
100
AcDbEntity
  8
ALL_FEATURES
100
AcDbLine
 62
7
  6
CONTINUOUS
 10
17.1593433901
 20
11.9497046981
 11
17.1593433901
 21
12.0497046981
  0
LINE
  5
57C
100
AcDbEntity
  8
ALL_FEATURES
100
AcDbLine
 62
7
  6
CONTINUOUS
 10
17.1718433901
 20
12.0369387422
 11
17.1718433901
 21
12.0092791651
  0
LINE
  5
57D
100
AcDbEntity
  8
ALL_FEATURES
100
AcDbLine
 62
7
  6
CONTINUOUS
 10
17.1718433901
 20
11.9965132092
 11
17.1718433901
 21
11.9497046981
  0
LINE
  5
57E
100
AcDbEntity
  8
ALL_FEATURES
100
AcDbLine
 62
7
  6
CONTINUOUS
 10
17.2260099932
 20
12.0092791651
 11
17.2260099932
 21
11.9965132092
  0
LINE
  5
57F
100
AcDbEntity
  8
ALL_FEATURES
100
AcDbLine
 62
7
  6
CONTINUOUS
 10
17.2343433901
 20
12.0497046981
 11
17.2343433901
 21
12.0369387422
  0
LINE
  5
580
100
AcDbEntity
  8
ALL_FEATURES
100
AcDbLine
 62
7
  6
CONTINUOUS
 10
17.2510099932
 20
11.9497046981
 11
17.2510099932
 21
12.0497046981
  0
LINE
  5
581
100
AcDbEntity
  8
ALL_FEATURES
100
AcDbLine
 62
7
  6
CONTINUOUS
 10
17.2635099932
 20
12.0497046981
 11
17.2635099932
 21
11.9624706556
  0
LINE
  5
582
100
AcDbEntity
  8
ALL_FEATURES
100
AcDbLine
 62
7
  6
CONTINUOUS
 10
17.2885757092
 20
7.3637458352
 11
17.2885757092
 21
7.4818560715
  0
LINE
  5
583
100
AcDbEntity
  8
ALL_FEATURES
100
AcDbLine
 62
7
  6
CONTINUOUS
 10
17.2934188513
 20
7.6587955596
 11
17.2934188513
 21
7.9277869723
  0
LINE
  5
584
100
AcDbEntity
  8
ALL_FEATURES
100
AcDbLine
 62
7
  6
CONTINUOUS
 10
17.2934188513
 20
11.4497046981
 11
17.2934188513
 21
11.7186961108
  0
LINE
  5
585
100
AcDbEntity
  8
ALL_FEATURES
100
AcDbLine
 62
7
  6
CONTINUOUS
 10
17.3033395028
 20
7.4667781708
 11
17.3033395028
 21
7.3637458352
  0
LINE
  5
586
100
AcDbEntity
  8
ALL_FEATURES
100
AcDbLine
 62
7
  6
CONTINUOUS
 10
17.3260099932
 20
11.9624706556
 11
17.3260099932
 21
11.9497046981
  0
LINE
  5
587
100
AcDbEntity
  8
ALL_FEATURES
100
AcDbLine
 62
7
  6
CONTINUOUS
 10
17.3426766916
 20
12.0497046981
 11
17.3426766916
 21
11.9837472503
  0
LINE
  5
588
100
AcDbEntity
  8
ALL_FEATURES
100
AcDbLine
 62
7
  6
CONTINUOUS
 10
17.3551766916
 20
11.9837472503
 11
17.3551766916
 21
12.0497046981
  0
LINE
  5
589
100
AcDbEntity
  8
ALL_FEATURES
100
AcDbLine
 62
7
  6
CONTINUOUS
 10
17.4155933901
 20
11.9731089536
 11
17.4176766916
 21
11.9837472503
  0
LINE
  5
58A
100
AcDbEntity
  8
ALL_FEATURES
100
AcDbLine
 62
7
  6
CONTINUOUS
 10
17.8572600885
 20
12.015662143
 11
17.8593432947
 21
12.0241727803
  0
LINE
  5
58B
100
AcDbEntity
  8
ALL_FEATURES
100
AcDbLine
 62
7
  6
CONTINUOUS
 10
17.8776914448
 20
11.8375292902
 11
17.8797419854
 21
11.8438117489
  0
LINE
  5
58C
100
AcDbEntity
  8
ALL_FEATURES
100
AcDbLine
 62
7
  6
CONTINUOUS
 10
17.892045135
 20
11.841717596
 11
17.8899945944
 21
11.8354351374
  0
LINE
  5
58D
100
AcDbEntity
  8
ALL_FEATURES
100
AcDbLine
 62
7
  6
CONTINUOUS
 10
17.7780933901
 20
11.9603429962
 11
17.8093433901
 21
12.0497046981
  0
LINE
  5
58E
100
AcDbEntity
  8
ALL_FEATURES
100
AcDbLine
 62
7
  6
CONTINUOUS
 10
17.8155933901
 20
12.0284281049
 11
17.7864266916
 21
11.9497046981
  0
LINE
  5
58F
100
AcDbEntity
  8
ALL_FEATURES
100
AcDbLine
 62
7
  6
CONTINUOUS
 10
17.9260100885
 20
11.9731089536
 11
17.9218432947
 21
11.9645983149
  0
LINE
  5
590
100
AcDbEntity
  8
ALL_FEATURES
100
AcDbLine
 62
7
  6
CONTINUOUS
 10
18.0135100885
 20
11.9645983149
 11
18.0176766916
 21
11.9731089536
  0
LINE
  5
591
100
AcDbEntity
  8
ALL_FEATURES
100
AcDbLine
 62
7
  6
CONTINUOUS
 10
18.3124027152
 20
11.8333409845
 11
18.3165037964
 21
11.841717596
  0
LINE
  5
592
100
AcDbEntity
  8
ALL_FEATURES
100
AcDbLine
 62
7
  6
CONTINUOUS
 10
17.9084493188
 20
11.7998345356
 11
17.9351061586
 21
11.8521883662
  0
LINE
  5
593
100
AcDbEntity
  8
ALL_FEATURES
100
AcDbLine
 62
7
  6
CONTINUOUS
 10
17.9412577334
 20
11.8480000546
 11
17.9146008936
 21
11.7956462298
  0
LINE
  5
594
100
AcDbEntity
  8
ALL_FEATURES
100
AcDbLine
 62
7
  6
CONTINUOUS
 10
15.1596038528
 20
7.2553415799
 11
15.1568955221
 21
7.2511926442
  0
LINE
  5
595
100
AcDbEntity
  8
ALL_FEATURES
100
AcDbLine
 62
7
  6
CONTINUOUS
 10
18.1688660011
 20
11.8500942134
 11
18.1729670353
 21
11.856376672
  0
LINE
  5
596
100
AcDbEntity
  8
ALL_FEATURES
100
AcDbLine
 62
7
  6
CONTINUOUS
 10
18.2119270247
 20
11.7914579226
 11
18.2160281059
 21
11.7977403827
  0
LINE
  5
597
100
AcDbEntity
  8
ALL_FEATURES
100
AcDbLine
 62
7
  6
CONTINUOUS
 10
18.2611396232
 20
11.8542825191
 11
18.257038542
 21
11.8480000546
  0
LINE
  5
598
100
AcDbEntity
  8
ALL_FEATURES
100
AcDbLine
 62
7
  6
CONTINUOUS
 10
18.3021501531
 20
11.8375292902
 11
18.3062511404
 21
11.8438117489
  0
LINE
  5
599
100
AcDbEntity
  8
ALL_FEATURES
100
AcDbLine
 62
7
  6
CONTINUOUS
 10
18.4415857861
 20
11.7977403827
 11
18.4374847988
 21
11.7914579226
  0
LINE
  5
59A
100
AcDbEntity
  8
ALL_FEATURES
100
AcDbLine
 62
7
  6
CONTINUOUS
 10
18.4866973972
 20
11.856376672
 11
18.4825963161
 21
11.8500942134
  0
LINE
  5
59B
100
AcDbEntity
  8
ALL_FEATURES
100
AcDbLine
 62
7
  6
CONTINUOUS
 10
18.5256573397
 20
11.8270585259
 11
18.5297584209
 21
11.8333409845
  0
LINE
  5
59C
100
AcDbEntity
  8
ALL_FEATURES
100
AcDbLine
 62
7
  6
CONTINUOUS
 10
18.5297584209
 20
11.7977403827
 11
18.5256573397
 21
11.7914579226
  0
LINE
  5
59D
100
AcDbEntity
  8
ALL_FEATURES
100
AcDbLine
 62
7
  6
CONTINUOUS
 10
18.5748699381
 20
11.8500942134
 11
18.5789710193
 21
11.856376672
  0
LINE
  5
59E
100
AcDbEntity
  8
ALL_FEATURES
100
AcDbLine
 62
7
  6
CONTINUOUS
 10
18.2180785995
 20
11.7830813104
 11
18.2242301743
 21
11.7914579226
  0
LINE
  5
59F
100
AcDbEntity
  8
ALL_FEATURES
100
AcDbLine
 62
7
  6
CONTINUOUS
 10
18.2611396232
 20
11.8144936086
 11
18.2549880484
 21
11.8061169942
  0
LINE
  5
5A0
100
AcDbEntity
  8
ALL_FEATURES
100
AcDbLine
 62
7
  6
CONTINUOUS
 10
18.3021501531
 20
11.7914579226
 11
18.3083017279
 21
11.7998345356
  0
LINE
  5
5A1
100
AcDbEntity
  8
ALL_FEATURES
100
AcDbLine
 62
7
  6
CONTINUOUS
 10
15.1027288528
 20
7.2788522173
 11
15.0986663528
 21
7.2733203031
  0
LINE
  5
5A2
100
AcDbEntity
  8
ALL_FEATURES
100
AcDbLine
 62
7
  6
CONTINUOUS
 10
18.4805458224
 20
11.8647532835
 11
18.4743942476
 21
11.856376672
  0
LINE
  5
5A3
100
AcDbEntity
  8
ALL_FEATURES
100
AcDbLine
 62
7
  6
CONTINUOUS
 10
18.4436363736
 20
11.7830813104
 11
18.4497879484
 21
11.7914579226
  0
LINE
  5
5A4
100
AcDbEntity
  8
ALL_FEATURES
100
AcDbLine
 62
7
  6
CONTINUOUS
 10
18.5728194445
 20
11.8647532835
 11
18.5666678697
 21
11.856376672
  0
LINE
  5
5A5
100
AcDbEntity
  8
ALL_FEATURES
100
AcDbLine
 62
7
  6
CONTINUOUS
 10
18.5318089145
 20
11.7830813104
 11
18.5379604893
 21
11.7914579226
  0
LINE
  5
5A6
100
AcDbEntity
  8
ALL_FEATURES
100
AcDbLine
 62
7
  6
CONTINUOUS
 10
15.2246038528
 20
7.2733203031
 11
15.2286663528
 21
7.2788522173
  0
LINE
  5
5A7
100
AcDbEntity
  8
ALL_FEATURES
100
AcDbLine
 62
7
  6
CONTINUOUS
 10
18.6240825365
 20
11.7830813104
 11
18.6302341113
 21
11.7914579226
  0
LINE
  5
5A8
100
AcDbEntity
  8
ALL_FEATURES
100
AcDbLine
 62
7
  6
CONTINUOUS
 10
18.6671435602
 20
11.8144936086
 11
18.6609919854
 21
11.8061169942
  0
LINE
  5
5A9
100
AcDbEntity
  8
ALL_FEATURES
100
AcDbLine
 62
7
  6
CONTINUOUS
 10
15.3491871758
 20
7.2733203031
 11
15.3532496758
 21
7.2788522173
  0
LINE
  5
5AA
100
AcDbEntity
  8
ALL_FEATURES
100
AcDbLine
 62
7
  6
CONTINUOUS
 10
18.7081540901
 20
11.7914579226
 11
18.7143056649
 21
11.7998345356
  0
LINE
  5
5AB
100
AcDbEntity
  8
ALL_FEATURES
100
AcDbLine
 62
7
  6
CONTINUOUS
 10
18.6885100885
 20
11.9922578905
 11
18.7385100885
 21
12.0497046981
  0
LINE
  5
5AC
100
AcDbEntity
  8
ALL_FEATURES
100
AcDbLine
 62
7
  6
CONTINUOUS
 10
18.7030932947
 20
11.9922578905
 11
18.7385100885
 21
12.0326834236
  0
LINE
  5
5AD
100
AcDbEntity
  8
ALL_FEATURES
100
AcDbLine
 62
7
  6
CONTINUOUS
 10
18.5789710193
 20
11.8207760673
 11
18.5748699381
 21
11.8165877615
  0
LINE
  5
5AE
100
AcDbEntity
  8
ALL_FEATURES
100
AcDbLine
 62
7
  6
CONTINUOUS
 10
18.8197600885
 20
12.0348110829
 11
18.8280932947
 21
12.0433217202
  0
LINE
  5
5AF
100
AcDbEntity
  8
ALL_FEATURES
100
AcDbLine
 62
7
  6
CONTINUOUS
 10
18.663042479
 20
11.8647532835
 11
18.6568909042
 21
11.8584708249
  0
LINE
  5
5B0
100
AcDbEntity
  8
ALL_FEATURES
100
AcDbLine
 62
7
  6
CONTINUOUS
 10
18.8697600885
 20
12.0092791651
 11
18.8739266916
 21
12.0135344837
  0
LINE
  5
5B1
100
AcDbEntity
  8
ALL_FEATURES
100
AcDbLine
 62
7
  6
CONTINUOUS
 10
18.7122550774
 20
11.8270585259
 11
18.7184066522
 21
11.8333409845
  0
LINE
  5
5B2
100
AcDbEntity
  8
ALL_FEATURES
100
AcDbLine
 62
7
  6
CONTINUOUS
 10
18.8739266916
 20
11.9645983149
 11
18.8780932947
 21
11.968853635
  0
LINE
  5
5B3
100
AcDbEntity
  8
ALL_FEATURES
100
AcDbLine
 62
7
  6
CONTINUOUS
 10
18.7143056649
 20
11.7830813104
 11
18.7204572397
 21
11.7893637697
  0
LINE
  5
5B4
100
AcDbEntity
  8
ALL_FEATURES
100
AcDbLine
 62
7
  6
CONTINUOUS
 10
18.8004277122
 20
11.8647532835
 11
18.7942761374
 21
11.8584708249
  0
LINE
  5
5B5
100
AcDbEntity
  8
ALL_FEATURES
100
AcDbLine
 62
7
  6
CONTINUOUS
 10
18.8886002531
 20
11.8647532835
 11
18.8824486783
 21
11.8584708249
  0
LINE
  5
5B6
100
AcDbEntity
  8
ALL_FEATURES
100
AcDbLine
 62
7
  6
CONTINUOUS
 10
18.8455392295
 20
11.7830813104
 11
18.8516908043
 21
11.7893637697
  0
LINE
  5
5B7
100
AcDbEntity
  8
ALL_FEATURES
100
AcDbLine
 62
7
  6
CONTINUOUS
 10
18.9378128515
 20
11.8270585259
 11
18.9439644263
 21
11.8333409845
  0
LINE
  5
5B8
100
AcDbEntity
  8
ALL_FEATURES
100
AcDbLine
 62
7
  6
CONTINUOUS
 10
19.1697600885
 20
12.0348110829
 11
19.1780932947
 21
12.0433217202
  0
LINE
  5
5B9
100
AcDbEntity
  8
ALL_FEATURES
100
AcDbLine
 62
7
  6
CONTINUOUS
 10
18.9398633452
 20
11.7830813104
 11
18.94601492
 21
11.7893637697
  0
LINE
  5
5BA
100
AcDbEntity
  8
ALL_FEATURES
100
AcDbLine
 62
7
  6
CONTINUOUS
 10
19.2405932947
 20
11.9645983149
 11
19.2322600885
 21
11.9560876768
  0
LINE
  5
5BB
100
AcDbEntity
  8
ALL_FEATURES
100
AcDbLine
 62
7
  6
CONTINUOUS
 10
19.7218434854
 20
12.0028961871
 11
19.7135098978
 21
11.9965132092
  0
LINE
  5
5BC
100
AcDbEntity
  8
ALL_FEATURES
100
AcDbLine
 62
7
  6
CONTINUOUS
 10
19.4155932947
 20
11.9645983149
 11
19.4218432947
 21
11.968853635
  0
LINE
  5
5BD
100
AcDbEntity
  8
ALL_FEATURES
100
AcDbLine
 62
7
  6
CONTINUOUS
 10
19.0946781512
 20
7.3712847865
 11
19.0848355564
 21
7.3813367211
  0
LINE
  5
5BE
100
AcDbEntity
  8
ALL_FEATURES
100
AcDbLine
 62
7
  6
CONTINUOUS
 10
15.1243954625
 20
11.5428947714
 11
15.1189787932
 21
11.5484266861
  0
LINE
  5
5BF
100
AcDbEntity
  8
ALL_FEATURES
100
AcDbLine
 62
7
  6
CONTINUOUS
 10
15.0946037932
 20
11.5926820068
 11
15.0918954586
 21
11.5954479639
  0
LINE
  5
5C0
100
AcDbEntity
  8
ALL_FEATURES
100
AcDbLine
 62
7
  6
CONTINUOUS
 10
19.1586544541
 20
7.4743171211
 11
19.1684970488
 21
7.4642651873
  0
LINE
  5
5C1
100
AcDbEntity
  8
ALL_FEATURES
100
AcDbLine
 62
7
  6
CONTINUOUS
 10
15.1596037932
 20
11.5995968996
 11
15.1650204625
 21
11.5940649853
  0
LINE
  5
5C2
100
AcDbEntity
  8
ALL_FEATURES
100
AcDbLine
 62
7
  6
CONTINUOUS
 10
15.3532496162
 20
11.5926820068
 11
15.3491871162
 21
11.598213921
  0
LINE
  5
5C3
100
AcDbEntity
  8
ALL_FEATURES
100
AcDbLine
 62
7
  6
CONTINUOUS
 10
18.4130835879
 20
7.4617522039
 11
18.4057016981
 21
7.4718041377
  0
LINE
  5
5C4
100
AcDbEntity
  8
ALL_FEATURES
100
AcDbLine
 62
7
  6
CONTINUOUS
 10
18.2285363438
 20
7.3863626898
 11
18.2236150464
 21
7.3939016401
  0
LINE
  5
5C5
100
AcDbEntity
  8
ALL_FEATURES
100
AcDbLine
 62
7
  6
CONTINUOUS
 10
18.2826701645
 20
7.4592392204
 11
18.2875914619
 21
7.451700263
  0
LINE
  5
5C6
100
AcDbEntity
  8
ALL_FEATURES
100
AcDbLine
 62
7
  6
CONTINUOUS
 10
18.2137725643
 20
7.3813367211
 11
18.2088512669
 21
7.3913886567
  0
LINE
  5
5C7
100
AcDbEntity
  8
ALL_FEATURES
100
AcDbLine
 62
7
  6
CONTINUOUS
 10
18.2974339441
 20
7.4642651873
 11
18.3023552415
 21
7.4542132535
  0
LINE
  5
5C8
100
AcDbEntity
  8
ALL_FEATURES
100
AcDbLine
 62
7
  6
CONTINUOUS
 10
16.4718433662
 20
11.9497046981
 11
16.4426766916
 21
12.0284281049
  0
LINE
  5
5C9
100
AcDbEntity
  8
ALL_FEATURES
100
AcDbLine
 62
7
  6
CONTINUOUS
 10
16.4489266916
 20
12.0497046981
 11
16.4801766916
 21
11.9603429962
  0
LINE
  5
5CA
100
AcDbEntity
  8
ALL_FEATURES
100
AcDbLine
 62
7
  6
CONTINUOUS
 10
17.810229276
 20
7.4818560715
 11
17.8495993172
 21
7.3637458352
  0
LINE
  5
5CB
100
AcDbEntity
  8
ALL_FEATURES
100
AcDbLine
 62
7
  6
CONTINUOUS
 10
17.6084576037
 20
7.4542132535
 11
17.605996955
 21
7.4617522039
  0
LINE
  5
5CC
100
AcDbEntity
  8
ALL_FEATURES
100
AcDbLine
 62
7
  6
CONTINUOUS
 10
17.7167253014
 20
7.451700263
 11
17.714264709
 21
7.4592392204
  0
LINE
  5
5CD
100
AcDbEntity
  8
ALL_FEATURES
100
AcDbLine
 62
7
  6
CONTINUOUS
 10
17.8348355376
 20
7.3637458352
 11
17.8249930555
 21
7.3939016401
  0
LINE
  5
5CE
100
AcDbEntity
  8
ALL_FEATURES
100
AcDbLine
 62
7
  6
CONTINUOUS
 10
17.8003867375
 20
7.4718041377
 11
17.8225324068
 21
7.4039535739
  0
LINE
  5
5CF
100
AcDbEntity
  8
ALL_FEATURES
100
AcDbLine
 62
7
  6
CONTINUOUS
 10
17.9455638841
 20
7.4542132535
 11
17.9431032917
 21
7.4617522039
  0
LINE
  5
5D0
100
AcDbEntity
  8
ALL_FEATURES
100
AcDbLine
 62
7
  6
CONTINUOUS
 10
17.9578670713
 20
7.4617522039
 11
17.9603276636
 21
7.4542132535
  0
LINE
  5
5D1
100
AcDbEntity
  8
ALL_FEATURES
100
AcDbLine
 62
7
  6
CONTINUOUS
 10
17.4878867469
 20
7.451700263
 11
17.4903473674
 21
7.4416483292
  0
LINE
  5
5D2
100
AcDbEntity
  8
ALL_FEATURES
100
AcDbLine
 62
7
  6
CONTINUOUS
 10
17.5247961957
 20
7.3964146236
 11
17.5272568163
 21
7.3863626898
  0
LINE
  5
5D3
100
AcDbEntity
  8
ALL_FEATURES
100
AcDbLine
 62
7
  6
CONTINUOUS
 10
17.5321780855
 20
7.4441613127
 11
17.534638706
 21
7.4341093789
  0
LINE
  5
5D4
100
AcDbEntity
  8
ALL_FEATURES
100
AcDbLine
 62
7
  6
CONTINUOUS
 10
17.6502882935
 20
7.4039535739
 11
17.6527489422
 21
7.3939016401
  0
LINE
  5
5D5
100
AcDbEntity
  8
ALL_FEATURES
100
AcDbLine
 62
7
  6
CONTINUOUS
 10
17.5026505264
 20
7.4542132535
 11
17.505111147
 21
7.4416483292
  0
LINE
  5
5D6
100
AcDbEntity
  8
ALL_FEATURES
100
AcDbLine
 62
7
  6
CONTINUOUS
 10
17.6379851627
 20
7.3913886567
 11
17.635524514
 21
7.4039535739
  0
LINE
  5
5D7
100
AcDbEntity
  8
ALL_FEATURES
100
AcDbLine
 62
7
  6
CONTINUOUS
 10
17.7290284886
 20
7.4642651873
 11
17.7314890809
 21
7.451700263
  0
LINE
  5
5D8
100
AcDbEntity
  8
ALL_FEATURES
100
AcDbLine
 62
7
  6
CONTINUOUS
 10
17.3722371312
 20
7.3813367211
 11
17.3722371312
 21
7.4818560715
  0
LINE
  5
5D9
100
AcDbEntity
  8
ALL_FEATURES
100
AcDbLine
 62
7
  6
CONTINUOUS
 10
17.3870009107
 20
7.4818560715
 11
17.3870009107
 21
7.3637458352
  0
LINE
  5
5DA
100
AcDbEntity
  8
ALL_FEATURES
100
AcDbLine
 62
7
  6
CONTINUOUS
 10
17.4051766916
 20
12.0497046981
 11
17.4051766916
 21
11.9837472503
  0
LINE
  5
5DB
100
AcDbEntity
  8
ALL_FEATURES
100
AcDbLine
 62
7
  6
CONTINUOUS
 10
17.4066859595
 20
7.3637458352
 11
17.4066859595
 21
7.4818560715
  0
LINE
  5
5DC
100
AcDbEntity
  8
ALL_FEATURES
100
AcDbLine
 62
7
  6
CONTINUOUS
 10
17.4176766916
 20
11.9837472503
 11
17.4176766916
 21
12.0497046981
  0
LINE
  5
5DD
100
AcDbEntity
  8
ALL_FEATURES
100
AcDbLine
 62
7
  6
CONTINUOUS
 10
17.421449739
 20
7.3788237377
 11
17.421449739
 21
7.4667781708
  0
LINE
  5
5DE
100
AcDbEntity
  8
ALL_FEATURES
100
AcDbLine
 62
7
  6
CONTINUOUS
 10
17.4405933901
 20
12.0263004456
 11
17.4405933901
 21
12.0177898024
  0
LINE
  5
5DF
100
AcDbEntity
  8
ALL_FEATURES
100
AcDbLine
 62
7
  6
CONTINUOUS
 10
17.4530933901
 20
12.0199174617
 11
17.4530933901
 21
12.0241727803
  0
LINE
  5
5E0
100
AcDbEntity
  8
ALL_FEATURES
100
AcDbLine
 62
7
  6
CONTINUOUS
 10
17.4903473674
 20
7.4416483292
 11
17.4903473674
 21
7.4039535739
  0
LINE
  5
5E1
100
AcDbEntity
  8
ALL_FEATURES
100
AcDbLine
 62
7
  6
CONTINUOUS
 10
17.4989266916
 20
11.9816195909
 11
17.4989266916
 21
11.975236613
  0
LINE
  5
5E2
100
AcDbEntity
  8
ALL_FEATURES
100
AcDbLine
 62
7
  6
CONTINUOUS
 10
17.5044959224
 20
11.7747046981
 11
17.5044959224
 21
11.873129895
  0
LINE
  5
5E3
100
AcDbEntity
  8
ALL_FEATURES
100
AcDbLine
 62
7
  6
CONTINUOUS
 10
17.505111147
 20
7.4416483292
 11
17.505111147
 21
7.4039535739
  0
LINE
  5
5E4
100
AcDbEntity
  8
ALL_FEATURES
100
AcDbLine
 62
7
  6
CONTINUOUS
 10
17.5114266916
 20
11.9731089536
 11
17.5114266916
 21
11.9837472503
  0
LINE
  5
5E5
100
AcDbEntity
  8
ALL_FEATURES
100
AcDbLine
 62
7
  6
CONTINUOUS
 10
17.516799072
 20
11.8521883662
 11
17.516799072
 21
11.7747046981
  0
LINE
  5
5E6
100
AcDbEntity
  8
ALL_FEATURES
100
AcDbLine
 62
7
  6
CONTINUOUS
 10
17.5280933901
 20
11.9497046981
 11
17.5280933901
 21
12.0497046981
  0
LINE
  5
5E7
100
AcDbEntity
  8
ALL_FEATURES
100
AcDbLine
 62
7
  6
CONTINUOUS
 10
17.5321780855
 20
7.4542132535
 11
17.5321780855
 21
7.4441613127
  0
LINE
  5
5E8
100
AcDbEntity
  8
ALL_FEATURES
100
AcDbLine
 62
7
  6
CONTINUOUS
 10
17.5405933901
 20
12.0497046981
 11
17.5405933901
 21
12.0092791651
  0
LINE
  5
5E9
100
AcDbEntity
  8
ALL_FEATURES
100
AcDbLine
 62
7
  6
CONTINUOUS
 10
17.5405933901
 20
11.9965132092
 11
17.5405933901
 21
11.9497046981
  0
LINE
  5
5EA
100
AcDbEntity
  8
ALL_FEATURES
100
AcDbLine
 62
7
  6
CONTINUOUS
 10
17.5469418369
 20
7.4466742961
 11
17.5469418369
 21
7.451700263
  0
LINE
  5
5EB
100
AcDbEntity
  8
ALL_FEATURES
100
AcDbLine
 62
7
  6
CONTINUOUS
 10
17.5906179696
 20
11.7747046981
 11
17.5906179696
 21
11.8521883662
  0
LINE
  5
5EC
100
AcDbEntity
  8
ALL_FEATURES
100
AcDbLine
 62
7
  6
CONTINUOUS
 10
17.5989266916
 20
11.9497046981
 11
17.5989266916
 21
11.9965132092
  0
LINE
  5
5ED
100
AcDbEntity
  8
ALL_FEATURES
100
AcDbLine
 62
7
  6
CONTINUOUS
 10
17.5989266916
 20
12.0092791651
 11
17.5989266916
 21
12.0497046981
  0
LINE
  5
5EE
100
AcDbEntity
  8
ALL_FEATURES
100
AcDbLine
 62
7
  6
CONTINUOUS
 10
17.6010757139
 20
7.4014405905
 11
17.6010757139
 21
7.3939016401
  0
LINE
  5
5EF
100
AcDbEntity
  8
ALL_FEATURES
100
AcDbLine
 62
7
  6
CONTINUOUS
 10
17.6029211192
 20
11.873129895
 11
17.6029211192
 21
11.7747046981
  0
LINE
  5
5F0
100
AcDbEntity
  8
ALL_FEATURES
100
AcDbLine
 62
7
  6
CONTINUOUS
 10
17.6114266916
 20
12.0497046981
 11
17.6114266916
 21
11.9497046981
  0
LINE
  5
5F1
100
AcDbEntity
  8
ALL_FEATURES
100
AcDbLine
 62
7
  6
CONTINUOUS
 10
17.6158394934
 20
7.3913886567
 11
17.6158394934
 21
7.4039535739
  0
LINE
  5
5F2
100
AcDbEntity
  8
ALL_FEATURES
100
AcDbLine
 62
7
  6
CONTINUOUS
 10
17.635524514
 20
7.4039535739
 11
17.635524514
 21
7.4416483292
  0
LINE
  5
5F3
100
AcDbEntity
  8
ALL_FEATURES
100
AcDbLine
 62
7
  6
CONTINUOUS
 10
17.6502882935
 20
7.4416483292
 11
17.6502882935
 21
7.4039535739
  0
LINE
  5
5F4
100
AcDbEntity
  8
ALL_FEATURES
100
AcDbLine
 62
7
  6
CONTINUOUS
 10
17.7280933901
 20
11.9497046981
 11
17.7280933901
 21
12.0497046981
  0
LINE
  5
5F5
100
AcDbEntity
  8
ALL_FEATURES
100
AcDbLine
 62
7
  6
CONTINUOUS
 10
17.7405933901
 20
12.0284281049
 11
17.7405933901
 21
11.9497046981
  0
LINE
  5
5F6
100
AcDbEntity
  8
ALL_FEATURES
100
AcDbLine
 62
7
  6
CONTINUOUS
 10
17.8447600885
 20
12.015662143
 11
17.8468432947
 21
12.0263004456
  0
LINE
  5
5F7
100
AcDbEntity
  8
ALL_FEATURES
100
AcDbLine
 62
7
  6
CONTINUOUS
 10
17.9280932947
 20
11.9837472503
 11
17.9260100885
 21
11.9731089536
  0
LINE
  5
5F8
100
AcDbEntity
  8
ALL_FEATURES
100
AcDbLine
 62
7
  6
CONTINUOUS
 10
18.0176766916
 20
11.9731089536
 11
18.0197600885
 21
11.9837472503
  0
LINE
  5
5F9
100
AcDbEntity
  8
ALL_FEATURES
100
AcDbLine
 62
7
  6
CONTINUOUS
 10
17.9155932947
 20
11.9837472503
 11
17.9135100885
 21
11.975236613
  0
LINE
  5
5FA
100
AcDbEntity
  8
ALL_FEATURES
100
AcDbLine
 62
7
  6
CONTINUOUS
 10
18.0072600885
 20
11.9837472503
 11
18.0051766916
 21
11.975236613
  0
LINE
  5
5FB
100
AcDbEntity
  8
ALL_FEATURES
100
AcDbLine
 62
7
  6
CONTINUOUS
 10
18.1668154605
 20
11.8438117489
 11
18.1688660011
 21
11.8500942134
  0
LINE
  5
5FC
100
AcDbEntity
  8
ALL_FEATURES
100
AcDbLine
 62
7
  6
CONTINUOUS
 10
18.1688660011
 20
11.8165877615
 11
18.1668154605
 21
11.8103052999
  0
LINE
  5
5FD
100
AcDbEntity
  8
ALL_FEATURES
100
AcDbLine
 62
7
  6
CONTINUOUS
 10
18.2160281059
 20
11.7977403827
 11
18.2180785995
 21
11.8040228413
  0
LINE
  5
5FE
100
AcDbEntity
  8
ALL_FEATURES
100
AcDbLine
 62
7
  6
CONTINUOUS
 10
18.4436363736
 20
11.8040228413
 11
18.4415857861
 21
11.7977403827
  0
LINE
  5
5FF
100
AcDbEntity
  8
ALL_FEATURES
100
AcDbLine
 62
7
  6
CONTINUOUS
 10
18.4825963161
 20
11.8500942134
 11
18.4805458224
 21
11.8438117489
  0
LINE
  5
600
100
AcDbEntity
  8
ALL_FEATURES
100
AcDbLine
 62
7
  6
CONTINUOUS
 10
18.1606638857
 20
11.856376672
 11
18.1565628515
 21
11.8459059017
  0
LINE
  5
601
100
AcDbEntity
  8
ALL_FEATURES
100
AcDbLine
 62
7
  6
CONTINUOUS
 10
18.2242301743
 20
11.7914579226
 11
18.2283312555
 21
11.8019286884
  0
LINE
  5
602
100
AcDbEntity
  8
ALL_FEATURES
100
AcDbLine
 62
7
  6
CONTINUOUS
 10
18.2508869672
 20
11.8584708249
 11
18.2467859799
 21
11.8480000546
  0
LINE
  5
603
100
AcDbEntity
  8
ALL_FEATURES
100
AcDbLine
 62
7
  6
CONTINUOUS
 10
18.2488364736
 20
11.8165877615
 11
18.2447353924
 21
11.8061169942
  0
LINE
  5
604
100
AcDbEntity
  8
ALL_FEATURES
100
AcDbLine
 62
7
  6
CONTINUOUS
 10
18.3144533027
 20
11.7893637697
 11
18.31855429
 21
11.7998345356
  0
LINE
  5
605
100
AcDbEntity
  8
ALL_FEATURES
100
AcDbLine
 62
7
  6
CONTINUOUS
 10
18.4743942476
 20
11.856376672
 11
18.4702931665
 21
11.8459059017
  0
LINE
  5
606
100
AcDbEntity
  8
ALL_FEATURES
100
AcDbLine
 62
7
  6
CONTINUOUS
 10
18.4497879484
 20
11.7914579226
 11
18.4538889357
 21
11.8019286884
  0
LINE
  5
607
100
AcDbEntity
  8
ALL_FEATURES
100
AcDbLine
 62
7
  6
CONTINUOUS
 10
18.5379604893
 20
11.7914579226
 11
18.5420615705
 21
11.8019286884
  0
LINE
  5
608
100
AcDbEntity
  8
ALL_FEATURES
100
AcDbLine
 62
7
  6
CONTINUOUS
 10
18.5666678697
 20
11.856376672
 11
18.5625667885
 21
11.8459059017
  0
LINE
  5
609
100
AcDbEntity
  8
ALL_FEATURES
100
AcDbLine
 62
7
  6
CONTINUOUS
 10
18.7184066522
 20
11.8333409845
 11
18.7225077334
 21
11.841717596
  0
LINE
  5
60A
100
AcDbEntity
  8
ALL_FEATURES
100
AcDbLine
 62
7
  6
CONTINUOUS
 10
18.7942761374
 20
11.8584708249
 11
18.7901750562
 21
11.8500942134
  0
LINE
  5
60B
100
AcDbEntity
  8
ALL_FEATURES
100
AcDbLine
 62
7
  6
CONTINUOUS
 10
18.8739266916
 20
12.0135344837
 11
18.8780932947
 21
12.022045121
  0
LINE
  5
60C
100
AcDbEntity
  8
ALL_FEATURES
100
AcDbLine
 62
7
  6
CONTINUOUS
 10
18.5489266916
 20
11.9369387407
 11
18.5614266916
 21
11.9603429962
  0
LINE
  5
60D
100
AcDbEntity
  8
ALL_FEATURES
100
AcDbLine
 62
7
  6
CONTINUOUS
 10
18.5718432947
 20
11.9603429962
 11
18.5593432947
 21
11.9369387407
  0
LINE
  5
60E
100
AcDbEntity
  8
ALL_FEATURES
100
AcDbLine
 62
7
  6
CONTINUOUS
 10
18.9072600885
 20
12.0135344837
 11
18.9155932947
 21
12.0284281049
  0
LINE
  5
60F
100
AcDbEntity
  8
ALL_FEATURES
100
AcDbLine
 62
7
  6
CONTINUOUS
 10
18.9260100885
 20
12.0284281049
 11
18.9176766916
 21
12.0135344837
  0
LINE
  5
610
100
AcDbEntity
  8
ALL_FEATURES
100
AcDbLine
 62
7
  6
CONTINUOUS
 10
18.9322600885
 20
12.0135344837
 11
18.9405932947
 21
12.0284281049
  0
LINE
  5
611
100
AcDbEntity
  8
ALL_FEATURES
100
AcDbLine
 62
7
  6
CONTINUOUS
 10
18.9510100885
 20
12.0284281049
 11
18.9426766916
 21
12.0135344837
  0
LINE
  5
612
100
AcDbEntity
  8
ALL_FEATURES
100
AcDbLine
 62
7
  6
CONTINUOUS
 10
18.6179309617
 20
11.7914579226
 11
18.6220320429
 21
11.7977403827
  0
LINE
  5
613
100
AcDbEntity
  8
ALL_FEATURES
100
AcDbLine
 62
7
  6
CONTINUOUS
 10
18.6671435602
 20
11.8542825191
 11
18.663042479
 21
11.8480000546
  0
LINE
  5
614
100
AcDbEntity
  8
ALL_FEATURES
100
AcDbLine
 62
7
  6
CONTINUOUS
 10
18.8322600885
 20
12.0326834236
 11
18.8280932947
 21
12.0263004456
  0
LINE
  5
615
100
AcDbEntity
  8
ALL_FEATURES
100
AcDbLine
 62
7
  6
CONTINUOUS
 10
18.7081540901
 20
11.8375292902
 11
18.7122550774
 21
11.8438117489
  0
LINE
  5
616
100
AcDbEntity
  8
ALL_FEATURES
100
AcDbLine
 62
7
  6
CONTINUOUS
 10
18.8864266916
 20
12.0135344837
 11
18.8822600885
 21
12.0071515058
  0
LINE
  5
617
100
AcDbEntity
  8
ALL_FEATURES
100
AcDbLine
 62
7
  6
CONTINUOUS
 10
18.806579287
 20
11.856376672
 11
18.7983771247
 21
11.8438117489
  0
LINE
  5
618
100
AcDbEntity
  8
ALL_FEATURES
100
AcDbLine
 62
7
  6
CONTINUOUS
 10
18.8885100885
 20
11.9667259742
 11
18.8843432947
 21
11.9603429962
  0
LINE
  5
619
100
AcDbEntity
  8
ALL_FEATURES
100
AcDbLine
 62
7
  6
CONTINUOUS
 10
18.8393876547
 20
11.7914579226
 11
18.8475897231
 21
11.8040228413
  0
LINE
  5
61A
100
AcDbEntity
  8
ALL_FEATURES
100
AcDbLine
 62
7
  6
CONTINUOUS
 10
18.8927013342
 20
11.8542825191
 11
18.8886002531
 21
11.8480000546
  0
LINE
  5
61B
100
AcDbEntity
  8
ALL_FEATURES
100
AcDbLine
 62
7
  6
CONTINUOUS
 10
18.9337117703
 20
11.8375292902
 11
18.9378128515
 21
11.8438117489
  0
LINE
  5
61C
100
AcDbEntity
  8
ALL_FEATURES
100
AcDbLine
 62
7
  6
CONTINUOUS
 10
19.1780932947
 20
12.0241727803
 11
19.1822600885
 21
12.0305557643
  0
LINE
  5
61D
100
AcDbEntity
  8
ALL_FEATURES
100
AcDbLine
 62
7
  6
CONTINUOUS
 10
18.8927013342
 20
11.8144936086
 11
18.8865497594
 21
11.8061169942
  0
LINE
  5
61E
100
AcDbEntity
  8
ALL_FEATURES
100
AcDbLine
 62
7
  6
CONTINUOUS
 10
18.9337117703
 20
11.7914579226
 11
18.9398633452
 21
11.7998345356
  0
LINE
  5
61F
100
AcDbEntity
  8
ALL_FEATURES
100
AcDbLine
 62
7
  6
CONTINUOUS
 10
19.3614266916
 20
12.0348110829
 11
19.3697600885
 21
12.0433217202
  0
LINE
  5
620
100
AcDbEntity
  8
ALL_FEATURES
100
AcDbLine
 62
7
  6
CONTINUOUS
 10
19.3239266916
 20
11.9560876768
 11
19.3322600885
 21
11.9645983149
  0
LINE
  5
621
100
AcDbEntity
  8
ALL_FEATURES
100
AcDbLine
 62
7
  6
CONTINUOUS
 10
19.4343432947
 20
11.9645983149
 11
19.4260100885
 21
11.9560876768
  0
LINE
  5
622
100
AcDbEntity
  8
ALL_FEATURES
100
AcDbLine
 62
7
  6
CONTINUOUS
 10
19.7114266916
 20
12.0092791651
 11
19.7155934854
 21
12.0135344837
  0
LINE
  5
623
100
AcDbEntity
  8
ALL_FEATURES
100
AcDbLine
 62
7
  6
CONTINUOUS
 10
15.0918955182
 20
7.2774692387
 11
15.0946038528
 21
7.2802351959
  0
LINE
  5
624
100
AcDbEntity
  8
ALL_FEATURES
100
AcDbLine
 62
7
  6
CONTINUOUS
 10
15.1189788528
 20
7.2940649853
 11
15.1243955221
 21
7.2995968996
  0
LINE
  5
625
100
AcDbEntity
  8
ALL_FEATURES
100
AcDbLine
 62
7
  6
CONTINUOUS
 10
15.1650205221
 20
7.2484266861
 11
15.1596038528
 21
7.2428947714
  0
LINE
  5
626
100
AcDbEntity
  8
ALL_FEATURES
100
AcDbLine
 62
7
  6
CONTINUOUS
 10
15.2178330143
 20
7.2774692387
 11
15.2205413528
 21
7.2802351959
  0
LINE
  5
627
100
AcDbEntity
  8
ALL_FEATURES
100
AcDbLine
 62
7
  6
CONTINUOUS
 10
15.2205412932
 20
11.5926820068
 11
15.2178329547
 21
11.5954479639
  0
LINE
  5
628
100
AcDbEntity
  8
ALL_FEATURES
100
AcDbLine
 62
7
  6
CONTINUOUS
 10
15.3451246162
 20
11.5926820068
 11
15.3424162932
 21
11.5954479639
  0
LINE
  5
629
100
AcDbEntity
  8
ALL_FEATURES
100
AcDbLine
 62
7
  6
CONTINUOUS
 10
19.0995993359
 20
7.3863626898
 11
19.0946781512
 21
7.3939016401
  0
LINE
  5
62A
100
AcDbEntity
  8
ALL_FEATURES
100
AcDbLine
 62
7
  6
CONTINUOUS
 10
19.1537332693
 20
7.4592392204
 11
19.1586544541
 21
7.451700263
  0
LINE
  5
62B
100
AcDbEntity
  8
ALL_FEATURES
100
AcDbLine
 62
7
  6
CONTINUOUS
 10
18.6025521294
 20
7.4818560715
 11
18.6640678399
 21
7.3813367211
  0
LINE
  5
62C
100
AcDbEntity
  8
ALL_FEATURES
100
AcDbLine
 62
7
  6
CONTINUOUS
 10
18.6566859501
 20
7.3637458352
 11
18.5951702396
 21
7.4667781708
  0
LINE
  5
62D
100
AcDbEntity
  8
ALL_FEATURES
100
AcDbLine
 62
7
  6
CONTINUOUS
 10
18.4180048853
 20
7.3637458352
 11
18.395859216
 21
7.4215444616
  0
LINE
  5
62E
100
AcDbEntity
  8
ALL_FEATURES
100
AcDbLine
 62
7
  6
CONTINUOUS
 10
18.3810954365
 20
7.4165184947
 11
18.4007804008
 21
7.3637458352
  0
LINE
  5
62F
100
AcDbEntity
  8
ALL_FEATURES
100
AcDbLine
 62
7
  6
CONTINUOUS
 10
16.7822600408
 20
12.0497046981
 11
16.8155933424
 21
11.9497046981
  0
LINE
  5
630
100
AcDbEntity
  8
ALL_FEATURES
100
AcDbLine
 62
7
  6
CONTINUOUS
 10
16.6114266916
 20
12.0263004456
 11
16.6093433662
 21
12.0326834236
  0
LINE
  5
631
100
AcDbEntity
  8
ALL_FEATURES
100
AcDbLine
 62
7
  6
CONTINUOUS
 10
16.6218433662
 20
12.0326834236
 11
16.6239266916
 21
12.0263004456
  0
LINE
  5
632
100
AcDbEntity
  8
ALL_FEATURES
100
AcDbLine
 62
7
  6
CONTINUOUS
 10
16.8030933424
 20
11.9497046981
 11
16.7947600408
 21
11.975236613
  0
LINE
  5
633
100
AcDbEntity
  8
ALL_FEATURES
100
AcDbLine
 62
7
  6
CONTINUOUS
 10
16.7739266916
 20
12.0411940609
 11
16.7926766916
 21
11.9837472503
  0
LINE
  5
634
100
AcDbEntity
  8
ALL_FEATURES
100
AcDbLine
 62
7
  6
CONTINUOUS
 10
18.4007804008
 20
7.4542132535
 11
18.3983198084
 21
7.4617522039
  0
LINE
  5
635
100
AcDbEntity
  8
ALL_FEATURES
100
AcDbLine
 62
7
  6
CONTINUOUS
 10
18.4155441803
 20
7.4542132535
 11
18.4130835879
 21
7.4617522039
  0
LINE
  5
636
100
AcDbEntity
  8
ALL_FEATURES
100
AcDbLine
 62
7
  6
CONTINUOUS
 10
18.2236150464
 20
7.3939016401
 11
18.2211544541
 21
7.4039535739
  0
LINE
  5
637
100
AcDbEntity
  8
ALL_FEATURES
100
AcDbLine
 62
7
  6
CONTINUOUS
 10
18.2875914619
 20
7.451700263
 11
18.2900520543
 21
7.4416483292
  0
LINE
  5
638
100
AcDbEntity
  8
ALL_FEATURES
100
AcDbLine
 62
7
  6
CONTINUOUS
 10
18.2088512669
 20
7.3913886567
 11
18.2063906745
 21
7.4039535739
  0
LINE
  5
639
100
AcDbEntity
  8
ALL_FEATURES
100
AcDbLine
 62
7
  6
CONTINUOUS
 10
17.3426766916
 20
11.9837472503
 11
17.3447599932
 21
11.9731089536
  0
LINE
  5
63A
100
AcDbEntity
  8
ALL_FEATURES
100
AcDbLine
 62
7
  6
CONTINUOUS
 10
17.8155933901
 20
11.9497046981
 11
17.8155933901
 21
12.0284281049
  0
LINE
  5
63B
100
AcDbEntity
  8
ALL_FEATURES
100
AcDbLine
 62
7
  6
CONTINUOUS
 10
17.8161756968
 20
11.7747046981
 11
17.8161756968
 21
11.873129895
  0
LINE
  5
63C
100
AcDbEntity
  8
ALL_FEATURES
100
AcDbLine
 62
7
  6
CONTINUOUS
 10
17.8280933901
 20
12.0497046981
 11
17.8280933901
 21
11.9497046981
  0
LINE
  5
63D
100
AcDbEntity
  8
ALL_FEATURES
100
AcDbLine
 62
7
  6
CONTINUOUS
 10
17.8284788464
 20
11.8626591306
 11
17.8284788464
 21
11.8312468316
  0
LINE
  5
63E
100
AcDbEntity
  8
ALL_FEATURES
100
AcDbLine
 62
7
  6
CONTINUOUS
 10
17.8284788464
 20
11.8186819144
 11
17.8284788464
 21
11.7747046981
  0
LINE
  5
63F
100
AcDbEntity
  8
ALL_FEATURES
100
AcDbLine
 62
7
  6
CONTINUOUS
 10
17.8447600885
 20
11.9837472503
 11
17.8447600885
 21
12.015662143
  0
LINE
  5
640
100
AcDbEntity
  8
ALL_FEATURES
100
AcDbLine
 62
7
  6
CONTINUOUS
 10
17.8572600885
 20
11.9837472503
 11
17.8572600885
 21
12.015662143
  0
LINE
  5
641
100
AcDbEntity
  8
ALL_FEATURES
100
AcDbLine
 62
7
  6
CONTINUOUS
 10
17.8692843941
 20
7.3637458352
 11
17.8692843941
 21
7.4818560715
  0
LINE
  5
642
100
AcDbEntity
  8
ALL_FEATURES
100
AcDbLine
 62
7
  6
CONTINUOUS
 10
17.8797419854
 20
11.8438117489
 11
17.8797419854
 21
11.8500942134
  0
LINE
  5
643
100
AcDbEntity
  8
ALL_FEATURES
100
AcDbLine
 62
7
  6
CONTINUOUS
 10
17.8840481736
 20
7.4692911542
 11
17.8840481736
 21
7.4315963954
  0
LINE
  5
644
100
AcDbEntity
  8
ALL_FEATURES
100
AcDbLine
 62
7
  6
CONTINUOUS
 10
17.8840481736
 20
7.4165184947
 11
17.8840481736
 21
7.3637458352
  0
LINE
  5
645
100
AcDbEntity
  8
ALL_FEATURES
100
AcDbLine
 62
7
  6
CONTINUOUS
 10
17.892045135
 20
11.8500942134
 11
17.892045135
 21
11.841717596
  0
LINE
  5
646
100
AcDbEntity
  8
ALL_FEATURES
100
AcDbLine
 62
7
  6
CONTINUOUS
 10
17.9155932947
 20
12.015662143
 11
17.9155932947
 21
11.9837472503
  0
LINE
  5
647
100
AcDbEntity
  8
ALL_FEATURES
100
AcDbLine
 62
7
  6
CONTINUOUS
 10
17.9280932947
 20
12.015662143
 11
17.9280932947
 21
11.9837472503
  0
LINE
  5
648
100
AcDbEntity
  8
ALL_FEATURES
100
AcDbLine
 62
7
  6
CONTINUOUS
 10
17.9447600885
 20
12.0497046981
 11
17.9447600885
 21
11.9837472503
  0
LINE
  5
649
100
AcDbEntity
  8
ALL_FEATURES
100
AcDbLine
 62
7
  6
CONTINUOUS
 10
17.9455638841
 20
7.4466742961
 11
17.9455638841
 21
7.4542132535
  0
LINE
  5
64A
100
AcDbEntity
  8
ALL_FEATURES
100
AcDbLine
 62
7
  6
CONTINUOUS
 10
17.9572600885
 20
11.9837472503
 11
17.9572600885
 21
12.0497046981
  0
LINE
  5
64B
100
AcDbEntity
  8
ALL_FEATURES
100
AcDbLine
 62
7
  6
CONTINUOUS
 10
17.9576619172
 20
11.7747046981
 11
17.9576619172
 21
11.873129895
  0
LINE
  5
64C
100
AcDbEntity
  8
ALL_FEATURES
100
AcDbLine
 62
7
  6
CONTINUOUS
 10
17.9603276636
 20
7.4542132535
 11
17.9603276636
 21
7.4441613127
  0
LINE
  5
64D
100
AcDbEntity
  8
ALL_FEATURES
100
AcDbLine
 62
7
  6
CONTINUOUS
 10
17.9699650668
 20
11.8605649777
 11
17.9699650668
 21
11.7747046981
  0
LINE
  5
64E
100
AcDbEntity
  8
ALL_FEATURES
100
AcDbLine
 62
7
  6
CONTINUOUS
 10
17.9800127405
 20
7.3637458352
 11
17.9800127405
 21
7.4818560715
  0
LINE
  5
64F
100
AcDbEntity
  8
ALL_FEATURES
100
AcDbLine
 62
7
  6
CONTINUOUS
 10
17.9947765201
 20
7.4667781708
 11
17.9947765201
 21
7.4341093789
  0
LINE
  5
650
100
AcDbEntity
  8
ALL_FEATURES
100
AcDbLine
 62
7
  6
CONTINUOUS
 10
17.9947765201
 20
7.4190314782
 11
17.9947765201
 21
7.3788237377
  0
LINE
  5
651
100
AcDbEntity
  8
ALL_FEATURES
100
AcDbLine
 62
7
  6
CONTINUOUS
 10
18.0072600885
 20
12.0497046981
 11
18.0072600885
 21
11.9837472503
  0
LINE
  5
652
100
AcDbEntity
  8
ALL_FEATURES
100
AcDbLine
 62
7
  6
CONTINUOUS
 10
18.0197600885
 20
11.9837472503
 11
18.0197600885
 21
12.0497046981
  0
LINE
  5
653
100
AcDbEntity
  8
ALL_FEATURES
100
AcDbLine
 62
7
  6
CONTINUOUS
 10
18.0273797806
 20
11.7893637697
 11
18.0273797806
 21
11.873129895
  0
LINE
  5
654
100
AcDbEntity
  8
ALL_FEATURES
100
AcDbLine
 62
7
  6
CONTINUOUS
 10
18.0364266916
 20
11.9497046981
 11
18.0364266916
 21
12.0497046981
  0
LINE
  5
655
100
AcDbEntity
  8
ALL_FEATURES
100
AcDbLine
 62
7
  6
CONTINUOUS
 10
18.0396829302
 20
11.873129895
 11
18.0396829302
 21
11.7747046981
  0
LINE
  5
656
100
AcDbEntity
  8
ALL_FEATURES
100
AcDbLine
 62
7
  6
CONTINUOUS
 10
18.0489266916
 20
12.0369387422
 11
18.0489266916
 21
11.9497046981
  0
LINE
  5
657
100
AcDbEntity
  8
ALL_FEATURES
100
AcDbLine
 62
7
  6
CONTINUOUS
 10
18.0587528792
 20
7.4341093789
 11
18.0587528792
 21
7.4190314782
  0
LINE
  5
658
100
AcDbEntity
  8
ALL_FEATURES
100
AcDbLine
 62
7
  6
CONTINUOUS
 10
18.0685953614
 20
7.4818560715
 11
18.0685953614
 21
7.4667781708
  0
LINE
  5
659
100
AcDbEntity
  8
ALL_FEATURES
100
AcDbLine
 62
7
  6
CONTINUOUS
 10
18.0685953614
 20
7.3788237377
 11
18.0685953614
 21
7.3637458352
  0
LINE
  5
65A
100
AcDbEntity
  8
ALL_FEATURES
100
AcDbLine
 62
7
  6
CONTINUOUS
 10
18.1072600885
 20
11.9645983149
 11
18.1072600885
 21
12.0497046981
  0
LINE
  5
65B
100
AcDbEntity
  8
ALL_FEATURES
100
AcDbLine
 62
7
  6
CONTINUOUS
 10
18.1197600885
 20
12.0497046981
 11
18.1197600885
 21
11.9497046981
  0
LINE
  5
65C
100
AcDbEntity
  8
ALL_FEATURES
100
AcDbLine
 62
7
  6
CONTINUOUS
 10
18.1364266916
 20
12.0390664015
 11
18.1364266916
 21
12.0497046981
  0
LINE
  5
65D
100
AcDbEntity
  8
ALL_FEATURES
100
AcDbLine
 62
7
  6
CONTINUOUS
 10
18.1545123109
 20
11.8312468316
 11
18.1545123109
 21
11.8165877615
  0
LINE
  5
65E
100
AcDbEntity
  8
ALL_FEATURES
100
AcDbLine
 62
7
  6
CONTINUOUS
 10
18.1647649669
 20
11.8270585259
 11
18.1647649669
 21
11.8312468316
  0
LINE
  5
65F
100
AcDbEntity
  8
ALL_FEATURES
100
AcDbLine
 62
7
  6
CONTINUOUS
 10
18.1668154605
 20
11.8103052999
 11
18.1668154605
 21
11.8040228413
  0
LINE
  5
660
100
AcDbEntity
  8
ALL_FEATURES
100
AcDbLine
 62
7
  6
CONTINUOUS
 10
18.1697600885
 20
11.9497046981
 11
18.1697600885
 21
12.0390664015
  0
LINE
  5
661
100
AcDbEntity
  8
ALL_FEATURES
100
AcDbLine
 62
7
  6
CONTINUOUS
 10
18.1822600885
 20
12.0390664015
 11
18.1822600885
 21
11.9497046981
  0
LINE
  5
662
100
AcDbEntity
  8
ALL_FEATURES
100
AcDbLine
 62
7
  6
CONTINUOUS
 10
18.2063906745
 20
7.4039535739
 11
18.2063906745
 21
7.4416483292
  0
LINE
  5
663
100
AcDbEntity
  8
ALL_FEATURES
100
AcDbLine
 62
7
  6
CONTINUOUS
 10
18.2155932947
 20
12.0497046981
 11
18.2155932947
 21
12.0390664015
  0
LINE
  5
664
100
AcDbEntity
  8
ALL_FEATURES
100
AcDbLine
 62
7
  6
CONTINUOUS
 10
18.2180785995
 20
11.8040228413
 11
18.2180785995
 21
11.8103052999
  0
LINE
  5
665
100
AcDbEntity
  8
ALL_FEATURES
100
AcDbLine
 62
7
  6
CONTINUOUS
 10
18.2211544541
 20
7.4039535739
 11
18.2211544541
 21
7.4416483292
  0
LINE
  5
666
100
AcDbEntity
  8
ALL_FEATURES
100
AcDbLine
 62
7
  6
CONTINUOUS
 10
18.2283312555
 20
11.8019286884
 11
18.2283312555
 21
11.8123994558
  0
LINE
  5
667
100
AcDbEntity
  8
ALL_FEATURES
100
AcDbLine
 62
7
  6
CONTINUOUS
 10
18.1565628515
 20
11.8459059017
 11
18.1545123109
 21
11.8312468316
  0
LINE
  5
668
100
AcDbEntity
  8
ALL_FEATURES
100
AcDbLine
 62
7
  6
CONTINUOUS
 10
18.1647649669
 20
11.8312468316
 11
18.1668154605
 21
11.8438117489
  0
LINE
  5
669
100
AcDbEntity
  8
ALL_FEATURES
100
AcDbLine
 62
7
  6
CONTINUOUS
 10
18.5338594081
 20
11.8165877615
 11
18.5318089145
 21
11.8040228413
  0
LINE
  5
66A
100
AcDbEntity
  8
ALL_FEATURES
100
AcDbLine
 62
7
  6
CONTINUOUS
 10
18.570768857
 20
11.8312468316
 11
18.5728194445
 21
11.8438117489
  0
LINE
  5
66B
100
AcDbEntity
  8
ALL_FEATURES
100
AcDbLine
 62
7
  6
CONTINUOUS
 10
17.505111147
 20
7.4039535739
 11
17.5026505264
 21
7.3913886567
  0
LINE
  5
66C
100
AcDbEntity
  8
ALL_FEATURES
100
AcDbLine
 62
7
  6
CONTINUOUS
 10
17.635524514
 20
7.4416483292
 11
17.6379851627
 21
7.4542132535
  0
LINE
  5
66D
100
AcDbEntity
  8
ALL_FEATURES
100
AcDbLine
 62
7
  6
CONTINUOUS
 10
17.7314890809
 20
7.3939016401
 11
17.7290284886
 21
7.3813367211
  0
LINE
  5
66E
100
AcDbEntity
  8
ALL_FEATURES
100
AcDbLine
 62
7
  6
CONTINUOUS
 10
17.4903473674
 20
7.4039535739
 11
17.4878867469
 21
7.3939016401
  0
LINE
  5
66F
100
AcDbEntity
  8
ALL_FEATURES
100
AcDbLine
 62
7
  6
CONTINUOUS
 10
17.534638706
 20
7.4642651873
 11
17.5321780855
 21
7.4542132535
  0
LINE
  5
670
100
AcDbEntity
  8
ALL_FEATURES
100
AcDbLine
 62
7
  6
CONTINUOUS
 10
17.6527489422
 20
7.451700263
 11
17.6502882935
 21
7.4416483292
  0
LINE
  5
671
100
AcDbEntity
  8
ALL_FEATURES
100
AcDbLine
 62
7
  6
CONTINUOUS
 10
18.5297584209
 20
11.8333409845
 11
18.5318089145
 21
11.8396234431
  0
LINE
  5
672
100
AcDbEntity
  8
ALL_FEATURES
100
AcDbLine
 62
7
  6
CONTINUOUS
 10
18.5318089145
 20
11.8040228413
 11
18.5297584209
 21
11.7977403827
  0
LINE
  5
673
100
AcDbEntity
  8
ALL_FEATURES
100
AcDbLine
 62
7
  6
CONTINUOUS
 10
18.5728194445
 20
11.8438117489
 11
18.5748699381
 21
11.8500942134
  0
LINE
  5
674
100
AcDbEntity
  8
ALL_FEATURES
100
AcDbLine
 62
7
  6
CONTINUOUS
 10
18.5748699381
 20
11.8165877615
 11
18.5728194445
 21
11.8103052999
  0
LINE
  5
675
100
AcDbEntity
  8
ALL_FEATURES
100
AcDbLine
 62
7
  6
CONTINUOUS
 10
18.6220320429
 20
11.7977403827
 11
18.6240825365
 21
11.8040228413
  0
LINE
  5
676
100
AcDbEntity
  8
ALL_FEATURES
100
AcDbLine
 62
7
  6
CONTINUOUS
 10
17.1975324115
 20
7.4039535739
 11
17.2196780808
 21
7.4718041377
  0
LINE
  5
677
100
AcDbEntity
  8
ALL_FEATURES
100
AcDbLine
 62
7
  6
CONTINUOUS
 10
17.1950717769
 20
7.3939016401
 11
17.1852292525
 21
7.3637458352
  0
LINE
  5
678
100
AcDbEntity
  8
ALL_FEATURES
100
AcDbLine
 62
7
  6
CONTINUOUS
 10
18.7901750562
 20
11.8500942134
 11
18.7881245626
 21
11.8438117489
  0
LINE
  5
679
100
AcDbEntity
  8
ALL_FEATURES
100
AcDbLine
 62
7
  6
CONTINUOUS
 10
18.8905932947
 20
11.9731089536
 11
18.8885100885
 21
11.9667259742
  0
LINE
  5
67A
100
AcDbEntity
  8
ALL_FEATURES
100
AcDbLine
 62
7
  6
CONTINUOUS
 10
18.8557918854
 20
11.7977403827
 11
18.8578423791
 21
11.8040228413
  0
LINE
  5
67B
100
AcDbEntity
  8
ALL_FEATURES
100
AcDbLine
 62
7
  6
CONTINUOUS
 10
17.17046548
 20
7.3637458352
 11
17.2098355564
 21
7.4818560715
  0
LINE
  5
67C
100
AcDbEntity
  8
ALL_FEATURES
100
AcDbLine
 62
7
  6
CONTINUOUS
 10
18.6302341113
 20
11.7914579226
 11
18.6343351925
 21
11.8019286884
  0
LINE
  5
67D
100
AcDbEntity
  8
ALL_FEATURES
100
AcDbLine
 62
7
  6
CONTINUOUS
 10
18.6568909042
 20
11.8584708249
 11
18.6527899169
 21
11.8480000546
  0
LINE
  5
67E
100
AcDbEntity
  8
ALL_FEATURES
100
AcDbLine
 62
7
  6
CONTINUOUS
 10
18.6548404106
 20
11.8165877615
 11
18.6507393294
 21
11.8061169942
  0
LINE
  5
67F
100
AcDbEntity
  8
ALL_FEATURES
100
AcDbLine
 62
7
  6
CONTINUOUS
 10
18.7204572397
 20
11.7893637697
 11
18.724558227
 21
11.7998345356
  0
LINE
  5
680
100
AcDbEntity
  8
ALL_FEATURES
100
AcDbLine
 62
7
  6
CONTINUOUS
 10
18.8824486783
 20
11.8584708249
 11
18.8783475971
 21
11.8480000546
  0
LINE
  5
681
100
AcDbEntity
  8
ALL_FEATURES
100
AcDbLine
 62
7
  6
CONTINUOUS
 10
18.8803981846
 20
11.8165877615
 11
18.8762971035
 21
11.8061169942
  0
LINE
  5
682
100
AcDbEntity
  8
ALL_FEATURES
100
AcDbLine
 62
7
  6
CONTINUOUS
 10
18.94601492
 20
11.7893637697
 11
18.9501160011
 21
11.7998345356
  0
LINE
  5
683
100
AcDbEntity
  8
ALL_FEATURES
100
AcDbLine
 62
7
  6
CONTINUOUS
 10
18.8780932947
 20
11.968853635
 11
18.8801766916
 21
11.9731089536
  0
LINE
  5
684
100
AcDbEntity
  8
ALL_FEATURES
100
AcDbLine
 62
7
  6
CONTINUOUS
 10
18.8516908043
 20
11.7893637697
 11
18.8557918854
 21
11.7977403827
  0
LINE
  5
685
100
AcDbEntity
  8
ALL_FEATURES
100
AcDbLine
 62
7
  6
CONTINUOUS
 10
18.9439644263
 20
11.8333409845
 11
18.9480655075
 21
11.841717596
  0
LINE
  5
686
100
AcDbEntity
  8
ALL_FEATURES
100
AcDbLine
 62
7
  6
CONTINUOUS
 10
19.1655932947
 20
12.0263004456
 11
19.1697600885
 21
12.0348110829
  0
LINE
  5
687
100
AcDbEntity
  8
ALL_FEATURES
100
AcDbLine
 62
7
  6
CONTINUOUS
 10
19.2447600885
 20
11.9731089536
 11
19.2405932947
 21
11.9645983149
  0
LINE
  5
688
100
AcDbEntity
  8
ALL_FEATURES
100
AcDbLine
 62
7
  6
CONTINUOUS
 10
19.3572600885
 20
12.0263004456
 11
19.3614266916
 21
12.0348110829
  0
LINE
  5
689
100
AcDbEntity
  8
ALL_FEATURES
100
AcDbLine
 62
7
  6
CONTINUOUS
 10
19.3322600885
 20
11.9645983149
 11
19.3364266916
 21
11.9731089536
  0
LINE
  5
68A
100
AcDbEntity
  8
ALL_FEATURES
100
AcDbLine
 62
7
  6
CONTINUOUS
 10
19.2322600885
 20
11.975236613
 11
19.2280932947
 21
11.968853635
  0
LINE
  5
68B
100
AcDbEntity
  8
ALL_FEATURES
100
AcDbLine
 62
7
  6
CONTINUOUS
 10
19.3239266916
 20
11.975236613
 11
19.3197600885
 21
11.968853635
  0
LINE
  5
68C
100
AcDbEntity
  8
ALL_FEATURES
100
AcDbLine
 62
7
  6
CONTINUOUS
 10
19.3739266916
 20
12.0305557643
 11
19.3697600885
 21
12.0241727803
  0
LINE
  5
68D
100
AcDbEntity
  8
ALL_FEATURES
100
AcDbLine
 62
7
  6
CONTINUOUS
 10
19.7280934854
 20
12.0114068244
 11
19.7218434854
 21
12.0028961871
  0
LINE
  5
68E
100
AcDbEntity
  8
ALL_FEATURES
100
AcDbLine
 62
7
  6
CONTINUOUS
 10
16.1111642562
 20
7.4962261502
 11
16.2095894531
 21
7.6143363864
  0
LINE
  5
68F
100
AcDbEntity
  8
ALL_FEATURES
100
AcDbLine
 62
7
  6
CONTINUOUS
 10
15.3424163528
 20
7.2774692387
 11
15.3451246758
 21
7.2802351959
  0
LINE
  5
690
100
AcDbEntity
  8
ALL_FEATURES
100
AcDbLine
 62
7
  6
CONTINUOUS
 10
15.0986663528
 20
7.2733203031
 11
15.0932496875
 21
7.2691713674
  0
LINE
  5
691
100
AcDbEntity
  8
ALL_FEATURES
100
AcDbLine
 62
7
  6
CONTINUOUS
 10
15.1311662932
 20
11.5484266861
 11
15.1271037932
 21
11.5511926442
  0
LINE
  5
692
100
AcDbEntity
  8
ALL_FEATURES
100
AcDbLine
 62
7
  6
CONTINUOUS
 10
15.1528329625
 20
11.5940649853
 11
15.1568954625
 21
11.5912990282
  0
LINE
  5
693
100
AcDbEntity
  8
ALL_FEATURES
100
AcDbLine
 62
7
  6
CONTINUOUS
 10
15.0932496278
 20
11.6023628567
 11
15.0986662932
 21
11.598213921
  0
LINE
  5
694
100
AcDbEntity
  8
ALL_FEATURES
100
AcDbLine
 62
7
  6
CONTINUOUS
 10
15.2246037932
 20
11.598213921
 11
15.2191871317
 21
11.6023628567
  0
LINE
  5
695
100
AcDbEntity
  8
ALL_FEATURES
100
AcDbLine
 62
7
  6
CONTINUOUS
 10
15.3491871162
 20
11.598213921
 11
15.3437704702
 21
11.6023628567
  0
LINE
  5
696
100
AcDbEntity
  8
ALL_FEATURES
100
AcDbLine
 62
7
  6
CONTINUOUS
 10
19.2177095722
 20
7.4818560715
 11
19.2792253953
 21
7.3813367211
  0
LINE
  5
697
100
AcDbEntity
  8
ALL_FEATURES
100
AcDbLine
 62
7
  6
CONTINUOUS
 10
19.2718435055
 20
7.3637458352
 11
19.2103276824
 21
7.4667781708
  0
LINE
  5
698
100
AcDbEntity
  8
ALL_FEATURES
100
AcDbLine
 62
7
  6
CONTINUOUS
 10
19.0848355564
 20
7.3813367211
 11
19.0799143717
 21
7.3913886567
  0
LINE
  5
699
100
AcDbEntity
  8
ALL_FEATURES
100
AcDbLine
 62
7
  6
CONTINUOUS
 10
19.1684970488
 20
7.4642651873
 11
19.1734182336
 21
7.4542132535
  0
LINE
  5
69A
100
AcDbEntity
  8
ALL_FEATURES
100
AcDbLine
 62
7
  6
CONTINUOUS
 10
18.8707607533
 20
7.4818560715
 11
18.9101307945
 21
7.3637458352
  0
LINE
  5
69B
100
AcDbEntity
  8
ALL_FEATURES
100
AcDbLine
 62
7
  6
CONTINUOUS
 10
17.4552833239
 20
11.873129895
 11
17.4880917209
 21
11.7747046981
  0
LINE
  5
69C
100
AcDbEntity
  8
ALL_FEATURES
100
AcDbLine
 62
7
  6
CONTINUOUS
 10
18.8953670149
 20
7.3637458352
 11
18.8855245328
 21
7.3939016401
  0
LINE
  5
69D
100
AcDbEntity
  8
ALL_FEATURES
100
AcDbLine
 62
7
  6
CONTINUOUS
 10
18.8609182711
 20
7.4718041377
 11
18.8830639404
 21
7.4039535739
  0
LINE
  5
69E
100
AcDbEntity
  8
ALL_FEATURES
100
AcDbLine
 62
7
  6
CONTINUOUS
 10
17.4757885713
 20
11.7747046981
 11
17.4675864736
 21
11.7998345356
  0
LINE
  5
69F
100
AcDbEntity
  8
ALL_FEATURES
100
AcDbLine
 62
7
  6
CONTINUOUS
 10
17.4470812232
 20
11.8647532835
 11
17.4655359506
 21
11.8082111471
  0
LINE
  5
6A0
100
AcDbEntity
  8
ALL_FEATURES
100
AcDbLine
 62
7
  6
CONTINUOUS
 10
17.4489266916
 20
11.9709812943
 11
17.4468433901
 21
11.9773642723
  0
LINE
  5
6A1
100
AcDbEntity
  8
ALL_FEATURES
100
AcDbLine
 62
7
  6
CONTINUOUS
 10
17.4551766916
 20
12.0135344837
 11
17.4530933901
 21
12.0199174617
  0
LINE
  5
6A2
100
AcDbEntity
  8
ALL_FEATURES
100
AcDbLine
 62
7
  6
CONTINUOUS
 10
17.3572599932
 20
11.975236613
 11
17.3551766916
 21
11.9837472503
  0
LINE
  5
6A3
100
AcDbEntity
  8
ALL_FEATURES
100
AcDbLine
 62
7
  6
CONTINUOUS
 10
17.4343433901
 20
11.9773642723
 11
17.4364266916
 21
11.968853635
  0
LINE
  5
6A4
100
AcDbEntity
  8
ALL_FEATURES
100
AcDbLine
 62
7
  6
CONTINUOUS
 10
17.4405933901
 20
12.0177898024
 11
17.4426766916
 21
12.0092791651
  0
LINE
  5
6A5
100
AcDbEntity
  8
ALL_FEATURES
100
AcDbLine
 62
7
  6
CONTINUOUS
 10
18.3023552415
 20
7.4542132535
 11
18.3048158338
 21
7.4416483292
  0
LINE
  5
6A6
100
AcDbEntity
  8
ALL_FEATURES
100
AcDbLine
 62
7
  6
CONTINUOUS
 10
18.2447353924
 20
11.8061169942
 11
18.2447353924
 21
11.7998345356
  0
LINE
  5
6A7
100
AcDbEntity
  8
ALL_FEATURES
100
AcDbLine
 62
7
  6
CONTINUOUS
 10
18.2467859799
 20
11.8480000546
 11
18.2467859799
 21
11.841717596
  0
LINE
  5
6A8
100
AcDbEntity
  8
ALL_FEATURES
100
AcDbLine
 62
7
  6
CONTINUOUS
 10
18.2549880484
 20
11.8061169942
 11
18.2549880484
 21
11.7998345356
  0
LINE
  5
6A9
100
AcDbEntity
  8
ALL_FEATURES
100
AcDbLine
 62
7
  6
CONTINUOUS
 10
18.257038542
 20
11.8480000546
 11
18.257038542
 21
11.8438117489
  0
LINE
  5
6AA
100
AcDbEntity
  8
ALL_FEATURES
100
AcDbLine
 62
7
  6
CONTINUOUS
 10
18.2900520543
 20
7.4416483292
 11
18.2900520543
 21
7.4039535739
  0
LINE
  5
6AB
100
AcDbEntity
  8
ALL_FEATURES
100
AcDbLine
 62
7
  6
CONTINUOUS
 10
18.3048158338
 20
7.4416483292
 11
18.3048158338
 21
7.4039535739
  0
LINE
  5
6AC
100
AcDbEntity
  8
ALL_FEATURES
100
AcDbLine
 62
7
  6
CONTINUOUS
 10
18.3062511404
 20
11.8438117489
 11
18.3062511404
 21
11.8480000546
  0
LINE
  5
6AD
100
AcDbEntity
  8
ALL_FEATURES
100
AcDbLine
 62
7
  6
CONTINUOUS
 10
18.3083017279
 20
11.7998345356
 11
18.3083017279
 21
11.8061169942
  0
LINE
  5
6AE
100
AcDbEntity
  8
ALL_FEATURES
100
AcDbLine
 62
7
  6
CONTINUOUS
 10
18.3165037964
 20
11.841717596
 11
18.3165037964
 21
11.8480000546
  0
LINE
  5
6AF
100
AcDbEntity
  8
ALL_FEATURES
100
AcDbLine
 62
7
  6
CONTINUOUS
 10
18.31855429
 20
11.7998345356
 11
18.31855429
 21
11.8061169942
  0
LINE
  5
6B0
100
AcDbEntity
  8
ALL_FEATURES
100
AcDbLine
 62
7
  6
CONTINUOUS
 10
18.3245009107
 20
7.4818560715
 11
18.3245009107
 21
7.3637458352
  0
LINE
  5
6B1
100
AcDbEntity
  8
ALL_FEATURES
100
AcDbLine
 62
7
  6
CONTINUOUS
 10
18.3322600885
 20
11.9497046981
 11
18.3322600885
 21
12.0497046981
  0
LINE
  5
6B2
100
AcDbEntity
  8
ALL_FEATURES
100
AcDbLine
 62
7
  6
CONTINUOUS
 10
18.3349585208
 20
11.8103052999
 11
18.3349585208
 21
11.8207760673
  0
LINE
  5
6B3
100
AcDbEntity
  8
ALL_FEATURES
100
AcDbLine
 62
7
  6
CONTINUOUS
 10
18.3392646903
 20
7.4692911542
 11
18.3392646903
 21
7.4315963954
  0
LINE
  5
6B4
100
AcDbEntity
  8
ALL_FEATURES
100
AcDbLine
 62
7
  6
CONTINUOUS
 10
18.3392646903
 20
7.3637458352
 11
18.3392646903
 21
7.4165184947
  0
LINE
  5
6B5
100
AcDbEntity
  8
ALL_FEATURES
100
AcDbLine
 62
7
  6
CONTINUOUS
 10
18.3447600885
 20
12.0497046981
 11
18.3447600885
 21
12.0007685278
  0
LINE
  5
6B6
100
AcDbEntity
  8
ALL_FEATURES
100
AcDbLine
 62
7
  6
CONTINUOUS
 10
18.3447600885
 20
11.9837472503
 11
18.3447600885
 21
11.9497046981
  0
LINE
  5
6B7
100
AcDbEntity
  8
ALL_FEATURES
100
AcDbLine
 62
7
  6
CONTINUOUS
 10
18.3636659012
 20
11.8207760673
 11
18.3636659012
 21
11.8103052999
  0
LINE
  5
6B8
100
AcDbEntity
  8
ALL_FEATURES
100
AcDbLine
 62
7
  6
CONTINUOUS
 10
18.3800700381
 20
11.873129895
 11
18.3800700381
 21
11.8186819144
  0
LINE
  5
6B9
100
AcDbEntity
  8
ALL_FEATURES
100
AcDbLine
 62
7
  6
CONTINUOUS
 10
18.390322694
 20
11.8291526787
 11
18.390322694
 21
11.8626591306
  0
LINE
  5
6BA
100
AcDbEntity
  8
ALL_FEATURES
100
AcDbLine
 62
7
  6
CONTINUOUS
 10
18.4007804008
 20
7.4466742961
 11
18.4007804008
 21
7.4542132535
  0
LINE
  5
6BB
100
AcDbEntity
  8
ALL_FEATURES
100
AcDbLine
 62
7
  6
CONTINUOUS
 10
18.4155441803
 20
7.4441613127
 11
18.4155441803
 21
7.4542132535
  0
LINE
  5
6BC
100
AcDbEntity
  8
ALL_FEATURES
100
AcDbLine
 62
7
  6
CONTINUOUS
 10
18.4239266916
 20
11.9497046981
 11
18.4239266916
 21
12.0497046981
  0
LINE
  5
6BD
100
AcDbEntity
  8
ALL_FEATURES
100
AcDbLine
 62
7
  6
CONTINUOUS
 10
18.4364266916
 20
12.0497046981
 11
18.4364266916
 21
11.9497046981
  0
LINE
  5
6BE
100
AcDbEntity
  8
ALL_FEATURES
100
AcDbLine
 62
7
  6
CONTINUOUS
 10
18.4376898496
 20
7.3637458352
 11
18.4376898496
 21
7.4818560715
  0
LINE
  5
6BF
100
AcDbEntity
  8
ALL_FEATURES
100
AcDbLine
 62
7
  6
CONTINUOUS
 10
18.4436363736
 20
11.8082111471
 11
18.4436363736
 21
11.8040228413
  0
LINE
  5
6C0
100
AcDbEntity
  8
ALL_FEATURES
100
AcDbLine
 62
7
  6
CONTINUOUS
 10
18.4497879484
 20
11.8626591306
 11
18.4497879484
 21
11.873129895
  0
LINE
  5
6C1
100
AcDbEntity
  8
ALL_FEATURES
100
AcDbLine
 62
7
  6
CONTINUOUS
 10
18.4524536291
 20
7.4818560715
 11
18.4524536291
 21
7.3637458352
  0
LINE
  5
6C2
100
AcDbEntity
  8
ALL_FEATURES
100
AcDbLine
 62
7
  6
CONTINUOUS
 10
18.4530932947
 20
12.0390664015
 11
18.4530932947
 21
12.0497046981
  0
LINE
  5
6C3
100
AcDbEntity
  8
ALL_FEATURES
100
AcDbLine
 62
7
  6
CONTINUOUS
 10
18.4538889357
 20
11.8019286884
 11
18.4538889357
 21
11.8103052999
  0
LINE
  5
6C4
100
AcDbEntity
  8
ALL_FEATURES
100
AcDbLine
 62
7
  6
CONTINUOUS
 10
18.4702931665
 20
11.8459059017
 11
18.4702931665
 21
11.8375292902
  0
LINE
  5
6C5
100
AcDbEntity
  8
ALL_FEATURES
100
AcDbLine
 62
7
  6
CONTINUOUS
 10
18.472138706
 20
7.3637458352
 11
18.472138706
 21
7.4818560715
  0
LINE
  5
6C6
100
AcDbEntity
  8
ALL_FEATURES
100
AcDbLine
 62
7
  6
CONTINUOUS
 10
18.4805458224
 20
11.8438117489
 11
18.4805458224
 21
11.8396234431
  0
LINE
  5
6C7
100
AcDbEntity
  8
ALL_FEATURES
100
AcDbLine
 62
7
  6
CONTINUOUS
 10
18.4864266916
 20
11.9497046981
 11
18.4864266916
 21
12.0390664015
  0
LINE
  5
6C8
100
AcDbEntity
  8
ALL_FEATURES
100
AcDbLine
 62
7
  6
CONTINUOUS
 10
18.4869024855
 20
7.4667781708
 11
18.4869024855
 21
7.4341093789
  0
LINE
  5
6C9
100
AcDbEntity
  8
ALL_FEATURES
100
AcDbLine
 62
7
  6
CONTINUOUS
 10
18.4869024855
 20
7.4190314782
 11
18.4869024855
 21
7.3788237377
  0
LINE
  5
6CA
100
AcDbEntity
  8
ALL_FEATURES
100
AcDbLine
 62
7
  6
CONTINUOUS
 10
18.4989266916
 20
12.0390664015
 11
18.4989266916
 21
11.9497046981
  0
LINE
  5
6CB
100
AcDbEntity
  8
ALL_FEATURES
100
AcDbLine
 62
7
  6
CONTINUOUS
 10
18.5318089145
 20
11.8396234431
 11
18.5318089145
 21
11.8438117489
  0
LINE
  5
6CC
100
AcDbEntity
  8
ALL_FEATURES
100
AcDbLine
 62
7
  6
CONTINUOUS
 10
18.5322600885
 20
12.0497046981
 11
18.5322600885
 21
12.0390664015
  0
LINE
  5
6CD
100
AcDbEntity
  8
ALL_FEATURES
100
AcDbLine
 62
7
  6
CONTINUOUS
 10
18.5338594081
 20
11.8207760673
 11
18.5338594081
 21
11.8165877615
  0
LINE
  5
6CE
100
AcDbEntity
  8
ALL_FEATURES
100
AcDbLine
 62
7
  6
CONTINUOUS
 10
18.5441120641
 20
11.8165877615
 11
18.5441120641
 21
11.8312468316
  0
LINE
  5
6CF
100
AcDbEntity
  8
ALL_FEATURES
100
AcDbLine
 62
7
  6
CONTINUOUS
 10
18.550878901
 20
7.4341093789
 11
18.550878901
 21
7.4190314782
  0
LINE
  5
6D0
100
AcDbEntity
  8
ALL_FEATURES
100
AcDbLine
 62
7
  6
CONTINUOUS
 10
18.5605162949
 20
11.8312468316
 11
18.5605162949
 21
11.8165877615
  0
LINE
  5
6D1
100
AcDbEntity
  8
ALL_FEATURES
100
AcDbLine
 62
7
  6
CONTINUOUS
 10
18.5607213832
 20
7.4818560715
 11
18.5607213832
 21
7.4667781708
  0
LINE
  5
6D2
100
AcDbEntity
  8
ALL_FEATURES
100
AcDbLine
 62
7
  6
CONTINUOUS
 10
18.5607213832
 20
7.3788237377
 11
18.5607213832
 21
7.3637458352
  0
LINE
  5
6D3
100
AcDbEntity
  8
ALL_FEATURES
100
AcDbLine
 62
7
  6
CONTINUOUS
 10
18.570768857
 20
11.8270585259
 11
18.570768857
 21
11.8312468316
  0
LINE
  5
6D4
100
AcDbEntity
  8
ALL_FEATURES
100
AcDbLine
 62
7
  6
CONTINUOUS
 10
18.5728194445
 20
11.8103052999
 11
18.5728194445
 21
11.8040228413
  0
LINE
  5
6D5
100
AcDbEntity
  8
ALL_FEATURES
100
AcDbLine
 62
7
  6
CONTINUOUS
 10
18.5804064601
 20
7.3637458352
 11
18.5804064601
 21
7.4818560715
  0
LINE
  5
6D6
100
AcDbEntity
  8
ALL_FEATURES
100
AcDbLine
 62
7
  6
CONTINUOUS
 10
18.5951702396
 20
7.4667781708
 11
18.5951702396
 21
7.3637458352
  0
LINE
  5
6D7
100
AcDbEntity
  8
ALL_FEATURES
100
AcDbLine
 62
7
  6
CONTINUOUS
 10
18.6240825365
 20
11.8040228413
 11
18.6240825365
 21
11.8103052999
  0
LINE
  5
6D8
100
AcDbEntity
  8
ALL_FEATURES
100
AcDbLine
 62
7
  6
CONTINUOUS
 10
18.6343351925
 20
11.8019286884
 11
18.6343351925
 21
11.8123994558
  0
LINE
  5
6D9
100
AcDbEntity
  8
ALL_FEATURES
100
AcDbLine
 62
7
  6
CONTINUOUS
 10
18.6507393294
 20
11.8061169942
 11
18.6507393294
 21
11.7998345356
  0
LINE
  5
6DA
100
AcDbEntity
  8
ALL_FEATURES
100
AcDbLine
 62
7
  6
CONTINUOUS
 10
18.6527899169
 20
11.8480000546
 11
18.6527899169
 21
11.841717596
  0
LINE
  5
6DB
100
AcDbEntity
  8
ALL_FEATURES
100
AcDbLine
 62
7
  6
CONTINUOUS
 10
18.6609919854
 20
11.8061169942
 11
18.6609919854
 21
11.7998345356
  0
LINE
  5
6DC
100
AcDbEntity
  8
ALL_FEATURES
100
AcDbLine
 62
7
  6
CONTINUOUS
 10
18.663042479
 20
11.8480000546
 11
18.663042479
 21
11.8438117489
  0
LINE
  5
6DD
100
AcDbEntity
  8
ALL_FEATURES
100
AcDbLine
 62
7
  6
CONTINUOUS
 10
18.6640678399
 20
7.3813367211
 11
18.6640678399
 21
7.4818560715
  0
LINE
  5
6DE
100
AcDbEntity
  8
ALL_FEATURES
100
AcDbLine
 62
7
  6
CONTINUOUS
 10
18.5420615705
 20
11.8019286884
 11
18.5441120641
 21
11.8165877615
  0
LINE
  5
6DF
100
AcDbEntity
  8
ALL_FEATURES
100
AcDbLine
 62
7
  6
CONTINUOUS
 10
18.5625667885
 20
11.8459059017
 11
18.5605162949
 21
11.8312468316
  0
LINE
  5
6E0
100
AcDbEntity
  8
ALL_FEATURES
100
AcDbLine
 62
7
  6
CONTINUOUS
 10
18.7983771247
 20
11.8438117489
 11
18.796326631
 21
11.8312468316
  0
LINE
  5
6E1
100
AcDbEntity
  8
ALL_FEATURES
100
AcDbLine
 62
7
  6
CONTINUOUS
 10
18.8475897231
 20
11.8040228413
 11
18.8496403106
 21
11.8165877615
  0
LINE
  5
6E2
100
AcDbEntity
  8
ALL_FEATURES
100
AcDbLine
 62
7
  6
CONTINUOUS
 10
18.7881245626
 20
11.8438117489
 11
18.7860739751
 21
11.8333409845
  0
LINE
  5
6E3
100
AcDbEntity
  8
ALL_FEATURES
100
AcDbLine
 62
7
  6
CONTINUOUS
 10
18.8578423791
 20
11.8040228413
 11
18.8598928727
 21
11.8144936086
  0
LINE
  5
6E4
100
AcDbEntity
  8
ALL_FEATURES
100
AcDbLine
 62
7
  6
CONTINUOUS
 10
18.2063906745
 20
7.4416483292
 11
18.2088512669
 21
7.4542132535
  0
LINE
  5
6E5
100
AcDbEntity
  8
ALL_FEATURES
100
AcDbLine
 62
7
  6
CONTINUOUS
 10
18.8176766916
 20
12.0263004456
 11
18.8197600885
 21
12.0348110829
  0
LINE
  5
6E6
100
AcDbEntity
  8
ALL_FEATURES
100
AcDbLine
 62
7
  6
CONTINUOUS
 10
18.8885100885
 20
12.022045121
 11
18.8864266916
 21
12.0135344837
  0
LINE
  5
6E7
100
AcDbEntity
  8
ALL_FEATURES
100
AcDbLine
 62
7
  6
CONTINUOUS
 10
19.1760100885
 20
12.015662143
 11
19.1780932947
 21
12.0241727803
  0
LINE
  5
6E8
100
AcDbEntity
  8
ALL_FEATURES
100
AcDbLine
 62
7
  6
CONTINUOUS
 10
19.2343432947
 20
11.9837472503
 11
19.2322600885
 21
11.975236613
  0
LINE
  5
6E9
100
AcDbEntity
  8
ALL_FEATURES
100
AcDbLine
 62
7
  6
CONTINUOUS
 10
17.5469418369
 20
7.451700263
 11
17.5494024855
 21
7.4592392204
  0
LINE
  5
6EA
100
AcDbEntity
  8
ALL_FEATURES
100
AcDbLine
 62
7
  6
CONTINUOUS
 10
17.714264709
 20
7.3863626898
 11
17.7167253014
 21
7.3939016401
  0
LINE
  5
6EB
100
AcDbEntity
  8
ALL_FEATURES
100
AcDbLine
 62
7
  6
CONTINUOUS
 10
17.7782410682
 20
7.4039535739
 11
17.8003867375
 21
7.4718041377
  0
LINE
  5
6EC
100
AcDbEntity
  8
ALL_FEATURES
100
AcDbLine
 62
7
  6
CONTINUOUS
 10
17.7757804195
 20
7.3939016401
 11
17.7659379374
 21
7.3637458352
  0
LINE
  5
6ED
100
AcDbEntity
  8
ALL_FEATURES
100
AcDbLine
 62
7
  6
CONTINUOUS
 10
17.9431032917
 20
7.4391353458
 11
17.9455638841
 21
7.4466742961
  0
LINE
  5
6EE
100
AcDbEntity
  8
ALL_FEATURES
100
AcDbLine
 62
7
  6
CONTINUOUS
 10
19.4218432947
 20
11.968853635
 11
19.4239266916
 21
11.975236613
  0
LINE
  5
6EF
100
AcDbEntity
  8
ALL_FEATURES
100
AcDbLine
 62
7
  6
CONTINUOUS
 10
17.9603276636
 20
7.4441613127
 11
17.9578670713
 21
7.4366223623
  0
LINE
  5
6F0
100
AcDbEntity
  8
ALL_FEATURES
100
AcDbLine
 62
7
  6
CONTINUOUS
 10
17.7511741579
 20
7.3637458352
 11
17.7905441991
 21
7.4818560715
  0
LINE
  5
6F1
100
AcDbEntity
  8
ALL_FEATURES
100
AcDbLine
 62
7
  6
CONTINUOUS
 10
17.5026505264
 20
7.3913886567
 11
17.4977292572
 21
7.3813367211
  0
LINE
  5
6F2
100
AcDbEntity
  8
ALL_FEATURES
100
AcDbLine
 62
7
  6
CONTINUOUS
 10
15.9280933901
 20
7.5287458352
 11
15.5780933901
 21
7.2537458352
  0
LINE
  5
6F3
100
AcDbEntity
  8
ALL_FEATURES
100
AcDbLine
 62
7
  6
CONTINUOUS
 10
15.1271038528
 20
7.2912990282
 11
15.1311663528
 21
7.2940649853
  0
LINE
  5
6F4
100
AcDbEntity
  8
ALL_FEATURES
100
AcDbLine
 62
7
  6
CONTINUOUS
 10
15.1568955221
 20
7.2511926442
 11
15.1528330221
 21
7.2484266861
  0
LINE
  5
6F5
100
AcDbEntity
  8
ALL_FEATURES
100
AcDbLine
 62
7
  6
CONTINUOUS
 10
15.129812124
 20
11.5401288139
 11
15.1243954625
 21
11.5428947714
  0
LINE
  5
6F6
100
AcDbEntity
  8
ALL_FEATURES
100
AcDbLine
 62
7
  6
CONTINUOUS
 10
15.154187124
 20
11.6023628567
 11
15.1596037932
 21
11.5995968996
  0
LINE
  5
6F7
100
AcDbEntity
  8
ALL_FEATURES
100
AcDbLine
 62
7
  6
CONTINUOUS
 10
15.9280933901
 20
11.8487458352
 11
15.5780933901
 21
12.1237458352
  0
LINE
  5
6F8
100
AcDbEntity
  8
ALL_FEATURES
100
AcDbLine
 62
7
  6
CONTINUOUS
 10
20.2450225239
 20
7.4962261502
 11
20.1465973271
 21
7.6143363864
  0
LINE
  5
6F9
100
AcDbEntity
  8
ALL_FEATURES
100
AcDbLine
 62
7
  6
CONTINUOUS
 10
16.6155933662
 20
12.0411940609
 11
16.6218433662
 21
12.0326834236
  0
LINE
  5
6FA
100
AcDbEntity
  8
ALL_FEATURES
100
AcDbLine
 62
7
  6
CONTINUOUS
 10
17.3447599932
 20
11.9731089536
 11
17.3489266916
 21
11.9645983149
  0
LINE
  5
6FB
100
AcDbEntity
  8
ALL_FEATURES
100
AcDbLine
 62
7
  6
CONTINUOUS
 10
17.5114266916
 20
11.9837472503
 11
17.5072599932
 21
11.9922578905
  0
LINE
  5
6FC
100
AcDbEntity
  8
ALL_FEATURES
100
AcDbLine
 62
7
  6
CONTINUOUS
 10
17.4905933901
 20
12.0305557643
 11
17.4926766916
 21
12.0263004456
  0
LINE
  5
6FD
100
AcDbEntity
  8
ALL_FEATURES
100
AcDbLine
 62
7
  6
CONTINUOUS
 10
17.5455064171
 20
11.7747046981
 11
17.516799072
 21
11.8521883662
  0
LINE
  5
6FE
100
AcDbEntity
  8
ALL_FEATURES
100
AcDbLine
 62
7
  6
CONTINUOUS
 10
17.7697599932
 20
11.9497046981
 11
17.7405933901
 21
12.0284281049
  0
LINE
  5
6FF
100
AcDbEntity
  8
ALL_FEATURES
100
AcDbLine
 62
7
  6
CONTINUOUS
 10
17.5229506468
 20
11.873129895
 11
17.5537085208
 21
11.785175464
  0
LINE
  5
700
100
AcDbEntity
  8
ALL_FEATURES
100
AcDbLine
 62
7
  6
CONTINUOUS
 10
17.7468433901
 20
12.0497046981
 11
17.7780933901
 21
11.9603429962
  0
LINE
  5
701
100
AcDbEntity
  8
ALL_FEATURES
100
AcDbLine
 62
7
  6
CONTINUOUS
 10
17.5051766916
 20
12.0263004456
 11
17.5030933901
 21
12.0326834236
  0
LINE
  5
702
100
AcDbEntity
  8
ALL_FEATURES
100
AcDbLine
 62
7
  6
CONTINUOUS
 10
17.8797419854
 20
11.8500942134
 11
17.8776914448
 21
11.856376672
  0
LINE
  5
703
100
AcDbEntity
  8
ALL_FEATURES
100
AcDbLine
 62
7
  6
CONTINUOUS
 10
17.8899945944
 20
11.856376672
 11
17.892045135
 21
11.8500942134
  0
LINE
  5
704
100
AcDbEntity
  8
ALL_FEATURES
100
AcDbLine
 62
7
  6
CONTINUOUS
 10
17.8593432947
 20
11.975236613
 11
17.8572600885
 21
11.9837472503
  0
LINE
  5
705
100
AcDbEntity
  8
ALL_FEATURES
100
AcDbLine
 62
7
  6
CONTINUOUS
 10
17.9135100885
 20
12.0241727803
 11
17.9155932947
 21
12.015662143
  0
LINE
  5
706
100
AcDbEntity
  8
ALL_FEATURES
100
AcDbLine
 62
7
  6
CONTINUOUS
 10
17.9593432947
 20
11.975236613
 11
17.9572600885
 21
11.9837472503
  0
LINE
  5
707
100
AcDbEntity
  8
ALL_FEATURES
100
AcDbLine
 62
7
  6
CONTINUOUS
 10
19.0946781512
 20
7.3939016401
 11
19.0922174462
 21
7.4039535739
  0
LINE
  5
708
100
AcDbEntity
  8
ALL_FEATURES
100
AcDbLine
 62
7
  6
CONTINUOUS
 10
19.1586544541
 20
7.451700263
 11
19.1611151591
 21
7.4416483292
  0
LINE
  5
709
100
AcDbEntity
  8
ALL_FEATURES
100
AcDbLine
 62
7
  6
CONTINUOUS
 10
17.8468432947
 20
11.9731089536
 11
17.8447600885
 21
11.9837472503
  0
LINE
  5
70A
100
AcDbEntity
  8
ALL_FEATURES
100
AcDbLine
 62
7
  6
CONTINUOUS
 10
17.9260100885
 20
12.0263004456
 11
17.9280932947
 21
12.015662143
  0
LINE
  5
70B
100
AcDbEntity
  8
ALL_FEATURES
100
AcDbLine
 62
7
  6
CONTINUOUS
 10
17.9447600885
 20
11.9837472503
 11
17.9468432947
 21
11.9731089536
  0
LINE
  5
70C
100
AcDbEntity
  8
ALL_FEATURES
100
AcDbLine
 62
7
  6
CONTINUOUS
 10
19.0799143717
 20
7.3913886567
 11
19.0774536667
 21
7.4039535739
  0
LINE
  5
70D
100
AcDbEntity
  8
ALL_FEATURES
100
AcDbLine
 62
7
  6
CONTINUOUS
 10
18.1545123109
 20
11.8165877615
 11
18.1565628515
 21
11.8019286884
  0
LINE
  5
70E
100
AcDbEntity
  8
ALL_FEATURES
100
AcDbLine
 62
7
  6
CONTINUOUS
 10
18.6788316194
 20
7.4818560715
 11
18.6788316194
 21
7.3637458352
  0
LINE
  5
70F
100
AcDbEntity
  8
ALL_FEATURES
100
AcDbLine
 62
7
  6
CONTINUOUS
 10
18.6885100885
 20
11.9794919316
 11
18.6885100885
 21
11.9922578905
  0
LINE
  5
710
100
AcDbEntity
  8
ALL_FEATURES
100
AcDbLine
 62
7
  6
CONTINUOUS
 10
18.6985166963
 20
7.4692911542
 11
18.6985166963
 21
7.4818560715
  0
LINE
  5
711
100
AcDbEntity
  8
ALL_FEATURES
100
AcDbLine
 62
7
  6
CONTINUOUS
 10
18.7122550774
 20
11.8438117489
 11
18.7122550774
 21
11.8480000546
  0
LINE
  5
712
100
AcDbEntity
  8
ALL_FEATURES
100
AcDbLine
 62
7
  6
CONTINUOUS
 10
18.7143056649
 20
11.7998345356
 11
18.7143056649
 21
11.8061169942
  0
LINE
  5
713
100
AcDbEntity
  8
ALL_FEATURES
100
AcDbLine
 62
7
  6
CONTINUOUS
 10
18.7225077334
 20
11.841717596
 11
18.7225077334
 21
11.8480000546
  0
LINE
  5
714
100
AcDbEntity
  8
ALL_FEATURES
100
AcDbLine
 62
7
  6
CONTINUOUS
 10
18.724558227
 20
11.7998345356
 11
18.724558227
 21
11.8061169942
  0
LINE
  5
715
100
AcDbEntity
  8
ALL_FEATURES
100
AcDbLine
 62
7
  6
CONTINUOUS
 10
18.7378867375
 20
7.3637458352
 11
18.7378867375
 21
7.4692911542
  0
LINE
  5
716
100
AcDbEntity
  8
ALL_FEATURES
100
AcDbLine
 62
7
  6
CONTINUOUS
 10
18.7385100885
 20
12.0326834236
 11
18.7385100885
 21
11.9922578905
  0
LINE
  5
717
100
AcDbEntity
  8
ALL_FEATURES
100
AcDbLine
 62
7
  6
CONTINUOUS
 10
18.7385100885
 20
11.9497046981
 11
18.7385100885
 21
11.9794919316
  0
LINE
  5
718
100
AcDbEntity
  8
ALL_FEATURES
100
AcDbLine
 62
7
  6
CONTINUOUS
 10
18.7409624578
 20
11.8103052999
 11
18.7409624578
 21
11.8207760673
  0
LINE
  5
719
100
AcDbEntity
  8
ALL_FEATURES
100
AcDbLine
 62
7
  6
CONTINUOUS
 10
18.7510100885
 20
12.0497046981
 11
18.7510100885
 21
11.9922578905
  0
LINE
  5
71A
100
AcDbEntity
  8
ALL_FEATURES
100
AcDbLine
 62
7
  6
CONTINUOUS
 10
18.7510100885
 20
11.9794919316
 11
18.7510100885
 21
11.9497046981
  0
LINE
  5
71B
100
AcDbEntity
  8
ALL_FEATURES
100
AcDbLine
 62
7
  6
CONTINUOUS
 10
18.752650517
 20
7.4692911542
 11
18.752650517
 21
7.3637458352
  0
LINE
  5
71C
100
AcDbEntity
  8
ALL_FEATURES
100
AcDbLine
 62
7
  6
CONTINUOUS
 10
18.7696698382
 20
11.8207760673
 11
18.7696698382
 21
11.8103052999
  0
LINE
  5
71D
100
AcDbEntity
  8
ALL_FEATURES
100
AcDbLine
 62
7
  6
CONTINUOUS
 10
18.7718432947
 20
11.9922578905
 11
18.7718432947
 21
11.9794919316
  0
LINE
  5
71E
100
AcDbEntity
  8
ALL_FEATURES
100
AcDbLine
 62
7
  6
CONTINUOUS
 10
18.7860739751
 20
11.8333409845
 11
18.7860739751
 21
11.8144936086
  0
LINE
  5
71F
100
AcDbEntity
  8
ALL_FEATURES
100
AcDbLine
 62
7
  6
CONTINUOUS
 10
18.7885100885
 20
11.9497046981
 11
18.7885100885
 21
11.9603429962
  0
LINE
  5
720
100
AcDbEntity
  8
ALL_FEATURES
100
AcDbLine
 62
7
  6
CONTINUOUS
 10
18.7920205582
 20
7.4818560715
 11
18.7920205582
 21
7.4692911542
  0
LINE
  5
721
100
AcDbEntity
  8
ALL_FEATURES
100
AcDbLine
 62
7
  6
CONTINUOUS
 10
18.796326631
 20
11.8312468316
 11
18.796326631
 21
11.8165877615
  0
LINE
  5
722
100
AcDbEntity
  8
ALL_FEATURES
100
AcDbLine
 62
7
  6
CONTINUOUS
 10
18.7989266916
 20
11.9603429962
 11
18.7989266916
 21
11.9497046981
  0
LINE
  5
723
100
AcDbEntity
  8
ALL_FEATURES
100
AcDbLine
 62
7
  6
CONTINUOUS
 10
18.8489266916
 20
11.9965132092
 11
18.8489266916
 21
12.0050238464
  0
LINE
  5
724
100
AcDbEntity
  8
ALL_FEATURES
100
AcDbLine
 62
7
  6
CONTINUOUS
 10
18.8496403106
 20
11.8165877615
 11
18.8496403106
 21
11.8312468316
  0
LINE
  5
725
100
AcDbEntity
  8
ALL_FEATURES
100
AcDbLine
 62
7
  6
CONTINUOUS
 10
18.8598928727
 20
11.8144936086
 11
18.8598928727
 21
11.8333409845
  0
LINE
  5
726
100
AcDbEntity
  8
ALL_FEATURES
100
AcDbLine
 62
7
  6
CONTINUOUS
 10
18.8762971035
 20
11.8061169942
 11
18.8762971035
 21
11.7998345356
  0
LINE
  5
727
100
AcDbEntity
  8
ALL_FEATURES
100
AcDbLine
 62
7
  6
CONTINUOUS
 10
18.8780932947
 20
12.022045121
 11
18.8780932947
 21
12.0263004456
  0
LINE
  5
728
100
AcDbEntity
  8
ALL_FEATURES
100
AcDbLine
 62
7
  6
CONTINUOUS
 10
18.8783475971
 20
11.8480000546
 11
18.8783475971
 21
11.841717596
  0
LINE
  5
729
100
AcDbEntity
  8
ALL_FEATURES
100
AcDbLine
 62
7
  6
CONTINUOUS
 10
18.8801766916
 20
11.9731089536
 11
18.8801766916
 21
11.9816195909
  0
LINE
  5
72A
100
AcDbEntity
  8
ALL_FEATURES
100
AcDbLine
 62
7
  6
CONTINUOUS
 10
18.8865497594
 20
11.8061169942
 11
18.8865497594
 21
11.7998345356
  0
LINE
  5
72B
100
AcDbEntity
  8
ALL_FEATURES
100
AcDbLine
 62
7
  6
CONTINUOUS
 10
18.8885100885
 20
12.0263004456
 11
18.8885100885
 21
12.022045121
  0
LINE
  5
72C
100
AcDbEntity
  8
ALL_FEATURES
100
AcDbLine
 62
7
  6
CONTINUOUS
 10
18.8886002531
 20
11.8480000546
 11
18.8886002531
 21
11.8438117489
  0
LINE
  5
72D
100
AcDbEntity
  8
ALL_FEATURES
100
AcDbLine
 62
7
  6
CONTINUOUS
 10
18.8905932947
 20
11.9816195909
 11
18.8905932947
 21
11.9731089536
  0
LINE
  5
72E
100
AcDbEntity
  8
ALL_FEATURES
100
AcDbLine
 62
7
  6
CONTINUOUS
 10
18.9298158714
 20
7.4692911542
 11
18.9298158714
 21
7.4818560715
  0
LINE
  5
72F
100
AcDbEntity
  8
ALL_FEATURES
100
AcDbLine
 62
7
  6
CONTINUOUS
 10
18.9378128515
 20
11.8438117489
 11
18.9378128515
 21
11.8480000546
  0
LINE
  5
730
100
AcDbEntity
  8
ALL_FEATURES
100
AcDbLine
 62
7
  6
CONTINUOUS
 10
18.9398633452
 20
11.7998345356
 11
18.9398633452
 21
11.8061169942
  0
LINE
  5
731
100
AcDbEntity
  8
ALL_FEATURES
100
AcDbLine
 62
7
  6
CONTINUOUS
 10
18.9480655075
 20
11.841717596
 11
18.9480655075
 21
11.8480000546
  0
LINE
  5
732
100
AcDbEntity
  8
ALL_FEATURES
100
AcDbLine
 62
7
  6
CONTINUOUS
 10
18.9501160011
 20
11.7998345356
 11
18.9501160011
 21
11.8061169942
  0
LINE
  5
733
100
AcDbEntity
  8
ALL_FEATURES
100
AcDbLine
 62
7
  6
CONTINUOUS
 10
18.9691860252
 20
7.3637458352
 11
18.9691860252
 21
7.4692911542
  0
LINE
  5
734
100
AcDbEntity
  8
ALL_FEATURES
100
AcDbLine
 62
7
  6
CONTINUOUS
 10
18.9839498047
 20
7.4692911542
 11
18.9839498047
 21
7.3637458352
  0
LINE
  5
735
100
AcDbEntity
  8
ALL_FEATURES
100
AcDbLine
 62
7
  6
CONTINUOUS
 10
19.0233197333
 20
7.4818560715
 11
19.0233197333
 21
7.4692911542
  0
LINE
  5
736
100
AcDbEntity
  8
ALL_FEATURES
100
AcDbLine
 62
7
  6
CONTINUOUS
 10
19.0430049228
 20
7.3637458352
 11
19.0430049228
 21
7.4818560715
  0
LINE
  5
737
100
AcDbEntity
  8
ALL_FEATURES
100
AcDbLine
 62
7
  6
CONTINUOUS
 10
19.0577687024
 20
7.4818560715
 11
19.0577687024
 21
7.3637458352
  0
LINE
  5
738
100
AcDbEntity
  8
ALL_FEATURES
100
AcDbLine
 62
7
  6
CONTINUOUS
 10
19.0627679288
 20
11.7186961108
 11
19.0627679288
 21
11.4497046981
  0
LINE
  5
739
100
AcDbEntity
  8
ALL_FEATURES
100
AcDbLine
 62
7
  6
CONTINUOUS
 10
19.0627679288
 20
7.9277869723
 11
19.0627679288
 21
7.6587955596
  0
LINE
  5
73A
100
AcDbEntity
  8
ALL_FEATURES
100
AcDbLine
 62
7
  6
CONTINUOUS
 10
19.0676766916
 20
12.0390664015
 11
19.0676766916
 21
12.0497046981
  0
LINE
  5
73B
100
AcDbEntity
  8
ALL_FEATURES
100
AcDbLine
 62
7
  6
CONTINUOUS
 10
19.0774536667
 20
7.4039535739
 11
19.0774536667
 21
7.4416483292
  0
LINE
  5
73C
100
AcDbEntity
  8
ALL_FEATURES
100
AcDbLine
 62
7
  6
CONTINUOUS
 10
19.0922174462
 20
7.4039535739
 11
19.0922174462
 21
7.4416483292
  0
LINE
  5
73D
100
AcDbEntity
  8
ALL_FEATURES
100
AcDbLine
 62
7
  6
CONTINUOUS
 10
19.1010100885
 20
11.9497046981
 11
19.1010100885
 21
12.0390664015
  0
LINE
  5
73E
100
AcDbEntity
  8
ALL_FEATURES
100
AcDbLine
 62
7
  6
CONTINUOUS
 10
19.1635100885
 20
12.015662143
 11
19.1655932947
 21
12.0263004456
  0
LINE
  5
73F
100
AcDbEntity
  8
ALL_FEATURES
100
AcDbLine
 62
7
  6
CONTINUOUS
 10
18.3048158338
 20
7.4039535739
 11
18.3023552415
 21
7.3913886567
  0
LINE
  5
740
100
AcDbEntity
  8
ALL_FEATURES
100
AcDbLine
 62
7
  6
CONTINUOUS
 10
19.2468432947
 20
11.9837472503
 11
19.2447600885
 21
11.9731089536
  0
LINE
  5
741
100
AcDbEntity
  8
ALL_FEATURES
100
AcDbLine
 62
7
  6
CONTINUOUS
 10
19.3364266916
 20
11.9731089536
 11
19.3385100885
 21
11.9837472503
  0
LINE
  5
742
100
AcDbEntity
  8
ALL_FEATURES
100
AcDbLine
 62
7
  6
CONTINUOUS
 10
19.3551766916
 20
12.015662143
 11
19.3572600885
 21
12.0263004456
  0
LINE
  5
743
100
AcDbEntity
  8
ALL_FEATURES
100
AcDbLine
 62
7
  6
CONTINUOUS
 10
19.4364266916
 20
11.975236613
 11
19.4343432947
 21
11.9645983149
  0
LINE
  5
744
100
AcDbEntity
  8
ALL_FEATURES
100
AcDbLine
 62
7
  6
CONTINUOUS
 10
19.3260100885
 20
11.9837472503
 11
19.3239266916
 21
11.975236613
  0
LINE
  5
745
100
AcDbEntity
  8
ALL_FEATURES
100
AcDbLine
 62
7
  6
CONTINUOUS
 10
18.2211544541
 20
7.4416483292
 11
18.2236150464
 21
7.451700263
  0
LINE
  5
746
100
AcDbEntity
  8
ALL_FEATURES
100
AcDbLine
 62
7
  6
CONTINUOUS
 10
19.3697600885
 20
12.0241727803
 11
19.3676766916
 21
12.015662143
  0
LINE
  5
747
100
AcDbEntity
  8
ALL_FEATURES
100
AcDbLine
 62
7
  6
CONTINUOUS
 10
18.2900520543
 20
7.4039535739
 11
18.2875914619
 21
7.3939016401
  0
LINE
  5
748
100
AcDbEntity
  8
ALL_FEATURES
100
AcDbLine
 62
7
  6
CONTINUOUS
 10
19.7155934854
 20
12.0135344837
 11
19.7176766916
 21
12.0199174617
  0
LINE
  5
749
100
AcDbEntity
  8
ALL_FEATURES
100
AcDbLine
 62
7
  6
CONTINUOUS
 10
19.7301766916
 20
12.0177898024
 11
19.7280934854
 21
12.0114068244
  0
LINE
  5
74A
100
AcDbEntity
  8
ALL_FEATURES
100
AcDbLine
 62
7
  6
CONTINUOUS
 10
19.7697598978
 20
11.9837472503
 11
19.7885098978
 21
12.0411940609
  0
LINE
  5
74B
100
AcDbEntity
  8
ALL_FEATURES
100
AcDbLine
 62
7
  6
CONTINUOUS
 10
19.7676766916
 20
11.975236613
 11
19.7593434854
 21
11.9497046981
  0
LINE
  5
74C
100
AcDbEntity
  8
ALL_FEATURES
100
AcDbLine
 62
7
  6
CONTINUOUS
 10
18.3983198084
 20
7.4391353458
 11
18.4007804008
 21
7.4466742961
  0
LINE
  5
74D
100
AcDbEntity
  8
ALL_FEATURES
100
AcDbLine
 62
7
  6
CONTINUOUS
 10
18.4130835879
 20
7.4366223623
 11
18.4155441803
 21
7.4441613127
  0
LINE
  5
74E
100
AcDbEntity
  8
ALL_FEATURES
100
AcDbLine
 62
7
  6
CONTINUOUS
 10
19.7468434854
 20
11.9497046981
 11
19.7801766916
 21
12.0497046981
  0
LINE
  5
74F
100
AcDbEntity
  8
ALL_FEATURES
100
AcDbLine
 62
7
  6
CONTINUOUS
 10
17.6379851627
 20
7.4542132535
 11
17.6429064038
 21
7.4642651873
  0
LINE
  5
750
100
AcDbEntity
  8
ALL_FEATURES
100
AcDbLine
 62
7
  6
CONTINUOUS
 10
17.6109182524
 20
7.3813367211
 11
17.6158394934
 21
7.3913886567
  0
LINE
  5
751
100
AcDbEntity
  8
ALL_FEATURES
100
AcDbLine
 62
7
  6
CONTINUOUS
 10
17.4878867469
 20
7.3939016401
 11
17.4829654777
 21
7.3863626898
  0
LINE
  5
752
100
AcDbEntity
  8
ALL_FEATURES
100
AcDbLine
 62
7
  6
CONTINUOUS
 10
17.6010757139
 20
7.3939016401
 11
17.5961544728
 21
7.3863626898
  0
LINE
  5
753
100
AcDbEntity
  8
ALL_FEATURES
100
AcDbLine
 62
7
  6
CONTINUOUS
 10
17.6576701833
 20
7.4592392204
 11
17.6527489422
 21
7.451700263
  0
LINE
  5
754
100
AcDbEntity
  8
ALL_FEATURES
100
AcDbLine
 62
7
  6
CONTINUOUS
 10
15.1243955221
 20
7.2995968996
 11
15.1298121836
 21
7.3023628567
  0
LINE
  5
755
100
AcDbEntity
  8
ALL_FEATURES
100
AcDbLine
 62
7
  6
CONTINUOUS
 10
15.1596038528
 20
7.2428947714
 11
15.1541871836
 21
7.2401288139
  0
LINE
  5
756
100
AcDbEntity
  8
ALL_FEATURES
100
AcDbLine
 62
7
  6
CONTINUOUS
 10
15.2191871913
 20
7.270554346
 11
15.2246038528
 21
7.2733203031
  0
LINE
  5
757
100
AcDbEntity
  8
ALL_FEATURES
100
AcDbLine
 62
7
  6
CONTINUOUS
 10
15.3437705298
 20
7.270554346
 11
15.3491871758
 21
7.2733203031
  0
LINE
  5
758
100
AcDbEntity
  8
ALL_FEATURES
100
AcDbLine
 62
7
  6
CONTINUOUS
 10
15.0918954586
 20
11.5954479639
 11
15.0878329586
 21
11.5968309424
  0
LINE
  5
759
100
AcDbEntity
  8
ALL_FEATURES
100
AcDbLine
 62
7
  6
CONTINUOUS
 10
15.2178329547
 20
11.5954479639
 11
15.2137704547
 21
11.5968309424
  0
LINE
  5
75A
100
AcDbEntity
  8
ALL_FEATURES
100
AcDbLine
 62
7
  6
CONTINUOUS
 10
15.3424162932
 20
11.5954479639
 11
15.3383537932
 21
11.5968309424
  0
LINE
  5
75B
100
AcDbEntity
  8
ALL_FEATURES
100
AcDbLine
 62
7
  6
CONTINUOUS
 10
16.607260017
 20
12.0475770388
 11
16.6155933662
 21
12.0411940609
  0
LINE
  5
75C
100
AcDbEntity
  8
ALL_FEATURES
100
AcDbLine
 62
7
  6
CONTINUOUS
 10
16.6093433662
 20
12.0326834236
 11
16.6051766916
 21
12.0369387422
  0
LINE
  5
75D
100
AcDbEntity
  8
ALL_FEATURES
100
AcDbLine
 62
7
  6
CONTINUOUS
 10
17.5030933901
 20
12.0326834236
 11
17.4968433901
 21
12.0411940609
  0
LINE
  5
75E
100
AcDbEntity
  8
ALL_FEATURES
100
AcDbLine
 62
7
  6
CONTINUOUS
 10
17.6541842348
 20
11.824964373
 11
17.6193253265
 21
11.873129895
  0
LINE
  5
75F
100
AcDbEntity
  8
ALL_FEATURES
100
AcDbLine
 62
7
  6
CONTINUOUS
 10
17.6890431665
 20
11.7747046981
 11
17.6603358096
 21
11.8144936086
  0
LINE
  5
760
100
AcDbEntity
  8
ALL_FEATURES
100
AcDbLine
 62
7
  6
CONTINUOUS
 10
17.6316284761
 20
11.873129895
 11
17.6603358096
 21
11.8333409845
  0
LINE
  5
761
100
AcDbEntity
  8
ALL_FEATURES
100
AcDbLine
 62
7
  6
CONTINUOUS
 10
17.6664873844
 20
11.824964373
 11
17.7013463161
 21
11.7747046981
  0
LINE
  5
762
100
AcDbEntity
  8
ALL_FEATURES
100
AcDbLine
 62
7
  6
CONTINUOUS
 10
17.3614266916
 20
11.968853635
 11
17.3572599932
 21
11.975236613
  0
LINE
  5
763
100
AcDbEntity
  8
ALL_FEATURES
100
AcDbLine
 62
7
  6
CONTINUOUS
 10
17.4947599932
 20
11.9880025719
 11
17.4989266916
 21
11.9816195909
  0
LINE
  5
764
100
AcDbEntity
  8
ALL_FEATURES
100
AcDbLine
 62
7
  6
CONTINUOUS
 10
17.4364266916
 20
11.968853635
 11
17.4426766916
 21
11.9582153362
  0
LINE
  5
765
100
AcDbEntity
  8
ALL_FEATURES
100
AcDbLine
 62
7
  6
CONTINUOUS
 10
17.8510100885
 20
11.9645983149
 11
17.8468432947
 21
11.9731089536
  0
LINE
  5
766
100
AcDbEntity
  8
ALL_FEATURES
100
AcDbLine
 62
7
  6
CONTINUOUS
 10
17.9468432947
 20
11.9731089536
 11
17.9510100885
 21
11.9645983149
  0
LINE
  5
767
100
AcDbEntity
  8
ALL_FEATURES
100
AcDbLine
 62
7
  6
CONTINUOUS
 10
17.9218432947
 20
12.0348110829
 11
17.9260100885
 21
12.0263004456
  0
LINE
  5
768
100
AcDbEntity
  8
ALL_FEATURES
100
AcDbLine
 62
7
  6
CONTINUOUS
 10
18.1565628515
 20
11.8019286884
 11
18.1606638857
 21
11.7914579226
  0
LINE
  5
769
100
AcDbEntity
  8
ALL_FEATURES
100
AcDbLine
 62
7
  6
CONTINUOUS
 10
18.2283312555
 20
11.8123994558
 11
18.2242301743
 21
11.8228702201
  0
LINE
  5
76A
100
AcDbEntity
  8
ALL_FEATURES
100
AcDbLine
 62
7
  6
CONTINUOUS
 10
18.2447353924
 20
11.7998345356
 11
18.2488364736
 21
11.7893637697
  0
LINE
  5
76B
100
AcDbEntity
  8
ALL_FEATURES
100
AcDbLine
 62
7
  6
CONTINUOUS
 10
18.31855429
 20
11.8061169942
 11
18.3144533027
 21
11.8165877615
  0
LINE
  5
76C
100
AcDbEntity
  8
ALL_FEATURES
100
AcDbLine
 62
7
  6
CONTINUOUS
 10
18.3165037964
 20
11.8480000546
 11
18.3124027152
 21
11.8584708249
  0
LINE
  5
76D
100
AcDbEntity
  8
ALL_FEATURES
100
AcDbLine
 62
7
  6
CONTINUOUS
 10
18.1668154605
 20
11.8040228413
 11
18.1688660011
 21
11.7977403827
  0
LINE
  5
76E
100
AcDbEntity
  8
ALL_FEATURES
100
AcDbLine
 62
7
  6
CONTINUOUS
 10
18.2180785995
 20
11.8103052999
 11
18.2160281059
 21
11.8165877615
  0
LINE
  5
76F
100
AcDbEntity
  8
ALL_FEATURES
100
AcDbLine
 62
7
  6
CONTINUOUS
 10
18.2242301743
 20
11.8500942134
 11
18.2221796807
 21
11.856376672
  0
LINE
  5
770
100
AcDbEntity
  8
ALL_FEATURES
100
AcDbLine
 62
7
  6
CONTINUOUS
 10
18.4415857861
 20
11.8144936086
 11
18.4436363736
 21
11.8082111471
  0
LINE
  5
771
100
AcDbEntity
  8
ALL_FEATURES
100
AcDbLine
 62
7
  6
CONTINUOUS
 10
19.1734182336
 20
7.4542132535
 11
19.1758789386
 21
7.4416483292
  0
LINE
  5
772
100
AcDbEntity
  8
ALL_FEATURES
100
AcDbLine
 62
7
  6
CONTINUOUS
 10
18.5441120641
 20
11.8312468316
 11
18.5420615705
 21
11.8459059017
  0
LINE
  5
773
100
AcDbEntity
  8
ALL_FEATURES
100
AcDbLine
 62
7
  6
CONTINUOUS
 10
18.5605162949
 20
11.8165877615
 11
18.5625667885
 21
11.8019286884
  0
LINE
  5
774
100
AcDbEntity
  8
ALL_FEATURES
100
AcDbLine
 62
7
  6
CONTINUOUS
 10
19.1135100885
 20
12.0390664015
 11
19.1135100885
 21
11.9497046981
  0
LINE
  5
775
100
AcDbEntity
  8
ALL_FEATURES
100
AcDbLine
 62
7
  6
CONTINUOUS
 10
19.1468432947
 20
12.0497046981
 11
19.1468432947
 21
12.0390664015
  0
LINE
  5
776
100
AcDbEntity
  8
ALL_FEATURES
100
AcDbLine
 62
7
  6
CONTINUOUS
 10
19.1611151591
 20
7.4416483292
 11
19.1611151591
 21
7.4039535739
  0
LINE
  5
777
100
AcDbEntity
  8
ALL_FEATURES
100
AcDbLine
 62
7
  6
CONTINUOUS
 10
19.1635100885
 20
11.9837472503
 11
19.1635100885
 21
12.015662143
  0
LINE
  5
778
100
AcDbEntity
  8
ALL_FEATURES
100
AcDbLine
 62
7
  6
CONTINUOUS
 10
19.1758789386
 20
7.4416483292
 11
19.1758789386
 21
7.4039535739
  0
LINE
  5
779
100
AcDbEntity
  8
ALL_FEATURES
100
AcDbLine
 62
7
  6
CONTINUOUS
 10
19.1760100885
 20
11.9837472503
 11
19.1760100885
 21
12.015662143
  0
LINE
  5
77A
100
AcDbEntity
  8
ALL_FEATURES
100
AcDbLine
 62
7
  6
CONTINUOUS
 10
19.1955639029
 20
7.3637458352
 11
19.1955639029
 21
7.4818560715
  0
LINE
  5
77B
100
AcDbEntity
  8
ALL_FEATURES
100
AcDbLine
 62
7
  6
CONTINUOUS
 10
19.2103276824
 20
7.4667781708
 11
19.2103276824
 21
7.3637458352
  0
LINE
  5
77C
100
AcDbEntity
  8
ALL_FEATURES
100
AcDbLine
 62
7
  6
CONTINUOUS
 10
19.2343432947
 20
12.015662143
 11
19.2343432947
 21
11.9837472503
  0
LINE
  5
77D
100
AcDbEntity
  8
ALL_FEATURES
100
AcDbLine
 62
7
  6
CONTINUOUS
 10
19.2468432947
 20
12.015662143
 11
19.2468432947
 21
11.9837472503
  0
LINE
  5
77E
100
AcDbEntity
  8
ALL_FEATURES
100
AcDbLine
 62
7
  6
CONTINUOUS
 10
19.2635100885
 20
12.0497046981
 11
19.2635100885
 21
11.9837472503
  0
LINE
  5
77F
100
AcDbEntity
  8
ALL_FEATURES
100
AcDbLine
 62
7
  6
CONTINUOUS
 10
19.2760100885
 20
11.9837472503
 11
19.2760100885
 21
12.0497046981
  0
LINE
  5
780
100
AcDbEntity
  8
ALL_FEATURES
100
AcDbLine
 62
7
  6
CONTINUOUS
 10
19.2792253953
 20
7.3813367211
 11
19.2792253953
 21
7.4818560715
  0
LINE
  5
781
100
AcDbEntity
  8
ALL_FEATURES
100
AcDbLine
 62
7
  6
CONTINUOUS
 10
19.2939891748
 20
7.4818560715
 11
19.2939891748
 21
7.3637458352
  0
LINE
  5
782
100
AcDbEntity
  8
ALL_FEATURES
100
AcDbLine
 62
7
  6
CONTINUOUS
 10
19.3260100885
 20
12.0497046981
 11
19.3260100885
 21
11.9837472503
  0
LINE
  5
783
100
AcDbEntity
  8
ALL_FEATURES
100
AcDbLine
 62
7
  6
CONTINUOUS
 10
19.3385100885
 20
11.9837472503
 11
19.3385100885
 21
12.0497046981
  0
LINE
  5
784
100
AcDbEntity
  8
ALL_FEATURES
100
AcDbLine
 62
7
  6
CONTINUOUS
 10
19.3551766916
 20
11.9837472503
 11
19.3551766916
 21
12.015662143
  0
LINE
  5
785
100
AcDbEntity
  8
ALL_FEATURES
100
AcDbLine
 62
7
  6
CONTINUOUS
 10
19.3676766916
 20
12.015662143
 11
19.3676766916
 21
11.9837472503
  0
LINE
  5
786
100
AcDbEntity
  8
ALL_FEATURES
100
AcDbLine
 62
7
  6
CONTINUOUS
 10
19.4530934854
 20
11.9497046981
 11
19.4530934854
 21
12.0497046981
  0
LINE
  5
787
100
AcDbEntity
  8
ALL_FEATURES
100
AcDbLine
 62
7
  6
CONTINUOUS
 10
19.4655934854
 20
12.0497046981
 11
19.4655934854
 21
12.0092791651
  0
LINE
  5
788
100
AcDbEntity
  8
ALL_FEATURES
100
AcDbLine
 62
7
  6
CONTINUOUS
 10
19.4655934854
 20
11.9965132092
 11
19.4655934854
 21
11.9497046981
  0
LINE
  5
789
100
AcDbEntity
  8
ALL_FEATURES
100
AcDbLine
 62
7
  6
CONTINUOUS
 10
19.5239266916
 20
11.9497046981
 11
19.5239266916
 21
11.9965132092
  0
LINE
  5
78A
100
AcDbEntity
  8
ALL_FEATURES
100
AcDbLine
 62
7
  6
CONTINUOUS
 10
19.5239266916
 20
12.0092791651
 11
19.5239266916
 21
12.0497046981
  0
LINE
  5
78B
100
AcDbEntity
  8
ALL_FEATURES
100
AcDbLine
 62
7
  6
CONTINUOUS
 10
19.0774536667
 20
7.4416483292
 11
19.0799143717
 21
7.4542132535
  0
LINE
  5
78C
100
AcDbEntity
  8
ALL_FEATURES
100
AcDbLine
 62
7
  6
CONTINUOUS
 10
18.8387726018
 20
7.4039535739
 11
18.8609182711
 21
7.4718041377
  0
LINE
  5
78D
100
AcDbEntity
  8
ALL_FEATURES
100
AcDbLine
 62
7
  6
CONTINUOUS
 10
18.8363118968
 20
7.3939016401
 11
18.8264694147
 21
7.3637458352
  0
LINE
  5
78E
100
AcDbEntity
  8
ALL_FEATURES
100
AcDbLine
 62
7
  6
CONTINUOUS
 10
18.8117056352
 20
7.3637458352
 11
18.8510756763
 21
7.4818560715
  0
LINE
  5
78F
100
AcDbEntity
  8
ALL_FEATURES
100
AcDbLine
 62
7
  6
CONTINUOUS
 10
18.2088512669
 20
7.4542132535
 11
18.2137725643
 21
7.4642651873
  0
LINE
  5
790
100
AcDbEntity
  8
ALL_FEATURES
100
AcDbLine
 62
7
  6
CONTINUOUS
 10
18.3023552415
 20
7.3913886567
 11
18.2974339441
 21
7.3813367211
  0
LINE
  5
791
100
AcDbEntity
  8
ALL_FEATURES
100
AcDbLine
 62
7
  6
CONTINUOUS
 10
18.2236150464
 20
7.451700263
 11
18.2285363438
 21
7.4592392204
  0
LINE
  5
792
100
AcDbEntity
  8
ALL_FEATURES
100
AcDbLine
 62
7
  6
CONTINUOUS
 10
18.2875914619
 20
7.3939016401
 11
18.2826701645
 21
7.3863626898
  0
LINE
  5
793
100
AcDbEntity
  8
ALL_FEATURES
100
AcDbLine
 62
7
  6
CONTINUOUS
 10
17.9578670713
 20
7.4366223623
 11
17.9504851815
 21
7.4265704285
  0
LINE
  5
794
100
AcDbEntity
  8
ALL_FEATURES
100
AcDbLine
 62
7
  6
CONTINUOUS
 10
17.5444812445
 20
7.4743171211
 11
17.534638706
 21
7.4642651873
  0
LINE
  5
795
100
AcDbEntity
  8
ALL_FEATURES
100
AcDbLine
 62
7
  6
CONTINUOUS
 10
17.4977292572
 20
7.3813367211
 11
17.4878867469
 21
7.3712847865
  0
LINE
  5
796
100
AcDbEntity
  8
ALL_FEATURES
100
AcDbLine
 62
7
  6
CONTINUOUS
 10
17.6429064038
 20
7.4642651873
 11
17.6527489422
 21
7.4743171211
  0
LINE
  5
797
100
AcDbEntity
  8
ALL_FEATURES
100
AcDbLine
 62
7
  6
CONTINUOUS
 10
17.6010757139
 20
7.3712847865
 11
17.6109182524
 21
7.3813367211
  0
LINE
  5
798
100
AcDbEntity
  8
ALL_FEATURES
100
AcDbLine
 62
7
  6
CONTINUOUS
 10
17.7290284886
 20
7.3813367211
 11
17.7191859501
 21
7.3712847865
  0
LINE
  5
799
100
AcDbEntity
  8
ALL_FEATURES
100
AcDbLine
 62
7
  6
CONTINUOUS
 10
15.0878330182
 20
7.2760862602
 11
15.0918955182
 21
7.2774692387
  0
LINE
  5
79A
100
AcDbEntity
  8
ALL_FEATURES
100
AcDbLine
 62
7
  6
CONTINUOUS
 10
15.2137705143
 20
7.2760862602
 11
15.2178330143
 21
7.2774692387
  0
LINE
  5
79B
100
AcDbEntity
  8
ALL_FEATURES
100
AcDbLine
 62
7
  6
CONTINUOUS
 10
15.1365829625
 20
11.5387458352
 11
15.129812124
 21
11.5401288139
  0
LINE
  5
79C
100
AcDbEntity
  8
ALL_FEATURES
100
AcDbLine
 62
7
  6
CONTINUOUS
 10
15.0864787932
 20
11.6037458352
 11
15.0932496278
 21
11.6023628567
  0
LINE
  5
79D
100
AcDbEntity
  8
ALL_FEATURES
100
AcDbLine
 62
7
  6
CONTINUOUS
 10
15.1474162932
 20
11.6037458352
 11
15.154187124
 21
11.6023628567
  0
LINE
  5
79E
100
AcDbEntity
  8
ALL_FEATURES
100
AcDbLine
 62
7
  6
CONTINUOUS
 10
15.2191871317
 20
11.6023628567
 11
15.2124162932
 21
11.6037458352
  0
LINE
  5
79F
100
AcDbEntity
  8
ALL_FEATURES
100
AcDbLine
 62
7
  6
CONTINUOUS
 10
15.3437704702
 20
11.6023628567
 11
15.3369996162
 21
11.6037458352
  0
LINE
  5
7A0
100
AcDbEntity
  8
ALL_FEATURES
100
AcDbLine
 62
7
  6
CONTINUOUS
 10
15.1365829625
 20
11.5470437075
 11
15.1311662932
 21
11.5484266861
  0
LINE
  5
7A1
100
AcDbEntity
  8
ALL_FEATURES
100
AcDbLine
 62
7
  6
CONTINUOUS
 10
15.1474162932
 20
11.5954479639
 11
15.1528329625
 21
11.5940649853
  0
LINE
  5
7A2
100
AcDbEntity
  8
ALL_FEATURES
100
AcDbLine
 62
7
  6
CONTINUOUS
 10
17.3489266916
 20
11.9645983149
 11
17.3572599932
 21
11.9560876768
  0
LINE
  5
7A3
100
AcDbEntity
  8
ALL_FEATURES
100
AcDbLine
 62
7
  6
CONTINUOUS
 10
17.4551766916
 20
11.9645983149
 11
17.4489266916
 21
11.9709812943
  0
LINE
  5
7A4
100
AcDbEntity
  8
ALL_FEATURES
100
AcDbLine
 62
7
  6
CONTINUOUS
 10
17.4426766916
 20
12.0092791651
 11
17.4510099932
 21
12.0007685278
  0
LINE
  5
7A5
100
AcDbEntity
  8
ALL_FEATURES
100
AcDbLine
 62
7
  6
CONTINUOUS
 10
17.5072599932
 20
11.9922578905
 11
17.4989266916
 21
12.0007685278
  0
LINE
  5
7A6
100
AcDbEntity
  8
ALL_FEATURES
100
AcDbLine
 62
7
  6
CONTINUOUS
 10
17.4864266916
 20
12.0348110829
 11
17.4905933901
 21
12.0305557643
  0
LINE
  5
7A7
100
AcDbEntity
  8
ALL_FEATURES
100
AcDbLine
 62
7
  6
CONTINUOUS
 10
17.8776914448
 20
11.856376672
 11
17.8735904106
 21
11.8605649777
  0
LINE
  5
7A8
100
AcDbEntity
  8
ALL_FEATURES
100
AcDbLine
 62
7
  6
CONTINUOUS
 10
17.8838430196
 20
11.8647532835
 11
17.8899945944
 21
11.856376672
  0
LINE
  5
7A9
100
AcDbEntity
  8
ALL_FEATURES
100
AcDbLine
 62
7
  6
CONTINUOUS
 10
18.1606638857
 20
11.7914579226
 11
18.1668154605
 21
11.7830813104
  0
LINE
  5
7AA
100
AcDbEntity
  8
ALL_FEATURES
100
AcDbLine
 62
7
  6
CONTINUOUS
 10
18.2549880484
 20
11.7998345356
 11
18.2611396232
 21
11.7914579226
  0
LINE
  5
7AB
100
AcDbEntity
  8
ALL_FEATURES
100
AcDbLine
 62
7
  6
CONTINUOUS
 10
18.2221796807
 20
11.856376672
 11
18.2160281059
 21
11.8647532835
  0
LINE
  5
7AC
100
AcDbEntity
  8
ALL_FEATURES
100
AcDbLine
 62
7
  6
CONTINUOUS
 10
17.8635100885
 20
11.968853635
 11
17.8593432947
 21
11.975236613
  0
LINE
  5
7AD
100
AcDbEntity
  8
ALL_FEATURES
100
AcDbLine
 62
7
  6
CONTINUOUS
 10
17.9093432947
 20
12.0305557643
 11
17.9135100885
 21
12.0241727803
  0
LINE
  5
7AE
100
AcDbEntity
  8
ALL_FEATURES
100
AcDbLine
 62
7
  6
CONTINUOUS
 10
17.9635100885
 20
11.968853635
 11
17.9593432947
 21
11.975236613
  0
LINE
  5
7AF
100
AcDbEntity
  8
ALL_FEATURES
100
AcDbLine
 62
7
  6
CONTINUOUS
 10
18.1688660011
 20
11.7977403827
 11
18.1729670353
 21
11.7914579226
  0
LINE
  5
7B0
100
AcDbEntity
  8
ALL_FEATURES
100
AcDbLine
 62
7
  6
CONTINUOUS
 10
18.2098765311
 20
11.856376672
 11
18.2139775184
 21
11.8500942134
  0
LINE
  5
7B1
100
AcDbEntity
  8
ALL_FEATURES
100
AcDbLine
 62
7
  6
CONTINUOUS
 10
18.257038542
 20
11.8438117489
 11
18.2611396232
 21
11.8375292902
  0
LINE
  5
7B2
100
AcDbEntity
  8
ALL_FEATURES
100
AcDbLine
 62
7
  6
CONTINUOUS
 10
18.3062511404
 20
11.8480000546
 11
18.3021501531
 21
11.8542825191
  0
LINE
  5
7B3
100
AcDbEntity
  8
ALL_FEATURES
100
AcDbLine
 62
7
  6
CONTINUOUS
 10
17.9761166416
 20
11.873129895
 11
18.0273797806
 21
11.7893637697
  0
LINE
  5
7B4
100
AcDbEntity
  8
ALL_FEATURES
100
AcDbLine
 62
7
  6
CONTINUOUS
 10
18.0551766916
 20
12.0497046981
 11
18.1072600885
 21
11.9645983149
  0
LINE
  5
7B5
100
AcDbEntity
  8
ALL_FEATURES
100
AcDbLine
 62
7
  6
CONTINUOUS
 10
18.0212282058
 20
11.7747046981
 11
17.9699650668
 21
11.8605649777
  0
LINE
  5
7B6
100
AcDbEntity
  8
ALL_FEATURES
100
AcDbLine
 62
7
  6
CONTINUOUS
 10
18.1010100885
 20
11.9497046981
 11
18.0489266916
 21
12.0369387422
  0
LINE
  5
7B7
100
AcDbEntity
  8
ALL_FEATURES
100
AcDbLine
 62
7
  6
CONTINUOUS
 10
18.2467859799
 20
11.841717596
 11
18.2508869672
 21
11.8333409845
  0
LINE
  5
7B8
100
AcDbEntity
  8
ALL_FEATURES
100
AcDbLine
 62
7
  6
CONTINUOUS
 10
18.3800700381
 20
11.7998345356
 11
18.3841711192
 21
11.7914579226
  0
LINE
  5
7B9
100
AcDbEntity
  8
ALL_FEATURES
100
AcDbLine
 62
7
  6
CONTINUOUS
 10
18.3964742688
 20
11.7914579226
 11
18.3923731877
 21
11.7998345356
  0
LINE
  5
7BA
100
AcDbEntity
  8
ALL_FEATURES
100
AcDbLine
 62
7
  6
CONTINUOUS
 10
18.4538889357
 20
11.8103052999
 11
18.4497879484
 21
11.8207760673
  0
LINE
  5
7BB
100
AcDbEntity
  8
ALL_FEATURES
100
AcDbLine
 62
7
  6
CONTINUOUS
 10
18.4702931665
 20
11.8375292902
 11
18.4743942476
 21
11.8270585259
  0
LINE
  5
7BC
100
AcDbEntity
  8
ALL_FEATURES
100
AcDbLine
 62
7
  6
CONTINUOUS
 10
18.5420615705
 20
11.8459059017
 11
18.5379604893
 21
11.856376672
  0
LINE
  5
7BD
100
AcDbEntity
  8
ALL_FEATURES
100
AcDbLine
 62
7
  6
CONTINUOUS
 10
18.5625667885
 20
11.8019286884
 11
18.5666678697
 21
11.7914579226
  0
LINE
  5
7BE
100
AcDbEntity
  8
ALL_FEATURES
100
AcDbLine
 62
7
  6
CONTINUOUS
 10
18.6343351925
 20
11.8123994558
 11
18.6302341113
 21
11.8228702201
  0
LINE
  5
7BF
100
AcDbEntity
  8
ALL_FEATURES
100
AcDbLine
 62
7
  6
CONTINUOUS
 10
18.6507393294
 20
11.7998345356
 11
18.6548404106
 21
11.7893637697
  0
LINE
  5
7C0
100
AcDbEntity
  8
ALL_FEATURES
100
AcDbLine
 62
7
  6
CONTINUOUS
 10
18.724558227
 20
11.8061169942
 11
18.7204572397
 21
11.8165877615
  0
LINE
  5
7C1
100
AcDbEntity
  8
ALL_FEATURES
100
AcDbLine
 62
7
  6
CONTINUOUS
 10
18.7225077334
 20
11.8480000546
 11
18.7184066522
 21
11.8584708249
  0
LINE
  5
7C2
100
AcDbEntity
  8
ALL_FEATURES
100
AcDbLine
 62
7
  6
CONTINUOUS
 10
18.4743942476
 20
11.7977403827
 11
18.4764447413
 21
11.7914579226
  0
LINE
  5
7C3
100
AcDbEntity
  8
ALL_FEATURES
100
AcDbLine
 62
7
  6
CONTINUOUS
 10
18.4805458224
 20
11.8396234431
 11
18.4825963161
 21
11.8333409845
  0
LINE
  5
7C4
100
AcDbEntity
  8
ALL_FEATURES
100
AcDbLine
 62
7
  6
CONTINUOUS
 10
18.5318089145
 20
11.8438117489
 11
18.5297584209
 21
11.8500942134
  0
LINE
  5
7C5
100
AcDbEntity
  8
ALL_FEATURES
100
AcDbLine
 62
7
  6
CONTINUOUS
 10
18.5728194445
 20
11.8040228413
 11
18.5748699381
 21
11.7977403827
  0
LINE
  5
7C6
100
AcDbEntity
  8
ALL_FEATURES
100
AcDbLine
 62
7
  6
CONTINUOUS
 10
18.6240825365
 20
11.8103052999
 11
18.6220320429
 21
11.8165877615
  0
LINE
  5
7C7
100
AcDbEntity
  8
ALL_FEATURES
100
AcDbLine
 62
7
  6
CONTINUOUS
 10
18.6302341113
 20
11.8500942134
 11
18.6281836177
 21
11.856376672
  0
LINE
  5
7C8
100
AcDbEntity
  8
ALL_FEATURES
100
AcDbLine
 62
7
  6
CONTINUOUS
 10
18.7881245626
 20
11.8040228413
 11
18.7901750562
 21
11.7977403827
  0
LINE
  5
7C9
100
AcDbEntity
  8
ALL_FEATURES
100
AcDbLine
 62
7
  6
CONTINUOUS
 10
18.8176766916
 20
11.9667259742
 11
18.8155932947
 21
11.9731089536
  0
LINE
  5
7CA
100
AcDbEntity
  8
ALL_FEATURES
100
AcDbLine
 62
7
  6
CONTINUOUS
 10
18.8578423791
 20
11.8438117489
 11
18.8557918854
 21
11.8500942134
  0
LINE
  5
7CB
100
AcDbEntity
  8
ALL_FEATURES
100
AcDbLine
 62
7
  6
CONTINUOUS
 10
18.8885100885
 20
11.9901302312
 11
18.8905932947
 21
11.9816195909
  0
LINE
  5
7CC
100
AcDbEntity
  8
ALL_FEATURES
100
AcDbLine
 62
7
  6
CONTINUOUS
 10
18.8864266916
 20
12.0348110829
 11
18.8885100885
 21
12.0263004456
  0
LINE
  5
7CD
100
AcDbEntity
  8
ALL_FEATURES
100
AcDbLine
 62
7
  6
CONTINUOUS
 10
18.7860739751
 20
11.8144936086
 11
18.7881245626
 21
11.8040228413
  0
LINE
  5
7CE
100
AcDbEntity
  8
ALL_FEATURES
100
AcDbLine
 62
7
  6
CONTINUOUS
 10
18.8598928727
 20
11.8333409845
 11
18.8578423791
 21
11.8438117489
  0
LINE
  5
7CF
100
AcDbEntity
  8
ALL_FEATURES
100
AcDbLine
 62
7
  6
CONTINUOUS
 10
18.796326631
 20
11.8165877615
 11
18.7983771247
 21
11.8040228413
  0
LINE
  5
7D0
100
AcDbEntity
  8
ALL_FEATURES
100
AcDbLine
 62
7
  6
CONTINUOUS
 10
18.8496403106
 20
11.8312468316
 11
18.8475897231
 21
11.8438117489
  0
LINE
  5
7D1
100
AcDbEntity
  8
ALL_FEATURES
100
AcDbLine
 62
7
  6
CONTINUOUS
 10
19.5364266916
 20
12.0497046981
 11
19.5364266916
 21
11.9497046981
  0
LINE
  5
7D2
100
AcDbEntity
  8
ALL_FEATURES
100
AcDbLine
 62
7
  6
CONTINUOUS
 10
19.6530934854
 20
11.9497046981
 11
19.6530934854
 21
12.0497046981
  0
LINE
  5
7D3
100
AcDbEntity
  8
ALL_FEATURES
100
AcDbLine
 62
7
  6
CONTINUOUS
 10
19.6655934854
 20
12.0390664015
 11
19.6655934854
 21
12.0071515058
  0
LINE
  5
7D4
100
AcDbEntity
  8
ALL_FEATURES
100
AcDbLine
 62
7
  6
CONTINUOUS
 10
19.6655934854
 20
11.9943855498
 11
19.6655934854
 21
11.9497046981
  0
LINE
  5
7D5
100
AcDbEntity
  8
ALL_FEATURES
100
AcDbLine
 62
7
  6
CONTINUOUS
 10
19.7176766916
 20
12.0199174617
 11
19.7176766916
 21
12.0263004456
  0
LINE
  5
7D6
100
AcDbEntity
  8
ALL_FEATURES
100
AcDbLine
 62
7
  6
CONTINUOUS
 10
19.7301766916
 20
12.0263004456
 11
19.7301766916
 21
12.0177898024
  0
LINE
  5
7D7
100
AcDbEntity
  8
ALL_FEATURES
100
AcDbLine
 62
7
  6
CONTINUOUS
 10
19.8468434854
 20
11.9497046981
 11
19.8468434854
 21
12.0497046981
  0
LINE
  5
7D8
100
AcDbEntity
  8
ALL_FEATURES
100
AcDbLine
 62
7
  6
CONTINUOUS
 10
19.8593434854
 20
12.0369387422
 11
19.8593434854
 21
11.9497046981
  0
LINE
  5
7D9
100
AcDbEntity
  8
ALL_FEATURES
100
AcDbLine
 62
7
  6
CONTINUOUS
 10
19.9176766916
 20
11.9645983149
 11
19.9176766916
 21
12.0497046981
  0
LINE
  5
7DA
100
AcDbEntity
  8
ALL_FEATURES
100
AcDbLine
 62
7
  6
CONTINUOUS
 10
19.9301766916
 20
12.0497046981
 11
19.9301766916
 21
11.9497046981
  0
LINE
  5
7DB
100
AcDbEntity
  8
ALL_FEATURES
100
AcDbLine
 62
7
  6
CONTINUOUS
 10
19.9468434854
 20
11.9497046981
 11
19.9468434854
 21
12.0497046981
  0
LINE
  5
7DC
100
AcDbEntity
  8
ALL_FEATURES
100
AcDbLine
 62
7
  6
CONTINUOUS
 10
19.9593434854
 20
12.0369387422
 11
19.9593434854
 21
12.0092791651
  0
LINE
  5
7DD
100
AcDbEntity
  8
ALL_FEATURES
100
AcDbLine
 62
7
  6
CONTINUOUS
 10
19.9593434854
 20
11.9965132092
 11
19.9593434854
 21
11.9624706556
  0
LINE
  5
7DE
100
AcDbEntity
  8
ALL_FEATURES
100
AcDbLine
 62
7
  6
CONTINUOUS
 10
19.1758789386
 20
7.4039535739
 11
19.1734182336
 21
7.3913886567
  0
LINE
  5
7DF
100
AcDbEntity
  8
ALL_FEATURES
100
AcDbLine
 62
7
  6
CONTINUOUS
 10
19.0922174462
 20
7.4416483292
 11
19.0946781512
 21
7.451700263
  0
LINE
  5
7E0
100
AcDbEntity
  8
ALL_FEATURES
100
AcDbLine
 62
7
  6
CONTINUOUS
 10
19.1611151591
 20
7.4039535739
 11
19.1586544541
 21
7.3939016401
  0
LINE
  5
7E1
100
AcDbEntity
  8
ALL_FEATURES
100
AcDbLine
 62
7
  6
CONTINUOUS
 10
18.4057016981
 20
7.4265704285
 11
18.4130835879
 21
7.4366223623
  0
LINE
  5
7E2
100
AcDbEntity
  8
ALL_FEATURES
100
AcDbLine
 62
7
  6
CONTINUOUS
 10
17.9381819943
 20
7.4341093789
 11
17.9431032917
 21
7.4391353458
  0
LINE
  5
7E3
100
AcDbEntity
  8
ALL_FEATURES
100
AcDbLine
 62
7
  6
CONTINUOUS
 10
18.2137725643
 20
7.4642651873
 11
18.2236150464
 21
7.4743171211
  0
LINE
  5
7E4
100
AcDbEntity
  8
ALL_FEATURES
100
AcDbLine
 62
7
  6
CONTINUOUS
 10
18.2974339441
 20
7.3813367211
 11
18.2875914619
 21
7.3712847865
  0
LINE
  5
7E5
100
AcDbEntity
  8
ALL_FEATURES
100
AcDbLine
 62
7
  6
CONTINUOUS
 10
18.393398511
 20
7.4341093789
 11
18.3983198084
 21
7.4391353458
  0
LINE
  5
7E6
100
AcDbEntity
  8
ALL_FEATURES
100
AcDbLine
 62
7
  6
CONTINUOUS
 10
17.9504851815
 20
7.4265704285
 11
17.940642643
 21
7.4190314782
  0
LINE
  5
7E7
100
AcDbEntity
  8
ALL_FEATURES
100
AcDbLine
 62
7
  6
CONTINUOUS
 10
17.5494024855
 20
7.4592392204
 11
17.5567843753
 21
7.4642651873
  0
LINE
  5
7E8
100
AcDbEntity
  8
ALL_FEATURES
100
AcDbLine
 62
7
  6
CONTINUOUS
 10
17.4829654777
 20
7.3863626898
 11
17.4755835879
 21
7.3813367211
  0
LINE
  5
7E9
100
AcDbEntity
  8
ALL_FEATURES
100
AcDbLine
 62
7
  6
CONTINUOUS
 10
17.6650520731
 20
7.4642651873
 11
17.6576701833
 21
7.4592392204
  0
LINE
  5
7EA
100
AcDbEntity
  8
ALL_FEATURES
100
AcDbLine
 62
7
  6
CONTINUOUS
 10
17.5961544728
 20
7.3863626898
 11
17.5887725831
 21
7.3813367211
  0
LINE
  5
7EB
100
AcDbEntity
  8
ALL_FEATURES
100
AcDbLine
 62
7
  6
CONTINUOUS
 10
17.7068828193
 20
7.3813367211
 11
17.714264709
 21
7.3863626898
  0
LINE
  5
7EC
100
AcDbEntity
  8
ALL_FEATURES
100
AcDbLine
 62
7
  6
CONTINUOUS
 10
17.5543237266
 20
7.479343088
 11
17.5444812445
 21
7.4743171211
  0
LINE
  5
7ED
100
AcDbEntity
  8
ALL_FEATURES
100
AcDbLine
 62
7
  6
CONTINUOUS
 10
17.6527489422
 20
7.4743171211
 11
17.6625914807
 21
7.479343088
  0
LINE
  5
7EE
100
AcDbEntity
  8
ALL_FEATURES
100
AcDbLine
 62
7
  6
CONTINUOUS
 10
17.4878867469
 20
7.3712847865
 11
17.4780442084
 21
7.3662588189
  0
LINE
  5
7EF
100
AcDbEntity
  8
ALL_FEATURES
100
AcDbLine
 62
7
  6
CONTINUOUS
 10
15.3383538528
 20
7.2760862602
 11
15.3424163528
 21
7.2774692387
  0
LINE
  5
7F0
100
AcDbEntity
  8
ALL_FEATURES
100
AcDbLine
 62
7
  6
CONTINUOUS
 10
15.6801266531
 20
11.4497046981
 11
17.2934188513
 21
11.4497046981
  0
LINE
  5
7F1
100
AcDbEntity
  8
ALL_FEATURES
100
AcDbLine
 62
7
  6
CONTINUOUS
 10
19.0627679288
 20
11.4497046981
 11
20.676060127
 21
11.4497046981
  0
LINE
  5
7F2
100
AcDbEntity
  8
ALL_FEATURES
100
AcDbLine
 62
7
  6
CONTINUOUS
 10
16.6051766916
 20
12.0369387422
 11
16.5989266916
 21
12.0390664015
  0
LINE
  5
7F3
100
AcDbEntity
  8
ALL_FEATURES
100
AcDbLine
 62
7
  6
CONTINUOUS
 10
17.3572599932
 20
11.9560876768
 11
17.3655933901
 21
11.9518323576
  0
LINE
  5
7F4
100
AcDbEntity
  8
ALL_FEATURES
100
AcDbLine
 62
7
  6
CONTINUOUS
 10
17.4510099932
 20
12.0007685278
 11
17.4593433901
 21
11.9965132092
  0
LINE
  5
7F5
100
AcDbEntity
  8
ALL_FEATURES
100
AcDbLine
 62
7
  6
CONTINUOUS
 10
17.4989266916
 20
12.0007685278
 11
17.4905933901
 21
12.0050238464
  0
LINE
  5
7F6
100
AcDbEntity
  8
ALL_FEATURES
100
AcDbLine
 62
7
  6
CONTINUOUS
 10
17.4426766916
 20
11.9582153362
 11
17.4530933901
 21
11.9518323576
  0
LINE
  5
7F7
100
AcDbEntity
  8
ALL_FEATURES
100
AcDbLine
 62
7
  6
CONTINUOUS
 10
18.1668154605
 20
11.7830813104
 11
18.1770681165
 21
11.7767988512
  0
LINE
  5
7F8
100
AcDbEntity
  8
ALL_FEATURES
100
AcDbLine
 62
7
  6
CONTINUOUS
 10
17.3676766916
 20
11.9645983149
 11
17.3614266916
 21
11.968853635
  0
LINE
  5
7F9
100
AcDbEntity
  8
ALL_FEATURES
100
AcDbLine
 62
7
  6
CONTINUOUS
 10
17.4614266916
 20
12.0092791651
 11
17.4551766916
 21
12.0135344837
  0
LINE
  5
7FA
100
AcDbEntity
  8
ALL_FEATURES
100
AcDbLine
 62
7
  6
CONTINUOUS
 10
17.4885099932
 20
11.9922578905
 11
17.4947599932
 21
11.9880025719
  0
LINE
  5
7FB
100
AcDbEntity
  8
ALL_FEATURES
100
AcDbLine
 62
7
  6
CONTINUOUS
 10
17.9146008936
 20
11.7956462298
 11
17.9084493188
 21
11.7998345356
  0
LINE
  5
7FC
100
AcDbEntity
  8
ALL_FEATURES
100
AcDbLine
 62
7
  6
CONTINUOUS
 10
17.9351061586
 20
11.8521883662
 11
17.9412577334
 21
11.8480000546
  0
LINE
  5
7FD
100
AcDbEntity
  8
ALL_FEATURES
100
AcDbLine
 62
7
  6
CONTINUOUS
 10
17.8697600885
 20
11.9645983149
 11
17.8635100885
 21
11.968853635
  0
LINE
  5
7FE
100
AcDbEntity
  8
ALL_FEATURES
100
AcDbLine
 62
7
  6
CONTINUOUS
 10
18.1729670353
 20
11.7914579226
 11
18.1791186101
 21
11.7872696169
  0
LINE
  5
7FF
100
AcDbEntity
  8
ALL_FEATURES
100
AcDbLine
 62
7
  6
CONTINUOUS
 10
17.9697600885
 20
11.9645983149
 11
17.9635100885
 21
11.968853635
  0
LINE
  5
800
100
AcDbEntity
  8
ALL_FEATURES
100
AcDbLine
 62
7
  6
CONTINUOUS
 10
18.2119270247
 20
11.8207760673
 11
18.2057754499
 21
11.824964373
  0
LINE
  5
801
100
AcDbEntity
  8
ALL_FEATURES
100
AcDbLine
 62
7
  6
CONTINUOUS
 10
17.9030932947
 20
12.0348110829
 11
17.9093432947
 21
12.0305557643
  0
LINE
  5
802
100
AcDbEntity
  8
ALL_FEATURES
100
AcDbLine
 62
7
  6
CONTINUOUS
 10
17.4968433901
 20
12.0411940609
 11
17.4885099932
 21
12.0475770388
  0
LINE
  5
803
100
AcDbEntity
  8
ALL_FEATURES
100
AcDbLine
 62
7
  6
CONTINUOUS
 10
17.8756409511
 20
11.8710357421
 11
17.8838430196
 21
11.8647532835
  0
LINE
  5
804
100
AcDbEntity
  8
ALL_FEATURES
100
AcDbLine
 62
7
  6
CONTINUOUS
 10
18.2611396232
 20
11.8375292902
 11
18.2693416916
 21
11.8312468316
  0
LINE
  5
805
100
AcDbEntity
  8
ALL_FEATURES
100
AcDbLine
 62
7
  6
CONTINUOUS
 10
18.3144533027
 20
11.8165877615
 11
18.3062511404
 21
11.8228702201
  0
LINE
  5
806
100
AcDbEntity
  8
ALL_FEATURES
100
AcDbLine
 62
7
  6
CONTINUOUS
 10
17.8593432947
 20
11.9560876768
 11
17.8510100885
 21
11.9645983149
  0
LINE
  5
807
100
AcDbEntity
  8
ALL_FEATURES
100
AcDbLine
 62
7
  6
CONTINUOUS
 10
17.9510100885
 20
11.9645983149
 11
17.9593432947
 21
11.9560876768
  0
LINE
  5
808
100
AcDbEntity
  8
ALL_FEATURES
100
AcDbLine
 62
7
  6
CONTINUOUS
 10
17.9135100885
 20
12.0433217202
 11
17.9218432947
 21
12.0348110829
  0
LINE
  5
809
100
AcDbEntity
  8
ALL_FEATURES
100
AcDbLine
 62
7
  6
CONTINUOUS
 10
18.2160281059
 20
11.8165877615
 11
18.2119270247
 21
11.8207760673
  0
LINE
  5
80A
100
AcDbEntity
  8
ALL_FEATURES
100
AcDbLine
 62
7
  6
CONTINUOUS
 10
18.2488364736
 20
11.7893637697
 11
18.2549880484
 21
11.7830813104
  0
LINE
  5
80B
100
AcDbEntity
  8
ALL_FEATURES
100
AcDbLine
 62
7
  6
CONTINUOUS
 10
18.2242301743
 20
11.8228702201
 11
18.2180785995
 21
11.8291526787
  0
LINE
  5
80C
100
AcDbEntity
  8
ALL_FEATURES
100
AcDbLine
 62
7
  6
CONTINUOUS
 10
18.2508869672
 20
11.8333409845
 11
18.257038542
 21
11.8270585259
  0
LINE
  5
80D
100
AcDbEntity
  8
ALL_FEATURES
100
AcDbLine
 62
7
  6
CONTINUOUS
 10
18.3124027152
 20
11.8584708249
 11
18.3062511404
 21
11.8647532835
  0
LINE
  5
80E
100
AcDbEntity
  8
ALL_FEATURES
100
AcDbLine
 62
7
  6
CONTINUOUS
 10
18.3083017279
 20
11.8061169942
 11
18.3021501531
 21
11.8144936086
  0
LINE
  5
80F
100
AcDbEntity
  8
ALL_FEATURES
100
AcDbLine
 62
7
  6
CONTINUOUS
 10
18.3841711192
 20
11.7914579226
 11
18.390322694
 21
11.7830813104
  0
LINE
  5
810
100
AcDbEntity
  8
ALL_FEATURES
100
AcDbLine
 62
7
  6
CONTINUOUS
 10
18.4497879484
 20
11.8207760673
 11
18.4436363736
 21
11.8291526787
  0
LINE
  5
811
100
AcDbEntity
  8
ALL_FEATURES
100
AcDbLine
 62
7
  6
CONTINUOUS
 10
18.4764447413
 20
11.7914579226
 11
18.4825963161
 21
11.7830813104
  0
LINE
  5
812
100
AcDbEntity
  8
ALL_FEATURES
100
AcDbLine
 62
7
  6
CONTINUOUS
 10
18.4743942476
 20
11.8270585259
 11
18.4805458224
 21
11.8186819144
  0
LINE
  5
813
100
AcDbEntity
  8
ALL_FEATURES
100
AcDbLine
 62
7
  6
CONTINUOUS
 10
18.5666678697
 20
11.7914579226
 11
18.5728194445
 21
11.7830813104
  0
LINE
  5
814
100
AcDbEntity
  8
ALL_FEATURES
100
AcDbLine
 62
7
  6
CONTINUOUS
 10
18.5379604893
 20
11.856376672
 11
18.5318089145
 21
11.8647532835
  0
LINE
  5
815
100
AcDbEntity
  8
ALL_FEATURES
100
AcDbLine
 62
7
  6
CONTINUOUS
 10
18.6609919854
 20
11.7998345356
 11
18.6671435602
 21
11.7914579226
  0
LINE
  5
816
100
AcDbEntity
  8
ALL_FEATURES
100
AcDbLine
 62
7
  6
CONTINUOUS
 10
18.6281836177
 20
11.856376672
 11
18.6220320429
 21
11.8647532835
  0
LINE
  5
817
100
AcDbEntity
  8
ALL_FEATURES
100
AcDbLine
 62
7
  6
CONTINUOUS
 10
18.7143056649
 20
11.8061169942
 11
18.7081540901
 21
11.8144936086
  0
LINE
  5
818
100
AcDbEntity
  8
ALL_FEATURES
100
AcDbLine
 62
7
  6
CONTINUOUS
 10
18.4374847988
 20
11.8207760673
 11
18.4415857861
 21
11.8144936086
  0
LINE
  5
819
100
AcDbEntity
  8
ALL_FEATURES
100
AcDbLine
 62
7
  6
CONTINUOUS
 10
18.4887478909
 20
11.7914579226
 11
18.4846468097
 21
11.7977403827
  0
LINE
  5
81A
100
AcDbEntity
  8
ALL_FEATURES
100
AcDbLine
 62
7
  6
CONTINUOUS
 10
18.4825963161
 20
11.8333409845
 11
18.4866973972
 21
11.8270585259
  0
LINE
  5
81B
100
AcDbEntity
  8
ALL_FEATURES
100
AcDbLine
 62
7
  6
CONTINUOUS
 10
18.5297584209
 20
11.8500942134
 11
18.5256573397
 21
11.856376672
  0
LINE
  5
81C
100
AcDbEntity
  8
ALL_FEATURES
100
AcDbLine
 62
7
  6
CONTINUOUS
 10
18.5748699381
 20
11.7977403827
 11
18.5789710193
 21
11.7914579226
  0
LINE
  5
81D
100
AcDbEntity
  8
ALL_FEATURES
100
AcDbLine
 62
7
  6
CONTINUOUS
 10
18.6158804681
 20
11.856376672
 11
18.6199814554
 21
11.8500942134
  0
LINE
  5
81E
100
AcDbEntity
  8
ALL_FEATURES
100
AcDbLine
 62
7
  6
CONTINUOUS
 10
18.663042479
 20
11.8438117489
 11
18.6671435602
 21
11.8375292902
  0
LINE
  5
81F
100
AcDbEntity
  8
ALL_FEATURES
100
AcDbLine
 62
7
  6
CONTINUOUS
 10
18.7122550774
 20
11.8480000546
 11
18.7081540901
 21
11.8542825191
  0
LINE
  5
820
100
AcDbEntity
  8
ALL_FEATURES
100
AcDbLine
 62
7
  6
CONTINUOUS
 10
18.7983771247
 20
11.8040228413
 11
18.806579287
 21
11.7914579226
  0
LINE
  5
821
100
AcDbEntity
  8
ALL_FEATURES
100
AcDbLine
 62
7
  6
CONTINUOUS
 10
18.8475897231
 20
11.8438117489
 11
18.8393876547
 21
11.856376672
  0
LINE
  5
822
100
AcDbEntity
  8
ALL_FEATURES
100
AcDbLine
 62
7
  6
CONTINUOUS
 10
18.8886002531
 20
11.8438117489
 11
18.8927013342
 21
11.8375292902
  0
LINE
  5
823
100
AcDbEntity
  8
ALL_FEATURES
100
AcDbLine
 62
7
  6
CONTINUOUS
 10
18.8218432947
 20
11.9603429962
 11
18.8176766916
 21
11.9667259742
  0
LINE
  5
824
100
AcDbEntity
  8
ALL_FEATURES
100
AcDbLine
 62
7
  6
CONTINUOUS
 10
18.3905932947
 20
11.9497046981
 11
18.3593432947
 21
11.9986408685
  0
LINE
  5
825
100
AcDbEntity
  8
ALL_FEATURES
100
AcDbLine
 62
7
  6
CONTINUOUS
 10
18.3697600885
 20
12.0092791651
 11
18.4072600885
 21
11.9497046981
  0
LINE
  5
826
100
AcDbEntity
  8
ALL_FEATURES
100
AcDbLine
 62
7
  6
CONTINUOUS
 10
18.6527899169
 20
11.841717596
 11
18.6568909042
 21
11.8333409845
  0
LINE
  5
827
100
AcDbEntity
  8
ALL_FEATURES
100
AcDbLine
 62
7
  6
CONTINUOUS
 10
18.7901750562
 20
11.7977403827
 11
18.7942761374
 21
11.7893637697
  0
LINE
  5
828
100
AcDbEntity
  8
ALL_FEATURES
100
AcDbLine
 62
7
  6
CONTINUOUS
 10
18.8557918854
 20
11.8500942134
 11
18.8516908043
 21
11.8584708249
  0
LINE
  5
829
100
AcDbEntity
  8
ALL_FEATURES
100
AcDbLine
 62
7
  6
CONTINUOUS
 10
18.8783475971
 20
11.841717596
 11
18.8824486783
 21
11.8333409845
  0
LINE
  5
82A
100
AcDbEntity
  8
ALL_FEATURES
100
AcDbLine
 62
7
  6
CONTINUOUS
 10
18.8260100885
 20
11.9731089536
 11
18.8280932947
 21
11.968853635
  0
LINE
  5
82B
100
AcDbEntity
  8
ALL_FEATURES
100
AcDbLine
 62
7
  6
CONTINUOUS
 10
18.8801766916
 20
11.9816195909
 11
18.8760100885
 21
11.9901302312
  0
LINE
  5
82C
100
AcDbEntity
  8
ALL_FEATURES
100
AcDbLine
 62
7
  6
CONTINUOUS
 10
18.8762971035
 20
11.7998345356
 11
18.8803981846
 21
11.7893637697
  0
LINE
  5
82D
100
AcDbEntity
  8
ALL_FEATURES
100
AcDbLine
 62
7
  6
CONTINUOUS
 10
18.9501160011
 20
11.8061169942
 11
18.94601492
 21
11.8165877615
  0
LINE
  5
82E
100
AcDbEntity
  8
ALL_FEATURES
100
AcDbLine
 62
7
  6
CONTINUOUS
 10
18.9480655075
 20
11.8480000546
 11
18.9439644263
 21
11.8584708249
  0
LINE
  5
82F
100
AcDbEntity
  8
ALL_FEATURES
100
AcDbLine
 62
7
  6
CONTINUOUS
 10
19.1780932947
 20
11.975236613
 11
19.1760100885
 21
11.9837472503
  0
LINE
  5
830
100
AcDbEntity
  8
ALL_FEATURES
100
AcDbLine
 62
7
  6
CONTINUOUS
 10
19.2322600885
 20
12.0241727803
 11
19.2343432947
 21
12.015662143
  0
LINE
  5
831
100
AcDbEntity
  8
ALL_FEATURES
100
AcDbLine
 62
7
  6
CONTINUOUS
 10
19.2780932947
 20
11.975236613
 11
19.2760100885
 21
11.9837472503
  0
LINE
  5
832
100
AcDbEntity
  8
ALL_FEATURES
100
AcDbLine
 62
7
  6
CONTINUOUS
 10
19.3676766916
 20
11.9837472503
 11
19.3697600885
 21
11.975236613
  0
LINE
  5
833
100
AcDbEntity
  8
ALL_FEATURES
100
AcDbLine
 62
7
  6
CONTINUOUS
 10
19.1655932947
 20
11.9731089536
 11
19.1635100885
 21
11.9837472503
  0
LINE
  5
834
100
AcDbEntity
  8
ALL_FEATURES
100
AcDbLine
 62
7
  6
CONTINUOUS
 10
19.2447600885
 20
12.0263004456
 11
19.2468432947
 21
12.015662143
  0
LINE
  5
835
100
AcDbEntity
  8
ALL_FEATURES
100
AcDbLine
 62
7
  6
CONTINUOUS
 10
19.2635100885
 20
11.9837472503
 11
19.2655932947
 21
11.9731089536
  0
LINE
  5
836
100
AcDbEntity
  8
ALL_FEATURES
100
AcDbLine
 62
7
  6
CONTINUOUS
 10
19.3572600885
 20
11.9731089536
 11
19.3551766916
 21
11.9837472503
  0
LINE
  5
837
100
AcDbEntity
  8
ALL_FEATURES
100
AcDbLine
 62
7
  6
CONTINUOUS
 10
19.4343432947
 20
12.0348110829
 11
19.4364266916
 21
12.0241727803
  0
LINE
  5
838
100
AcDbEntity
  8
ALL_FEATURES
100
AcDbLine
 62
7
  6
CONTINUOUS
 10
20.0135098978
 20
12.0092791651
 11
20.0135098978
 21
11.9965132092
  0
LINE
  5
839
100
AcDbEntity
  8
ALL_FEATURES
100
AcDbLine
 62
7
  6
CONTINUOUS
 10
20.0218434854
 20
12.0497046981
 11
20.0218434854
 21
12.0369387422
  0
LINE
  5
83A
100
AcDbEntity
  8
ALL_FEATURES
100
AcDbLine
 62
7
  6
CONTINUOUS
 10
20.0218434854
 20
11.9624706556
 11
20.0218434854
 21
11.9497046981
  0
LINE
  5
83B
100
AcDbEntity
  8
ALL_FEATURES
100
AcDbLine
 62
7
  6
CONTINUOUS
 10
20.0385098978
 20
11.9497046981
 11
20.0385098978
 21
12.0497046981
  0
LINE
  5
83C
100
AcDbEntity
  8
ALL_FEATURES
100
AcDbLine
 62
7
  6
CONTINUOUS
 10
20.0510098978
 20
12.0497046981
 11
20.0510098978
 21
11.9624706556
  0
LINE
  5
83D
100
AcDbEntity
  8
ALL_FEATURES
100
AcDbLine
 62
7
  6
CONTINUOUS
 10
20.1072272483
 20
7.4962261502
 11
20.1072272483
 21
7.3387458352
  0
LINE
  5
83E
100
AcDbEntity
  8
ALL_FEATURES
100
AcDbLine
 62
7
  6
CONTINUOUS
 10
20.1135098978
 20
11.9624706556
 11
20.1135098978
 21
11.9497046981
  0
LINE
  5
83F
100
AcDbEntity
  8
ALL_FEATURES
100
AcDbLine
 62
7
  6
CONTINUOUS
 10
20.1859674058
 20
7.3387458352
 11
20.1859674058
 21
7.4962261502
  0
LINE
  5
840
100
AcDbEntity
  8
ALL_FEATURES
100
AcDbLine
 62
7
  6
CONTINUOUS
 10
19.0799143717
 20
7.4542132535
 11
19.0848355564
 21
7.4642651873
  0
LINE
  5
841
100
AcDbEntity
  8
ALL_FEATURES
100
AcDbLine
 62
7
  6
CONTINUOUS
 10
19.1734182336
 20
7.3913886567
 11
19.1684970488
 21
7.3813367211
  0
LINE
  5
842
100
AcDbEntity
  8
ALL_FEATURES
100
AcDbLine
 62
7
  6
CONTINUOUS
 10
19.0946781512
 20
7.451700263
 11
19.0995993359
 21
7.4592392204
  0
LINE
  5
843
100
AcDbEntity
  8
ALL_FEATURES
100
AcDbLine
 62
7
  6
CONTINUOUS
 10
19.1586544541
 20
7.3939016401
 11
19.1537332693
 21
7.3863626898
  0
LINE
  5
844
100
AcDbEntity
  8
ALL_FEATURES
100
AcDbLine
 62
7
  6
CONTINUOUS
 10
19.0848355564
 20
7.4642651873
 11
19.0946781512
 21
7.4743171211
  0
LINE
  5
845
100
AcDbEntity
  8
ALL_FEATURES
100
AcDbLine
 62
7
  6
CONTINUOUS
 10
18.2285363438
 20
7.4592392204
 11
18.2359182336
 21
7.4642651873
  0
LINE
  5
846
100
AcDbEntity
  8
ALL_FEATURES
100
AcDbLine
 62
7
  6
CONTINUOUS
 10
18.2826701645
 20
7.3863626898
 11
18.2752882748
 21
7.3813367211
  0
LINE
  5
847
100
AcDbEntity
  8
ALL_FEATURES
100
AcDbLine
 62
7
  6
CONTINUOUS
 10
17.5912331754
 20
7.3662588189
 11
17.6010757139
 21
7.3712847865
  0
LINE
  5
848
100
AcDbEntity
  8
ALL_FEATURES
100
AcDbLine
 62
7
  6
CONTINUOUS
 10
17.7191859501
 20
7.3712847865
 11
17.7093434117
 21
7.3662588189
  0
LINE
  5
849
100
AcDbEntity
  8
ALL_FEATURES
100
AcDbLine
 62
7
  6
CONTINUOUS
 10
18.2236150464
 20
7.4743171211
 11
18.2334576412
 21
7.479343088
  0
LINE
  5
84A
100
AcDbEntity
  8
ALL_FEATURES
100
AcDbLine
 62
7
  6
CONTINUOUS
 10
18.2875914619
 20
7.3712847865
 11
18.2777489798
 21
7.3662588189
  0
LINE
  5
84B
100
AcDbEntity
  8
ALL_FEATURES
100
AcDbLine
 62
7
  6
CONTINUOUS
 10
18.395859216
 20
7.4215444616
 11
18.4057016981
 21
7.4265704285
  0
LINE
  5
84C
100
AcDbEntity
  8
ALL_FEATURES
100
AcDbLine
 62
7
  6
CONTINUOUS
 10
17.5567843753
 20
7.4642651873
 11
17.5641662651
 21
7.4667781708
  0
LINE
  5
84D
100
AcDbEntity
  8
ALL_FEATURES
100
AcDbLine
 62
7
  6
CONTINUOUS
 10
17.9308001046
 20
7.4315963954
 11
17.9381819943
 21
7.4341093789
  0
LINE
  5
84E
100
AcDbEntity
  8
ALL_FEATURES
100
AcDbLine
 62
7
  6
CONTINUOUS
 10
18.3860166212
 20
7.4315963954
 11
18.393398511
 21
7.4341093789
  0
LINE
  5
84F
100
AcDbEntity
  8
ALL_FEATURES
100
AcDbLine
 62
7
  6
CONTINUOUS
 10
18.9173076334
 20
11.785175464
 11
18.9255097019
 21
11.7872696169
  0
LINE
  5
850
100
AcDbEntity
  8
ALL_FEATURES
100
AcDbLine
 62
7
  6
CONTINUOUS
 10
18.9091054711
 20
11.8207760673
 11
18.9009034027
 21
11.8186819144
  0
LINE
  5
851
100
AcDbEntity
  8
ALL_FEATURES
100
AcDbLine
 62
7
  6
CONTINUOUS
 10
18.9173076334
 20
11.8291526787
 11
18.9255097019
 21
11.8312468316
  0
LINE
  5
852
100
AcDbEntity
  8
ALL_FEATURES
100
AcDbLine
 62
7
  6
CONTINUOUS
 10
19.4072600885
 20
11.9624706556
 11
19.4155932947
 21
11.9645983149
  0
LINE
  5
853
100
AcDbEntity
  8
ALL_FEATURES
100
AcDbLine
 62
7
  6
CONTINUOUS
 10
18.6917498594
 20
11.785175464
 11
18.6999519278
 21
11.7872696169
  0
LINE
  5
854
100
AcDbEntity
  8
ALL_FEATURES
100
AcDbLine
 62
7
  6
CONTINUOUS
 10
19.3135100885
 20
11.9645983149
 11
19.3051766916
 21
11.9624706556
  0
LINE
  5
855
100
AcDbEntity
  8
ALL_FEATURES
100
AcDbLine
 62
7
  6
CONTINUOUS
 10
18.9091054711
 20
11.8626591306
 11
18.9009034027
 21
11.8605649777
  0
LINE
  5
856
100
AcDbEntity
  8
ALL_FEATURES
100
AcDbLine
 62
7
  6
CONTINUOUS
 10
18.6835477909
 20
11.8207760673
 11
18.6753456286
 21
11.8186819144
  0
LINE
  5
857
100
AcDbEntity
  8
ALL_FEATURES
100
AcDbLine
 62
7
  6
CONTINUOUS
 10
18.6917498594
 20
11.8291526787
 11
18.6999519278
 21
11.8312468316
  0
LINE
  5
858
100
AcDbEntity
  8
ALL_FEATURES
100
AcDbLine
 62
7
  6
CONTINUOUS
 10
19.2218432947
 20
11.9645983149
 11
19.2135100885
 21
11.9624706556
  0
LINE
  5
859
100
AcDbEntity
  8
ALL_FEATURES
100
AcDbLine
 62
7
  6
CONTINUOUS
 10
18.431333224
 20
11.7872696169
 11
18.4231310617
 21
11.785175464
  0
LINE
  5
85A
100
AcDbEntity
  8
ALL_FEATURES
100
AcDbLine
 62
7
  6
CONTINUOUS
 10
19.3885100885
 20
12.0369387422
 11
19.3801766916
 21
12.0348110829
  0
LINE
  5
85B
100
AcDbEntity
  8
ALL_FEATURES
100
AcDbLine
 62
7
  6
CONTINUOUS
 10
18.6835477909
 20
11.8626591306
 11
18.6753456286
 21
11.8605649777
  0
LINE
  5
85C
100
AcDbEntity
  8
ALL_FEATURES
100
AcDbLine
 62
7
  6
CONTINUOUS
 10
18.2857459224
 20
11.785175464
 11
18.2939479908
 21
11.7872696169
  0
LINE
  5
85D
100
AcDbEntity
  8
ALL_FEATURES
100
AcDbLine
 62
7
  6
CONTINUOUS
 10
18.4026258436
 20
11.824964373
 11
18.4108279121
 21
11.8270585259
  0
LINE
  5
85E
100
AcDbEntity
  8
ALL_FEATURES
100
AcDbLine
 62
7
  6
CONTINUOUS
 10
18.8697600885
 20
11.9518323576
 11
18.8614266916
 21
11.9497046981
  0
LINE
  5
85F
100
AcDbEntity
  8
ALL_FEATURES
100
AcDbLine
 62
7
  6
CONTINUOUS
 10
19.1885100885
 20
12.0348110829
 11
19.1968432947
 21
12.0369387422
  0
LINE
  5
860
100
AcDbEntity
  8
ALL_FEATURES
100
AcDbLine
 62
7
  6
CONTINUOUS
 10
18.2775438539
 20
11.8207760673
 11
18.2693416916
 21
11.8186819144
  0
LINE
  5
861
100
AcDbEntity
  8
ALL_FEATURES
100
AcDbLine
 62
7
  6
CONTINUOUS
 10
18.2857459224
 20
11.8291526787
 11
18.2939479908
 21
11.8312468316
  0
LINE
  5
862
100
AcDbEntity
  8
ALL_FEATURES
100
AcDbLine
 62
7
  6
CONTINUOUS
 10
18.2775438539
 20
11.8626591306
 11
18.2693416916
 21
11.8605649777
  0
LINE
  5
863
100
AcDbEntity
  8
ALL_FEATURES
100
AcDbLine
 62
7
  6
CONTINUOUS
 10
18.9193581271
 20
11.7747046981
 11
18.9296107831
 21
11.7767988512
  0
LINE
  5
864
100
AcDbEntity
  8
ALL_FEATURES
100
AcDbLine
 62
7
  6
CONTINUOUS
 10
18.8229834239
 20
11.785175464
 11
18.8332360799
 21
11.7872696169
  0
LINE
  5
865
100
AcDbEntity
  8
ALL_FEATURES
100
AcDbLine
 62
7
  6
CONTINUOUS
 10
18.693800353
 20
11.7747046981
 11
18.704053009
 21
11.7767988512
  0
LINE
  5
866
100
AcDbEntity
  8
ALL_FEATURES
100
AcDbLine
 62
7
  6
CONTINUOUS
 10
19.7135098978
 20
11.9965132092
 11
19.7030934854
 21
11.9943855498
  0
LINE
  5
867
100
AcDbEntity
  8
ALL_FEATURES
100
AcDbLine
 62
7
  6
CONTINUOUS
 10
18.6035773185
 20
11.7747046981
 11
18.6138298806
 21
11.7767988512
  0
LINE
  5
868
100
AcDbEntity
  8
ALL_FEATURES
100
AcDbLine
 62
7
  6
CONTINUOUS
 10
19.4176766916
 20
11.9518323576
 11
19.4072600885
 21
11.9497046981
  0
LINE
  5
869
100
AcDbEntity
  8
ALL_FEATURES
100
AcDbLine
 62
7
  6
CONTINUOUS
 10
18.5113036964
 20
11.7747046981
 11
18.5215562585
 21
11.7767988512
  0
LINE
  5
86A
100
AcDbEntity
  8
ALL_FEATURES
100
AcDbLine
 62
7
  6
CONTINUOUS
 10
19.3051766916
 20
11.9497046981
 11
19.3155932947
 21
11.9518323576
  0
LINE
  5
86B
100
AcDbEntity
  8
ALL_FEATURES
100
AcDbLine
 62
7
  6
CONTINUOUS
 10
18.9091054711
 20
11.873129895
 11
18.898852909
 21
11.8710357421
  0
LINE
  5
86C
100
AcDbEntity
  8
ALL_FEATURES
100
AcDbLine
 62
7
  6
CONTINUOUS
 10
18.4231310617
 20
11.7747046981
 11
18.4333837176
 21
11.7767988512
  0
LINE
  5
86D
100
AcDbEntity
  8
ALL_FEATURES
100
AcDbLine
 62
7
  6
CONTINUOUS
 10
18.8229834239
 20
11.8626591306
 11
18.8127308618
 21
11.8605649777
  0
LINE
  5
86E
100
AcDbEntity
  8
ALL_FEATURES
100
AcDbLine
 62
7
  6
CONTINUOUS
 10
19.2239266916
 20
11.9518323576
 11
19.2135100885
 21
11.9497046981
  0
LINE
  5
86F
100
AcDbEntity
  8
ALL_FEATURES
100
AcDbLine
 62
7
  6
CONTINUOUS
 10
18.5113036964
 20
11.8103052999
 11
18.5215562585
 21
11.8123994558
  0
LINE
  5
870
100
AcDbEntity
  8
ALL_FEATURES
100
AcDbLine
 62
7
  6
CONTINUOUS
 10
18.287796416
 20
11.7747046981
 11
18.298049072
 21
11.7767988512
  0
LINE
  5
871
100
AcDbEntity
  8
ALL_FEATURES
100
AcDbLine
 62
7
  6
CONTINUOUS
 10
18.5933246625
 20
11.8375292902
 11
18.5830720066
 21
11.8354351374
  0
LINE
  5
872
100
AcDbEntity
  8
ALL_FEATURES
100
AcDbLine
 62
7
  6
CONTINUOUS
 10
18.6835477909
 20
11.873129895
 11
18.673295135
 21
11.8710357421
  0
LINE
  5
873
100
AcDbEntity
  8
ALL_FEATURES
100
AcDbLine
 62
7
  6
CONTINUOUS
 10
18.1975733815
 20
11.7747046981
 11
18.2078259436
 21
11.7767988512
  0
LINE
  5
874
100
AcDbEntity
  8
ALL_FEATURES
100
AcDbLine
 62
7
  6
CONTINUOUS
 10
18.5933246625
 20
11.873129895
 11
18.5830720066
 21
11.8710357421
  0
LINE
  5
875
100
AcDbEntity
  8
ALL_FEATURES
100
AcDbLine
 62
7
  6
CONTINUOUS
 10
18.4108279121
 20
11.8375292902
 11
18.40057535
 21
11.8354351374
  0
LINE
  5
876
100
AcDbEntity
  8
ALL_FEATURES
100
AcDbLine
 62
7
  6
CONTINUOUS
 10
19.3780932947
 20
12.0475770388
 11
19.3885100885
 21
12.0497046981
  0
LINE
  5
877
100
AcDbEntity
  8
ALL_FEATURES
100
AcDbLine
 62
7
  6
CONTINUOUS
 10
18.5010510405
 20
11.873129895
 11
18.4907983845
 21
11.8710357421
  0
LINE
  5
878
100
AcDbEntity
  8
ALL_FEATURES
100
AcDbLine
 62
7
  6
CONTINUOUS
 10
18.8593432947
 20
11.9603429962
 11
18.8697600885
 21
11.9624706556
  0
LINE
  5
879
100
AcDbEntity
  8
ALL_FEATURES
100
AcDbLine
 62
7
  6
CONTINUOUS
 10
18.1873207255
 20
11.8375292902
 11
18.1770681165
 21
11.8354351374
  0
LINE
  5
87A
100
AcDbEntity
  8
ALL_FEATURES
100
AcDbLine
 62
7
  6
CONTINUOUS
 10
19.1864266916
 20
12.0475770388
 11
19.1968432947
 21
12.0497046981
  0
LINE
  5
87B
100
AcDbEntity
  8
ALL_FEATURES
100
AcDbLine
 62
7
  6
CONTINUOUS
 10
18.2775438539
 20
11.873129895
 11
18.267291198
 21
11.8710357421
  0
LINE
  5
87C
100
AcDbEntity
  8
ALL_FEATURES
100
AcDbLine
 62
7
  6
CONTINUOUS
 10
18.1873207255
 20
11.873129895
 11
18.1770681165
 21
11.8710357421
  0
LINE
  5
87D
100
AcDbEntity
  8
ALL_FEATURES
100
AcDbLine
 62
7
  6
CONTINUOUS
 10
17.8756409511
 20
11.8207760673
 11
17.8653882952
 21
11.8186819144
  0
LINE
  5
87E
100
AcDbEntity
  8
ALL_FEATURES
100
AcDbLine
 62
7
  6
CONTINUOUS
 10
18.8489266916
 20
12.0390664015
 11
18.8385100885
 21
12.0369387422
  0
LINE
  5
87F
100
AcDbEntity
  8
ALL_FEATURES
100
AcDbLine
 62
7
  6
CONTINUOUS
 10
18.8229834239
 20
11.7747046981
 11
18.8352865735
 21
11.7767988512
  0
LINE
  5
880
100
AcDbEntity
  8
ALL_FEATURES
100
AcDbLine
 62
7
  6
CONTINUOUS
 10
18.8229834239
 20
11.873129895
 11
18.8106802743
 21
11.8710357421
  0
LINE
  5
881
100
AcDbEntity
  8
ALL_FEATURES
100
AcDbLine
 62
7
  6
CONTINUOUS
 10
15.4805412932
 20
11.5387458352
 11
15.4724162932
 21
11.5387458352
  0
LINE
  5
882
100
AcDbEntity
  8
ALL_FEATURES
100
AcDbLine
 62
7
  6
CONTINUOUS
 10
15.4209579702
 20
11.5387458352
 11
15.4128329702
 21
11.5387458352
  0
LINE
  5
883
100
AcDbEntity
  8
ALL_FEATURES
100
AcDbLine
 62
7
  6
CONTINUOUS
 10
15.4399162932
 20
11.5387458352
 11
15.4317912932
 21
11.5387458352
  0
LINE
  5
884
100
AcDbEntity
  8
ALL_FEATURES
100
AcDbLine
 62
7
  6
CONTINUOUS
 10
15.3749162932
 20
11.5387458352
 11
15.3667912932
 21
11.5387458352
  0
LINE
  5
885
100
AcDbEntity
  8
ALL_FEATURES
100
AcDbLine
 62
7
  6
CONTINUOUS
 10
15.2719996317
 20
11.5387458352
 11
15.2638746317
 21
11.5387458352
  0
LINE
  5
886
100
AcDbEntity
  8
ALL_FEATURES
100
AcDbLine
 62
7
  6
CONTINUOUS
 10
15.1474162932
 20
11.5387458352
 11
15.1365829625
 21
11.5387458352
  0
LINE
  5
887
100
AcDbEntity
  8
ALL_FEATURES
100
AcDbLine
 62
7
  6
CONTINUOUS
 10
15.0621037932
 20
11.5387458352
 11
15.0539787932
 21
11.5387458352
  0
LINE
  5
888
100
AcDbEntity
  8
ALL_FEATURES
100
AcDbLine
 62
7
  6
CONTINUOUS
 10
15.1799162932
 20
11.5387458352
 11
15.1880412932
 21
11.5387458352
  0
LINE
  5
889
100
AcDbEntity
  8
ALL_FEATURES
100
AcDbLine
 62
7
  6
CONTINUOUS
 10
15.2218954547
 20
11.5387458352
 11
15.2313746317
 21
11.5387458352
  0
LINE
  5
88A
100
AcDbEntity
  8
ALL_FEATURES
100
AcDbLine
 62
7
  6
CONTINUOUS
 10
15.3044996317
 20
11.5387458352
 11
15.3126246317
 21
11.5387458352
  0
LINE
  5
88B
100
AcDbEntity
  8
ALL_FEATURES
100
AcDbLine
 62
7
  6
CONTINUOUS
 10
15.3464787932
 20
11.5387458352
 11
15.3559579702
 21
11.5387458352
  0
LINE
  5
88C
100
AcDbEntity
  8
ALL_FEATURES
100
AcDbLine
 62
7
  6
CONTINUOUS
 10
15.1474162932
 20
11.5470437075
 11
15.1365829625
 21
11.5470437075
  0
LINE
  5
88D
100
AcDbEntity
  8
ALL_FEATURES
100
AcDbLine
 62
7
  6
CONTINUOUS
 10
15.4074162932
 20
11.5553415799
 11
15.3803329702
 21
11.5553415799
  0
LINE
  5
88E
100
AcDbEntity
  8
ALL_FEATURES
100
AcDbLine
 62
7
  6
CONTINUOUS
 10
15.4060621162
 20
11.5608734941
 11
15.3816871162
 21
11.5608734941
  0
LINE
  5
88F
100
AcDbEntity
  8
ALL_FEATURES
100
AcDbLine
 62
7
  6
CONTINUOUS
 10
15.0864787932
 20
11.5677883888
 11
15.0621037932
 21
11.5677883888
  0
LINE
  5
890
100
AcDbEntity
  8
ALL_FEATURES
100
AcDbLine
 62
7
  6
CONTINUOUS
 10
15.1880412932
 20
11.5677883888
 11
15.2110621317
 21
11.5677883888
  0
LINE
  5
891
100
AcDbEntity
  8
ALL_FEATURES
100
AcDbLine
 62
7
  6
CONTINUOUS
 10
15.3126246317
 20
11.5677883888
 11
15.3356454702
 21
11.5677883888
  0
LINE
  5
892
100
AcDbEntity
  8
ALL_FEATURES
100
AcDbLine
 62
7
  6
CONTINUOUS
 10
15.0621037932
 20
11.5760862602
 11
15.0878329586
 21
11.5760862602
  0
LINE
  5
893
100
AcDbEntity
  8
ALL_FEATURES
100
AcDbLine
 62
7
  6
CONTINUOUS
 10
15.1880412932
 20
11.5760862602
 11
15.2137704547
 21
11.5760862602
  0
LINE
  5
894
100
AcDbEntity
  8
ALL_FEATURES
100
AcDbLine
 62
7
  6
CONTINUOUS
 10
15.3126246317
 20
11.5760862602
 11
15.3383537932
 21
11.5760862602
  0
LINE
  5
895
100
AcDbEntity
  8
ALL_FEATURES
100
AcDbLine
 62
7
  6
CONTINUOUS
 10
15.1365829625
 20
11.5954479639
 11
15.1474162932
 21
11.5954479639
  0
LINE
  5
896
100
AcDbEntity
  8
ALL_FEATURES
100
AcDbLine
 62
7
  6
CONTINUOUS
 10
15.5022079702
 20
11.5968309424
 11
15.4805412932
 21
11.5968309424
  0
LINE
  5
897
100
AcDbEntity
  8
ALL_FEATURES
100
AcDbLine
 62
7
  6
CONTINUOUS
 10
15.4724162932
 20
11.5968309424
 11
15.4507496162
 21
11.5968309424
  0
LINE
  5
898
100
AcDbEntity
  8
ALL_FEATURES
100
AcDbLine
 62
7
  6
CONTINUOUS
 10
15.3383537932
 20
11.5968309424
 11
15.3126246317
 21
11.5968309424
  0
LINE
  5
899
100
AcDbEntity
  8
ALL_FEATURES
100
AcDbLine
 62
7
  6
CONTINUOUS
 10
15.2936662932
 20
11.5968309424
 11
15.2719996317
 21
11.5968309424
  0
LINE
  5
89A
100
AcDbEntity
  8
ALL_FEATURES
100
AcDbLine
 62
7
  6
CONTINUOUS
 10
15.2638746317
 20
11.5968309424
 11
15.2422079547
 21
11.5968309424
  0
LINE
  5
89B
100
AcDbEntity
  8
ALL_FEATURES
100
AcDbLine
 62
7
  6
CONTINUOUS
 10
15.2137704547
 20
11.5968309424
 11
15.1880412932
 21
11.5968309424
  0
LINE
  5
89C
100
AcDbEntity
  8
ALL_FEATURES
100
AcDbLine
 62
7
  6
CONTINUOUS
 10
15.0878329586
 20
11.5968309424
 11
15.0621037932
 21
11.5968309424
  0
LINE
  5
89D
100
AcDbEntity
  8
ALL_FEATURES
100
AcDbLine
 62
7
  6
CONTINUOUS
 10
15.3369996162
 20
11.6037458352
 11
15.3044996317
 21
11.6037458352
  0
LINE
  5
89E
100
AcDbEntity
  8
ALL_FEATURES
100
AcDbLine
 62
7
  6
CONTINUOUS
 10
15.2124162932
 20
11.6037458352
 11
15.1799162932
 21
11.6037458352
  0
LINE
  5
89F
100
AcDbEntity
  8
ALL_FEATURES
100
AcDbLine
 62
7
  6
CONTINUOUS
 10
15.0539787932
 20
11.6037458352
 11
15.0864787932
 21
11.6037458352
  0
LINE
  5
8A0
100
AcDbEntity
  8
ALL_FEATURES
100
AcDbLine
 62
7
  6
CONTINUOUS
 10
15.1365829625
 20
11.6037458352
 11
15.1474162932
 21
11.6037458352
  0
LINE
  5
8A1
100
AcDbEntity
  8
ALL_FEATURES
100
AcDbLine
 62
7
  6
CONTINUOUS
 10
15.2422079547
 20
11.6037458352
 11
15.2936662932
 21
11.6037458352
  0
LINE
  5
8A2
100
AcDbEntity
  8
ALL_FEATURES
100
AcDbLine
 62
7
  6
CONTINUOUS
 10
15.3884579702
 20
11.6037458352
 11
15.3992912932
 21
11.6037458352
  0
LINE
  5
8A3
100
AcDbEntity
  8
ALL_FEATURES
100
AcDbLine
 62
7
  6
CONTINUOUS
 10
15.4317912932
 20
11.6037458352
 11
15.4399162932
 21
11.6037458352
  0
LINE
  5
8A4
100
AcDbEntity
  8
ALL_FEATURES
100
AcDbLine
 62
7
  6
CONTINUOUS
 10
15.4507496162
 20
11.6037458352
 11
15.5022079702
 21
11.6037458352
  0
LINE
  5
8A5
100
AcDbEntity
  8
ALL_FEATURES
100
AcDbLine
 62
7
  6
CONTINUOUS
 10
17.2934188513
 20
11.7186961108
 11
19.0627679288
 21
11.7186961108
  0
LINE
  5
8A6
100
AcDbEntity
  8
ALL_FEATURES
100
AcDbLine
 62
7
  6
CONTINUOUS
 10
15.0780933901
 20
11.7237458352
 11
15.5780933901
 21
11.7237458352
  0
LINE
  5
8A7
100
AcDbEntity
  8
ALL_FEATURES
100
AcDbLine
 62
7
  6
CONTINUOUS
 10
18.0396829302
 20
11.7747046981
 11
18.0212282058
 21
11.7747046981
  0
LINE
  5
8A8
100
AcDbEntity
  8
ALL_FEATURES
100
AcDbLine
 62
7
  6
CONTINUOUS
 10
17.9699650668
 20
11.7747046981
 11
17.9576619172
 21
11.7747046981
  0
LINE
  5
8A9
100
AcDbEntity
  8
ALL_FEATURES
100
AcDbLine
 62
7
  6
CONTINUOUS
 10
17.8284788464
 20
11.7747046981
 11
17.8161756968
 21
11.7747046981
  0
LINE
  5
8AA
100
AcDbEntity
  8
ALL_FEATURES
100
AcDbLine
 62
7
  6
CONTINUOUS
 10
17.7013463161
 20
11.7747046981
 11
17.6890431665
 21
11.7747046981
  0
LINE
  5
8AB
100
AcDbEntity
  8
ALL_FEATURES
100
AcDbLine
 62
7
  6
CONTINUOUS
 10
17.6316284761
 20
11.7747046981
 11
17.6193253265
 21
11.7747046981
  0
LINE
  5
8AC
100
AcDbEntity
  8
ALL_FEATURES
100
AcDbLine
 62
7
  6
CONTINUOUS
 10
17.6029211192
 20
11.7747046981
 11
17.5906179696
 21
11.7747046981
  0
LINE
  5
8AD
100
AcDbEntity
  8
ALL_FEATURES
100
AcDbLine
 62
7
  6
CONTINUOUS
 10
17.5619106244
 20
11.7747046981
 11
17.5455064171
 21
11.7747046981
  0
LINE
  5
8AE
100
AcDbEntity
  8
ALL_FEATURES
100
AcDbLine
 62
7
  6
CONTINUOUS
 10
17.516799072
 20
11.7747046981
 11
17.5044959224
 21
11.7747046981
  0
LINE
  5
8AF
100
AcDbEntity
  8
ALL_FEATURES
100
AcDbLine
 62
7
  6
CONTINUOUS
 10
17.4880917209
 20
11.7747046981
 11
17.4757885713
 21
11.7747046981
  0
LINE
  5
8B0
100
AcDbEntity
  8
ALL_FEATURES
100
AcDbLine
 62
7
  6
CONTINUOUS
 10
17.4183738751
 20
11.7747046981
 11
17.4060707255
 21
11.7747046981
  0
LINE
  5
8B1
100
AcDbEntity
  8
ALL_FEATURES
100
AcDbLine
 62
7
  6
CONTINUOUS
 10
18.1873207255
 20
11.7747046981
 11
18.1975733815
 21
11.7747046981
  0
LINE
  5
8B2
100
AcDbEntity
  8
ALL_FEATURES
100
AcDbLine
 62
7
  6
CONTINUOUS
 10
18.2754932664
 20
11.7747046981
 11
18.287796416
 21
11.7747046981
  0
LINE
  5
8B3
100
AcDbEntity
  8
ALL_FEATURES
100
AcDbLine
 62
7
  6
CONTINUOUS
 10
18.4108279121
 20
11.7747046981
 11
18.4231310617
 21
11.7747046981
  0
LINE
  5
8B4
100
AcDbEntity
  8
ALL_FEATURES
100
AcDbLine
 62
7
  6
CONTINUOUS
 10
18.5031015341
 20
11.7747046981
 11
18.5113036964
 21
11.7747046981
  0
LINE
  5
8B5
100
AcDbEntity
  8
ALL_FEATURES
100
AcDbLine
 62
7
  6
CONTINUOUS
 10
18.5933246625
 20
11.7747046981
 11
18.6035773185
 21
11.7747046981
  0
LINE
  5
8B6
100
AcDbEntity
  8
ALL_FEATURES
100
AcDbLine
 62
7
  6
CONTINUOUS
 10
18.6814972034
 20
11.7747046981
 11
18.693800353
 21
11.7747046981
  0
LINE
  5
8B7
100
AcDbEntity
  8
ALL_FEATURES
100
AcDbLine
 62
7
  6
CONTINUOUS
 10
18.9070549775
 20
11.7747046981
 11
18.9193581271
 21
11.7747046981
  0
LINE
  5
8B8
100
AcDbEntity
  8
ALL_FEATURES
100
AcDbLine
 62
7
  6
CONTINUOUS
 10
18.5133541901
 20
11.785175464
 11
18.5010510405
 21
11.785175464
  0
LINE
  5
8B9
100
AcDbEntity
  8
ALL_FEATURES
100
AcDbLine
 62
7
  6
CONTINUOUS
 10
18.4231310617
 20
11.785175464
 11
18.4108279121
 21
11.785175464
  0
LINE
  5
8BA
100
AcDbEntity
  8
ALL_FEATURES
100
AcDbLine
 62
7
  6
CONTINUOUS
 10
18.1852701849
 20
11.785175464
 11
18.1996238751
 21
11.785175464
  0
LINE
  5
8BB
100
AcDbEntity
  8
ALL_FEATURES
100
AcDbLine
 62
7
  6
CONTINUOUS
 10
18.2775438539
 20
11.785175464
 11
18.2857459224
 21
11.785175464
  0
LINE
  5
8BC
100
AcDbEntity
  8
ALL_FEATURES
100
AcDbLine
 62
7
  6
CONTINUOUS
 10
18.5912741689
 20
11.785175464
 11
18.6056278121
 21
11.785175464
  0
LINE
  5
8BD
100
AcDbEntity
  8
ALL_FEATURES
100
AcDbLine
 62
7
  6
CONTINUOUS
 10
18.6835477909
 20
11.785175464
 11
18.6917498594
 21
11.785175464
  0
LINE
  5
8BE
100
AcDbEntity
  8
ALL_FEATURES
100
AcDbLine
 62
7
  6
CONTINUOUS
 10
18.9091054711
 20
11.785175464
 11
18.9173076334
 21
11.785175464
  0
LINE
  5
8BF
100
AcDbEntity
  8
ALL_FEATURES
100
AcDbLine
 62
7
  6
CONTINUOUS
 10
18.4846468097
 20
11.7977403827
 11
18.4743942476
 21
11.7977403827
  0
LINE
  5
8C0
100
AcDbEntity
  8
ALL_FEATURES
100
AcDbLine
 62
7
  6
CONTINUOUS
 10
18.3923731877
 20
11.7998345356
 11
18.3800700381
 21
11.7998345356
  0
LINE
  5
8C1
100
AcDbEntity
  8
ALL_FEATURES
100
AcDbLine
 62
7
  6
CONTINUOUS
 10
17.4675864736
 20
11.7998345356
 11
17.4265759744
 21
11.7998345356
  0
LINE
  5
8C2
100
AcDbEntity
  8
ALL_FEATURES
100
AcDbLine
 62
7
  6
CONTINUOUS
 10
17.4655359506
 20
11.8082111471
 11
17.4286265003
 21
11.8082111471
  0
LINE
  5
8C3
100
AcDbEntity
  8
ALL_FEATURES
100
AcDbLine
 62
7
  6
CONTINUOUS
 10
18.7696698382
 20
11.8103052999
 11
18.7409624578
 21
11.8103052999
  0
LINE
  5
8C4
100
AcDbEntity
  8
ALL_FEATURES
100
AcDbLine
 62
7
  6
CONTINUOUS
 10
18.3636659012
 20
11.8103052999
 11
18.3349585208
 21
11.8103052999
  0
LINE
  5
8C5
100
AcDbEntity
  8
ALL_FEATURES
100
AcDbLine
 62
7
  6
CONTINUOUS
 10
18.5010510405
 20
11.8103052999
 11
18.5113036964
 21
11.8103052999
  0
LINE
  5
8C6
100
AcDbEntity
  8
ALL_FEATURES
100
AcDbLine
 62
7
  6
CONTINUOUS
 10
17.8653882952
 20
11.8186819144
 11
17.8284788464
 21
11.8186819144
  0
LINE
  5
8C7
100
AcDbEntity
  8
ALL_FEATURES
100
AcDbLine
 62
7
  6
CONTINUOUS
 10
18.3800700381
 20
11.8186819144
 11
18.3944237752
 21
11.8186819144
  0
LINE
  5
8C8
100
AcDbEntity
  8
ALL_FEATURES
100
AcDbLine
 62
7
  6
CONTINUOUS
 10
18.9173076334
 20
11.8207760673
 11
18.9091054711
 21
11.8207760673
  0
LINE
  5
8C9
100
AcDbEntity
  8
ALL_FEATURES
100
AcDbLine
 62
7
  6
CONTINUOUS
 10
18.6917498594
 20
11.8207760673
 11
18.6835477909
 21
11.8207760673
  0
LINE
  5
8CA
100
AcDbEntity
  8
ALL_FEATURES
100
AcDbLine
 62
7
  6
CONTINUOUS
 10
18.2857459224
 20
11.8207760673
 11
18.2775438539
 21
11.8207760673
  0
LINE
  5
8CB
100
AcDbEntity
  8
ALL_FEATURES
100
AcDbLine
 62
7
  6
CONTINUOUS
 10
18.3349585208
 20
11.8207760673
 11
18.3636659012
 21
11.8207760673
  0
LINE
  5
8CC
100
AcDbEntity
  8
ALL_FEATURES
100
AcDbLine
 62
7
  6
CONTINUOUS
 10
18.4990005468
 20
11.8207760673
 11
18.5133541901
 21
11.8207760673
  0
LINE
  5
8CD
100
AcDbEntity
  8
ALL_FEATURES
100
AcDbLine
 62
7
  6
CONTINUOUS
 10
18.7409624578
 20
11.8207760673
 11
18.7696698382
 21
11.8207760673
  0
LINE
  5
8CE
100
AcDbEntity
  8
ALL_FEATURES
100
AcDbLine
 62
7
  6
CONTINUOUS
 10
18.6056278121
 20
11.8270585259
 11
18.5912741689
 21
11.8270585259
  0
LINE
  5
8CF
100
AcDbEntity
  8
ALL_FEATURES
100
AcDbLine
 62
7
  6
CONTINUOUS
 10
18.1996238751
 20
11.8270585259
 11
18.1852701849
 21
11.8270585259
  0
LINE
  5
8D0
100
AcDbEntity
  8
ALL_FEATURES
100
AcDbLine
 62
7
  6
CONTINUOUS
 10
18.4108279121
 20
11.8270585259
 11
18.4231310617
 21
11.8270585259
  0
LINE
  5
8D1
100
AcDbEntity
  8
ALL_FEATURES
100
AcDbLine
 62
7
  6
CONTINUOUS
 10
18.2775438539
 20
11.8291526787
 11
18.2857459224
 21
11.8291526787
  0
LINE
  5
8D2
100
AcDbEntity
  8
ALL_FEATURES
100
AcDbLine
 62
7
  6
CONTINUOUS
 10
18.6835477909
 20
11.8291526787
 11
18.6917498594
 21
11.8291526787
  0
LINE
  5
8D3
100
AcDbEntity
  8
ALL_FEATURES
100
AcDbLine
 62
7
  6
CONTINUOUS
 10
18.9091054711
 20
11.8291526787
 11
18.9173076334
 21
11.8291526787
  0
LINE
  5
8D4
100
AcDbEntity
  8
ALL_FEATURES
100
AcDbLine
 62
7
  6
CONTINUOUS
 10
17.8284788464
 20
11.8312468316
 11
17.8674388358
 21
11.8312468316
  0
LINE
  5
8D5
100
AcDbEntity
  8
ALL_FEATURES
100
AcDbLine
 62
7
  6
CONTINUOUS
 10
18.6035773185
 20
11.8375292902
 11
18.5933246625
 21
11.8375292902
  0
LINE
  5
8D6
100
AcDbEntity
  8
ALL_FEATURES
100
AcDbLine
 62
7
  6
CONTINUOUS
 10
18.4231310617
 20
11.8375292902
 11
18.4108279121
 21
11.8375292902
  0
LINE
  5
8D7
100
AcDbEntity
  8
ALL_FEATURES
100
AcDbLine
 62
7
  6
CONTINUOUS
 10
18.1975733815
 20
11.8375292902
 11
18.1873207255
 21
11.8375292902
  0
LINE
  5
8D8
100
AcDbEntity
  8
ALL_FEATURES
100
AcDbLine
 62
7
  6
CONTINUOUS
 10
18.2139775184
 20
11.8500942134
 11
18.2242301743
 21
11.8500942134
  0
LINE
  5
8D9
100
AcDbEntity
  8
ALL_FEATURES
100
AcDbLine
 62
7
  6
CONTINUOUS
 10
18.6199814554
 20
11.8500942134
 11
18.6302341113
 21
11.8500942134
  0
LINE
  5
8DA
100
AcDbEntity
  8
ALL_FEATURES
100
AcDbLine
 62
7
  6
CONTINUOUS
 10
18.9173076334
 20
11.8626591306
 11
18.9091054711
 21
11.8626591306
  0
LINE
  5
8DB
100
AcDbEntity
  8
ALL_FEATURES
100
AcDbLine
 62
7
  6
CONTINUOUS
 10
18.6917498594
 20
11.8626591306
 11
18.6835477909
 21
11.8626591306
  0
LINE
  5
8DC
100
AcDbEntity
  8
ALL_FEATURES
100
AcDbLine
 62
7
  6
CONTINUOUS
 10
18.5133541901
 20
11.8626591306
 11
18.4990005468
 21
11.8626591306
  0
LINE
  5
8DD
100
AcDbEntity
  8
ALL_FEATURES
100
AcDbLine
 62
7
  6
CONTINUOUS
 10
18.2857459224
 20
11.8626591306
 11
18.2775438539
 21
11.8626591306
  0
LINE
  5
8DE
100
AcDbEntity
  8
ALL_FEATURES
100
AcDbLine
 62
7
  6
CONTINUOUS
 10
17.8674388358
 20
11.8626591306
 11
17.8284788464
 21
11.8626591306
  0
LINE
  5
8DF
100
AcDbEntity
  8
ALL_FEATURES
100
AcDbLine
 62
7
  6
CONTINUOUS
 10
18.1852701849
 20
11.8626591306
 11
18.1975733815
 21
11.8626591306
  0
LINE
  5
8E0
100
AcDbEntity
  8
ALL_FEATURES
100
AcDbLine
 62
7
  6
CONTINUOUS
 10
18.390322694
 20
11.8626591306
 11
18.4497879484
 21
11.8626591306
  0
LINE
  5
8E1
100
AcDbEntity
  8
ALL_FEATURES
100
AcDbLine
 62
7
  6
CONTINUOUS
 10
18.5912741689
 20
11.8626591306
 11
18.6035773185
 21
11.8626591306
  0
LINE
  5
8E2
100
AcDbEntity
  8
ALL_FEATURES
100
AcDbLine
 62
7
  6
CONTINUOUS
 10
18.9173076334
 20
11.873129895
 11
18.9091054711
 21
11.873129895
  0
LINE
  5
8E3
100
AcDbEntity
  8
ALL_FEATURES
100
AcDbLine
 62
7
  6
CONTINUOUS
 10
18.6917498594
 20
11.873129895
 11
18.6835477909
 21
11.873129895
  0
LINE
  5
8E4
100
AcDbEntity
  8
ALL_FEATURES
100
AcDbLine
 62
7
  6
CONTINUOUS
 10
18.601526731
 20
11.873129895
 11
18.5933246625
 21
11.873129895
  0
LINE
  5
8E5
100
AcDbEntity
  8
ALL_FEATURES
100
AcDbLine
 62
7
  6
CONTINUOUS
 10
18.5113036964
 20
11.873129895
 11
18.5010510405
 21
11.873129895
  0
LINE
  5
8E6
100
AcDbEntity
  8
ALL_FEATURES
100
AcDbLine
 62
7
  6
CONTINUOUS
 10
18.4497879484
 20
11.873129895
 11
18.3800700381
 21
11.873129895
  0
LINE
  5
8E7
100
AcDbEntity
  8
ALL_FEATURES
100
AcDbLine
 62
7
  6
CONTINUOUS
 10
18.2857459224
 20
11.873129895
 11
18.2775438539
 21
11.873129895
  0
LINE
  5
8E8
100
AcDbEntity
  8
ALL_FEATURES
100
AcDbLine
 62
7
  6
CONTINUOUS
 10
18.195522794
 20
11.873129895
 11
18.1873207255
 21
11.873129895
  0
LINE
  5
8E9
100
AcDbEntity
  8
ALL_FEATURES
100
AcDbLine
 62
7
  6
CONTINUOUS
 10
17.4388791254
 20
11.873129895
 11
17.4552833239
 21
11.873129895
  0
LINE
  5
8EA
100
AcDbEntity
  8
ALL_FEATURES
100
AcDbLine
 62
7
  6
CONTINUOUS
 10
17.5044959224
 20
11.873129895
 11
17.5229506468
 21
11.873129895
  0
LINE
  5
8EB
100
AcDbEntity
  8
ALL_FEATURES
100
AcDbLine
 62
7
  6
CONTINUOUS
 10
17.5844663948
 20
11.873129895
 11
17.6029211192
 21
11.873129895
  0
LINE
  5
8EC
100
AcDbEntity
  8
ALL_FEATURES
100
AcDbLine
 62
7
  6
CONTINUOUS
 10
17.6193253265
 20
11.873129895
 11
17.6316284761
 21
11.873129895
  0
LINE
  5
8ED
100
AcDbEntity
  8
ALL_FEATURES
100
AcDbLine
 62
7
  6
CONTINUOUS
 10
17.6890431665
 20
11.873129895
 11
17.7013463161
 21
11.873129895
  0
LINE
  5
8EE
100
AcDbEntity
  8
ALL_FEATURES
100
AcDbLine
 62
7
  6
CONTINUOUS
 10
17.8161756968
 20
11.873129895
 11
17.8653882952
 21
11.873129895
  0
LINE
  5
8EF
100
AcDbEntity
  8
ALL_FEATURES
100
AcDbLine
 62
7
  6
CONTINUOUS
 10
17.9576619172
 20
11.873129895
 11
17.9761166416
 21
11.873129895
  0
LINE
  5
8F0
100
AcDbEntity
  8
ALL_FEATURES
100
AcDbLine
 62
7
  6
CONTINUOUS
 10
18.0273797806
 20
11.873129895
 11
18.0396829302
 21
11.873129895
  0
LINE
  5
8F1
100
AcDbEntity
  8
ALL_FEATURES
100
AcDbLine
 62
7
  6
CONTINUOUS
 10
18.8106802743
 20
11.7767988512
 11
18.8229834239
 21
11.7747046981
  0
LINE
  5
8F2
100
AcDbEntity
  8
ALL_FEATURES
100
AcDbLine
 62
7
  6
CONTINUOUS
 10
16.5968433662
 20
12.0497046981
 11
16.607260017
 21
12.0475770388
  0
LINE
  5
8F3
100
AcDbEntity
  8
ALL_FEATURES
100
AcDbLine
 62
7
  6
CONTINUOUS
 10
18.1770681165
 20
11.7767988512
 11
18.1873207255
 21
11.7747046981
  0
LINE
  5
8F4
100
AcDbEntity
  8
ALL_FEATURES
100
AcDbLine
 62
7
  6
CONTINUOUS
 10
17.3655933901
 20
11.9518323576
 11
17.3760099932
 21
11.9497046981
  0
LINE
  5
8F5
100
AcDbEntity
  8
ALL_FEATURES
100
AcDbLine
 62
7
  6
CONTINUOUS
 10
18.2652407043
 20
11.7767988512
 11
18.2754932664
 21
11.7747046981
  0
LINE
  5
8F6
100
AcDbEntity
  8
ALL_FEATURES
100
AcDbLine
 62
7
  6
CONTINUOUS
 10
17.4530933901
 20
11.9518323576
 11
17.4635099932
 21
11.9497046981
  0
LINE
  5
8F7
100
AcDbEntity
  8
ALL_FEATURES
100
AcDbLine
 62
7
  6
CONTINUOUS
 10
17.8653882952
 20
11.873129895
 11
17.8756409511
 21
11.8710357421
  0
LINE
  5
8F8
100
AcDbEntity
  8
ALL_FEATURES
100
AcDbLine
 62
7
  6
CONTINUOUS
 10
18.40057535
 20
11.7767988512
 11
18.4108279121
 21
11.7747046981
  0
LINE
  5
8F9
100
AcDbEntity
  8
ALL_FEATURES
100
AcDbLine
 62
7
  6
CONTINUOUS
 10
18.492848972
 20
11.7767988512
 11
18.5031015341
 21
11.7747046981
  0
LINE
  5
8FA
100
AcDbEntity
  8
ALL_FEATURES
100
AcDbLine
 62
7
  6
CONTINUOUS
 10
18.2078259436
 20
11.8354351374
 11
18.1975733815
 21
11.8375292902
  0
LINE
  5
8FB
100
AcDbEntity
  8
ALL_FEATURES
100
AcDbLine
 62
7
  6
CONTINUOUS
 10
18.5830720066
 20
11.7767988512
 11
18.5933246625
 21
11.7747046981
  0
LINE
  5
8FC
100
AcDbEntity
  8
ALL_FEATURES
100
AcDbLine
 62
7
  6
CONTINUOUS
 10
17.4905933901
 20
12.0050238464
 11
17.4801766916
 21
12.0071515058
  0
LINE
  5
8FD
100
AcDbEntity
  8
ALL_FEATURES
100
AcDbLine
 62
7
  6
CONTINUOUS
 10
18.4907983845
 20
11.8123994558
 11
18.5010510405
 21
11.8103052999
  0
LINE
  5
8FE
100
AcDbEntity
  8
ALL_FEATURES
100
AcDbLine
 62
7
  6
CONTINUOUS
 10
18.2057754499
 20
11.8710357421
 11
18.195522794
 21
11.873129895
  0
LINE
  5
8FF
100
AcDbEntity
  8
ALL_FEATURES
100
AcDbLine
 62
7
  6
CONTINUOUS
 10
18.6712446413
 20
11.7767988512
 11
18.6814972034
 21
11.7747046981
  0
LINE
  5
900
100
AcDbEntity
  8
ALL_FEATURES
100
AcDbLine
 62
7
  6
CONTINUOUS
 10
18.4333837176
 20
11.8354351374
 11
18.4231310617
 21
11.8375292902
  0
LINE
  5
901
100
AcDbEntity
  8
ALL_FEATURES
100
AcDbLine
 62
7
  6
CONTINUOUS
 10
17.8780932947
 20
11.9497046981
 11
17.8676766916
 21
11.9518323576
  0
LINE
  5
902
100
AcDbEntity
  8
ALL_FEATURES
100
AcDbLine
 62
7
  6
CONTINUOUS
 10
18.2959985783
 20
11.8710357421
 11
18.2857459224
 21
11.873129895
  0
LINE
  5
903
100
AcDbEntity
  8
ALL_FEATURES
100
AcDbLine
 62
7
  6
CONTINUOUS
 10
17.4885099932
 20
12.0475770388
 11
17.4780933901
 21
12.0497046981
  0
LINE
  5
904
100
AcDbEntity
  8
ALL_FEATURES
100
AcDbLine
 62
7
  6
CONTINUOUS
 10
17.9676766916
 20
11.9518323576
 11
17.9780932947
 21
11.9497046981
  0
LINE
  5
905
100
AcDbEntity
  8
ALL_FEATURES
100
AcDbLine
 62
7
  6
CONTINUOUS
 10
18.8127308618
 20
11.7872696169
 11
18.8229834239
 21
11.785175464
  0
LINE
  5
906
100
AcDbEntity
  8
ALL_FEATURES
100
AcDbLine
 62
7
  6
CONTINUOUS
 10
18.8968023215
 20
11.7767988512
 11
18.9070549775
 21
11.7747046981
  0
LINE
  5
907
100
AcDbEntity
  8
ALL_FEATURES
100
AcDbLine
 62
7
  6
CONTINUOUS
 10
18.6138298806
 20
11.8354351374
 11
18.6035773185
 21
11.8375292902
  0
LINE
  5
908
100
AcDbEntity
  8
ALL_FEATURES
100
AcDbLine
 62
7
  6
CONTINUOUS
 10
18.5215562585
 20
11.8710357421
 11
18.5113036964
 21
11.873129895
  0
LINE
  5
909
100
AcDbEntity
  8
ALL_FEATURES
100
AcDbLine
 62
7
  6
CONTINUOUS
 10
18.2693416916
 20
11.7872696169
 11
18.2775438539
 21
11.785175464
  0
LINE
  5
90A
100
AcDbEntity
  8
ALL_FEATURES
100
AcDbLine
 62
7
  6
CONTINUOUS
 10
18.2693416916
 20
11.8312468316
 11
18.2775438539
 21
11.8291526787
  0
LINE
  5
90B
100
AcDbEntity
  8
ALL_FEATURES
100
AcDbLine
 62
7
  6
CONTINUOUS
 10
18.4231310617
 20
11.8270585259
 11
18.431333224
 21
11.824964373
  0
LINE
  5
90C
100
AcDbEntity
  8
ALL_FEATURES
100
AcDbLine
 62
7
  6
CONTINUOUS
 10
18.6753456286
 20
11.7872696169
 11
18.6835477909
 21
11.785175464
  0
LINE
  5
90D
100
AcDbEntity
  8
ALL_FEATURES
100
AcDbLine
 62
7
  6
CONTINUOUS
 10
18.6753456286
 20
11.8312468316
 11
18.6835477909
 21
11.8291526787
  0
LINE
  5
90E
100
AcDbEntity
  8
ALL_FEATURES
100
AcDbLine
 62
7
  6
CONTINUOUS
 10
17.3760099932
 20
11.9624706556
 11
17.3676766916
 21
11.9645983149
  0
LINE
  5
90F
100
AcDbEntity
  8
ALL_FEATURES
100
AcDbLine
 62
7
  6
CONTINUOUS
 10
17.4635099932
 20
11.9624706556
 11
17.4551766916
 21
11.9645983149
  0
LINE
  5
910
100
AcDbEntity
  8
ALL_FEATURES
100
AcDbLine
 62
7
  6
CONTINUOUS
 10
17.4593433901
 20
11.9965132092
 11
17.4676766916
 21
11.9943855498
  0
LINE
  5
911
100
AcDbEntity
  8
ALL_FEATURES
100
AcDbLine
 62
7
  6
CONTINUOUS
 10
17.4801766916
 20
11.9943855498
 11
17.4885099932
 21
11.9922578905
  0
LINE
  5
912
100
AcDbEntity
  8
ALL_FEATURES
100
AcDbLine
 62
7
  6
CONTINUOUS
 10
18.4108279121
 20
11.785175464
 11
18.4026258436
 21
11.7872696169
  0
LINE
  5
913
100
AcDbEntity
  8
ALL_FEATURES
100
AcDbLine
 62
7
  6
CONTINUOUS
 10
18.2939479908
 20
11.8186819144
 11
18.2857459224
 21
11.8207760673
  0
LINE
  5
914
100
AcDbEntity
  8
ALL_FEATURES
100
AcDbLine
 62
7
  6
CONTINUOUS
 10
17.8780932947
 20
11.9624706556
 11
17.8697600885
 21
11.9645983149
  0
LINE
  5
915
100
AcDbEntity
  8
ALL_FEATURES
100
AcDbLine
 62
7
  6
CONTINUOUS
 10
18.2939479908
 20
11.8605649777
 11
18.2857459224
 21
11.8626591306
  0
LINE
  5
916
100
AcDbEntity
  8
ALL_FEATURES
100
AcDbLine
 62
7
  6
CONTINUOUS
 10
17.9780932947
 20
11.9624706556
 11
17.9697600885
 21
11.9645983149
  0
LINE
  5
917
100
AcDbEntity
  8
ALL_FEATURES
100
AcDbLine
 62
7
  6
CONTINUOUS
 10
18.6999519278
 20
11.8186819144
 11
18.6917498594
 21
11.8207760673
  0
LINE
  5
918
100
AcDbEntity
  8
ALL_FEATURES
100
AcDbLine
 62
7
  6
CONTINUOUS
 10
17.8947600885
 20
12.0369387422
 11
17.9030932947
 21
12.0348110829
  0
LINE
  5
919
100
AcDbEntity
  8
ALL_FEATURES
100
AcDbLine
 62
7
  6
CONTINUOUS
 10
18.9009034027
 20
11.7872696169
 11
18.9091054711
 21
11.785175464
  0
LINE
  5
91A
100
AcDbEntity
  8
ALL_FEATURES
100
AcDbLine
 62
7
  6
CONTINUOUS
 10
17.8735904106
 20
11.8605649777
 11
17.8674388358
 21
11.8626591306
  0
LINE
  5
91B
100
AcDbEntity
  8
ALL_FEATURES
100
AcDbLine
 62
7
  6
CONTINUOUS
 10
17.4676766916
 20
12.0071515058
 11
17.4614266916
 21
12.0092791651
  0
LINE
  5
91C
100
AcDbEntity
  8
ALL_FEATURES
100
AcDbLine
 62
7
  6
CONTINUOUS
 10
18.1791186101
 20
11.7872696169
 11
18.1852701849
 21
11.785175464
  0
LINE
  5
91D
100
AcDbEntity
  8
ALL_FEATURES
100
AcDbLine
 62
7
  6
CONTINUOUS
 10
17.4801766916
 20
12.0369387422
 11
17.4864266916
 21
12.0348110829
  0
LINE
  5
91E
100
AcDbEntity
  8
ALL_FEATURES
100
AcDbLine
 62
7
  6
CONTINUOUS
 10
18.2057754499
 20
11.824964373
 11
18.1996238751
 21
11.8270585259
  0
LINE
  5
91F
100
AcDbEntity
  8
ALL_FEATURES
100
AcDbLine
 62
7
  6
CONTINUOUS
 10
18.1975733815
 20
11.8626591306
 11
18.2037249563
 21
11.8605649777
  0
LINE
  5
920
100
AcDbEntity
  8
ALL_FEATURES
100
AcDbLine
 62
7
  6
CONTINUOUS
 10
18.5010510405
 20
11.785175464
 11
18.4948994657
 21
11.7872696169
  0
LINE
  5
921
100
AcDbEntity
  8
ALL_FEATURES
100
AcDbLine
 62
7
  6
CONTINUOUS
 10
18.5851225941
 20
11.7872696169
 11
18.5912741689
 21
11.785175464
  0
LINE
  5
922
100
AcDbEntity
  8
ALL_FEATURES
100
AcDbLine
 62
7
  6
CONTINUOUS
 10
18.492848972
 20
11.8228702201
 11
18.4990005468
 21
11.8207760673
  0
LINE
  5
923
100
AcDbEntity
  8
ALL_FEATURES
100
AcDbLine
 62
7
  6
CONTINUOUS
 10
18.6117793869
 20
11.824964373
 11
18.6056278121
 21
11.8270585259
  0
LINE
  5
924
100
AcDbEntity
  8
ALL_FEATURES
100
AcDbLine
 62
7
  6
CONTINUOUS
 10
18.5195057649
 20
11.8605649777
 11
18.5133541901
 21
11.8626591306
  0
LINE
  5
925
100
AcDbEntity
  8
ALL_FEATURES
100
AcDbLine
 62
7
  6
CONTINUOUS
 10
18.6035773185
 20
11.8626591306
 11
18.6097288933
 21
11.8605649777
  0
LINE
  5
926
100
AcDbEntity
  8
ALL_FEATURES
100
AcDbLine
 62
7
  6
CONTINUOUS
 10
17.8676766916
 20
11.9518323576
 11
17.8593432947
 21
11.9560876768
  0
LINE
  5
927
100
AcDbEntity
  8
ALL_FEATURES
100
AcDbLine
 62
7
  6
CONTINUOUS
 10
18.2611396232
 20
11.7914579226
 11
18.2693416916
 21
11.7872696169
  0
LINE
  5
928
100
AcDbEntity
  8
ALL_FEATURES
100
AcDbLine
 62
7
  6
CONTINUOUS
 10
17.9593432947
 20
11.9560876768
 11
17.9676766916
 21
11.9518323576
  0
LINE
  5
929
100
AcDbEntity
  8
ALL_FEATURES
100
AcDbLine
 62
7
  6
CONTINUOUS
 10
18.257038542
 20
11.8270585259
 11
18.2611396232
 21
11.824964373
  0
LINE
  5
92A
100
AcDbEntity
  8
ALL_FEATURES
100
AcDbLine
 62
7
  6
CONTINUOUS
 10
18.3021501531
 20
11.8144936086
 11
18.2939479908
 21
11.8186819144
  0
LINE
  5
92B
100
AcDbEntity
  8
ALL_FEATURES
100
AcDbLine
 62
7
  6
CONTINUOUS
 10
18.3062511404
 20
11.8228702201
 11
18.3021501531
 21
11.824964373
  0
LINE
  5
92C
100
AcDbEntity
  8
ALL_FEATURES
100
AcDbLine
 62
7
  6
CONTINUOUS
 10
17.9051766916
 20
12.0475770388
 11
17.9135100885
 21
12.0433217202
  0
LINE
  5
92D
100
AcDbEntity
  8
ALL_FEATURES
100
AcDbLine
 62
7
  6
CONTINUOUS
 10
18.6671435602
 20
11.7914579226
 11
18.6753456286
 21
11.7872696169
  0
LINE
  5
92E
100
AcDbEntity
  8
ALL_FEATURES
100
AcDbLine
 62
7
  6
CONTINUOUS
 10
18.663042479
 20
11.8270585259
 11
18.6671435602
 21
11.824964373
  0
LINE
  5
92F
100
AcDbEntity
  8
ALL_FEATURES
100
AcDbLine
 62
7
  6
CONTINUOUS
 10
18.7081540901
 20
11.8144936086
 11
18.6999519278
 21
11.8186819144
  0
LINE
  5
930
100
AcDbEntity
  8
ALL_FEATURES
100
AcDbLine
 62
7
  6
CONTINUOUS
 10
18.7122550774
 20
11.8228702201
 11
18.7081540901
 21
11.824964373
  0
LINE
  5
931
100
AcDbEntity
  8
ALL_FEATURES
100
AcDbLine
 62
7
  6
CONTINUOUS
 10
18.8927013342
 20
11.7914579226
 11
18.9009034027
 21
11.7872696169
  0
LINE
  5
932
100
AcDbEntity
  8
ALL_FEATURES
100
AcDbLine
 62
7
  6
CONTINUOUS
 10
18.2549880484
 20
11.7830813104
 11
18.2652407043
 21
11.7767988512
  0
LINE
  5
933
100
AcDbEntity
  8
ALL_FEATURES
100
AcDbLine
 62
7
  6
CONTINUOUS
 10
18.2180785995
 20
11.8291526787
 11
18.2078259436
 21
11.8354351374
  0
LINE
  5
934
100
AcDbEntity
  8
ALL_FEATURES
100
AcDbLine
 62
7
  6
CONTINUOUS
 10
18.2160281059
 20
11.8647532835
 11
18.2057754499
 21
11.8710357421
  0
LINE
  5
935
100
AcDbEntity
  8
ALL_FEATURES
100
AcDbLine
 62
7
  6
CONTINUOUS
 10
18.390322694
 20
11.7830813104
 11
18.40057535
 21
11.7767988512
  0
LINE
  5
936
100
AcDbEntity
  8
ALL_FEATURES
100
AcDbLine
 62
7
  6
CONTINUOUS
 10
18.3062511404
 20
11.8647532835
 11
18.2959985783
 21
11.8710357421
  0
LINE
  5
937
100
AcDbEntity
  8
ALL_FEATURES
100
AcDbLine
 62
7
  6
CONTINUOUS
 10
18.4825963161
 20
11.7830813104
 11
18.492848972
 21
11.7767988512
  0
LINE
  5
938
100
AcDbEntity
  8
ALL_FEATURES
100
AcDbLine
 62
7
  6
CONTINUOUS
 10
18.4436363736
 20
11.8291526787
 11
18.4333837176
 21
11.8354351374
  0
LINE
  5
939
100
AcDbEntity
  8
ALL_FEATURES
100
AcDbLine
 62
7
  6
CONTINUOUS
 10
18.4805458224
 20
11.8186819144
 11
18.4907983845
 21
11.8123994558
  0
LINE
  5
93A
100
AcDbEntity
  8
ALL_FEATURES
100
AcDbLine
 62
7
  6
CONTINUOUS
 10
18.5728194445
 20
11.7830813104
 11
18.5830720066
 21
11.7767988512
  0
LINE
  5
93B
100
AcDbEntity
  8
ALL_FEATURES
100
AcDbLine
 62
7
  6
CONTINUOUS
 10
18.6609919854
 20
11.7830813104
 11
18.6712446413
 21
11.7767988512
  0
LINE
  5
93C
100
AcDbEntity
  8
ALL_FEATURES
100
AcDbLine
 62
7
  6
CONTINUOUS
 10
18.5318089145
 20
11.8647532835
 11
18.5215562585
 21
11.8710357421
  0
LINE
  5
93D
100
AcDbEntity
  8
ALL_FEATURES
100
AcDbLine
 62
7
  6
CONTINUOUS
 10
18.6240825365
 20
11.8291526787
 11
18.6138298806
 21
11.8354351374
  0
LINE
  5
93E
100
AcDbEntity
  8
ALL_FEATURES
100
AcDbLine
 62
7
  6
CONTINUOUS
 10
18.6220320429
 20
11.8647532835
 11
18.6117793869
 21
11.8710357421
  0
LINE
  5
93F
100
AcDbEntity
  8
ALL_FEATURES
100
AcDbLine
 62
7
  6
CONTINUOUS
 10
18.8004277122
 20
11.7830813104
 11
18.8106802743
 21
11.7767988512
  0
LINE
  5
940
100
AcDbEntity
  8
ALL_FEATURES
100
AcDbLine
 62
7
  6
CONTINUOUS
 10
18.7122550774
 20
11.8647532835
 11
18.7020025153
 21
11.8710357421
  0
LINE
  5
941
100
AcDbEntity
  8
ALL_FEATURES
100
AcDbLine
 62
7
  6
CONTINUOUS
 10
18.8865497594
 20
11.7830813104
 11
18.8968023215
 21
11.7767988512
  0
LINE
  5
942
100
AcDbEntity
  8
ALL_FEATURES
100
AcDbLine
 62
7
  6
CONTINUOUS
 10
18.8455392295
 20
11.8647532835
 11
18.8352865735
 21
11.8710357421
  0
LINE
  5
943
100
AcDbEntity
  8
ALL_FEATURES
100
AcDbLine
 62
7
  6
CONTINUOUS
 10
18.2037249563
 20
11.8605649777
 11
18.2098765311
 21
11.856376672
  0
LINE
  5
944
100
AcDbEntity
  8
ALL_FEATURES
100
AcDbLine
 62
7
  6
CONTINUOUS
 10
18.4026258436
 20
11.7872696169
 11
18.3964742688
 21
11.7914579226
  0
LINE
  5
945
100
AcDbEntity
  8
ALL_FEATURES
100
AcDbLine
 62
7
  6
CONTINUOUS
 10
18.431333224
 20
11.824964373
 11
18.4374847988
 21
11.8207760673
  0
LINE
  5
946
100
AcDbEntity
  8
ALL_FEATURES
100
AcDbLine
 62
7
  6
CONTINUOUS
 10
18.4948994657
 20
11.7872696169
 11
18.4887478909
 21
11.7914579226
  0
LINE
  5
947
100
AcDbEntity
  8
ALL_FEATURES
100
AcDbLine
 62
7
  6
CONTINUOUS
 10
18.4866973972
 20
11.8270585259
 11
18.492848972
 21
11.8228702201
  0
LINE
  5
948
100
AcDbEntity
  8
ALL_FEATURES
100
AcDbLine
 62
7
  6
CONTINUOUS
 10
18.5789710193
 20
11.7914579226
 11
18.5851225941
 21
11.7872696169
  0
LINE
  5
949
100
AcDbEntity
  8
ALL_FEATURES
100
AcDbLine
 62
7
  6
CONTINUOUS
 10
18.5256573397
 20
11.856376672
 11
18.5195057649
 21
11.8605649777
  0
LINE
  5
94A
100
AcDbEntity
  8
ALL_FEATURES
100
AcDbLine
 62
7
  6
CONTINUOUS
 10
18.6179309617
 20
11.8207760673
 11
18.6117793869
 21
11.824964373
  0
LINE
  5
94B
100
AcDbEntity
  8
ALL_FEATURES
100
AcDbLine
 62
7
  6
CONTINUOUS
 10
18.6097288933
 20
11.8605649777
 11
18.6158804681
 21
11.856376672
  0
LINE
  5
94C
100
AcDbEntity
  8
ALL_FEATURES
100
AcDbLine
 62
7
  6
CONTINUOUS
 10
18.806579287
 20
11.7914579226
 11
18.8127308618
 21
11.7872696169
  0
LINE
  5
94D
100
AcDbEntity
  8
ALL_FEATURES
100
AcDbLine
 62
7
  6
CONTINUOUS
 10
18.8393876547
 20
11.856376672
 11
18.8332360799
 21
11.8605649777
  0
LINE
  5
94E
100
AcDbEntity
  8
ALL_FEATURES
100
AcDbLine
 62
7
  6
CONTINUOUS
 10
18.3021501531
 20
11.8542825191
 11
18.2939479908
 21
11.8605649777
  0
LINE
  5
94F
100
AcDbEntity
  8
ALL_FEATURES
100
AcDbLine
 62
7
  6
CONTINUOUS
 10
18.6671435602
 20
11.8375292902
 11
18.6753456286
 21
11.8312468316
  0
LINE
  5
950
100
AcDbEntity
  8
ALL_FEATURES
100
AcDbLine
 62
7
  6
CONTINUOUS
 10
18.7204572397
 20
11.8165877615
 11
18.7122550774
 21
11.8228702201
  0
LINE
  5
951
100
AcDbEntity
  8
ALL_FEATURES
100
AcDbLine
 62
7
  6
CONTINUOUS
 10
18.7081540901
 20
11.8542825191
 11
18.6999519278
 21
11.8605649777
  0
LINE
  5
952
100
AcDbEntity
  8
ALL_FEATURES
100
AcDbLine
 62
7
  6
CONTINUOUS
 10
18.8927013342
 20
11.8375292902
 11
18.9009034027
 21
11.8312468316
  0
LINE
  5
953
100
AcDbEntity
  8
ALL_FEATURES
100
AcDbLine
 62
7
  6
CONTINUOUS
 10
18.94601492
 20
11.8165877615
 11
18.9378128515
 21
11.8228702201
  0
LINE
  5
954
100
AcDbEntity
  8
ALL_FEATURES
100
AcDbLine
 62
7
  6
CONTINUOUS
 10
18.9337117703
 20
11.8542825191
 11
18.9255097019
 21
11.8605649777
  0
LINE
  5
955
100
AcDbEntity
  8
ALL_FEATURES
100
AcDbLine
 62
7
  6
CONTINUOUS
 10
18.8280932947
 20
11.968853635
 11
18.8322600885
 21
11.9645983149
  0
LINE
  5
956
100
AcDbEntity
  8
ALL_FEATURES
100
AcDbLine
 62
7
  6
CONTINUOUS
 10
18.6220320429
 20
11.8165877615
 11
18.6179309617
 21
11.8207760673
  0
LINE
  5
957
100
AcDbEntity
  8
ALL_FEATURES
100
AcDbLine
 62
7
  6
CONTINUOUS
 10
18.6548404106
 20
11.7893637697
 11
18.6609919854
 21
11.7830813104
  0
LINE
  5
958
100
AcDbEntity
  8
ALL_FEATURES
100
AcDbLine
 62
7
  6
CONTINUOUS
 10
18.6302341113
 20
11.8228702201
 11
18.6240825365
 21
11.8291526787
  0
LINE
  5
959
100
AcDbEntity
  8
ALL_FEATURES
100
AcDbLine
 62
7
  6
CONTINUOUS
 10
18.6568909042
 20
11.8333409845
 11
18.663042479
 21
11.8270585259
  0
LINE
  5
95A
100
AcDbEntity
  8
ALL_FEATURES
100
AcDbLine
 62
7
  6
CONTINUOUS
 10
18.7184066522
 20
11.8584708249
 11
18.7122550774
 21
11.8647532835
  0
LINE
  5
95B
100
AcDbEntity
  8
ALL_FEATURES
100
AcDbLine
 62
7
  6
CONTINUOUS
 10
18.7942761374
 20
11.7893637697
 11
18.8004277122
 21
11.7830813104
  0
LINE
  5
95C
100
AcDbEntity
  8
ALL_FEATURES
100
AcDbLine
 62
7
  6
CONTINUOUS
 10
18.8803981846
 20
11.7893637697
 11
18.8865497594
 21
11.7830813104
  0
LINE
  5
95D
100
AcDbEntity
  8
ALL_FEATURES
100
AcDbLine
 62
7
  6
CONTINUOUS
 10
18.8516908043
 20
11.8584708249
 11
18.8455392295
 21
11.8647532835
  0
LINE
  5
95E
100
AcDbEntity
  8
ALL_FEATURES
100
AcDbLine
 62
7
  6
CONTINUOUS
 10
18.8824486783
 20
11.8333409845
 11
18.8886002531
 21
11.8270585259
  0
LINE
  5
95F
100
AcDbEntity
  8
ALL_FEATURES
100
AcDbLine
 62
7
  6
CONTINUOUS
 10
18.9439644263
 20
11.8584708249
 11
18.9378128515
 21
11.8647532835
  0
LINE
  5
960
100
AcDbEntity
  8
ALL_FEATURES
100
AcDbLine
 62
7
  6
CONTINUOUS
 10
18.8780932947
 20
12.0433217202
 11
18.8864266916
 21
12.0348110829
  0
LINE
  5
961
100
AcDbEntity
  8
ALL_FEATURES
100
AcDbLine
 62
7
  6
CONTINUOUS
 10
18.8865497594
 20
11.7998345356
 11
18.8927013342
 21
11.7914579226
  0
LINE
  5
962
100
AcDbEntity
  8
ALL_FEATURES
100
AcDbLine
 62
7
  6
CONTINUOUS
 10
18.9398633452
 20
11.8061169942
 11
18.9337117703
 21
11.8144936086
  0
LINE
  5
963
100
AcDbEntity
  8
ALL_FEATURES
100
AcDbLine
 62
7
  6
CONTINUOUS
 10
18.9378128515
 20
11.8480000546
 11
18.9337117703
 21
11.8542825191
  0
LINE
  5
964
100
AcDbEntity
  8
ALL_FEATURES
100
AcDbLine
 62
7
  6
CONTINUOUS
 10
18.8843432947
 20
11.9965132092
 11
18.8885100885
 21
11.9901302312
  0
LINE
  5
965
100
AcDbEntity
  8
ALL_FEATURES
100
AcDbLine
 62
7
  6
CONTINUOUS
 10
18.8780932947
 20
12.0263004456
 11
18.8739266916
 21
12.0326834236
  0
LINE
  5
966
100
AcDbEntity
  8
ALL_FEATURES
100
AcDbLine
 62
7
  6
CONTINUOUS
 10
19.1822600885
 20
11.968853635
 11
19.1780932947
 21
11.975236613
  0
LINE
  5
967
100
AcDbEntity
  8
ALL_FEATURES
100
AcDbLine
 62
7
  6
CONTINUOUS
 10
19.2280932947
 20
12.0305557643
 11
19.2322600885
 21
12.0241727803
  0
LINE
  5
968
100
AcDbEntity
  8
ALL_FEATURES
100
AcDbLine
 62
7
  6
CONTINUOUS
 10
19.2822600885
 20
11.968853635
 11
19.2780932947
 21
11.975236613
  0
LINE
  5
969
100
AcDbEntity
  8
ALL_FEATURES
100
AcDbLine
 62
7
  6
CONTINUOUS
 10
19.1697600885
 20
11.9645983149
 11
19.1655932947
 21
11.9731089536
  0
LINE
  5
96A
100
AcDbEntity
  8
ALL_FEATURES
100
AcDbLine
 62
7
  6
CONTINUOUS
 10
19.2655932947
 20
11.9731089536
 11
19.2697600885
 21
11.9645983149
  0
LINE
  5
96B
100
AcDbEntity
  8
ALL_FEATURES
100
AcDbLine
 62
7
  6
CONTINUOUS
 10
19.2405932947
 20
12.0348110829
 11
19.2447600885
 21
12.0263004456
  0
LINE
  5
96C
100
AcDbEntity
  8
ALL_FEATURES
100
AcDbLine
 62
7
  6
CONTINUOUS
 10
19.3614266916
 20
11.9645983149
 11
19.3572600885
 21
11.9731089536
  0
LINE
  5
96D
100
AcDbEntity
  8
ALL_FEATURES
100
AcDbLine
 62
7
  6
CONTINUOUS
 10
19.4239266916
 20
12.0241727803
 11
19.4218432947
 21
12.0305557643
  0
LINE
  5
96E
100
AcDbEntity
  8
ALL_FEATURES
100
AcDbLine
 62
7
  6
CONTINUOUS
 10
19.7176766916
 20
12.0263004456
 11
19.7155934854
 21
12.0326834236
  0
LINE
  5
96F
100
AcDbEntity
  8
ALL_FEATURES
100
AcDbLine
 62
7
  6
CONTINUOUS
 10
19.7280934854
 20
12.0326834236
 11
19.7301766916
 21
12.0263004456
  0
LINE
  5
970
100
AcDbEntity
  8
ALL_FEATURES
100
AcDbLine
 62
7
  6
CONTINUOUS
 10
20.676060127
 20
11.4497046981
 11
20.676060127
 21
7.9277869723
  0
LINE
  5
971
100
AcDbEntity
  8
ALL_FEATURES
100
AcDbLine
 62
7
  6
CONTINUOUS
 10
19.1684970488
 20
7.3813367211
 11
19.1586544541
 21
7.3712847865
  0
LINE
  5
972
100
AcDbEntity
  8
ALL_FEATURES
100
AcDbLine
 62
7
  6
CONTINUOUS
 10
19.0995993359
 20
7.4592392204
 11
19.1069812257
 21
7.4642651873
  0
LINE
  5
973
100
AcDbEntity
  8
ALL_FEATURES
100
AcDbLine
 62
7
  6
CONTINUOUS
 10
19.1537332693
 20
7.3863626898
 11
19.1463513795
 21
7.3813367211
  0
LINE
  5
974
100
AcDbEntity
  8
ALL_FEATURES
100
AcDbLine
 62
7
  6
CONTINUOUS
 10
19.0946781512
 20
7.4743171211
 11
19.1045205207
 21
7.479343088
  0
LINE
  5
975
100
AcDbEntity
  8
ALL_FEATURES
100
AcDbLine
 62
7
  6
CONTINUOUS
 10
19.1586544541
 20
7.3712847865
 11
19.1488118593
 21
7.3662588189
  0
LINE
  5
976
100
AcDbEntity
  8
ALL_FEATURES
100
AcDbLine
 62
7
  6
CONTINUOUS
 10
17.9947600885
 20
11.9645983149
 11
17.9864266916
 21
11.9624706556
  0
LINE
  5
977
100
AcDbEntity
  8
ALL_FEATURES
100
AcDbLine
 62
7
  6
CONTINUOUS
 10
17.9030932947
 20
11.9645983149
 11
17.8947600885
 21
11.9624706556
  0
LINE
  5
978
100
AcDbEntity
  8
ALL_FEATURES
100
AcDbLine
 62
7
  6
CONTINUOUS
 10
17.8697600885
 20
12.0348110829
 11
17.8780932947
 21
12.0369387422
  0
LINE
  5
979
100
AcDbEntity
  8
ALL_FEATURES
100
AcDbLine
 62
7
  6
CONTINUOUS
 10
17.4885099932
 20
11.9645983149
 11
17.4801766916
 21
11.9624706556
  0
LINE
  5
97A
100
AcDbEntity
  8
ALL_FEATURES
100
AcDbLine
 62
7
  6
CONTINUOUS
 10
17.3926766916
 20
11.9645983149
 11
17.3843433901
 21
11.9624706556
  0
LINE
  5
97B
100
AcDbEntity
  8
ALL_FEATURES
100
AcDbLine
 62
7
  6
CONTINUOUS
 10
17.4676766916
 20
12.0497046981
 11
17.4593433901
 21
12.0475770388
  0
LINE
  5
97C
100
AcDbEntity
  8
ALL_FEATURES
100
AcDbLine
 62
7
  6
CONTINUOUS
 10
15.1528329625
 20
11.5484266861
 11
15.1474162932
 21
11.5470437075
  0
LINE
  5
97D
100
AcDbEntity
  8
ALL_FEATURES
100
AcDbLine
 62
7
  6
CONTINUOUS
 10
15.1311662932
 20
11.5940649853
 11
15.1365829625
 21
11.5954479639
  0
LINE
  5
97E
100
AcDbEntity
  8
ALL_FEATURES
100
AcDbLine
 62
7
  6
CONTINUOUS
 10
17.9864266916
 20
11.9497046981
 11
17.9968432947
 21
11.9518323576
  0
LINE
  5
97F
100
AcDbEntity
  8
ALL_FEATURES
100
AcDbLine
 62
7
  6
CONTINUOUS
 10
17.9051766916
 20
11.9518323576
 11
17.8947600885
 21
11.9497046981
  0
LINE
  5
980
100
AcDbEntity
  8
ALL_FEATURES
100
AcDbLine
 62
7
  6
CONTINUOUS
 10
17.4801766916
 20
11.9497046981
 11
17.4905933901
 21
11.9518323576
  0
LINE
  5
981
100
AcDbEntity
  8
ALL_FEATURES
100
AcDbLine
 62
7
  6
CONTINUOUS
 10
17.8676766916
 20
12.0475770388
 11
17.8780932947
 21
12.0497046981
  0
LINE
  5
982
100
AcDbEntity
  8
ALL_FEATURES
100
AcDbLine
 62
7
  6
CONTINUOUS
 10
17.3843433901
 20
11.9497046981
 11
17.3947599932
 21
11.9518323576
  0
LINE
  5
983
100
AcDbEntity
  8
ALL_FEATURES
100
AcDbLine
 62
7
  6
CONTINUOUS
 10
15.154187124
 20
11.5401288139
 11
15.1474162932
 21
11.5387458352
  0
LINE
  5
984
100
AcDbEntity
  8
ALL_FEATURES
100
AcDbLine
 62
7
  6
CONTINUOUS
 10
15.0932496278
 20
11.5691713674
 11
15.0864787932
 21
11.5677883888
  0
LINE
  5
985
100
AcDbEntity
  8
ALL_FEATURES
100
AcDbLine
 62
7
  6
CONTINUOUS
 10
15.129812124
 20
11.6023628567
 11
15.1365829625
 21
11.6037458352
  0
LINE
  5
986
100
AcDbEntity
  8
ALL_FEATURES
100
AcDbLine
 62
7
  6
CONTINUOUS
 10
16.607260017
 20
11.9965132092
 11
16.5968433662
 21
11.9943855498
  0
LINE
  5
987
100
AcDbEntity
  8
ALL_FEATURES
100
AcDbLine
 62
7
  6
CONTINUOUS
 10
18.8364266916
 20
12.0475770388
 11
18.8510100885
 21
12.0497046981
  0
LINE
  5
988
100
AcDbEntity
  8
ALL_FEATURES
100
AcDbLine
 62
7
  6
CONTINUOUS
 10
18.5593432947
 20
11.9369387407
 11
18.5489266916
 21
11.9369387407
  0
LINE
  5
989
100
AcDbEntity
  8
ALL_FEATURES
100
AcDbLine
 62
7
  6
CONTINUOUS
 10
17.0301766916
 20
11.9369387407
 11
17.0197600408
 21
11.9369387407
  0
LINE
  5
98A
100
AcDbEntity
  8
ALL_FEATURES
100
AcDbLine
 62
7
  6
CONTINUOUS
 10
20.1135098978
 20
11.9497046981
 11
20.0385098978
 21
11.9497046981
  0
LINE
  5
98B
100
AcDbEntity
  8
ALL_FEATURES
100
AcDbLine
 62
7
  6
CONTINUOUS
 10
20.0218434854
 20
11.9497046981
 11
19.9468434854
 21
11.9497046981
  0
LINE
  5
98C
100
AcDbEntity
  8
ALL_FEATURES
100
AcDbLine
 62
7
  6
CONTINUOUS
 10
19.9301766916
 20
11.9497046981
 11
19.9114266916
 21
11.9497046981
  0
LINE
  5
98D
100
AcDbEntity
  8
ALL_FEATURES
100
AcDbLine
 62
7
  6
CONTINUOUS
 10
19.8593434854
 20
11.9497046981
 11
19.8468434854
 21
11.9497046981
  0
LINE
  5
98E
100
AcDbEntity
  8
ALL_FEATURES
100
AcDbLine
 62
7
  6
CONTINUOUS
 10
19.8301766916
 20
11.9497046981
 11
19.8176766916
 21
11.9497046981
  0
LINE
  5
98F
100
AcDbEntity
  8
ALL_FEATURES
100
AcDbLine
 62
7
  6
CONTINUOUS
 10
19.7593434854
 20
11.9497046981
 11
19.7468434854
 21
11.9497046981
  0
LINE
  5
990
100
AcDbEntity
  8
ALL_FEATURES
100
AcDbLine
 62
7
  6
CONTINUOUS
 10
19.6655934854
 20
11.9497046981
 11
19.6530934854
 21
11.9497046981
  0
LINE
  5
991
100
AcDbEntity
  8
ALL_FEATURES
100
AcDbLine
 62
7
  6
CONTINUOUS
 10
19.5364266916
 20
11.9497046981
 11
19.5239266916
 21
11.9497046981
  0
LINE
  5
992
100
AcDbEntity
  8
ALL_FEATURES
100
AcDbLine
 62
7
  6
CONTINUOUS
 10
19.4655934854
 20
11.9497046981
 11
19.4530934854
 21
11.9497046981
  0
LINE
  5
993
100
AcDbEntity
  8
ALL_FEATURES
100
AcDbLine
 62
7
  6
CONTINUOUS
 10
19.4072600885
 20
11.9497046981
 11
19.3885100885
 21
11.9497046981
  0
LINE
  5
994
100
AcDbEntity
  8
ALL_FEATURES
100
AcDbLine
 62
7
  6
CONTINUOUS
 10
19.2135100885
 20
11.9497046981
 11
19.1968432947
 21
11.9497046981
  0
LINE
  5
995
100
AcDbEntity
  8
ALL_FEATURES
100
AcDbLine
 62
7
  6
CONTINUOUS
 10
19.1135100885
 20
11.9497046981
 11
19.1010100885
 21
11.9497046981
  0
LINE
  5
996
100
AcDbEntity
  8
ALL_FEATURES
100
AcDbLine
 62
7
  6
CONTINUOUS
 10
18.8614266916
 20
11.9497046981
 11
18.8447600885
 21
11.9497046981
  0
LINE
  5
997
100
AcDbEntity
  8
ALL_FEATURES
100
AcDbLine
 62
7
  6
CONTINUOUS
 10
18.7989266916
 20
11.9497046981
 11
18.7885100885
 21
11.9497046981
  0
LINE
  5
998
100
AcDbEntity
  8
ALL_FEATURES
100
AcDbLine
 62
7
  6
CONTINUOUS
 10
18.7510100885
 20
11.9497046981
 11
18.7385100885
 21
11.9497046981
  0
LINE
  5
999
100
AcDbEntity
  8
ALL_FEATURES
100
AcDbLine
 62
7
  6
CONTINUOUS
 10
18.4989266916
 20
11.9497046981
 11
18.4864266916
 21
11.9497046981
  0
LINE
  5
99A
100
AcDbEntity
  8
ALL_FEATURES
100
AcDbLine
 62
7
  6
CONTINUOUS
 10
18.4364266916
 20
11.9497046981
 11
18.4239266916
 21
11.9497046981
  0
LINE
  5
99B
100
AcDbEntity
  8
ALL_FEATURES
100
AcDbLine
 62
7
  6
CONTINUOUS
 10
18.4072600885
 20
11.9497046981
 11
18.3905932947
 21
11.9497046981
  0
LINE
  5
99C
100
AcDbEntity
  8
ALL_FEATURES
100
AcDbLine
 62
7
  6
CONTINUOUS
 10
18.3447600885
 20
11.9497046981
 11
18.3322600885
 21
11.9497046981
  0
LINE
  5
99D
100
AcDbEntity
  8
ALL_FEATURES
100
AcDbLine
 62
7
  6
CONTINUOUS
 10
18.1822600885
 20
11.9497046981
 11
18.1697600885
 21
11.9497046981
  0
LINE
  5
99E
100
AcDbEntity
  8
ALL_FEATURES
100
AcDbLine
 62
7
  6
CONTINUOUS
 10
18.1197600885
 20
11.9497046981
 11
18.1010100885
 21
11.9497046981
  0
LINE
  5
99F
100
AcDbEntity
  8
ALL_FEATURES
100
AcDbLine
 62
7
  6
CONTINUOUS
 10
18.0489266916
 20
11.9497046981
 11
18.0364266916
 21
11.9497046981
  0
LINE
  5
9A0
100
AcDbEntity
  8
ALL_FEATURES
100
AcDbLine
 62
7
  6
CONTINUOUS
 10
17.8947600885
 20
11.9497046981
 11
17.8780932947
 21
11.9497046981
  0
LINE
  5
9A1
100
AcDbEntity
  8
ALL_FEATURES
100
AcDbLine
 62
7
  6
CONTINUOUS
 10
17.8280933901
 20
11.9497046981
 11
17.8155933901
 21
11.9497046981
  0
LINE
  5
9A2
100
AcDbEntity
  8
ALL_FEATURES
100
AcDbLine
 62
7
  6
CONTINUOUS
 10
17.7864266916
 20
11.9497046981
 11
17.7697599932
 21
11.9497046981
  0
LINE
  5
9A3
100
AcDbEntity
  8
ALL_FEATURES
100
AcDbLine
 62
7
  6
CONTINUOUS
 10
17.7405933901
 20
11.9497046981
 11
17.7280933901
 21
11.9497046981
  0
LINE
  5
9A4
100
AcDbEntity
  8
ALL_FEATURES
100
AcDbLine
 62
7
  6
CONTINUOUS
 10
17.6114266916
 20
11.9497046981
 11
17.5989266916
 21
11.9497046981
  0
LINE
  5
9A5
100
AcDbEntity
  8
ALL_FEATURES
100
AcDbLine
 62
7
  6
CONTINUOUS
 10
17.5405933901
 20
11.9497046981
 11
17.5280933901
 21
11.9497046981
  0
LINE
  5
9A6
100
AcDbEntity
  8
ALL_FEATURES
100
AcDbLine
 62
7
  6
CONTINUOUS
 10
17.3260099932
 20
11.9497046981
 11
17.2510099932
 21
11.9497046981
  0
LINE
  5
9A7
100
AcDbEntity
  8
ALL_FEATURES
100
AcDbLine
 62
7
  6
CONTINUOUS
 10
17.1718433901
 20
11.9497046981
 11
17.1593433901
 21
11.9497046981
  0
LINE
  5
9A8
100
AcDbEntity
  8
ALL_FEATURES
100
AcDbLine
 62
7
  6
CONTINUOUS
 10
17.0030933424
 20
11.9497046981
 11
16.9280933424
 21
11.9497046981
  0
LINE
  5
9A9
100
AcDbEntity
  8
ALL_FEATURES
100
AcDbLine
 62
7
  6
CONTINUOUS
 10
16.8780933424
 20
11.9497046981
 11
16.8655933424
 21
11.9497046981
  0
LINE
  5
9AA
100
AcDbEntity
  8
ALL_FEATURES
100
AcDbLine
 62
7
  6
CONTINUOUS
 10
16.8155933424
 20
11.9497046981
 11
16.8030933424
 21
11.9497046981
  0
LINE
  5
9AB
100
AcDbEntity
  8
ALL_FEATURES
100
AcDbLine
 62
7
  6
CONTINUOUS
 10
16.7447600408
 20
11.9497046981
 11
16.7322600408
 21
11.9497046981
  0
LINE
  5
9AC
100
AcDbEntity
  8
ALL_FEATURES
100
AcDbLine
 62
7
  6
CONTINUOUS
 10
16.7155933424
 20
11.9497046981
 11
16.6405933662
 21
11.9497046981
  0
LINE
  5
9AD
100
AcDbEntity
  8
ALL_FEATURES
100
AcDbLine
 62
7
  6
CONTINUOUS
 10
16.5593433662
 20
11.9497046981
 11
16.5468433662
 21
11.9497046981
  0
LINE
  5
9AE
100
AcDbEntity
  8
ALL_FEATURES
100
AcDbLine
 62
7
  6
CONTINUOUS
 10
16.5301766916
 20
11.9497046981
 11
16.5176766916
 21
11.9497046981
  0
LINE
  5
9AF
100
AcDbEntity
  8
ALL_FEATURES
100
AcDbLine
 62
7
  6
CONTINUOUS
 10
16.488510017
 20
11.9497046981
 11
16.4718433662
 21
11.9497046981
  0
LINE
  5
9B0
100
AcDbEntity
  8
ALL_FEATURES
100
AcDbLine
 62
7
  6
CONTINUOUS
 10
16.4426766916
 20
11.9497046981
 11
16.4301766916
 21
11.9497046981
  0
LINE
  5
9B1
100
AcDbEntity
  8
ALL_FEATURES
100
AcDbLine
 62
7
  6
CONTINUOUS
 10
16.4135100289
 20
11.9497046981
 11
16.338510023
 21
11.9497046981
  0
LINE
  5
9B2
100
AcDbEntity
  8
ALL_FEATURES
100
AcDbLine
 62
7
  6
CONTINUOUS
 10
16.2885100259
 20
11.9497046981
 11
16.2760100259
 21
11.9497046981
  0
LINE
  5
9B3
100
AcDbEntity
  8
ALL_FEATURES
100
AcDbLine
 62
7
  6
CONTINUOUS
 10
17.3760099932
 20
11.9497046981
 11
17.3843433901
 21
11.9497046981
  0
LINE
  5
9B4
100
AcDbEntity
  8
ALL_FEATURES
100
AcDbLine
 62
7
  6
CONTINUOUS
 10
17.4635099932
 20
11.9497046981
 11
17.4801766916
 21
11.9497046981
  0
LINE
  5
9B5
100
AcDbEntity
  8
ALL_FEATURES
100
AcDbLine
 62
7
  6
CONTINUOUS
 10
17.9780932947
 20
11.9497046981
 11
17.9864266916
 21
11.9497046981
  0
LINE
  5
9B6
100
AcDbEntity
  8
ALL_FEATURES
100
AcDbLine
 62
7
  6
CONTINUOUS
 10
19.2968432947
 20
11.9497046981
 11
19.3051766916
 21
11.9497046981
  0
LINE
  5
9B7
100
AcDbEntity
  8
ALL_FEATURES
100
AcDbLine
 62
7
  6
CONTINUOUS
 10
17.0322600408
 20
11.9603429962
 11
17.0426766916
 21
11.9603429962
  0
LINE
  5
9B8
100
AcDbEntity
  8
ALL_FEATURES
100
AcDbLine
 62
7
  6
CONTINUOUS
 10
18.5614266916
 20
11.9603429962
 11
18.5718432947
 21
11.9603429962
  0
LINE
  5
9B9
100
AcDbEntity
  8
ALL_FEATURES
100
AcDbLine
 62
7
  6
CONTINUOUS
 10
18.7885100885
 20
11.9603429962
 11
18.7989266916
 21
11.9603429962
  0
LINE
  5
9BA
100
AcDbEntity
  8
ALL_FEATURES
100
AcDbLine
 62
7
  6
CONTINUOUS
 10
18.8468432947
 20
11.9603429962
 11
18.8593432947
 21
11.9603429962
  0
LINE
  5
9BB
100
AcDbEntity
  8
ALL_FEATURES
100
AcDbLine
 62
7
  6
CONTINUOUS
 10
19.3051766916
 20
11.9624706556
 11
19.2968432947
 21
11.9624706556
  0
LINE
  5
9BC
100
AcDbEntity
  8
ALL_FEATURES
100
AcDbLine
 62
7
  6
CONTINUOUS
 10
19.2135100885
 20
11.9624706556
 11
19.1968432947
 21
11.9624706556
  0
LINE
  5
9BD
100
AcDbEntity
  8
ALL_FEATURES
100
AcDbLine
 62
7
  6
CONTINUOUS
 10
17.9864266916
 20
11.9624706556
 11
17.9780932947
 21
11.9624706556
  0
LINE
  5
9BE
100
AcDbEntity
  8
ALL_FEATURES
100
AcDbLine
 62
7
  6
CONTINUOUS
 10
17.8947600885
 20
11.9624706556
 11
17.8780932947
 21
11.9624706556
  0
LINE
  5
9BF
100
AcDbEntity
  8
ALL_FEATURES
100
AcDbLine
 62
7
  6
CONTINUOUS
 10
17.4801766916
 20
11.9624706556
 11
17.4635099932
 21
11.9624706556
  0
LINE
  5
9C0
100
AcDbEntity
  8
ALL_FEATURES
100
AcDbLine
 62
7
  6
CONTINUOUS
 10
17.3843433901
 20
11.9624706556
 11
17.3760099932
 21
11.9624706556
  0
LINE
  5
9C1
100
AcDbEntity
  8
ALL_FEATURES
100
AcDbLine
 62
7
  6
CONTINUOUS
 10
16.3510100289
 20
11.9624706556
 11
16.4135100289
 21
11.9624706556
  0
LINE
  5
9C2
100
AcDbEntity
  8
ALL_FEATURES
100
AcDbLine
 62
7
  6
CONTINUOUS
 10
16.6530933424
 20
11.9624706556
 11
16.7155933424
 21
11.9624706556
  0
LINE
  5
9C3
100
AcDbEntity
  8
ALL_FEATURES
100
AcDbLine
 62
7
  6
CONTINUOUS
 10
16.9405933424
 20
11.9624706556
 11
17.0030933424
 21
11.9624706556
  0
LINE
  5
9C4
100
AcDbEntity
  8
ALL_FEATURES
100
AcDbLine
 62
7
  6
CONTINUOUS
 10
17.2635099932
 20
11.9624706556
 11
17.3260099932
 21
11.9624706556
  0
LINE
  5
9C5
100
AcDbEntity
  8
ALL_FEATURES
100
AcDbLine
 62
7
  6
CONTINUOUS
 10
19.3885100885
 20
11.9624706556
 11
19.4072600885
 21
11.9624706556
  0
LINE
  5
9C6
100
AcDbEntity
  8
ALL_FEATURES
100
AcDbLine
 62
7
  6
CONTINUOUS
 10
19.9593434854
 20
11.9624706556
 11
20.0218434854
 21
11.9624706556
  0
LINE
  5
9C7
100
AcDbEntity
  8
ALL_FEATURES
100
AcDbLine
 62
7
  6
CONTINUOUS
 10
20.0510098978
 20
11.9624706556
 11
20.1135098978
 21
11.9624706556
  0
LINE
  5
9C8
100
AcDbEntity
  8
ALL_FEATURES
100
AcDbLine
 62
7
  6
CONTINUOUS
 10
18.8155932947
 20
11.9731089536
 11
18.8260100885
 21
11.9731089536
  0
LINE
  5
9C9
100
AcDbEntity
  8
ALL_FEATURES
100
AcDbLine
 62
7
  6
CONTINUOUS
 10
15.5780933901
 20
11.9737458352
 11
15.0780933901
 21
11.9737458352
  0
LINE
  5
9CA
100
AcDbEntity
  8
ALL_FEATURES
100
AcDbLine
 62
7
  6
CONTINUOUS
 10
19.8093434854
 20
11.975236613
 11
19.7676766916
 21
11.975236613
  0
LINE
  5
9CB
100
AcDbEntity
  8
ALL_FEATURES
100
AcDbLine
 62
7
  6
CONTINUOUS
 10
16.7947600408
 20
11.975236613
 11
16.7530933424
 21
11.975236613
  0
LINE
  5
9CC
100
AcDbEntity
  8
ALL_FEATURES
100
AcDbLine
 62
7
  6
CONTINUOUS
 10
19.4239266916
 20
11.975236613
 11
19.4364266916
 21
11.975236613
  0
LINE
  5
9CD
100
AcDbEntity
  8
ALL_FEATURES
100
AcDbLine
 62
7
  6
CONTINUOUS
 10
17.4468433901
 20
11.9773642723
 11
17.4343433901
 21
11.9773642723
  0
LINE
  5
9CE
100
AcDbEntity
  8
ALL_FEATURES
100
AcDbLine
 62
7
  6
CONTINUOUS
 10
18.7718432947
 20
11.9794919316
 11
18.7510100885
 21
11.9794919316
  0
LINE
  5
9CF
100
AcDbEntity
  8
ALL_FEATURES
100
AcDbLine
 62
7
  6
CONTINUOUS
 10
18.7385100885
 20
11.9794919316
 11
18.6885100885
 21
11.9794919316
  0
LINE
  5
9D0
100
AcDbEntity
  8
ALL_FEATURES
100
AcDbLine
 62
7
  6
CONTINUOUS
 10
19.8072598978
 20
11.9837472503
 11
19.7697598978
 21
11.9837472503
  0
LINE
  5
9D1
100
AcDbEntity
  8
ALL_FEATURES
100
AcDbLine
 62
7
  6
CONTINUOUS
 10
16.7926766916
 20
11.9837472503
 11
16.7551766916
 21
11.9837472503
  0
LINE
  5
9D2
100
AcDbEntity
  8
ALL_FEATURES
100
AcDbLine
 62
7
  6
CONTINUOUS
 10
18.7385100885
 20
11.9922578905
 11
18.7030932947
 21
11.9922578905
  0
LINE
  5
9D3
100
AcDbEntity
  8
ALL_FEATURES
100
AcDbLine
 62
7
  6
CONTINUOUS
 10
18.7510100885
 20
11.9922578905
 11
18.7718432947
 21
11.9922578905
  0
LINE
  5
9D4
100
AcDbEntity
  8
ALL_FEATURES
100
AcDbLine
 62
7
  6
CONTINUOUS
 10
19.7030934854
 20
11.9943855498
 11
19.6655934854
 21
11.9943855498
  0
LINE
  5
9D5
100
AcDbEntity
  8
ALL_FEATURES
100
AcDbLine
 62
7
  6
CONTINUOUS
 10
16.5968433662
 20
11.9943855498
 11
16.5593433662
 21
11.9943855498
  0
LINE
  5
9D6
100
AcDbEntity
  8
ALL_FEATURES
100
AcDbLine
 62
7
  6
CONTINUOUS
 10
17.4676766916
 20
11.9943855498
 11
17.4801766916
 21
11.9943855498
  0
LINE
  5
9D7
100
AcDbEntity
  8
ALL_FEATURES
100
AcDbLine
 62
7
  6
CONTINUOUS
 10
20.0135098978
 20
11.9965132092
 11
19.9593434854
 21
11.9965132092
  0
LINE
  5
9D8
100
AcDbEntity
  8
ALL_FEATURES
100
AcDbLine
 62
7
  6
CONTINUOUS
 10
19.5239266916
 20
11.9965132092
 11
19.4655934854
 21
11.9965132092
  0
LINE
  5
9D9
100
AcDbEntity
  8
ALL_FEATURES
100
AcDbLine
 62
7
  6
CONTINUOUS
 10
18.8572600885
 20
11.9965132092
 11
18.8489266916
 21
11.9965132092
  0
LINE
  5
9DA
100
AcDbEntity
  8
ALL_FEATURES
100
AcDbLine
 62
7
  6
CONTINUOUS
 10
17.5989266916
 20
11.9965132092
 11
17.5405933901
 21
11.9965132092
  0
LINE
  5
9DB
100
AcDbEntity
  8
ALL_FEATURES
100
AcDbLine
 62
7
  6
CONTINUOUS
 10
17.2260099932
 20
11.9965132092
 11
17.1718433901
 21
11.9965132092
  0
LINE
  5
9DC
100
AcDbEntity
  8
ALL_FEATURES
100
AcDbLine
 62
7
  6
CONTINUOUS
 10
16.9947600408
 20
11.9965132092
 11
16.9405933424
 21
11.9965132092
  0
LINE
  5
9DD
100
AcDbEntity
  8
ALL_FEATURES
100
AcDbLine
 62
7
  6
CONTINUOUS
 10
16.4051766916
 20
11.9965132092
 11
16.3510100289
 21
11.9965132092
  0
LINE
  5
9DE
100
AcDbEntity
  8
ALL_FEATURES
100
AcDbLine
 62
7
  6
CONTINUOUS
 10
18.8489266916
 20
12.0050238464
 11
18.8572600885
 21
12.0050238464
  0
LINE
  5
9DF
100
AcDbEntity
  8
ALL_FEATURES
100
AcDbLine
 62
7
  6
CONTINUOUS
 10
17.4801766916
 20
12.0071515058
 11
17.4676766916
 21
12.0071515058
  0
LINE
  5
9E0
100
AcDbEntity
  8
ALL_FEATURES
100
AcDbLine
 62
7
  6
CONTINUOUS
 10
16.5593433662
 20
12.0071515058
 11
16.5989266916
 21
12.0071515058
  0
LINE
  5
9E1
100
AcDbEntity
  8
ALL_FEATURES
100
AcDbLine
 62
7
  6
CONTINUOUS
 10
19.6655934854
 20
12.0071515058
 11
19.7051766916
 21
12.0071515058
  0
LINE
  5
9E2
100
AcDbEntity
  8
ALL_FEATURES
100
AcDbLine
 62
7
  6
CONTINUOUS
 10
16.3510100289
 20
12.0092791651
 11
16.4051766916
 21
12.0092791651
  0
LINE
  5
9E3
100
AcDbEntity
  8
ALL_FEATURES
100
AcDbLine
 62
7
  6
CONTINUOUS
 10
16.9405933424
 20
12.0092791651
 11
16.9947600408
 21
12.0092791651
  0
LINE
  5
9E4
100
AcDbEntity
  8
ALL_FEATURES
100
AcDbLine
 62
7
  6
CONTINUOUS
 10
17.1718433901
 20
12.0092791651
 11
17.2260099932
 21
12.0092791651
  0
LINE
  5
9E5
100
AcDbEntity
  8
ALL_FEATURES
100
AcDbLine
 62
7
  6
CONTINUOUS
 10
17.5405933901
 20
12.0092791651
 11
17.5989266916
 21
12.0092791651
  0
LINE
  5
9E6
100
AcDbEntity
  8
ALL_FEATURES
100
AcDbLine
 62
7
  6
CONTINUOUS
 10
19.4655934854
 20
12.0092791651
 11
19.5239266916
 21
12.0092791651
  0
LINE
  5
9E7
100
AcDbEntity
  8
ALL_FEATURES
100
AcDbLine
 62
7
  6
CONTINUOUS
 10
19.9593434854
 20
12.0092791651
 11
20.0135098978
 21
12.0092791651
  0
LINE
  5
9E8
100
AcDbEntity
  8
ALL_FEATURES
100
AcDbLine
 62
7
  6
CONTINUOUS
 10
18.9176766916
 20
12.0135344837
 11
18.9072600885
 21
12.0135344837
  0
LINE
  5
9E9
100
AcDbEntity
  8
ALL_FEATURES
100
AcDbLine
 62
7
  6
CONTINUOUS
 10
18.9426766916
 20
12.0135344837
 11
18.9322600885
 21
12.0135344837
  0
LINE
  5
9EA
100
AcDbEntity
  8
ALL_FEATURES
100
AcDbLine
 62
7
  6
CONTINUOUS
 10
19.4364266916
 20
12.0241727803
 11
19.4239266916
 21
12.0241727803
  0
LINE
  5
9EB
100
AcDbEntity
  8
ALL_FEATURES
100
AcDbLine
 62
7
  6
CONTINUOUS
 10
18.8280932947
 20
12.0263004456
 11
18.8176766916
 21
12.0263004456
  0
LINE
  5
9EC
100
AcDbEntity
  8
ALL_FEATURES
100
AcDbLine
 62
7
  6
CONTINUOUS
 10
17.4926766916
 20
12.0263004456
 11
17.5051766916
 21
12.0263004456
  0
LINE
  5
9ED
100
AcDbEntity
  8
ALL_FEATURES
100
AcDbLine
 62
7
  6
CONTINUOUS
 10
18.9155932947
 20
12.0284281049
 11
18.9260100885
 21
12.0284281049
  0
LINE
  5
9EE
100
AcDbEntity
  8
ALL_FEATURES
100
AcDbLine
 62
7
  6
CONTINUOUS
 10
18.9405932947
 20
12.0284281049
 11
18.9510100885
 21
12.0284281049
  0
LINE
  5
9EF
100
AcDbEntity
  8
ALL_FEATURES
100
AcDbLine
 62
7
  6
CONTINUOUS
 10
20.0218434854
 20
12.0369387422
 11
19.9593434854
 21
12.0369387422
  0
LINE
  5
9F0
100
AcDbEntity
  8
ALL_FEATURES
100
AcDbLine
 62
7
  6
CONTINUOUS
 10
19.4072600885
 20
12.0369387422
 11
19.3885100885
 21
12.0369387422
  0
LINE
  5
9F1
100
AcDbEntity
  8
ALL_FEATURES
100
AcDbLine
 62
7
  6
CONTINUOUS
 10
17.2343433901
 20
12.0369387422
 11
17.1718433901
 21
12.0369387422
  0
LINE
  5
9F2
100
AcDbEntity
  8
ALL_FEATURES
100
AcDbLine
 62
7
  6
CONTINUOUS
 10
17.0030933424
 20
12.0369387422
 11
16.9405933424
 21
12.0369387422
  0
LINE
  5
9F3
100
AcDbEntity
  8
ALL_FEATURES
100
AcDbLine
 62
7
  6
CONTINUOUS
 10
16.4135100289
 20
12.0369387422
 11
16.3510100289
 21
12.0369387422
  0
LINE
  5
9F4
100
AcDbEntity
  8
ALL_FEATURES
100
AcDbLine
 62
7
  6
CONTINUOUS
 10
17.4676766916
 20
12.0369387422
 11
17.4801766916
 21
12.0369387422
  0
LINE
  5
9F5
100
AcDbEntity
  8
ALL_FEATURES
100
AcDbLine
 62
7
  6
CONTINUOUS
 10
17.8780932947
 20
12.0369387422
 11
17.8947600885
 21
12.0369387422
  0
LINE
  5
9F6
100
AcDbEntity
  8
ALL_FEATURES
100
AcDbLine
 62
7
  6
CONTINUOUS
 10
19.1968432947
 20
12.0369387422
 11
19.2135100885
 21
12.0369387422
  0
LINE
  5
9F7
100
AcDbEntity
  8
ALL_FEATURES
100
AcDbLine
 62
7
  6
CONTINUOUS
 10
19.7051766916
 20
12.0390664015
 11
19.6655934854
 21
12.0390664015
  0
LINE
  5
9F8
100
AcDbEntity
  8
ALL_FEATURES
100
AcDbLine
 62
7
  6
CONTINUOUS
 10
19.1468432947
 20
12.0390664015
 11
19.1135100885
 21
12.0390664015
  0
LINE
  5
9F9
100
AcDbEntity
  8
ALL_FEATURES
100
AcDbLine
 62
7
  6
CONTINUOUS
 10
19.1010100885
 20
12.0390664015
 11
19.0676766916
 21
12.0390664015
  0
LINE
  5
9FA
100
AcDbEntity
  8
ALL_FEATURES
100
AcDbLine
 62
7
  6
CONTINUOUS
 10
18.8572600885
 20
12.0390664015
 11
18.8489266916
 21
12.0390664015
  0
LINE
  5
9FB
100
AcDbEntity
  8
ALL_FEATURES
100
AcDbLine
 62
7
  6
CONTINUOUS
 10
18.5322600885
 20
12.0390664015
 11
18.4989266916
 21
12.0390664015
  0
LINE
  5
9FC
100
AcDbEntity
  8
ALL_FEATURES
100
AcDbLine
 62
7
  6
CONTINUOUS
 10
18.4864266916
 20
12.0390664015
 11
18.4530932947
 21
12.0390664015
  0
LINE
  5
9FD
100
AcDbEntity
  8
ALL_FEATURES
100
AcDbLine
 62
7
  6
CONTINUOUS
 10
18.2155932947
 20
12.0390664015
 11
18.1822600885
 21
12.0390664015
  0
LINE
  5
9FE
100
AcDbEntity
  8
ALL_FEATURES
100
AcDbLine
 62
7
  6
CONTINUOUS
 10
18.1697600885
 20
12.0390664015
 11
18.1364266916
 21
12.0390664015
  0
LINE
  5
9FF
100
AcDbEntity
  8
ALL_FEATURES
100
AcDbLine
 62
7
  6
CONTINUOUS
 10
16.9114266916
 20
12.0390664015
 11
16.8780933424
 21
12.0390664015
  0
LINE
  5
A00
100
AcDbEntity
  8
ALL_FEATURES
100
AcDbLine
 62
7
  6
CONTINUOUS
 10
16.8655933424
 20
12.0390664015
 11
16.8322600408
 21
12.0390664015
  0
LINE
  5
A01
100
AcDbEntity
  8
ALL_FEATURES
100
AcDbLine
 62
7
  6
CONTINUOUS
 10
16.5989266916
 20
12.0390664015
 11
16.5593433662
 21
12.0390664015
  0
LINE
  5
A02
100
AcDbEntity
  8
ALL_FEATURES
100
AcDbLine
 62
7
  6
CONTINUOUS
 10
16.3218433603
 20
12.0390664015
 11
16.2885100259
 21
12.0390664015
  0
LINE
  5
A03
100
AcDbEntity
  8
ALL_FEATURES
100
AcDbLine
 62
7
  6
CONTINUOUS
 10
16.2760100259
 20
12.0390664015
 11
16.2426766916
 21
12.0390664015
  0
LINE
  5
A04
100
AcDbEntity
  8
ALL_FEATURES
100
AcDbLine
 62
7
  6
CONTINUOUS
 10
19.3385100885
 20
12.0497046981
 11
19.3260100885
 21
12.0497046981
  0
LINE
  5
A05
100
AcDbEntity
  8
ALL_FEATURES
100
AcDbLine
 62
7
  6
CONTINUOUS
 10
19.2760100885
 20
12.0497046981
 11
19.2635100885
 21
12.0497046981
  0
LINE
  5
A06
100
AcDbEntity
  8
ALL_FEATURES
100
AcDbLine
 62
7
  6
CONTINUOUS
 10
18.0197600885
 20
12.0497046981
 11
18.0072600885
 21
12.0497046981
  0
LINE
  5
A07
100
AcDbEntity
  8
ALL_FEATURES
100
AcDbLine
 62
7
  6
CONTINUOUS
 10
17.9572600885
 20
12.0497046981
 11
17.9447600885
 21
12.0497046981
  0
LINE
  5
A08
100
AcDbEntity
  8
ALL_FEATURES
100
AcDbLine
 62
7
  6
CONTINUOUS
 10
17.4780933901
 20
12.0497046981
 11
17.4676766916
 21
12.0497046981
  0
LINE
  5
A09
100
AcDbEntity
  8
ALL_FEATURES
100
AcDbLine
 62
7
  6
CONTINUOUS
 10
17.4176766916
 20
12.0497046981
 11
17.4051766916
 21
12.0497046981
  0
LINE
  5
A0A
100
AcDbEntity
  8
ALL_FEATURES
100
AcDbLine
 62
7
  6
CONTINUOUS
 10
17.3551766916
 20
12.0497046981
 11
17.3426766916
 21
12.0497046981
  0
LINE
  5
A0B
100
AcDbEntity
  8
ALL_FEATURES
100
AcDbLine
 62
7
  6
CONTINUOUS
 10
16.2426766916
 20
12.0497046981
 11
16.3218433603
 21
12.0497046981
  0
LINE
  5
A0C
100
AcDbEntity
  8
ALL_FEATURES
100
AcDbLine
 62
7
  6
CONTINUOUS
 10
16.338510023
 20
12.0497046981
 11
16.4135100289
 21
12.0497046981
  0
LINE
  5
A0D
100
AcDbEntity
  8
ALL_FEATURES
100
AcDbLine
 62
7
  6
CONTINUOUS
 10
16.4301766916
 20
12.0497046981
 11
16.4489266916
 21
12.0497046981
  0
LINE
  5
A0E
100
AcDbEntity
  8
ALL_FEATURES
100
AcDbLine
 62
7
  6
CONTINUOUS
 10
16.5114266916
 20
12.0497046981
 11
16.5301766916
 21
12.0497046981
  0
LINE
  5
A0F
100
AcDbEntity
  8
ALL_FEATURES
100
AcDbLine
 62
7
  6
CONTINUOUS
 10
16.5468433662
 20
12.0497046981
 11
16.5968433662
 21
12.0497046981
  0
LINE
  5
A10
100
AcDbEntity
  8
ALL_FEATURES
100
AcDbLine
 62
7
  6
CONTINUOUS
 10
16.6405933662
 20
12.0497046981
 11
16.6530933424
 21
12.0497046981
  0
LINE
  5
A11
100
AcDbEntity
  8
ALL_FEATURES
100
AcDbLine
 62
7
  6
CONTINUOUS
 10
16.7655933424
 20
12.0497046981
 11
16.7822600408
 21
12.0497046981
  0
LINE
  5
A12
100
AcDbEntity
  8
ALL_FEATURES
100
AcDbLine
 62
7
  6
CONTINUOUS
 10
16.8322600408
 20
12.0497046981
 11
16.9114266916
 21
12.0497046981
  0
LINE
  5
A13
100
AcDbEntity
  8
ALL_FEATURES
100
AcDbLine
 62
7
  6
CONTINUOUS
 10
16.9280933424
 20
12.0497046981
 11
17.0030933424
 21
12.0497046981
  0
LINE
  5
A14
100
AcDbEntity
  8
ALL_FEATURES
100
AcDbLine
 62
7
  6
CONTINUOUS
 10
17.1593433901
 20
12.0497046981
 11
17.2343433901
 21
12.0497046981
  0
LINE
  5
A15
100
AcDbEntity
  8
ALL_FEATURES
100
AcDbLine
 62
7
  6
CONTINUOUS
 10
17.2510099932
 20
12.0497046981
 11
17.2635099932
 21
12.0497046981
  0
LINE
  5
A16
100
AcDbEntity
  8
ALL_FEATURES
100
AcDbLine
 62
7
  6
CONTINUOUS
 10
17.5280933901
 20
12.0497046981
 11
17.5405933901
 21
12.0497046981
  0
LINE
  5
A17
100
AcDbEntity
  8
ALL_FEATURES
100
AcDbLine
 62
7
  6
CONTINUOUS
 10
17.5989266916
 20
12.0497046981
 11
17.6114266916
 21
12.0497046981
  0
LINE
  5
A18
100
AcDbEntity
  8
ALL_FEATURES
100
AcDbLine
 62
7
  6
CONTINUOUS
 10
17.7280933901
 20
12.0497046981
 11
17.7468433901
 21
12.0497046981
  0
LINE
  5
A19
100
AcDbEntity
  8
ALL_FEATURES
100
AcDbLine
 62
7
  6
CONTINUOUS
 10
17.8093433901
 20
12.0497046981
 11
17.8280933901
 21
12.0497046981
  0
LINE
  5
A1A
100
AcDbEntity
  8
ALL_FEATURES
100
AcDbLine
 62
7
  6
CONTINUOUS
 10
17.8780932947
 20
12.0497046981
 11
17.8947600885
 21
12.0497046981
  0
LINE
  5
A1B
100
AcDbEntity
  8
ALL_FEATURES
100
AcDbLine
 62
7
  6
CONTINUOUS
 10
18.0364266916
 20
12.0497046981
 11
18.0551766916
 21
12.0497046981
  0
LINE
  5
A1C
100
AcDbEntity
  8
ALL_FEATURES
100
AcDbLine
 62
7
  6
CONTINUOUS
 10
18.1072600885
 20
12.0497046981
 11
18.1197600885
 21
12.0497046981
  0
LINE
  5
A1D
100
AcDbEntity
  8
ALL_FEATURES
100
AcDbLine
 62
7
  6
CONTINUOUS
 10
18.1364266916
 20
12.0497046981
 11
18.2155932947
 21
12.0497046981
  0
LINE
  5
A1E
100
AcDbEntity
  8
ALL_FEATURES
100
AcDbLine
 62
7
  6
CONTINUOUS
 10
18.3322600885
 20
12.0497046981
 11
18.3447600885
 21
12.0497046981
  0
LINE
  5
A1F
100
AcDbEntity
  8
ALL_FEATURES
100
AcDbLine
 62
7
  6
CONTINUOUS
 10
18.3905932947
 20
12.0497046981
 11
18.4072600885
 21
12.0497046981
  0
LINE
  5
A20
100
AcDbEntity
  8
ALL_FEATURES
100
AcDbLine
 62
7
  6
CONTINUOUS
 10
18.4239266916
 20
12.0497046981
 11
18.4364266916
 21
12.0497046981
  0
LINE
  5
A21
100
AcDbEntity
  8
ALL_FEATURES
100
AcDbLine
 62
7
  6
CONTINUOUS
 10
18.4530932947
 20
12.0497046981
 11
18.5322600885
 21
12.0497046981
  0
LINE
  5
A22
100
AcDbEntity
  8
ALL_FEATURES
100
AcDbLine
 62
7
  6
CONTINUOUS
 10
18.7385100885
 20
12.0497046981
 11
18.7510100885
 21
12.0497046981
  0
LINE
  5
A23
100
AcDbEntity
  8
ALL_FEATURES
100
AcDbLine
 62
7
  6
CONTINUOUS
 10
18.8510100885
 20
12.0497046981
 11
18.8551766916
 21
12.0497046981
  0
LINE
  5
A24
100
AcDbEntity
  8
ALL_FEATURES
100
AcDbLine
 62
7
  6
CONTINUOUS
 10
19.0676766916
 20
12.0497046981
 11
19.1468432947
 21
12.0497046981
  0
LINE
  5
A25
100
AcDbEntity
  8
ALL_FEATURES
100
AcDbLine
 62
7
  6
CONTINUOUS
 10
19.1968432947
 20
12.0497046981
 11
19.2135100885
 21
12.0497046981
  0
LINE
  5
A26
100
AcDbEntity
  8
ALL_FEATURES
100
AcDbLine
 62
7
  6
CONTINUOUS
 10
19.3885100885
 20
12.0497046981
 11
19.4072600885
 21
12.0497046981
  0
LINE
  5
A27
100
AcDbEntity
  8
ALL_FEATURES
100
AcDbLine
 62
7
  6
CONTINUOUS
 10
19.4530934854
 20
12.0497046981
 11
19.4655934854
 21
12.0497046981
  0
LINE
  5
A28
100
AcDbEntity
  8
ALL_FEATURES
100
AcDbLine
 62
7
  6
CONTINUOUS
 10
19.5239266916
 20
12.0497046981
 11
19.5364266916
 21
12.0497046981
  0
LINE
  5
A29
100
AcDbEntity
  8
ALL_FEATURES
100
AcDbLine
 62
7
  6
CONTINUOUS
 10
19.6530934854
 20
12.0497046981
 11
19.7030934854
 21
12.0497046981
  0
LINE
  5
A2A
100
AcDbEntity
  8
ALL_FEATURES
100
AcDbLine
 62
7
  6
CONTINUOUS
 10
19.7801766916
 20
12.0497046981
 11
19.7968434854
 21
12.0497046981
  0
LINE
  5
A2B
100
AcDbEntity
  8
ALL_FEATURES
100
AcDbLine
 62
7
  6
CONTINUOUS
 10
19.8468434854
 20
12.0497046981
 11
19.8655934854
 21
12.0497046981
  0
LINE
  5
A2C
100
AcDbEntity
  8
ALL_FEATURES
100
AcDbLine
 62
7
  6
CONTINUOUS
 10
19.9176766916
 20
12.0497046981
 11
19.9301766916
 21
12.0497046981
  0
LINE
  5
A2D
100
AcDbEntity
  8
ALL_FEATURES
100
AcDbLine
 62
7
  6
CONTINUOUS
 10
19.9468434854
 20
12.0497046981
 11
20.0218434854
 21
12.0497046981
  0
LINE
  5
A2E
100
AcDbEntity
  8
ALL_FEATURES
100
AcDbLine
 62
7
  6
CONTINUOUS
 10
20.0385098978
 20
12.0497046981
 11
20.0510098978
 21
12.0497046981
  0
LINE
  5
A2F
100
AcDbEntity
  8
ALL_FEATURES
100
AcDbLine
 62
7
  6
CONTINUOUS
 10
21.426060127
 20
12.1997046981
 11
14.9301266531
 21
12.1997046981
  0
LINE
  5
A30
100
AcDbEntity
  8
ALL_FEATURES
100
AcDbLine
 62
7
  6
CONTINUOUS
 10
18.8551766916
 20
12.0497046981
 11
18.8697600885
 21
12.0475770388
  0
LINE
  5
A31
100
AcDbEntity
  8
ALL_FEATURES
100
AcDbLine
 62
7
  6
CONTINUOUS
 10
18.8352865735
 20
11.8710357421
 11
18.8229834239
 21
11.873129895
  0
LINE
  5
A32
100
AcDbEntity
  8
ALL_FEATURES
100
AcDbLine
 62
7
  6
CONTINUOUS
 10
18.8697600885
 20
11.9943855498
 11
18.8572600885
 21
11.9965132092
  0
LINE
  5
A33
100
AcDbEntity
  8
ALL_FEATURES
100
AcDbLine
 62
7
  6
CONTINUOUS
 10
18.6117793869
 20
11.8710357421
 11
18.601526731
 21
11.873129895
  0
LINE
  5
A34
100
AcDbEntity
  8
ALL_FEATURES
100
AcDbLine
 62
7
  6
CONTINUOUS
 10
18.7020025153
 20
11.8710357421
 11
18.6917498594
 21
11.873129895
  0
LINE
  5
A35
100
AcDbEntity
  8
ALL_FEATURES
100
AcDbLine
 62
7
  6
CONTINUOUS
 10
17.8947600885
 20
12.0497046981
 11
17.9051766916
 21
12.0475770388
  0
LINE
  5
A36
100
AcDbEntity
  8
ALL_FEATURES
100
AcDbLine
 62
7
  6
CONTINUOUS
 10
18.8332360799
 20
11.8605649777
 11
18.8229834239
 21
11.8626591306
  0
LINE
  5
A37
100
AcDbEntity
  8
ALL_FEATURES
100
AcDbLine
 62
7
  6
CONTINUOUS
 10
18.9275601955
 20
11.8710357421
 11
18.9173076334
 21
11.873129895
  0
LINE
  5
A38
100
AcDbEntity
  8
ALL_FEATURES
100
AcDbLine
 62
7
  6
CONTINUOUS
 10
18.8364266916
 20
11.9624706556
 11
18.8468432947
 21
11.9603429962
  0
LINE
  5
A39
100
AcDbEntity
  8
ALL_FEATURES
100
AcDbLine
 62
7
  6
CONTINUOUS
 10
19.1968432947
 20
11.9497046981
 11
19.1864266916
 21
11.9518323576
  0
LINE
  5
A3A
100
AcDbEntity
  8
ALL_FEATURES
100
AcDbLine
 62
7
  6
CONTINUOUS
 10
18.8676766916
 20
12.0369387422
 11
18.8572600885
 21
12.0390664015
  0
LINE
  5
A3B
100
AcDbEntity
  8
ALL_FEATURES
100
AcDbLine
 62
7
  6
CONTINUOUS
 10
19.2864266916
 20
11.9518323576
 11
19.2968432947
 21
11.9497046981
  0
LINE
  5
A3C
100
AcDbEntity
  8
ALL_FEATURES
100
AcDbLine
 62
7
  6
CONTINUOUS
 10
19.3885100885
 20
11.9497046981
 11
19.3780932947
 21
11.9518323576
  0
LINE
  5
A3D
100
AcDbEntity
  8
ALL_FEATURES
100
AcDbLine
 62
7
  6
CONTINUOUS
 10
19.2135100885
 20
12.0497046981
 11
19.2239266916
 21
12.0475770388
  0
LINE
  5
A3E
100
AcDbEntity
  8
ALL_FEATURES
100
AcDbLine
 62
7
  6
CONTINUOUS
 10
19.4072600885
 20
12.0497046981
 11
19.4176766916
 21
12.0475770388
  0
LINE
  5
A3F
100
AcDbEntity
  8
ALL_FEATURES
100
AcDbLine
 62
7
  6
CONTINUOUS
 10
19.7030934854
 20
12.0497046981
 11
19.7135098978
 21
12.0475770388
  0
LINE
  5
A40
100
AcDbEntity
  8
ALL_FEATURES
100
AcDbLine
 62
7
  6
CONTINUOUS
 10
18.8447600885
 20
11.9497046981
 11
18.8364266916
 21
11.9518323576
  0
LINE
  5
A41
100
AcDbEntity
  8
ALL_FEATURES
100
AcDbLine
 62
7
  6
CONTINUOUS
 10
19.3801766916
 20
11.9645983149
 11
19.3885100885
 21
11.9624706556
  0
LINE
  5
A42
100
AcDbEntity
  8
ALL_FEATURES
100
AcDbLine
 62
7
  6
CONTINUOUS
 10
18.6999519278
 20
11.8605649777
 11
18.6917498594
 21
11.8626591306
  0
LINE
  5
A43
100
AcDbEntity
  8
ALL_FEATURES
100
AcDbLine
 62
7
  6
CONTINUOUS
 10
18.9255097019
 20
11.8186819144
 11
18.9173076334
 21
11.8207760673
  0
LINE
  5
A44
100
AcDbEntity
  8
ALL_FEATURES
100
AcDbLine
 62
7
  6
CONTINUOUS
 10
18.9009034027
 20
11.8312468316
 11
18.9091054711
 21
11.8291526787
  0
LINE
  5
A45
100
AcDbEntity
  8
ALL_FEATURES
100
AcDbLine
 62
7
  6
CONTINUOUS
 10
18.9255097019
 20
11.8605649777
 11
18.9173076334
 21
11.8626591306
  0
LINE
  5
A46
100
AcDbEntity
  8
ALL_FEATURES
100
AcDbLine
 62
7
  6
CONTINUOUS
 10
19.1968432947
 20
11.9624706556
 11
19.1885100885
 21
11.9645983149
  0
LINE
  5
A47
100
AcDbEntity
  8
ALL_FEATURES
100
AcDbLine
 62
7
  6
CONTINUOUS
 10
19.2968432947
 20
11.9624706556
 11
19.2885100885
 21
11.9645983149
  0
LINE
  5
A48
100
AcDbEntity
  8
ALL_FEATURES
100
AcDbLine
 62
7
  6
CONTINUOUS
 10
19.2135100885
 20
12.0369387422
 11
19.2218432947
 21
12.0348110829
  0
LINE
  5
A49
100
AcDbEntity
  8
ALL_FEATURES
100
AcDbLine
 62
7
  6
CONTINUOUS
 10
19.4155932947
 20
12.0348110829
 11
19.4072600885
 21
12.0369387422
  0
LINE
  5
A4A
100
AcDbEntity
  8
ALL_FEATURES
100
AcDbLine
 62
7
  6
CONTINUOUS
 10
18.8739266916
 20
12.0007685278
 11
18.8843432947
 21
11.9965132092
  0
LINE
  5
A4B
100
AcDbEntity
  8
ALL_FEATURES
100
AcDbLine
 62
7
  6
CONTINUOUS
 10
18.8886002531
 20
11.8270585259
 11
18.8927013342
 21
11.824964373
  0
LINE
  5
A4C
100
AcDbEntity
  8
ALL_FEATURES
100
AcDbLine
 62
7
  6
CONTINUOUS
 10
18.9337117703
 20
11.8144936086
 11
18.9255097019
 21
11.8186819144
  0
LINE
  5
A4D
100
AcDbEntity
  8
ALL_FEATURES
100
AcDbLine
 62
7
  6
CONTINUOUS
 10
18.9378128515
 20
11.8228702201
 11
18.9337117703
 21
11.824964373
  0
LINE
  5
A4E
100
AcDbEntity
  8
ALL_FEATURES
100
AcDbLine
 62
7
  6
CONTINUOUS
 10
18.8364266916
 20
11.9518323576
 11
18.8280932947
 21
11.9560876768
  0
LINE
  5
A4F
100
AcDbEntity
  8
ALL_FEATURES
100
AcDbLine
 62
7
  6
CONTINUOUS
 10
18.8322600885
 20
11.9645983149
 11
18.8364266916
 21
11.9624706556
  0
LINE
  5
A50
100
AcDbEntity
  8
ALL_FEATURES
100
AcDbLine
 62
7
  6
CONTINUOUS
 10
18.8697600885
 20
12.0475770388
 11
18.8780932947
 21
12.0433217202
  0
LINE
  5
A51
100
AcDbEntity
  8
ALL_FEATURES
100
AcDbLine
 62
7
  6
CONTINUOUS
 10
19.1864266916
 20
11.9518323576
 11
19.1780932947
 21
11.9560876768
  0
LINE
  5
A52
100
AcDbEntity
  8
ALL_FEATURES
100
AcDbLine
 62
7
  6
CONTINUOUS
 10
19.2780932947
 20
11.9560876768
 11
19.2864266916
 21
11.9518323576
  0
LINE
  5
A53
100
AcDbEntity
  8
ALL_FEATURES
100
AcDbLine
 62
7
  6
CONTINUOUS
 10
19.3780932947
 20
11.9518323576
 11
19.3697600885
 21
11.9560876768
  0
LINE
  5
A54
100
AcDbEntity
  8
ALL_FEATURES
100
AcDbLine
 62
7
  6
CONTINUOUS
 10
19.2239266916
 20
12.0475770388
 11
19.2322600885
 21
12.0433217202
  0
LINE
  5
A55
100
AcDbEntity
  8
ALL_FEATURES
100
AcDbLine
 62
7
  6
CONTINUOUS
 10
18.9378128515
 20
11.8647532835
 11
18.9275601955
 21
11.8710357421
  0
LINE
  5
A56
100
AcDbEntity
  8
ALL_FEATURES
100
AcDbLine
 62
7
  6
CONTINUOUS
 10
18.8280932947
 20
11.9560876768
 11
18.8218432947
 21
11.9603429962
  0
LINE
  5
A57
100
AcDbEntity
  8
ALL_FEATURES
100
AcDbLine
 62
7
  6
CONTINUOUS
 10
18.8760100885
 20
11.9901302312
 11
18.8697600885
 21
11.9943855498
  0
LINE
  5
A58
100
AcDbEntity
  8
ALL_FEATURES
100
AcDbLine
 62
7
  6
CONTINUOUS
 10
18.8739266916
 20
12.0326834236
 11
18.8676766916
 21
12.0369387422
  0
LINE
  5
A59
100
AcDbEntity
  8
ALL_FEATURES
100
AcDbLine
 62
7
  6
CONTINUOUS
 10
19.1885100885
 20
11.9645983149
 11
19.1822600885
 21
11.968853635
  0
LINE
  5
A5A
100
AcDbEntity
  8
ALL_FEATURES
100
AcDbLine
 62
7
  6
CONTINUOUS
 10
19.2885100885
 20
11.9645983149
 11
19.2822600885
 21
11.968853635
  0
LINE
  5
A5B
100
AcDbEntity
  8
ALL_FEATURES
100
AcDbLine
 62
7
  6
CONTINUOUS
 10
19.2218432947
 20
12.0348110829
 11
19.2280932947
 21
12.0305557643
  0
LINE
  5
A5C
100
AcDbEntity
  8
ALL_FEATURES
100
AcDbLine
 62
7
  6
CONTINUOUS
 10
19.3739266916
 20
11.968853635
 11
19.3801766916
 21
11.9645983149
  0
LINE
  5
A5D
100
AcDbEntity
  8
ALL_FEATURES
100
AcDbLine
 62
7
  6
CONTINUOUS
 10
19.4218432947
 20
12.0305557643
 11
19.4155932947
 21
12.0348110829
  0
LINE
  5
A5E
100
AcDbEntity
  8
ALL_FEATURES
100
AcDbLine
 62
7
  6
CONTINUOUS
 10
19.1780932947
 20
11.9560876768
 11
19.1697600885
 21
11.9645983149
  0
LINE
  5
A5F
100
AcDbEntity
  8
ALL_FEATURES
100
AcDbLine
 62
7
  6
CONTINUOUS
 10
19.2697600885
 20
11.9645983149
 11
19.2780932947
 21
11.9560876768
  0
LINE
  5
A60
100
AcDbEntity
  8
ALL_FEATURES
100
AcDbLine
 62
7
  6
CONTINUOUS
 10
19.2322600885
 20
12.0433217202
 11
19.2405932947
 21
12.0348110829
  0
LINE
  5
A61
100
AcDbEntity
  8
ALL_FEATURES
100
AcDbLine
 62
7
  6
CONTINUOUS
 10
19.3697600885
 20
11.9560876768
 11
19.3614266916
 21
11.9645983149
  0
LINE
  5
A62
100
AcDbEntity
  8
ALL_FEATURES
100
AcDbLine
 62
7
  6
CONTINUOUS
 10
19.4260100885
 20
12.0433217202
 11
19.4343432947
 21
12.0348110829
  0
LINE
  5
A63
100
AcDbEntity
  8
ALL_FEATURES
100
AcDbLine
 62
7
  6
CONTINUOUS
 10
19.7218434854
 20
12.0411940609
 11
19.7280934854
 21
12.0326834236
  0
LINE
  5
A64
100
AcDbEntity
  8
ALL_FEATURES
100
AcDbLine
 62
7
  6
CONTINUOUS
 10
19.3697600885
 20
11.975236613
 11
19.3739266916
 21
11.968853635
  0
LINE
  5
A65
100
AcDbEntity
  8
ALL_FEATURES
100
AcDbLine
 62
7
  6
CONTINUOUS
 10
19.9114266916
 20
11.9497046981
 11
19.8593434854
 21
12.0369387422
  0
LINE
  5
A66
100
AcDbEntity
  8
ALL_FEATURES
100
AcDbLine
 62
7
  6
CONTINUOUS
 10
19.7968434854
 20
12.0497046981
 11
19.8301766916
 21
11.9497046981
  0
LINE
  5
A67
100
AcDbEntity
  8
ALL_FEATURES
100
AcDbLine
 62
7
  6
CONTINUOUS
 10
19.8176766916
 20
11.9497046981
 11
19.8093434854
 21
11.975236613
  0
LINE
  5
A68
100
AcDbEntity
  8
ALL_FEATURES
100
AcDbLine
 62
7
  6
CONTINUOUS
 10
19.7885098978
 20
12.0411940609
 11
19.8072598978
 21
11.9837472503
  0
LINE
  5
A69
100
AcDbEntity
  8
ALL_FEATURES
100
AcDbLine
 62
7
  6
CONTINUOUS
 10
20.1465973271
 20
7.6143363864
 11
20.0481721302
 21
7.4962261502
  0
LINE
  5
A6A
100
AcDbEntity
  8
ALL_FEATURES
100
AcDbLine
 62
7
  6
CONTINUOUS
 10
19.7114266916
 20
12.0369387422
 11
19.7051766916
 21
12.0390664015
  0
LINE
  5
A6B
100
AcDbEntity
  8
ALL_FEATURES
100
AcDbLine
 62
7
  6
CONTINUOUS
 10
19.4176766916
 20
12.0475770388
 11
19.4260100885
 21
12.0433217202
  0
LINE
  5
A6C
100
AcDbEntity
  8
ALL_FEATURES
100
AcDbLine
 62
7
  6
CONTINUOUS
 10
19.7135098978
 20
12.0475770388
 11
19.7218434854
 21
12.0411940609
  0
LINE
  5
A6D
100
AcDbEntity
  8
ALL_FEATURES
100
AcDbLine
 62
7
  6
CONTINUOUS
 10
19.7155934854
 20
12.0326834236
 11
19.7114266916
 21
12.0369387422
  0
LINE
  5
A6E
100
AcDbEntity
  8
ALL_FEATURES
100
AcDbLine
 62
7
  6
CONTINUOUS
 10
19.8655934854
 20
12.0497046981
 11
19.9176766916
 21
11.9645983149
  0
LINE
  5
A6F
100
AcDbEntity
  8
ALL_FEATURES
100
AcDbLine
 62
7
  6
CONTINUOUS
 10
21.426060127
 20
7.1777869723
 11
21.426060127
 21
12.1997046981
  0
CIRCLE
  5
A70
100
AcDbEntity
  8
FORMAT
100
AcDbCircle
 62
2
  6
CONTINUOUS
 10
25.9241031828
 20
0.7797689904
 40
0.2
  0
CIRCLE
  5
A71
100
AcDbEntity
  8
FORMAT
100
AcDbCircle
 62
2
  6
CONTINUOUS
 10
25.9241031828
 20
0.7797689904
 40
0.125
  0
ENDSEC
  0
SECTION
  2
OBJECTS
  0
DICTIONARY
  5
A72
100
AcDbDictionary
  3
ACAD_GROUP
350
A73
  3
ACAD_MLINESTYLE
350
A74
  0
DICTIONARY
  5
A73
102
{ACAD_REACTORS
330
A72
102
}
100
AcDbDictionary
  0
DICTIONARY
  5
A74
102
{ACAD_REACTORS
330
A72
102
}
100
AcDbDictionary
  3
STANDARD
350
A75
  0
MLINESTYLE
  5
A75
102
{ACAD_REACTORS
330
A74
102
}
100
AcDbMlineStyle
  2
STANDARD
 70
0
  3

 62
256
 51
90.0
 52
90.0
 71
2
 49
0.5
 62
256
  6
BYLAYER
 49
-0.5
 62
256
  6
BYLAYER
  0
ENDSEC
  0
EOF
