  0
SECTION
  2
HEADER
  9
$ACADVER
  1
AC1014
  9
$ACADMAINTVER
 70
     9
  9
$DWGCODEPAGE
  3
ANSI_1252
  9
$INSBASE
 10
0.0
 20
0.0
 30
0.0
  9
$EXTMIN
 10
17.96135905001544
 20
-0.0343717400602692
 30
0.0
  9
$EXTMAX
 10
34.96135905001544
 20
10.96562825993973
 30
0.0
  9
$LIMMIN
 10
0.0
 20
0.0
  9
$LIMMAX
 10
17.00000000000067
 20
11.00000000000042
  9
$ORTHOMODE
 70
     1
  9
$REGENMODE
 70
     1
  9
$FILLMODE
 70
     1
  9
$QTEXTMODE
 70
     0
  9
$MIRRTEXT
 70
     1
  9
$DRAGMODE
 70
     2
  9
$LTSCALE
 40
0.2
  9
$OSMODE
 70
    32
  9
$ATTMODE
 70
     1
  9
$TEXTSIZE
 40
0.12
  9
$TRACEWID
 40
0.05
  9
$TEXTSTYLE
  7
ROMANS
  9
$CLAYER
  8
0
  9
$CELTYPE
  6
BYLAYER
  9
$CECOLOR
 62
   256
  9
$CELTSCALE
 40
1.0
  9
$DELOBJ
 70
     1
  9
$DISPSILH
 70
     0
  9
$DIMSCALE
 40
1.0
  9
$DIMASZ
 40
0.18
  9
$DIMEXO
 40
0.0625
  9
$DIMDLI
 40
0.38
  9
$DIMRND
 40
0.0
  9
$DIMDLE
 40
0.0
  9
$DIMEXE
 40
0.18
  9
$DIMTP
 40
0.0
  9
$DIMTM
 40
0.0
  9
$DIMTXT
 40
0.12
  9
$DIMCEN
 40
0.09
  9
$DIMTSZ
 40
0.0
  9
$DIMTOL
 70
     0
  9
$DIMLIM
 70
     0
  9
$DIMTIH
 70
     1
  9
$DIMTOH
 70
     1
  9
$DIMSE1
 70
     0
  9
$DIMSE2
 70
     0
  9
$DIMTAD
 70
     0
  9
$DIMZIN
 70
     4
  9
$DIMBLK
  1

  9
$DIMASO
 70
     1
  9
$DIMSHO
 70
     0
  9
$DIMPOST
  1

  9
$DIMAPOST
  1
MM
  9
$DIMALT
 70
     1
  9
$DIMALTD
 70
     0
  9
$DIMALTF
 40
25.4
  9
$DIMLFAC
 40
1.0
  9
$DIMTOFL
 70
     0
  9
$DIMTVP
 40
0.0
  9
$DIMTIX
 70
     0
  9
$DIMSOXD
 70
     0
  9
$DIMSAH
 70
     0
  9
$DIMBLK1
  1

  9
$DIMBLK2
  1

  9
$DIMSTYLE
  2
STANDARD
  9
$DIMCLRD
 70
     0
  9
$DIMCLRE
 70
     0
  9
$DIMCLRT
 70
     0
  9
$DIMTFAC
 40
1.0
  9
$DIMGAP
 40
0.09
  9
$DIMJUST
 70
     0
  9
$DIMSD1
 70
     0
  9
$DIMSD2
 70
     0
  9
$DIMTOLJ
 70
     1
  9
$DIMTZIN
 70
     0
  9
$DIMALTZ
 70
     4
  9
$DIMALTTZ
 70
     0
  9
$DIMFIT
 70
     3
  9
$DIMUPT
 70
     0
  9
$DIMUNIT
 70
     2
  9
$DIMDEC
 70
     2
  9
$DIMTDEC
 70
     2
  9
$DIMALTU
 70
     2
  9
$DIMALTTD
 70
     0
  9
$DIMTXSTY
  7
STANDARD
  9
$DIMAUNIT
 70
     0
  9
$LUNITS
 70
     2
  9
$LUPREC
 70
     3
  9
$SKETCHINC
 40
0.1
  9
$FILLETRAD
 40
0.06
  9
$AUNITS
 70
     0
  9
$AUPREC
 70
     1
  9
$MENU
  1
ACAD
  9
$ELEVATION
 40
0.0
  9
$PELEVATION
 40
0.0
  9
$THICKNESS
 40
0.0
  9
$LIMCHECK
 70
     0
  9
$BLIPMODE
 70
     0
  9
$CHAMFERA
 40
0.0
  9
$CHAMFERB
 40
0.0
  9
$CHAMFERC
 40
0.0
  9
$CHAMFERD
 40
0.0
  9
$SKPOLY
 70
     0
  9
$TDCREATE
 40
2450406.355123726
  9
$TDUPDATE
 40
2452956.651740914
  9
$TDINDWG
 40
0.4025360880
  9
$TDUSRTIMER
 40
0.4025359722
  9
$USRTIMER
 70
     1
  9
$ANGBASE
 50
0.0
  9
$ANGDIR
 70
     0
  9
$PDMODE
 70
     2
  9
$PDSIZE
 40
0.085
  9
$PLINEWID
 40
0.0
  9
$COORDS
 70
     2
  9
$SPLFRAME
 70
     0
  9
$SPLINETYPE
 70
     6
  9
$SPLINESEGS
 70
     8
  9
$ATTDIA
 70
     0
  9
$ATTREQ
 70
     1
  9
$HANDLING
 70
-16383
  9
$HANDSEED
  5
8940
  9
$SURFTAB1
 70
     6
  9
$SURFTAB2
 70
     6
  9
$SURFTYPE
 70
     6
  9
$SURFU
 70
     6
  9
$SURFV
 70
     6
  9
$UCSNAME
  2

  9
$UCSORG
 10
0.0
 20
0.0
 30
0.0
  9
$UCSXDIR
 10
1.0
 20
0.0
 30
0.0
  9
$UCSYDIR
 10
0.0
 20
1.0
 30
0.0
  9
$PUCSNAME
  2

  9
$PUCSORG
 10
0.0
 20
0.0
 30
0.0
  9
$PUCSXDIR
 10
1.0
 20
0.0
 30
0.0
  9
$PUCSYDIR
 10
0.0
 20
1.0
 30
0.0
  9
$USERI1
 70
     0
  9
$USERI2
 70
     0
  9
$USERI3
 70
     0
  9
$USERI4
 70
     0
  9
$USERI5
 70
     0
  9
$USERR1
 40
0.0
  9
$USERR2
 40
0.0
  9
$USERR3
 40
0.0
  9
$USERR4
 40
0.0
  9
$USERR5
 40
0.0
  9
$WORLDVIEW
 70
     1
  9
$SHADEDGE
 70
     3
  9
$SHADEDIF
 70
    70
  9
$TILEMODE
 70
     1
  9
$MAXACTVP
 70
    16
  9
$PINSBASE
 10
0.0
 20
0.0
 30
0.0
  9
$PLIMCHECK
 70
     0
  9
$PEXTMIN
 10
1.000000000000000E+20
 20
1.000000000000000E+20
 30
1.000000000000000E+20
  9
$PEXTMAX
 10
-1.000000000000000E+20
 20
-1.000000000000000E+20
 30
-1.000000000000000E+20
  9
$PLIMMIN
 10
0.0
 20
0.0
  9
$PLIMMAX
 10
12.0
 20
9.0
  9
$UNITMODE
 70
     0
  9
$VISRETAIN
 70
     0
  9
$PLINEGEN
 70
     0
  9
$PSLTSCALE
 70
     0
  9
$TREEDEPTH
 70
  3020
  9
$PICKSTYLE
 70
     1
  9
$CMLSTYLE
  2
STANDARD
  9
$CMLJUST
 70
     0
  9
$CMLSCALE
 40
1.0
  9
$PROXYGRAPHICS
 70
     1
  9
$MEASUREMENT
 70
     0
  0
ENDSEC
  0
SECTION
  2
CLASSES
  0
CLASS
  1
ACDBDICTIONARYWDFLT
  2
AcDbDictionaryWithDefault
  3
AutoCAD 2000
 90
        0
280
     0
281
     0
  0
CLASS
  1
ACDBPLACEHOLDER
  2
AcDbPlaceHolder
  3
AutoCAD 2000
 90
        0
280
     0
281
     0
  0
CLASS
  1
LAYOUT
  2
AcDbLayout
  3
AutoCAD 2000
 90
        0
280
     0
281
     0
  0
CLASS
  1
DICTIONARYVAR
  2
AcDbDictionaryVar
  3
AutoCAD 2000
 90
        0
280
     0
281
     0
  0
CLASS
  1
LONG_TRANSACTION
  2
AcDbLongTransaction
  3
AutoCAD 2000
 90
        0
280
     0
281
     0
  0
CLASS
  1
LWPOLYLINE
  2
AcDbPolyline
  3
AutoCAD 2000
 90
        0
280
     0
281
     1
  0
CLASS
  1
HATCH
  2
AcDbHatch
  3
AutoCAD 2000
 90
        0
280
     0
281
     1
  0
CLASS
  1
XRECORD
  2
AcDbXrecord
  3
AutoCAD 2000
 90
        0
280
     0
281
     0
  0
CLASS
  1
LONG_TRANSACTION
  2
AcDbLongTransaction
  3
AutoCAD 2000
 90
        0
280
     0
281
     0
  0
CLASS
  1
LWPOLYLINE
  2
AcDbPolyline
  3
AutoCAD 2000
 90
        0
280
     0
281
     1
  0
CLASS
  1
HATCH
  2
AcDbHatch
  3
AutoCAD 2000
 90
        0
280
     0
281
     1
  0
CLASS
  1
XRECORD
  2
AcDbXrecord
  3
AutoCAD 2000
 90
        0
280
     0
281
     0
  0
CLASS
  1
LONG_TRANSACTION
  2
AcDbLongTransaction
  3
AutoCAD 2000
 90
        0
280
     0
281
     0
  0
CLASS
  1
LWPOLYLINE
  2
AcDbPolyline
  3
AutoCAD 2000
 90
        0
280
     0
281
     1
  0
CLASS
  1
HATCH
  2
AcDbHatch
  3
AutoCAD 2000
 90
        0
280
     0
281
     1
  0
CLASS
  1
XRECORD
  2
AcDbXrecord
  3
AutoCAD 2000
 90
        0
280
     0
281
     0
  0
CLASS
  1
LONG_TRANSACTION
  2
AcDbLongTransaction
  3
AutoCAD 2000
 90
        0
280
     0
281
     0
  0
CLASS
  1
LWPOLYLINE
  2
AcDbPolyline
  3
AutoCAD 2000
 90
        0
280
     0
281
     1
  0
CLASS
  1
HATCH
  2
AcDbHatch
  3
AutoCAD 2000
 90
        0
280
     0
281
     1
  0
CLASS
  1
XRECORD
  2
AcDbXrecord
  3
AutoCAD 2000
 90
        0
280
     0
281
     0
  0
CLASS
  1
LONG_TRANSACTION
  2
AcDbLongTransaction
  3
AutoCAD 2000
 90
        0
280
     0
281
     0
  0
CLASS
  1
LWPOLYLINE
  2
AcDbPolyline
  3
AutoCAD 2000
 90
        0
280
     0
281
     1
  0
CLASS
  1
HATCH
  2
AcDbHatch
  3
AutoCAD 2000
 90
        0
280
     0
281
     1
  0
CLASS
  1
XRECORD
  2
AcDbXrecord
  3
AutoCAD 2000
 90
        0
280
     0
281
     0
  0
CLASS
  1
LONG_TRANSACTION
  2
AcDbLongTransaction
  3
AutoCAD 2000
 90
        0
280
     0
281
     0
  0
CLASS
  1
LWPOLYLINE
  2
AcDbPolyline
  3
AutoCAD 2000
 90
        0
280
     0
281
     1
  0
CLASS
  1
HATCH
  2
AcDbHatch
  3
AutoCAD 2000
 90
        0
280
     0
281
     1
  0
CLASS
  1
XRECORD
  2
AcDbXrecord
  3
AutoCAD 2000
 90
        0
280
     0
281
     0
  0
CLASS
  1
LONG_TRANSACTION
  2
AcDbLongTransaction
  3
AutoCAD 2000
 90
        0
280
     0
281
     0
  0
CLASS
  1
LWPOLYLINE
  2
AcDbPolyline
  3
AutoCAD 2000
 90
        0
280
     0
281
     1
  0
CLASS
  1
HATCH
  2
AcDbHatch
  3
AutoCAD 2000
 90
        0
280
     0
281
     1
  0
CLASS
  1
XRECORD
  2
AcDbXrecord
  3
AutoCAD 2000
 90
        0
280
     0
281
     0
  0
CLASS
  1
LONG_TRANSACTION
  2
AcDbLongTransaction
  3
AutoCAD 2000
 90
        0
280
     0
281
     0
  0
CLASS
  1
LWPOLYLINE
  2
AcDbPolyline
  3
AutoCAD 2000
 90
        0
280
     0
281
     1
  0
CLASS
  1
HATCH
  2
AcDbHatch
  3
AutoCAD 2000
 90
        0
280
     0
281
     1
  0
CLASS
  1
XRECORD
  2
AcDbXrecord
  3
AutoCAD 2000
 90
        0
280
     0
281
     0
  0
CLASS
  1
LONG_TRANSACTION
  2
AcDbLongTransaction
  3
AutoCAD 2000
 90
        0
280
     0
281
     0
  0
CLASS
  1
LWPOLYLINE
  2
AcDbPolyline
  3
AutoCAD 2000
 90
        0
280
     0
281
     1
  0
CLASS
  1
HATCH
  2
AcDbHatch
  3
AutoCAD 2000
 90
        0
280
     0
281
     1
  0
CLASS
  1
XRECORD
  2
AcDbXrecord
  3
AutoCAD 2000
 90
        0
280
     0
281
     0
  0
CLASS
  1
LONG_TRANSACTION
  2
AcDbLongTransaction
  3
AutoCAD 2000
 90
        0
280
     0
281
     0
  0
CLASS
  1
LWPOLYLINE
  2
AcDbPolyline
  3
AutoCAD 2000
 90
        0
280
     0
281
     1
  0
CLASS
  1
HATCH
  2
AcDbHatch
  3
AutoCAD 2000
 90
        0
280
     0
281
     1
  0
CLASS
  1
XRECORD
  2
AcDbXrecord
  3
AutoCAD 2000
 90
        0
280
     0
281
     0
  0
CLASS
  1
LONG_TRANSACTION
  2
AcDbLongTransaction
  3
AutoCAD 2000
 90
        0
280
     0
281
     0
  0
CLASS
  1
LWPOLYLINE
  2
AcDbPolyline
  3
AutoCAD 2000
 90
        0
280
     0
281
     1
  0
CLASS
  1
HATCH
  2
AcDbHatch
  3
AutoCAD 2000
 90
        0
280
     0
281
     1
  0
CLASS
  1
XRECORD
  2
AcDbXrecord
  3
AutoCAD 2000
 90
        0
280
     0
281
     0
  0
CLASS
  1
LONG_TRANSACTION
  2
AcDbLongTransaction
  3
AutoCAD 2000
 90
        0
280
     0
281
     0
  0
CLASS
  1
LWPOLYLINE
  2
AcDbPolyline
  3
AutoCAD 2000
 90
        0
280
     0
281
     1
  0
CLASS
  1
HATCH
  2
AcDbHatch
  3
AutoCAD 2000
 90
        0
280
     0
281
     1
  0
CLASS
  1
XRECORD
  2
AcDbXrecord
  3
AutoCAD 2000
 90
        0
280
     0
281
     0
  0
CLASS
  1
LONG_TRANSACTION
  2
AcDbLongTransaction
  3
AutoCAD 2000
 90
        0
280
     0
281
     0
  0
CLASS
  1
LWPOLYLINE
  2
AcDbPolyline
  3
AutoCAD 2000
 90
        0
280
     0
281
     1
  0
CLASS
  1
HATCH
  2
AcDbHatch
  3
AutoCAD 2000
 90
        0
280
     0
281
     1
  0
CLASS
  1
XRECORD
  2
AcDbXrecord
  3
AutoCAD 2000
 90
        0
280
     0
281
     0
  0
CLASS
  1
LONG_TRANSACTION
  2
AcDbLongTransaction
  3
AutoCAD 2000
 90
        0
280
     0
281
     0
  0
CLASS
  1
LWPOLYLINE
  2
AcDbPolyline
  3
AutoCAD 2000
 90
        0
280
     0
281
     1
  0
CLASS
  1
HATCH
  2
AcDbHatch
  3
AutoCAD 2000
 90
        0
280
     0
281
     1
  0
CLASS
  1
XRECORD
  2
AcDbXrecord
  3
AutoCAD 2000
 90
        0
280
     0
281
     0
  0
CLASS
  1
LONG_TRANSACTION
  2
AcDbLongTransaction
  3
AutoCAD 2000
 90
        0
280
     0
281
     0
  0
CLASS
  1
LWPOLYLINE
  2
AcDbPolyline
  3
AutoCAD 2000
 90
        0
280
     0
281
     1
  0
CLASS
  1
HATCH
  2
AcDbHatch
  3
AutoCAD 2000
 90
        0
280
     0
281
     1
  0
CLASS
  1
XRECORD
  2
AcDbXrecord
  3
AutoCAD 2000
 90
        0
280
     0
281
     0
  0
CLASS
  1
LONG_TRANSACTION
  2
AcDbLongTransaction
  3
AutoCAD 2000
 90
        0
280
     0
281
     0
  0
CLASS
  1
LWPOLYLINE
  2
AcDbPolyline
  3
AutoCAD 2000
 90
        0
280
     0
281
     1
  0
CLASS
  1
HATCH
  2
AcDbHatch
  3
AutoCAD 2000
 90
        0
280
     0
281
     1
  0
CLASS
  1
XRECORD
  2
AcDbXrecord
  3
AutoCAD 2000
 90
        0
280
     0
281
     0
  0
CLASS
  1
LONG_TRANSACTION
  2
AcDbLongTransaction
  3
AutoCAD 2000
 90
        0
280
     0
281
     0
  0
CLASS
  1
LWPOLYLINE
  2
AcDbPolyline
  3
AutoCAD 2000
 90
        0
280
     0
281
     1
  0
CLASS
  1
HATCH
  2
AcDbHatch
  3
AutoCAD 2000
 90
        0
280
     0
281
     1
  0
CLASS
  1
XRECORD
  2
AcDbXrecord
  3
AutoCAD 2000
 90
        0
280
     0
281
     0
  0
CLASS
  1
LONG_TRANSACTION
  2
AcDbLongTransaction
  3
AutoCAD 2000
 90
        0
280
     0
281
     0
  0
CLASS
  1
LWPOLYLINE
  2
AcDbPolyline
  3
AutoCAD 2000
 90
        0
280
     0
281
     1
  0
CLASS
  1
HATCH
  2
AcDbHatch
  3
AutoCAD 2000
 90
        0
280
     0
281
     1
  0
CLASS
  1
XRECORD
  2
AcDbXrecord
  3
AutoCAD 2000
 90
        0
280
     0
281
     0
  0
CLASS
  1
LONG_TRANSACTION
  2
AcDbLongTransaction
  3
AutoCAD 2000
 90
        0
280
     0
281
     0
  0
CLASS
  1
LWPOLYLINE
  2
AcDbPolyline
  3
AutoCAD 2000
 90
        0
280
     0
281
     1
  0
CLASS
  1
HATCH
  2
AcDbHatch
  3
AutoCAD 2000
 90
        0
280
     0
281
     1
  0
CLASS
  1
XRECORD
  2
AcDbXrecord
  3
AutoCAD 2000
 90
        0
280
     0
281
     0
  0
CLASS
  1
LONG_TRANSACTION
  2
AcDbLongTransaction
  3
AutoCAD 2000
 90
        0
280
     0
281
     0
  0
CLASS
  1
LWPOLYLINE
  2
AcDbPolyline
  3
AutoCAD 2000
 90
        0
280
     0
281
     1
  0
CLASS
  1
HATCH
  2
AcDbHatch
  3
AutoCAD 2000
 90
        0
280
     0
281
     1
  0
CLASS
  1
XRECORD
  2
AcDbXrecord
  3
AutoCAD 2000
 90
        0
280
     0
281
     0
  0
CLASS
  1
LONG_TRANSACTION
  2
AcDbLongTransaction
  3
AutoCAD 2000
 90
        0
280
     0
281
     0
  0
CLASS
  1
LWPOLYLINE
  2
AcDbPolyline
  3
AutoCAD 2000
 90
        0
280
     0
281
     1
  0
CLASS
  1
HATCH
  2
AcDbHatch
  3
AutoCAD 2000
 90
        0
280
     0
281
     1
  0
CLASS
  1
XRECORD
  2
AcDbXrecord
  3
AutoCAD 2000
 90
        0
280
     0
281
     0
  0
CLASS
  1
LONG_TRANSACTION
  2
AcDbLongTransaction
  3
AutoCAD 2000
 90
        0
280
     0
281
     0
  0
CLASS
  1
LWPOLYLINE
  2
AcDbPolyline
  3
AutoCAD 2000
 90
        0
280
     0
281
     1
  0
CLASS
  1
HATCH
  2
AcDbHatch
  3
AutoCAD 2000
 90
        0
280
     0
281
     1
  0
CLASS
  1
XRECORD
  2
AcDbXrecord
  3
AutoCAD 2000
 90
        0
280
     0
281
     0
  0
CLASS
  1
LONG_TRANSACTION
  2
AcDbLongTransaction
  3
AutoCAD 2000
 90
        0
280
     0
281
     0
  0
CLASS
  1
LWPOLYLINE
  2
AcDbPolyline
  3
AutoCAD 2000
 90
        0
280
     0
281
     1
  0
CLASS
  1
HATCH
  2
AcDbHatch
  3
AutoCAD 2000
 90
        0
280
     0
281
     1
  0
CLASS
  1
XRECORD
  2
AcDbXrecord
  3
AutoCAD 2000
 90
        0
280
     0
281
     0
  0
CLASS
  1
LONG_TRANSACTION
  2
AcDbLongTransaction
  3
AutoCAD 2000
 90
        0
280
     0
281
     0
  0
CLASS
  1
LWPOLYLINE
  2
AcDbPolyline
  3
AutoCAD 2000
 90
        0
280
     0
281
     1
  0
CLASS
  1
HATCH
  2
AcDbHatch
  3
AutoCAD 2000
 90
        0
280
     0
281
     1
  0
CLASS
  1
XRECORD
  2
AcDbXrecord
  3
AutoCAD 2000
 90
        0
280
     0
281
     0
  0
CLASS
  1
LONG_TRANSACTION
  2
AcDbLongTransaction
  3
AutoCAD 2000
 90
        0
280
     0
281
     0
  0
CLASS
  1
LWPOLYLINE
  2
AcDbPolyline
  3
AutoCAD 2000
 90
        0
280
     0
281
     1
  0
CLASS
  1
HATCH
  2
AcDbHatch
  3
AutoCAD 2000
 90
        0
280
     0
281
     1
  0
CLASS
  1
XRECORD
  2
AcDbXrecord
  3
AutoCAD 2000
 90
        0
280
     0
281
     0
  0
CLASS
  1
LONG_TRANSACTION
  2
AcDbLongTransaction
  3
AutoCAD 2000
 90
        0
280
     0
281
     0
  0
CLASS
  1
LWPOLYLINE
  2
AcDbPolyline
  3
AutoCAD 2000
 90
        0
280
     0
281
     1
  0
CLASS
  1
HATCH
  2
AcDbHatch
  3
AutoCAD 2000
 90
        0
280
     0
281
     1
  0
CLASS
  1
XRECORD
  2
AcDbXrecord
  3
AutoCAD 2000
 90
        0
280
     0
281
     0
  0
CLASS
  1
LONG_TRANSACTION
  2
AcDbLongTransaction
  3
AutoCAD 2000
 90
        0
280
     0
281
     0
  0
CLASS
  1
LWPOLYLINE
  2
AcDbPolyline
  3
AutoCAD 2000
 90
        0
280
     0
281
     1
  0
CLASS
  1
HATCH
  2
AcDbHatch
  3
AutoCAD 2000
 90
        0
280
     0
281
     1
  0
CLASS
  1
XRECORD
  2
AcDbXrecord
  3
AutoCAD 2000
 90
        0
280
     0
281
     0
  0
CLASS
  1
LONG_TRANSACTION
  2
AcDbLongTransaction
  3
AutoCAD 2000
 90
        0
280
     0
281
     0
  0
CLASS
  1
LWPOLYLINE
  2
AcDbPolyline
  3
AutoCAD 2000
 90
        0
280
     0
281
     1
  0
CLASS
  1
HATCH
  2
AcDbHatch
  3
AutoCAD 2000
 90
        0
280
     0
281
     1
  0
CLASS
  1
XRECORD
  2
AcDbXrecord
  3
AutoCAD 2000
 90
        0
280
     0
281
     0
  0
CLASS
  1
LONG_TRANSACTION
  2
AcDbLongTransaction
  3
AutoCAD 2000
 90
        0
280
     0
281
     0
  0
CLASS
  1
LWPOLYLINE
  2
AcDbPolyline
  3
AutoCAD 2000
 90
        0
280
     0
281
     1
  0
CLASS
  1
HATCH
  2
AcDbHatch
  3
AutoCAD 2000
 90
        0
280
     0
281
     1
  0
CLASS
  1
XRECORD
  2
AcDbXrecord
  3
AutoCAD 2000
 90
        0
280
     0
281
     0
  0
CLASS
  1
LONG_TRANSACTION
  2
AcDbLongTransaction
  3
AutoCAD 2000
 90
        0
280
     0
281
     0
  0
CLASS
  1
LWPOLYLINE
  2
AcDbPolyline
  3
AutoCAD 2000
 90
        0
280
     0
281
     1
  0
CLASS
  1
HATCH
  2
AcDbHatch
  3
AutoCAD 2000
 90
        0
280
     0
281
     1
  0
CLASS
  1
XRECORD
  2
AcDbXrecord
  3
AutoCAD 2000
 90
        0
280
     0
281
     0
  0
CLASS
  1
LONG_TRANSACTION
  2
AcDbLongTransaction
  3
AutoCAD 2000
 90
        0
280
     0
281
     0
  0
CLASS
  1
LWPOLYLINE
  2
AcDbPolyline
  3
AutoCAD 2000
 90
        0
280
     0
281
     1
  0
CLASS
  1
HATCH
  2
AcDbHatch
  3
AutoCAD 2000
 90
        0
280
     0
281
     1
  0
CLASS
  1
XRECORD
  2
AcDbXrecord
  3
AutoCAD 2000
 90
        0
280
     0
281
     0
  0
CLASS
  1
LONG_TRANSACTION
  2
AcDbLongTransaction
  3
AutoCAD 2000
 90
        0
280
     0
281
     0
  0
CLASS
  1
LWPOLYLINE
  2
AcDbPolyline
  3
AutoCAD 2000
 90
        0
280
     0
281
     1
  0
CLASS
  1
HATCH
  2
AcDbHatch
  3
AutoCAD 2000
 90
        0
280
     0
281
     1
  0
CLASS
  1
XRECORD
  2
AcDbXrecord
  3
AutoCAD 2000
 90
        0
280
     0
281
     0
  0
CLASS
  1
LONG_TRANSACTION
  2
AcDbLongTransaction
  3
AutoCAD 2000
 90
        0
280
     0
281
     0
  0
CLASS
  1
LWPOLYLINE
  2
AcDbPolyline
  3
AutoCAD 2000
 90
        0
280
     0
281
     1
  0
CLASS
  1
HATCH
  2
AcDbHatch
  3
AutoCAD 2000
 90
        0
280
     0
281
     1
  0
CLASS
  1
XRECORD
  2
AcDbXrecord
  3
AutoCAD 2000
 90
        0
280
     0
281
     0
  0
ENDSEC
  0
SECTION
  2
TABLES
  0
TABLE
  2
VPORT
  5
65B5
330
0
100
AcDbSymbolTable
 70
     2
  0
VPORT
  5
891D
330
65B5
100
AcDbSymbolTableRecord
100
AcDbViewportTableRecord
  2
*ACTIVE
 70
     0
 10
0.0
 20
0.0
 11
1.0
 21
1.0
 12
27.21581812216858
 22
5.465302992748491
 13
0.0
 23
0.0
 14
0.1
 24
0.1
 15
0.1
 25
0.1
 16
0.0
 26
0.0
 36
1.0
 17
0.0
 27
0.0
 37
0.0
 40
11.08447876735308
 41
1.695839311334289
 42
50.0
 43
0.0
 44
0.0
 50
0.0
 51
0.0
 71
     0
 72
  5000
 73
     1
 74
     0
 75
     0
 76
     0
 77
     0
 78
     0
  0
ENDTAB
  0
TABLE
  2
LTYPE
  5
65B2
330
0
100
AcDbSymbolTable
 70
     2
  0
LTYPE
  5
65C0
330
65B2
100
AcDbSymbolTableRecord
100
AcDbLinetypeTableRecord
  2
BYBLOCK
 70
     0
  3

 72
    65
 73
     0
 40
0.0
  0
LTYPE
  5
65C1
330
65B2
100
AcDbSymbolTableRecord
100
AcDbLinetypeTableRecord
  2
BYLAYER
 70
     0
  3

 72
    65
 73
     0
 40
0.0
  0
LTYPE
  5
65C2
330
65B2
100
AcDbSymbolTableRecord
100
AcDbLinetypeTableRecord
  2
CONTINUOUS
 70
     0
  3
Solid line
 72
    65
 73
     0
 40
0.0
  0
LTYPE
  5
65DE
330
65B2
100
AcDbSymbolTableRecord
100
AcDbLinetypeTableRecord
  2
CENTER
 70
     0
  3
____ _ ____ _ ____ _ ____ _ ____ _ ____ _ ____
 72
    65
 73
     4
 40
2.0
 49
1.25
 74
     0
 49
-0.25
 74
     0
 49
0.25
 74
     0
 49
-0.25
 74
     0
  0
ENDTAB
  0
TABLE
  2
LAYER
  5
65AF
330
0
100
AcDbSymbolTable
 70
     7
  0
LAYER
  5
65BD
330
65AF
100
AcDbSymbolTableRecord
100
AcDbLayerTableRecord
  2
0
 70
     0
 62
     7
  6
CONTINUOUS
  0
LAYER
  5
65E4
330
65AF
100
AcDbSymbolTableRecord
100
AcDbLayerTableRecord
  2
DIM
 70
     0
 62
     7
  6
CONTINUOUS
  0
LAYER
  5
65E7
330
65AF
100
AcDbSymbolTableRecord
100
AcDbLayerTableRecord
  2
TXT
 70
     0
 62
     7
  6
CONTINUOUS
  0
LAYER
  5
65E8
330
65AF
100
AcDbSymbolTableRecord
100
AcDbLayerTableRecord
  2
TB-TXT
 70
     0
 62
     7
  6
CONTINUOUS
  0
LAYER
  5
65E9
330
65AF
100
AcDbSymbolTableRecord
100
AcDbLayerTableRecord
  2
PART
 70
     0
 62
     7
  6
CONTINUOUS
  0
LAYER
  5
66F9
330
65AF
100
AcDbSymbolTableRecord
100
AcDbLayerTableRecord
  2
DEFPOINTS
 70
     0
 62
     7
  6
CONTINUOUS
  0
LAYER
  5
66FA
330
65AF
100
AcDbSymbolTableRecord
100
AcDbLayerTableRecord
  2
FORMAT
 70
     0
 62
     7
  6
CONTINUOUS
  0
ENDTAB
  0
TABLE
  2
STYLE
  5
65B0
330
0
100
AcDbSymbolTable
 70
     3
  0
STYLE
  5
65BE
330
65B0
100
AcDbSymbolTableRecord
100
AcDbTextStyleTableRecord
  2
STANDARD
 70
     0
 40
0.0
 41
1.0
 50
0.0
 71
     0
 42
0.0000001
  3
ROMANS
  4

  0
STYLE
  5
65D6
330
65B0
100
AcDbSymbolTableRecord
100
AcDbTextStyleTableRecord
  2
ROMANS
 70
     0
 40
0.12
 41
1.0
 50
0.0
 71
     0
 42
0.12
  3
ROMANS.shx
  4

  0
STYLE
  5
66FB
330
65B0
100
AcDbSymbolTableRecord
100
AcDbTextStyleTableRecord
  2
ARIAL
 70
     0
 40
0.0
 41
1.0
 50
0.0
 71
     0
 42
0.12
  3
ARIAL.TTF
  4

1001
ACAD
1000
Arial
1071
       34
  0
ENDTAB
  0
TABLE
  2
VIEW
  5
65B3
330
0
100
AcDbSymbolTable
 70
     0
  0
ENDTAB
  0
TABLE
  2
UCS
  5
65B4
330
0
100
AcDbSymbolTable
 70
     0
  0
ENDTAB
  0
TABLE
  2
APPID
  5
65B6
330
0
100
AcDbSymbolTable
 70
     2
  0
APPID
  5
65BF
330
65B6
100
AcDbSymbolTableRecord
100
AcDbRegAppTableRecord
  2
ACAD
 70
     0
  0
APPID
  5
7DD2
330
65B6
100
AcDbSymbolTableRecord
100
AcDbRegAppTableRecord
  2
DCO15
 70
     0
  0
ENDTAB
  0
TABLE
  2
DIMSTYLE
  5
65B7
330
0
100
AcDbSymbolTable
 70
     1
  0
DIMSTYLE
105
65E3
102
{ACAD_REACTORS
330
8146
330
8138
330
830C
102
}
330
65B7
100
AcDbSymbolTableRecord
100
AcDbDimStyleTableRecord
  2
STANDARD
 70
     0
  3

  4

  5

  6

  7

 40
1.0
 41
0.18
 42
0.0625
 43
0.38
 44
0.18
 45
0.0
 46
0.0
 47
0.0
 48
0.0
140
0.18
141
0.09
142
0.0
143
25.4
144
1.0
145
0.0
146
1.0
147
0.09
 71
     0
 72
     0
 73
     1
 74
     1
 75
     0
 76
     0
 77
     0
 78
     0
170
     0
171
     2
172
     0
173
     0
174
     0
175
     0
176
     0
177
     0
178
     0
270
     2
271
     3
272
     3
273
     2
274
     2
340
65BE
275
     0
280
     0
281
     0
282
     0
283
     1
284
     0
285
     0
286
     0
287
     3
288
     0
  0
ENDTAB
  0
TABLE
  2
BLOCK_RECORD
  5
65AE
330
0
100
AcDbSymbolTable
 70
     7
  0
BLOCK_RECORD
  5
65CB
102
{ACAD_XDICTIONARY
360
668E
102
}
330
65AE
100
AcDbSymbolTableRecord
100
AcDbBlockTableRecord
  2
*MODEL_SPACE
  0
BLOCK_RECORD
  5
65C7
102
{ACAD_XDICTIONARY
360
6690
102
}
330
65AE
100
AcDbSymbolTableRecord
100
AcDbBlockTableRecord
  2
*PAPER_SPACE
  0
BLOCK_RECORD
  5
66D5
330
65AE
100
AcDbSymbolTableRecord
100
AcDbBlockTableRecord
  2
REV-BLOCK
  0
BLOCK_RECORD
  5
66DE
330
65AE
100
AcDbSymbolTableRecord
100
AcDbBlockTableRecord
  2
TITLE-BLOCK
  0
BLOCK_RECORD
  5
770D
330
65AE
100
AcDbSymbolTableRecord
100
AcDbBlockTableRecord
  2
NEW_SIGNOFFS
  0
BLOCK_RECORD
  5
8139
330
65AE
100
AcDbSymbolTableRecord
100
AcDbBlockTableRecord
  2
*D3
  0
BLOCK_RECORD
  5
8147
330
65AE
100
AcDbSymbolTableRecord
100
AcDbBlockTableRecord
  2
*D4
  0
BLOCK_RECORD
  5
830D
330
65AE
100
AcDbSymbolTableRecord
100
AcDbBlockTableRecord
  2
*D5
  0
BLOCK_RECORD
  5
8749
330
65AE
100
AcDbSymbolTableRecord
100
AcDbBlockTableRecord
  2
APPR-BLOCK
  0
ENDTAB
  0
ENDSEC
  0
SECTION
  2
BLOCKS
  0
BLOCK
  5
65FC
330
65CB
100
AcDbEntity
  8
0
100
AcDbBlockBegin
  2
*MODEL_SPACE
 70
     0
 10
0.0
 20
0.0
 30
0.0
  3
*MODEL_SPACE
  1

  0
ENDBLK
  5
65FD
330
65CB
100
AcDbEntity
  8
0
100
AcDbBlockEnd
  0
BLOCK
  5
65FA
330
65C7
100
AcDbEntity
 67
     1
  8
0
100
AcDbBlockBegin
  2
*PAPER_SPACE
 70
     0
 10
0.0
 20
0.0
 30
0.0
  3
*PAPER_SPACE
  1

  0
ENDBLK
  5
65FB
330
65C7
100
AcDbEntity
 67
     1
  8
0
100
AcDbBlockEnd
  0
BLOCK
  5
66DC
330
66D5
100
AcDbEntity
  8
0
100
AcDbBlockBegin
  2
REV-BLOCK
 70
     2
 10
0.0
 20
0.0
 30
0.0
  3
REV-BLOCK
  1

  0
ATTDEF
  5
66D6
330
66D5
100
AcDbEntity
  8
TB-TXT
100
AcDbText
 10
-7.419585413768535
 20
-0.2641364156046725
 30
0.0
 40
0.12
  1
--
  7
ARIAL
 72
     1
 11
-7.363760038598003
 21
-0.2041364156046725
 31
0.0
100
AcDbAttributeDefinition
  3
REV
  2
REV
 70
     0
 74
     2
  0
ATTDEF
  5
66D7
330
66D5
100
AcDbEntity
  8
TB-TXT
100
AcDbText
 10
-7.021598876369777
 20
-0.2621627084294076
 30
0.0
 40
0.12
  1

  7
ARIAL
100
AcDbAttributeDefinition
  3
ECN N0,
  2
ECN
 70
     0
  0
ATTDEF
  5
66D8
330
66D5
100
AcDbEntity
  8
TB-TXT
100
AcDbText
 10
-6.384132553865098
 20
-0.2621627084294076
 30
0.0
 40
0.12
  1

  7
ARIAL
100
AcDbAttributeDefinition
  3
DESCRIPTION
  2
DESCRIPTION
 70
     0
  0
ATTDEF
  5
66D9
330
66D5
100
AcDbEntity
  8
TB-TXT
100
AcDbText
 10
-1.912314371261913
 20
-0.2641364156046725
 30
0.0
 40
0.12
  1

  7
ARIAL
 72
     1
 11
-1.912314371261913
 21
-0.2041364156046725
 31
0.0
100
AcDbAttributeDefinition
  3
REV DATE
  2
REV-DATE
 70
     0
 74
     2
  0
ATTDEF
  5
66DA
330
66D5
100
AcDbEntity
  8
TB-TXT
100
AcDbText
 10
-0.7008820905977871
 20
-0.2641364156046725
 30
0.0
 40
0.12
  1

  7
ARIAL
 72
     1
 11
-0.7008820905977871
 21
-0.2041364156046725
 31
0.0
100
AcDbAttributeDefinition
  3
APPR
  2
APPR
 70
     0
 74
     2
  0
LWPOLYLINE
  5
66DB
330
66D5
100
AcDbEntity
  8
FORMAT
100
AcDbPolyline
 90
        2
 70
     0
 43
0.0198
 10
-7.662633477940088
 20
-0.4059699235454917
 10
0.0
 20
-0.4059699235454917
  0
ENDBLK
  5
66DD
330
66D5
100
AcDbEntity
  8
0
100
AcDbBlockEnd
  0
BLOCK
  5
66E8
330
66DE
100
AcDbEntity
  8
0
100
AcDbBlockBegin
  2
TITLE-BLOCK
 70
     2
 10
0.0
 20
0.0
 30
0.0
  3
TITLE-BLOCK
  1

  0
ATTDEF
  5
66DF
330
66DE
100
AcDbEntity
  8
TB-TXT
100
AcDbText
 10
-5.452069740892156
 20
1.724637434505383
 30
0.0
 40
0.15996
  1

  7
ARIAL
100
AcDbAttributeDefinition
  3
TITLE (LINE 1)
  2
LINE1
 70
     0
  0
ATTDEF
  5
66E0
330
66DE
100
AcDbEntity
  8
TB-TXT
100
AcDbText
 10
-5.452069740892156
 20
1.465654577362525
 30
0.0
 40
0.15996
  1

  7
ARIAL
100
AcDbAttributeDefinition
  3
TITLE (LINE 2)
  2
LINE2
 70
     0
  0
ATTDEF
  5
66E1
330
66DE
100
AcDbEntity
  8
TB-TXT
100
AcDbText
 10
-5.452069740892156
 20
1.206671720219668
 30
0.0
 40
0.15996
  1

  7
ARIAL
100
AcDbAttributeDefinition
  3
TITLE (LINE 3)
  2
LINE3
 70
     0
  0
ATTDEF
  5
66E2
330
66DE
100
AcDbEntity
  8
TB-TXT
100
AcDbText
 10
-5.452069740892156
 20
0.9476888630768135
 30
0.0
 40
0.15996
  1

  7
ARIAL
100
AcDbAttributeDefinition
  3
TITLE (LINE 4)
  2
LINE4
 70
     0
  0
ATTDEF
  5
66E3
330
66DE
100
AcDbEntity
  8
TB-TXT
100
AcDbText
 10
-2.607663526262056
 20
0.4958239300695661
 30
0.0
 40
0.12
  1

  7
ARIAL
100
AcDbAttributeDefinition
  3
DWG NO.
  2
DWG#
 70
     0
  0
ATTDEF
  5
66E4
330
66DE
100
AcDbEntity
  8
TB-TXT
100
AcDbText
 10
-5.506905230490374
 20
0.1136078675417114
 30
0.0
 40
0.12
  1

  7
ARIAL
100
AcDbAttributeDefinition
  3
FILE NO.
  2
FILE#
 70
     0
  0
ATTDEF
  5
66E5
330
66DE
100
AcDbEntity
  8
TB-TXT
100
AcDbText
 10
-0.2425360425092862
 20
0.4881363695403176
 30
0.0
 40
0.12
  1

  7
ARIAL
 72
     4
 11
-0.2425360425092862
 21
0.4881363695403176
 31
0.0
100
AcDbAttributeDefinition
  3
REV
  2
REV
 70
     0
  0
ATTDEF
  5
66E6
330
66DE
100
AcDbEntity
  8
TB-TXT
100
AcDbText
 10
-4.485055143223688
 20
0.4958239300695661
 30
0.0
 40
0.12
  1
FULL
  7
ARIAL
100
AcDbAttributeDefinition
  3
SCALE
  2
SCALE
 70
     0
  0
ATTDEF
  5
66E7
330
66DE
100
AcDbEntity
  8
TB-TXT
100
AcDbText
 10
-1.004564496465349
 20
0.0916846763858388
 30
0.0
 40
0.12
  1
1 OF 1
  7
ARIAL
100
AcDbAttributeDefinition
  3
SHEET N0.
  2
SHT#
 70
     0
  0
ENDBLK
  5
66E9
330
66DE
100
AcDbEntity
  8
0
100
AcDbBlockEnd
  0
BLOCK
  5
7720
330
770D
100
AcDbEntity
  8
0
100
AcDbBlockBegin
  2
NEW_SIGNOFFS
 70
     2
 10
0.0
 20
0.0
 30
0.0
  3
NEW_SIGNOFFS
  1

  0
ATTDEF
  5
770E
330
770D
100
AcDbEntity
  8
TB-TXT
100
AcDbText
 10
0.1030919999999895
 20
-0.4500483006654754
 30
0.0
 40
0.1
  1

  7
ARIAL
100
AcDbAttributeDefinition
  3
DRAWN (APPR)
  2
REL-DR
 70
     0
  0
ATTDEF
  5
770F
330
770D
100
AcDbEntity
  8
TB-TXT
100
AcDbText
 10
0.9489479999999588
 20
-0.4500483006654754
 30
0.0
 40
0.1
  1
XXX
  7
ARIAL
100
AcDbAttributeDefinition
  3
DRAWN (DATE)
  2
DATE-DR
 70
     0
  0
ATTDEF
  5
7710
330
770D
100
AcDbEntity
  8
TB-TXT
100
AcDbText
 10
1.75309199999995
 20
-0.4500483006654754
 30
0.0
 40
0.1
  1

  7
ARIAL
100
AcDbAttributeDefinition
  3
DRAWN (REV APPR)
  2
REL-DR2
 70
     0
  0
ATTDEF
  5
7711
330
770D
100
AcDbEntity
  8
TB-TXT
100
AcDbText
 10
0.1030919999999895
 20
-0.7677366560471876
 30
0.0
 40
0.1
  1

  7
ARIAL
100
AcDbAttributeDefinition
  3
ENGR SERV (APPR)
  2
REL-ES
 70
     0
  0
ATTDEF
  5
7712
330
770D
100
AcDbEntity
  8
TB-TXT
100
AcDbText
 10
0.9489479999999588
 20
-0.7677366560471876
 30
0.0
 40
0.1
  1

  7
ARIAL
100
AcDbAttributeDefinition
  3
ENGR SERV (DATE)
  2
DATE-ES
 70
     0
  0
ATTDEF
  5
7713
330
770D
100
AcDbEntity
  8
TB-TXT
100
AcDbText
 10
1.75309199999995
 20
-0.7677366560471876
 30
0.0
 40
0.1
  1

  7
ARIAL
100
AcDbAttributeDefinition
  3
ENGR SERV (REV APPR)
  2
REL-ES2
 70
     0
  0
ATTDEF
  5
7714
330
770D
100
AcDbEntity
  8
TB-TXT
100
AcDbText
 10
0.1030919999999895
 20
-1.085425011428901
 30
0.0
 40
0.1
  1

  7
ARIAL
100
AcDbAttributeDefinition
  3
ENGR (APPR)
  2
REL-ENGR
 70
     0
  0
ATTDEF
  5
7715
330
770D
100
AcDbEntity
  8
TB-TXT
100
AcDbText
 10
0.9489479999999588
 20
-1.085425011428901
 30
0.0
 40
0.1
  1

  7
ARIAL
100
AcDbAttributeDefinition
  3
ENGR (DATE)
  2
DATE-ENGR
 70
     0
  0
ATTDEF
  5
7716
330
770D
100
AcDbEntity
  8
TB-TXT
100
AcDbText
 10
1.75309199999995
 20
-1.085425011428901
 30
0.0
 40
0.1
  1

  7
ARIAL
100
AcDbAttributeDefinition
  3
ENGR (REV APPR)
  2
REL-ENGR2
 70
     0
  0
ATTDEF
  5
7717
330
770D
100
AcDbEntity
  8
TB-TXT
100
AcDbText
 10
0.1030919999999895
 20
-1.4031133668106
 30
0.0
 40
0.1
  1

  7
ARIAL
100
AcDbAttributeDefinition
  3
PROD ENGR (APPR)
  2
REL-PROD
 70
     0
  0
ATTDEF
  5
7718
330
770D
100
AcDbEntity
  8
TB-TXT
100
AcDbText
 10
0.9489479999999588
 20
-1.4031133668106
 30
0.0
 40
0.1
  1

  7
ARIAL
100
AcDbAttributeDefinition
  3
PROD ENGR (DATE)
  2
DATE-PROD
 70
     0
  0
ATTDEF
  5
7719
330
770D
100
AcDbEntity
  8
TB-TXT
100
AcDbText
 10
1.75309199999995
 20
-1.4031133668106
 30
0.0
 40
0.1
  1

  7
ARIAL
100
AcDbAttributeDefinition
  3
PROD ENGR (REV APPR)
  2
REL-PROD2
 70
     0
  0
ATTDEF
  5
771A
330
770D
100
AcDbEntity
  8
TB-TXT
100
AcDbText
 10
0.1030919999999895
 20
-1.720801722192298
 30
0.0
 40
0.1
  1

  7
ARIAL
100
AcDbAttributeDefinition
  3
MATL SUP (APPR)
  2
REL-MATL
 70
     0
  0
ATTDEF
  5
771B
330
770D
100
AcDbEntity
  8
TB-TXT
100
AcDbText
 10
0.9489479999999588
 20
-1.720801722192298
 30
0.0
 40
0.1
  1

  7
ARIAL
100
AcDbAttributeDefinition
  3
MATL SUP (DATE)
  2
DATE-MATL
 70
     0
  0
ATTDEF
  5
771C
330
770D
100
AcDbEntity
  8
TB-TXT
100
AcDbText
 10
1.75309199999995
 20
-1.720801722192298
 30
0.0
 40
0.1
  1

  7
ARIAL
100
AcDbAttributeDefinition
  3
MATL SUP (REV APPR)
  2
REL-MATL2
 70
     0
  0
ATTDEF
  5
771D
330
770D
100
AcDbEntity
  8
TB-TXT
100
AcDbText
 10
0.1030919999999895
 20
-2.038490077574008
 30
0.0
 40
0.1
  1

  7
ARIAL
100
AcDbAttributeDefinition
  3
QUALITY (APPR)
  2
REL-QUAL
 70
     0
  0
ATTDEF
  5
771E
330
770D
100
AcDbEntity
  8
TB-TXT
100
AcDbText
 10
0.9489479999999588
 20
-2.038490077574008
 30
0.0
 40
0.1
  1

  7
ARIAL
100
AcDbAttributeDefinition
  3
QUALITY (DATE)
  2
DATE-QUAL
 70
     0
  0
ATTDEF
  5
771F
330
770D
100
AcDbEntity
  8
TB-TXT
100
AcDbText
 10
1.75309199999995
 20
-2.038490077574008
 30
0.0
 40
0.1
  1

  7
ARIAL
100
AcDbAttributeDefinition
  3
QUALITY (REV APPR)
  2
REL-QUAL2
 70
     0
  0
ENDBLK
  5
7721
330
770D
100
AcDbEntity
  8
0
100
AcDbBlockEnd
  0
BLOCK
  5
8144
330
8139
100
AcDbEntity
  8
0
100
AcDbBlockBegin
  2
*D3
 70
     1
 10
0.0
 20
0.0
 30
0.0
  3
*D3
  1

  0
LINE
  5
8654
330
8139
100
AcDbEntity
  8
DIM
 62
     0
100
AcDbLine
 10
30.14559842308633
 20
8.945917014610841
 30
0.0
 11
31.32687516054124
 21
8.945917014610841
 31
0.0
  0
LINE
  5
8655
330
8139
100
AcDbEntity
  8
DIM
 62
     0
100
AcDbLine
 10
30.14559842308633
 20
6.587891818716507
 30
0.0
 11
31.32687516054124
 21
6.587891818716507
 31
0.0
  0
LINE
  5
8656
330
8139
100
AcDbEntity
  8
DIM
 62
     0
100
AcDbLine
 10
31.14687516054125
 20
8.765917014610842
 30
0.0
 11
31.14687516054123
 21
7.948332988092245
 31
0.0
  0
LINE
  5
8657
330
8139
100
AcDbEntity
  8
DIM
 62
     0
100
AcDbLine
 10
31.14687516054123
 20
6.767891818716508
 30
0.0
 11
31.14687516054123
 21
7.585475845235102
 31
0.0
  0
SOLID
  5
8658
330
8139
100
AcDbEntity
  8
DIM
 62
     0
100
AcDbTrace
 10
31.11687516054125
 20
8.765917014610842
 30
0.0
 11
31.17687516054124
 21
8.765917014610842
 31
0.0
 12
31.14687516054125
 22
8.945917014610841
 32
0.0
 13
31.14687516054125
 23
8.945917014610841
 33
0.0
  0
SOLID
  5
8659
330
8139
100
AcDbEntity
  8
DIM
 62
     0
100
AcDbTrace
 10
31.11687516054123
 20
6.767891818716508
 30
0.0
 11
31.17687516054123
 21
6.767891818716508
 31
0.0
 12
31.14687516054123
 22
6.587891818716507
 32
0.0
 13
31.14687516054123
 23
6.587891818716507
 33
0.0
  0
MTEXT
  5
865A
330
8139
100
AcDbEntity
  8
DIM
 62
     0
100
AcDbMText
 10
31.14687516054123
 20
7.766904416663678
 30
0.0
 40
0.12
 41
0.0
 71
     5
 72
     1
  1
\A1;2.36 [60MM]
1001
ACAD
1000
MTEXTBEGIN
1070
    73
1070
     1
1070
    44
1040
1.0
1070
    74
1070
     0
1000
MTEXTEND
1000
MTEXTBEGIN
1070
    73
1070
     1
1070
    44
1040
1.0
1070
    74
1070
     0
1000
MTEXTEND
1000
MTEXTBEGIN
1070
    73
1070
     1
1070
    44
1040
1.0
1070
    74
1070
     0
1000
MTEXTEND
1000
MTEXTBEGIN
1070
    73
1070
     1
1070
    44
1040
1.0
1070
    74
1070
     0
1000
MTEXTEND
1000
MTEXTBEGIN
1070
    73
1070
     1
1070
    44
1040
1.0
1070
    74
1070
     0
1000
MTEXTEND
1000
MTEXTBEGIN
1070
    73
1070
     1
1070
    44
1040
1.0
1070
    74
1070
     0
1000
MTEXTEND
1000
MTEXTBEGIN
1070
    73
1070
     1
1070
    44
1040
1.0
1070
    74
1070
     0
1000
MTEXTEND
1000
MTEXTBEGIN
1070
    73
1070
     1
1070
    44
1040
1.0
1070
    74
1070
     0
1000
MTEXTEND
  0
POINT
  5
865B
330
8139
100
AcDbEntity
  8
DEFPOINTS
 62
     0
100
AcDbPoint
 10
30.08309842308634
 20
8.945917014610841
 30
0.0
  0
POINT
  5
865C
330
8139
100
AcDbEntity
  8
DEFPOINTS
 62
     0
100
AcDbPoint
 10
30.08309842308634
 20
6.587891818716507
 30
0.0
  0
POINT
  5
865D
330
8139
100
AcDbEntity
  8
DEFPOINTS
 62
     0
100
AcDbPoint
 10
31.14687516054123
 20
6.587891818716507
 30
0.0
  0
ENDBLK
  5
8145
330
8139
100
AcDbEntity
  8
0
100
AcDbBlockEnd
  0
BLOCK
  5
8152
330
8147
100
AcDbEntity
  8
0
100
AcDbBlockBegin
  2
*D4
 70
     1
 10
0.0
 20
0.0
 30
0.0
  3
*D4
  1

  0
LINE
  5
864A
330
8147
100
AcDbEntity
  8
DIM
 62
     0
100
AcDbLine
 10
30.14309837826183
 20
6.585391773892011
 30
0.0
 11
30.14309837826183
 21
5.800788005490008
 31
0.0
  0
LINE
  5
864B
330
8147
100
AcDbEntity
  8
DIM
 62
     0
100
AcDbLine
 10
25.40398456628002
 20
6.585391773892013
 30
0.0
 11
25.40398456628002
 21
5.800788005490008
 31
0.0
  0
LINE
  5
864C
330
8147
100
AcDbEntity
  8
DIM
 62
     0
100
AcDbLine
 10
29.96309837826183
 20
5.980788005490007
 30
0.0
 11
28.48925575798521
 21
5.980788005490007
 31
0.0
  0
LINE
  5
864D
330
8147
100
AcDbEntity
  8
DIM
 62
     0
100
AcDbLine
 10
25.58398456628002
 20
5.980788005490007
 30
0.0
 11
27.05782718655663
 21
5.980788005490007
 31
0.0
  0
SOLID
  5
864E
330
8147
100
AcDbEntity
  8
DIM
 62
     0
100
AcDbTrace
 10
29.96309837826183
 20
6.010788005490008
 30
0.0
 11
29.96309837826183
 21
5.950788005490007
 31
0.0
 12
30.14309837826183
 22
5.980788005490007
 32
0.0
 13
30.14309837826183
 23
5.980788005490007
 33
0.0
  0
SOLID
  5
864F
330
8147
100
AcDbEntity
  8
DIM
 62
     0
100
AcDbTrace
 10
25.58398456628002
 20
6.010788005490008
 30
0.0
 11
25.58398456628002
 21
5.950788005490007
 31
0.0
 12
25.40398456628002
 22
5.980788005490007
 32
0.0
 13
25.40398456628002
 23
5.980788005490007
 33
0.0
  0
MTEXT
  5
8650
330
8147
100
AcDbEntity
  8
DIM
 62
     0
100
AcDbMText
 10
27.77354147227093
 20
5.980788005490007
 30
0.0
 40
0.12
 41
0.0
 71
     5
 72
     1
  1
\A1;4.74 [120MM]
1001
ACAD
1000
MTEXTBEGIN
1070
    73
1070
     1
1070
    44
1040
1.0
1070
    74
1070
     0
1000
MTEXTEND
1000
MTEXTBEGIN
1070
    73
1070
     1
1070
    44
1040
1.0
1070
    74
1070
     0
1000
MTEXTEND
1000
MTEXTBEGIN
1070
    73
1070
     1
1070
    44
1040
1.0
1070
    74
1070
     0
1000
MTEXTEND
1000
MTEXTBEGIN
1070
    73
1070
     1
1070
    44
1040
1.0
1070
    74
1070
     0
1000
MTEXTEND
1000
MTEXTBEGIN
1070
    73
1070
     1
1070
    44
1040
1.0
1070
    74
1070
     0
1000
MTEXTEND
1000
MTEXTBEGIN
1070
    73
1070
     1
1070
    44
1040
1.0
1070
    74
1070
     0
1000
MTEXTEND
1000
MTEXTBEGIN
1070
    73
1070
     1
1070
    44
1040
1.0
1070
    74
1070
     0
1000
MTEXTEND
1000
MTEXTBEGIN
1070
    73
1070
     1
1070
    44
1040
1.0
1070
    74
1070
     0
1000
MTEXTEND
  0
POINT
  5
8651
330
8147
100
AcDbEntity
  8
DEFPOINTS
 62
     0
100
AcDbPoint
 10
30.14309837826183
 20
6.647891773892011
 30
0.0
  0
POINT
  5
8652
330
8147
100
AcDbEntity
  8
DEFPOINTS
 62
     0
100
AcDbPoint
 10
25.40398456628002
 20
6.647891773892013
 30
0.0
  0
POINT
  5
8653
330
8147
100
AcDbEntity
  8
DEFPOINTS
 62
     0
100
AcDbPoint
 10
25.40398456628002
 20
5.980788005490007
 30
0.0
  0
ENDBLK
  5
8153
330
8147
100
AcDbEntity
  8
0
100
AcDbBlockEnd
  0
BLOCK
  5
8318
330
830D
100
AcDbEntity
  8
0
100
AcDbBlockBegin
  2
*D5
 70
     1
 10
0.0
 20
0.0
 30
0.0
  3
*D5
  1

  0
LINE
  5
865E
330
830D
100
AcDbEntity
  8
DIM
 62
     0
100
AcDbLine
 10
32.01465968604348
 20
6.585391818716525
 30
0.0
 11
32.01465968604348
 21
5.761984748241085
 31
0.0
  0
LINE
  5
865F
330
830D
100
AcDbEntity
  8
DIM
 62
     0
100
AcDbLine
 10
33.51465968604347
 20
6.585391818716525
 30
0.0
 11
33.51465968604347
 21
5.761984748241085
 31
0.0
  0
LINE
  5
8660
330
830D
100
AcDbEntity
  8
DIM
 62
     0
100
AcDbLine
 10
31.83465968604348
 20
5.941984748241085
 30
0.0
 11
31.65465968604348
 21
5.941984748241085
 31
0.0
  0
LINE
  5
8661
330
830D
100
AcDbEntity
  8
DIM
 62
     0
100
AcDbLine
 10
33.69465968604348
 20
5.941984748241085
 30
0.0
 11
33.87465968604348
 21
5.941984748241085
 31
0.0
  0
SOLID
  5
8662
330
830D
100
AcDbEntity
  8
DIM
 62
     0
100
AcDbTrace
 10
31.83465968604348
 20
5.971984748241085
 30
0.0
 11
31.83465968604348
 21
5.911984748241086
 31
0.0
 12
32.01465968604348
 22
5.941984748241085
 32
0.0
 13
32.01465968604348
 23
5.941984748241085
 33
0.0
  0
SOLID
  5
8663
330
830D
100
AcDbEntity
  8
DIM
 62
     0
100
AcDbTrace
 10
33.69465968604348
 20
5.971984748241085
 30
0.0
 11
33.69465968604348
 21
5.911984748241086
 31
0.0
 12
33.51465968604347
 22
5.941984748241085
 32
0.0
 13
33.51465968604347
 23
5.941984748241085
 33
0.0
  0
MTEXT
  5
8664
330
830D
100
AcDbEntity
  8
DIM
 62
     0
100
AcDbMText
 10
32.76465968604348
 20
5.941984748241085
 30
0.0
 40
0.12
 41
0.0
 71
     5
 72
     1
  1
\A1;1.50 [38MM]
1001
ACAD
1000
MTEXTBEGIN
1070
    73
1070
     1
1070
    44
1040
1.0
1070
    74
1070
     0
1000
MTEXTEND
1000
MTEXTBEGIN
1070
    73
1070
     1
1070
    44
1040
1.0
1070
    74
1070
     0
1000
MTEXTEND
1000
MTEXTBEGIN
1070
    73
1070
     1
1070
    44
1040
1.0
1070
    74
1070
     0
1000
MTEXTEND
1000
MTEXTBEGIN
1070
    73
1070
     1
1070
    44
1040
1.0
1070
    74
1070
     0
1000
MTEXTEND
1000
MTEXTBEGIN
1070
    73
1070
     1
1070
    44
1040
1.0
1070
    74
1070
     0
1000
MTEXTEND
1000
MTEXTBEGIN
1070
    73
1070
     1
1070
    44
1040
1.0
1070
    74
1070
     0
1000
MTEXTEND
1000
MTEXTBEGIN
1070
    73
1070
     1
1070
    44
1040
1.0
1070
    74
1070
     0
1000
MTEXTEND
1000
MTEXTBEGIN
1070
    73
1070
     1
1070
    44
1040
1.0
1070
    74
1070
     0
1000
MTEXTEND
  0
POINT
  5
8665
330
830D
100
AcDbEntity
  8
DEFPOINTS
 62
     0
100
AcDbPoint
 10
32.01465968604348
 20
6.647891818716525
 30
0.0
  0
POINT
  5
8666
330
830D
100
AcDbEntity
  8
DEFPOINTS
 62
     0
100
AcDbPoint
 10
33.51465968604347
 20
6.647891818716525
 30
0.0
  0
POINT
  5
8667
330
830D
100
AcDbEntity
  8
DEFPOINTS
 62
     0
100
AcDbPoint
 10
33.51465968604347
 20
5.941984748241085
 30
0.0
  0
ENDBLK
  5
8319
330
830D
100
AcDbEntity
  8
0
100
AcDbBlockEnd
  0
BLOCK
  5
8756
330
8749
100
AcDbEntity
  8
0
100
AcDbBlockBegin
  2
APPR-BLOCK
 70
     2
 10
0.0
 20
0.0
 30
0.0
  3
APPR-BLOCK
  1

  0
ATTDEF
  5
874A
330
8749
100
AcDbEntity
  8
TB-TXT
100
AcDbText
 10
-2.351051999999973
 20
1.670941776908524
 30
0.0
 40
0.1
  1
XXX
  7
ARIAL
100
AcDbAttributeDefinition
  3
DRAWN (DATE)
  2
DATE-DR
 70
     0
  0
ATTDEF
  5
874B
330
8749
100
AcDbEntity
  8
TB-TXT
100
AcDbText
 10
-1.505196000000012
 20
1.670941776908524
 30
0.0
 40
0.1
  1

  7
ARIAL
100
AcDbAttributeDefinition
  3
DRAWN (APPR)
  2
REL-DR
 70
     0
  0
ATTDEF
  5
874C
330
8749
100
AcDbEntity
  8
TB-TXT
100
AcDbText
 10
-2.351051999999973
 20
1.353253421526811
 30
0.0
 40
0.1
  1

  7
ARIAL
100
AcDbAttributeDefinition
  3
ENGR SERV (DATE)
  2
DATE-ES
 70
     0
  0
ATTDEF
  5
874D
330
8749
100
AcDbEntity
  8
TB-TXT
100
AcDbText
 10
-1.505196000000012
 20
1.353253421526811
 30
0.0
 40
0.1
  1

  7
ARIAL
100
AcDbAttributeDefinition
  3
ENGR SERV (APPR)
  2
REL-ES
 70
     0
  0
ATTDEF
  5
874E
330
8749
100
AcDbEntity
  8
TB-TXT
100
AcDbText
 10
-2.351051999999973
 20
1.035565066145095
 30
0.0
 40
0.1
  1

  7
ARIAL
100
AcDbAttributeDefinition
  3
ENGR (DATE)
  2
DATE-ENGR
 70
     0
  0
ATTDEF
  5
874F
330
8749
100
AcDbEntity
  8
TB-TXT
100
AcDbText
 10
-1.505196000000012
 20
1.035565066145095
 30
0.0
 40
0.1
  1

  7
ARIAL
100
AcDbAttributeDefinition
  3
ENGR (APPR)
  2
REL-ENGR
 70
     0
  0
ATTDEF
  5
8750
330
8749
100
AcDbEntity
  8
TB-TXT
100
AcDbText
 10
-2.351051999999973
 20
0.7178767107633988
 30
0.0
 40
0.1
  1

  7
ARIAL
100
AcDbAttributeDefinition
  3
PROD ENGR (DATE)
  2
DATE-PROD
 70
     0
  0
ATTDEF
  5
8751
330
8749
100
AcDbEntity
  8
TB-TXT
100
AcDbText
 10
-1.505196000000012
 20
0.7178767107633988
 30
0.0
 40
0.1
  1

  7
ARIAL
100
AcDbAttributeDefinition
  3
PROD ENGR (APPR)
  2
REL-PROD
 70
     0
  0
ATTDEF
  5
8752
330
8749
100
AcDbEntity
  8
TB-TXT
100
AcDbText
 10
-2.351051999999973
 20
0.4001883553817011
 30
0.0
 40
0.1
  1

  7
ARIAL
100
AcDbAttributeDefinition
  3
MATL SUP (DATE)
  2
DATE-MATL
 70
     0
  0
ATTDEF
  5
8753
330
8749
100
AcDbEntity
  8
TB-TXT
100
AcDbText
 10
-1.505196000000012
 20
0.4001883553817011
 30
0.0
 40
0.1
  1

  7
ARIAL
100
AcDbAttributeDefinition
  3
MATL SUP (APPR)
  2
REL-MATL
 70
     0
  0
ATTDEF
  5
8754
330
8749
100
AcDbEntity
  8
TB-TXT
100
AcDbText
 10
-2.351051999999973
 20
0.0824999999999889
 30
0.0
 40
0.1
  1

  7
ARIAL
100
AcDbAttributeDefinition
  3
QUALITY (DATE)
  2
DATE-QUAL
 70
     0
  0
ATTDEF
  5
8755
330
8749
100
AcDbEntity
  8
TB-TXT
100
AcDbText
 10
-1.505196000000012
 20
0.0824999999999889
 30
0.0
 40
0.1
  1

  7
ARIAL
100
AcDbAttributeDefinition
  3
QUALITY (APPR)
  2
REL-QUAL
 70
     0
  0
ENDBLK
  5
8757
330
8749
100
AcDbEntity
  8
0
100
AcDbBlockEnd
  0
ENDSEC
  0
SECTION
  2
ENTITIES
  0
LINE
  5
894
330
65CB
100
AcDbEntity
  8
PART
100
AcDbLine
 10
25.07898456628003
 20
7.735917014610817
 30
0.0
 11
25.00398456628003
 21
7.735917014610817
 31
0.0
  0
LINE
  5
895
330
65CB
100
AcDbEntity
  8
PART
100
AcDbLine
 10
25.07898456628003
 20
7.825917014610817
 30
0.0
 11
25.00398456628003
 21
7.825917014610817
 31
0.0
  0
LINE
  5
898
330
65CB
100
AcDbEntity
  8
PART
100
AcDbLine
 10
25.32898456628004
 20
7.825917014610817
 30
0.0
 11
25.32898456628004
 21
7.930917014610818
 31
0.0
  0
LINE
  5
899
330
65CB
100
AcDbEntity
  8
PART
100
AcDbLine
 10
25.25398456628003
 20
7.825917014610817
 30
0.0
 11
25.25398456628003
 21
7.923774157467958
 31
0.0
  0
LINE
  5
89A
330
65CB
100
AcDbEntity
  8
PART
100
AcDbLine
 10
25.20398456628003
 20
7.825917014610817
 30
0.0
 11
25.20398456628003
 21
7.919012252706054
 31
0.0
  0
LINE
  5
89B
330
65CB
100
AcDbEntity
  8
PART
100
AcDbLine
 10
25.12898456628004
 20
7.825917014610817
 30
0.0
 11
25.12898456628004
 21
7.911869395563201
 31
0.0
  0
LINE
  5
89C
330
65CB
100
AcDbEntity
  8
PART
100
AcDbLine
 10
25.07898456628003
 20
7.825917014610817
 30
0.0
 11
25.07898456628003
 21
7.907107490801292
 31
0.0
  0
LINE
  5
89D
330
65CB
100
AcDbEntity
  8
PART
100
AcDbLine
 10
25.40398456628004
 20
7.630917014610817
 30
0.0
 11
25.40398456628004
 21
7.930917014610818
 31
0.0
  0
LINE
  5
89E
330
65CB
100
AcDbEntity
  8
PART
100
AcDbLine
 10
25.32898456628004
 20
7.630917014610817
 30
0.0
 11
25.40398456628004
 21
7.630917014610817
 31
0.0
  0
LINE
  5
89F
330
65CB
100
AcDbEntity
  8
PART
100
AcDbLine
 10
25.07898456628003
 20
7.654726538420338
 30
0.0
 11
25.07898456628003
 21
7.735917014610817
 31
0.0
  0
LINE
  5
8A0
330
65CB
100
AcDbEntity
  8
PART
100
AcDbLine
 10
25.12898456628004
 20
7.649964633658437
 30
0.0
 11
25.12898456628004
 21
7.735917014610817
 31
0.0
  0
LINE
  5
8A1
330
65CB
100
AcDbEntity
  8
PART
100
AcDbLine
 10
25.32898456628004
 20
7.630917014610817
 30
0.0
 11
25.32898456628004
 21
7.735917014610817
 31
0.0
  0
LINE
  5
8A2
330
65CB
100
AcDbEntity
  8
PART
100
AcDbLine
 10
25.20398456628003
 20
7.642821776515581
 30
0.0
 11
25.20398456628003
 21
7.735917014610817
 31
0.0
  0
LINE
  5
8A3
330
65CB
100
AcDbEntity
  8
PART
100
AcDbLine
 10
25.25398456628003
 20
7.638059871753673
 30
0.0
 11
25.25398456628003
 21
7.735917014610817
 31
0.0
  0
LINE
  5
8A4
330
65CB
100
AcDbEntity
  8
PART
100
AcDbLine
 10
25.20398456628003
 20
7.642821776515576
 30
0.0
 11
25.25398456628003
 21
7.638059871753673
 31
0.0
  0
LINE
  5
8A5
330
65CB
100
AcDbEntity
  8
PART
100
AcDbLine
 10
25.07898456628003
 20
7.654726538420338
 30
0.0
 11
25.12898456628004
 21
7.649964633658433
 31
0.0
  0
LINE
  5
8A6
330
65CB
100
AcDbEntity
  8
PART
100
AcDbLine
 10
25.32898456628004
 20
7.735917014610817
 30
0.0
 11
25.25398456628003
 21
7.735917014610817
 31
0.0
  0
LINE
  5
8A7
330
65CB
100
AcDbEntity
  8
PART
100
AcDbLine
 10
25.32898456628004
 20
7.825917014610817
 30
0.0
 11
25.25398456628003
 21
7.825917014610817
 31
0.0
  0
LINE
  5
8A8
330
65CB
100
AcDbEntity
  8
PART
100
AcDbLine
 10
25.20398456628003
 20
7.735917014610817
 30
0.0
 11
25.12898456628004
 21
7.735917014610817
 31
0.0
  0
LINE
  5
8A9
330
65CB
100
AcDbEntity
  8
PART
100
AcDbLine
 10
25.20398456628003
 20
7.825917014610817
 30
0.0
 11
25.12898456628004
 21
7.825917014610817
 31
0.0
  0
LINE
  5
8AA
330
65CB
100
AcDbEntity
  8
PART
100
AcDbLine
 10
25.32898456628004
 20
7.930917014610818
 30
0.0
 11
25.40398456628004
 21
7.930917014610818
 31
0.0
  0
LINE
  5
8AB
330
65CB
100
AcDbEntity
  8
PART
100
AcDbLine
 10
25.20398456628003
 20
7.919012252706054
 30
0.0
 11
25.25398456628003
 21
7.923774157467958
 31
0.0
  0
LINE
  5
8AC
330
65CB
100
AcDbEntity
  8
PART
100
AcDbLine
 10
25.07898456628003
 20
7.907107490801292
 30
0.0
 11
25.12898456628004
 21
7.911869395563201
 31
0.0
  0
LINE
  5
8AD
330
65CB
100
AcDbEntity
  8
PART
100
AcDbLine
 10
22.21219680577279
 20
7.988531848397825
 30
0.0
 11
21.50669680577279
 21
7.988531848397825
 31
0.0
  0
LINE
  5
8AE
330
65CB
100
AcDbEntity
  8
PART
100
AcDbLine
 10
22.22719680577279
 20
7.588531848397827
 30
0.0
 11
21.49169680577278
 21
7.588531848397827
 31
0.0
  0
LINE
  5
8AF
330
65CB
100
AcDbEntity
  8
PART
100
AcDbLine
 10
21.30169680577278
 20
7.718473587687834
 30
0.0
 11
20.98669680577278
 21
7.718473587687824
 31
0.0
  0
LINE
  5
8B0
330
65CB
100
AcDbEntity
  8
PART
100
AcDbLine
 10
21.30169680577278
 20
7.843590109107831
 30
0.0
 11
20.98669680577278
 21
7.843590109107825
 31
0.0
  0
LINE
  5
8B4
330
65CB
100
AcDbEntity
  8
PART
100
AcDbLine
 10
20.98669680577278
 20
7.843590109107825
 30
0.0
 11
20.98669680577278
 21
7.718473587687824
 31
0.0
  0
LINE
  5
8B5
330
65CB
100
AcDbEntity
  8
PART
100
AcDbLine
 10
20.97610358577278
 20
7.832996889107831
 30
0.0
 11
20.97610358577278
 21
7.729066807687824
 31
0.0
  0
LINE
  5
8B6
330
65CB
100
AcDbEntity
  8
PART
100
AcDbLine
 10
20.97610358577278
 20
7.729066807687824
 30
0.0
 11
20.98669680577278
 21
7.718473587687824
 31
0.0
  0
LINE
  5
8B7
330
65CB
100
AcDbEntity
  8
PART
100
AcDbLine
 10
20.98669680577278
 20
7.843590109107825
 30
0.0
 11
20.97610358577278
 21
7.832996889107831
 31
0.0
  0
LINE
  5
8B8
330
65CB
100
AcDbEntity
  8
PART
100
AcDbLine
 10
22.44561058964314
 20
7.740917014610817
 30
0.0
 11
22.22719680577279
 21
7.740917014610818
 31
0.0
  0
LINE
  5
8B9
330
65CB
100
AcDbEntity
  8
PART
100
AcDbLine
 10
22.46513683425749
 20
7.820917014610818
 30
0.0
 11
22.22719680577279
 21
7.820917014610819
 31
0.0
  0
LINE
  5
8BA
330
65CB
100
AcDbEntity
  8
PART
100
AcDbLine
 10
24.80398456628003
 20
7.740917014610817
 30
0.0
 11
24.53479381684561
 21
7.740917014610817
 31
0.0
  0
LINE
  5
8BB
330
65CB
100
AcDbEntity
  8
PART
100
AcDbLine
 10
24.80398456628003
 20
7.820917014610818
 30
0.0
 11
24.55432006145995
 21
7.820917014610818
 31
0.0
  0
LINE
  5
8BC
330
65CB
100
AcDbEntity
  8
PART
100
AcDbLine
 10
24.80398456628003
 20
7.680917014610818
 30
0.0
 11
24.80398456628003
 21
7.880917014610817
 31
0.0
  0
LINE
  5
8BD
330
65CB
100
AcDbEntity
  8
PART
100
AcDbLine
 10
24.95398456628004
 20
7.666631300325104
 30
0.0
 11
24.95398456628004
 21
7.735917014610817
 31
0.0
  0
LINE
  5
8BE
330
65CB
100
AcDbEntity
  8
PART
100
AcDbLine
 10
25.00398456628003
 20
7.661869395563201
 30
0.0
 11
25.00398456628003
 21
7.735917014610817
 31
0.0
  0
LINE
  5
8BF
330
65CB
100
AcDbEntity
  8
PART
100
AcDbLine
 10
24.87898456628004
 20
7.673774157467958
 30
0.0
 11
24.87898456628004
 21
7.735917014610817
 31
0.0
  0
LINE
  5
8C0
330
65CB
100
AcDbEntity
  8
PART
100
AcDbLine
 10
24.80398456628003
 20
7.680917014610818
 30
0.0
 11
24.87898456628004
 21
7.673774157467958
 31
0.0
  0
LINE
  5
8C1
330
65CB
100
AcDbEntity
  8
PART
100
AcDbLine
 10
24.95398456628004
 20
7.666631300325104
 30
0.0
 11
25.00398456628003
 21
7.661869395563197
 31
0.0
  0
LINE
  5
8C2
330
65CB
100
AcDbEntity
  8
PART
100
AcDbLine
 10
24.80398456628003
 20
7.880917014610817
 30
0.0
 11
24.87898456628004
 21
7.888059871753673
 31
0.0
  0
LINE
  5
8C3
330
65CB
100
AcDbEntity
  8
PART
100
AcDbLine
 10
24.95398456628004
 20
7.735917014610817
 30
0.0
 11
24.87898456628004
 21
7.735917014610817
 31
0.0
  0
LINE
  5
8C4
330
65CB
100
AcDbEntity
  8
PART
100
AcDbLine
 10
24.87898456628004
 20
7.825917014610817
 30
0.0
 11
24.87898456628004
 21
7.888059871753673
 31
0.0
  0
LINE
  5
8C5
330
65CB
100
AcDbEntity
  8
PART
100
AcDbLine
 10
24.95398456628004
 20
7.825917014610817
 30
0.0
 11
24.87898456628004
 21
7.825917014610817
 31
0.0
  0
LINE
  5
8C6
330
65CB
100
AcDbEntity
  8
PART
100
AcDbLine
 10
24.95398456628004
 20
7.825917014610817
 30
0.0
 11
24.95398456628004
 21
7.895202728896531
 31
0.0
  0
LINE
  5
8C7
330
65CB
100
AcDbEntity
  8
PART
100
AcDbLine
 10
25.00398456628003
 20
7.825917014610817
 30
0.0
 11
25.00398456628003
 21
7.899964633658437
 31
0.0
  0
LINE
  5
8C8
330
65CB
100
AcDbEntity
  8
PART
100
AcDbLine
 10
24.95398456628004
 20
7.895202728896531
 30
0.0
 11
25.00398456628003
 21
7.899964633658437
 31
0.0
  0
LINE
  5
8C9
330
65CB
100
AcDbEntity
  8
PART
100
AcDbLine
 10
22.5945002649789
 20
7.820917014610818
 30
0.0
 11
22.56403932338051
 21
7.780400417387901
 31
0.0
  0
LINE
  5
8CA
330
65CB
100
AcDbEntity
  8
PART
100
AcDbLine
 10
22.56403932338051
 20
7.780400417387901
 30
0.0
 11
22.60934021088581
 21
7.784307123723692
 31
0.0
  0
LINE
  5
8CB
330
65CB
100
AcDbEntity
  8
PART
100
AcDbLine
 10
22.60934021088581
 20
7.784307123723692
 30
0.0
 11
22.57497402036455
 21
7.740917014610817
 31
0.0
  0
LINE
  5
8CC
330
65CB
100
AcDbEntity
  8
PART
100
AcDbLine
 10
22.4799767801644
 20
7.784307123723692
 30
0.0
 11
22.44561058964314
 21
7.740917014610817
 31
0.0
  0
LINE
  5
8CD
330
65CB
100
AcDbEntity
  8
PART
100
AcDbLine
 10
22.43467589265912
 20
7.780400417387901
 30
0.0
 11
22.4799767801644
 21
7.784307123723692
 31
0.0
  0
LINE
  5
8CE
330
65CB
100
AcDbEntity
  8
PART
100
AcDbLine
 10
22.46513683425749
 20
7.820917014610818
 30
0.0
 11
22.43467589265912
 21
7.780400417387901
 31
0.0
  0
LINE
  5
8CF
330
65CB
100
AcDbEntity
  8
PART
100
AcDbLine
 10
21.91729584883256
 20
7.988531848397825
 30
0.0
 11
21.91729584883256
 21
7.588531848397827
 31
0.0
  0
LINE
  5
8D0
330
65CB
100
AcDbEntity
  8
PART
100
AcDbLine
 10
22.22719680577279
 20
7.973531848397826
 30
0.0
 11
22.22719680577279
 21
7.588531848397827
 31
0.0
  0
LINE
  5
8D3
330
65CB
100
AcDbEntity
  8
PART
100
AcDbLine
 10
21.30169680577278
 20
7.674031848397825
 30
0.0
 11
21.30169680577278
 21
7.888031848397825
 31
0.0
  0
LINE
  5
8D4
330
65CB
100
AcDbEntity
  8
PART
100
AcDbLine
 10
21.49169680577278
 20
7.674031848397825
 30
0.0
 11
21.30169680577278
 21
7.674031848397825
 31
0.0
  0
LINE
  5
8D5
330
65CB
100
AcDbEntity
  8
PART
100
AcDbLine
 10
21.49169680577278
 20
7.888031848397825
 30
0.0
 11
21.30169680577278
 21
7.888031848397829
 31
0.0
  0
ARC
  5
8D6
330
65CB
100
AcDbEntity
  8
PART
100
AcDbCircle
 10
22.21219680577279
 20
7.973531848397826
 30
0.0
 40
0.015
100
AcDbArc
 50
359.9999999999998
 51
90.0
  0
LINE
  5
8D8
330
65CB
100
AcDbEntity
  8
PART
100
AcDbLine
 10
21.49169680577278
 20
7.973531848397826
 30
0.0
 11
21.49169680577278
 21
7.588531848397827
 31
0.0
  0
ARC
  5
8D9
330
65CB
100
AcDbEntity
  8
PART
100
AcDbCircle
 10
21.50669680577279
 20
7.973531848397826
 30
0.0
 40
0.015
100
AcDbArc
 50
90.0
 51
180.0
  0
LWPOLYLINE
  5
725E
330
65CB
100
AcDbEntity
  8
FORMAT
100
AcDbPolyline
 90
        4
 70
     1
 43
0.0145454545454546
 10
18.21135905001544
 20
0.2156282599397308
 10
34.71135905001544
 20
0.2156282599397308
 10
34.71135905001544
 20
10.71562825993973
 10
18.21135905001544
 20
10.71562825993973
  0
LWPOLYLINE
  5
725F
330
65CB
100
AcDbEntity
  8
0
100
AcDbPolyline
 90
        4
 70
     1
 43
0.0
 10
17.96135905001544
 20
-0.0343717400602692
 10
34.96135905001544
 20
-0.0343717400602692
 10
34.96135905001544
 20
10.96562825993973
 10
17.96135905001544
 20
10.96562825993973
  0
LWPOLYLINE
  5
7260
330
65CB
100
AcDbEntity
  8
PART
100
AcDbPolyline
 90
        8
 70
     1
 43
0.0
 10
25.46398456628003
 20
8.920917014610822
 42
0.4142140000000003
 10
25.42898456628003
 20
8.885917014610821
 10
25.42898456628003
 20
6.647891818716526
 42
0.4142140000000003
 10
25.46398456628003
 20
6.612891818716525
 10
30.08309837826182
 20
6.612891818716525
 42
0.4142140000000003
 10
30.11809837826182
 20
6.647891818716526
 10
30.11809837826182
 20
8.885917014610821
 42
0.4142140000000003
 10
30.08309837826182
 20
8.920917014610822
  0
LWPOLYLINE
  5
7261
330
65CB
100
AcDbEntity
  8
PART
100
AcDbPolyline
 90
        8
 70
     1
 43
0.0
 10
25.46398456628003
 20
8.945917014610824
 42
0.4142140000000003
 10
25.40398456628004
 20
8.885917014610821
 10
25.40398456628004
 20
6.647891818716526
 42
0.4142140000000003
 10
25.46398456628003
 20
6.587891818716523
 10
30.08309837826182
 20
6.587891818716523
 42
0.4142140000000003
 10
30.14309837826182
 20
6.647891818716526
 10
30.14309837826182
 20
8.885917014610821
 42
0.4142140000000003
 10
30.08309837826182
 20
8.945917014610824
  0
LINE
  5
7262
330
65CB
100
AcDbEntity
  8
PART
100
AcDbLine
 10
25.62725049642425
 20
3.091616678415693
 30
0.0
 11
24.97100124642424
 21
3.091988678415694
 31
0.0
  0
LINE
  5
7263
330
65CB
100
AcDbEntity
  8
PART
100
AcDbLine
 10
25.62763974642424
 20
3.777115928415693
 30
0.0
 11
24.97138974642425
 21
3.777488678415693
 31
0.0
  0
LINE
  5
7264
330
65CB
100
AcDbEntity
  8
PART
100
AcDbLine
 10
25.62744399642423
 20
3.432116678415693
 30
0.0
 11
24.97119399642425
 21
3.432488678415693
 31
0.0
  0
LINE
  5
7265
330
65CB
100
AcDbEntity
  8
PART
100
AcDbLine
 10
25.53815124642423
 20
3.374743178415694
 30
0.0
 11
25.11117474642425
 21
3.374985428415693
 31
0.0
  0
LINE
  5
7266
330
65CB
100
AcDbEntity
  8
PART
100
AcDbLine
 10
25.53803124642425
 20
3.163058678415694
 30
0.0
 11
25.11105474642425
 21
3.163300928415693
 31
0.0
  0
LINE
  5
7268
330
65CB
100
AcDbEntity
  8
PART
100
AcDbLine
 10
25.39451499642423
 20
3.352324928415693
 30
0.0
 11
25.39442049642425
 21
3.185640428415694
 31
0.0
  0
LINE
  5
7269
330
65CB
100
AcDbEntity
  8
PART
100
AcDbLine
 10
25.23149724642423
 20
3.352417178415694
 30
0.0
 11
25.23140199642423
 21
3.185732678415693
 31
0.0
  0
LINE
  5
726A
330
65CB
100
AcDbEntity
  8
PART
100
AcDbLine
 10
25.28583624642425
 20
3.352386428415693
 30
0.0
 11
25.28574174642425
 21
3.185701928415693
 31
0.0
  0
LINE
  5
726B
330
65CB
100
AcDbEntity
  8
PART
100
AcDbLine
 10
25.34017599642425
 20
3.352355678415693
 30
0.0
 11
25.34008149642423
 21
3.185671178415694
 31
0.0
  0
LINE
  5
726C
330
65CB
100
AcDbEntity
  8
PART
100
AcDbLine
 10
24.97138974642425
 20
3.777488678415693
 30
0.0
 11
24.97100124642424
 21
3.091988678415694
 31
0.0
  0
ARC
  5
726D
330
65CB
100
AcDbEntity
  8
PART
100
AcDbCircle
 10
24.44044974642423
 20
3.221665178415693
 30
0.0
 40
0.069375
100
AcDbArc
 50
89.96748100000003
 51
269.967481
  0
LINE
  5
726E
330
65CB
100
AcDbEntity
  8
PART
100
AcDbLine
 10
25.08866199642425
 20
3.352498178415694
 30
0.0
 11
25.08856749642425
 21
3.185813678415694
 31
0.0
  0
LINE
  5
726F
330
65CB
100
AcDbEntity
  8
PART
100
AcDbLine
 10
25.12281774642425
 20
3.352478678415693
 30
0.0
 11
25.12272324642425
 21
3.185794178415694
 31
0.0
  0
LINE
  5
7270
330
65CB
100
AcDbEntity
  8
PART
100
AcDbLine
 10
25.17715749642425
 20
3.352447928415693
 30
0.0
 11
25.17706299642425
 21
3.185763428415693
 31
0.0
  0
LINE
  5
7271
330
65CB
100
AcDbEntity
  8
PART
100
AcDbLine
 10
24.97103499642423
 20
3.151988678415693
 30
0.0
 11
24.44040999642425
 21
3.152290178415693
 31
0.0
  0
ARC
  5
7272
330
65CB
100
AcDbEntity
  8
PART
100
AcDbCircle
 10
25.11106749642423
 20
3.185800928415693
 30
0.0
 40
0.0225
100
AcDbArc
 50
179.9674809999999
 51
269.967481
  0
LINE
  5
7273
330
65CB
100
AcDbEntity
  8
PART
100
AcDbLine
 10
24.97133049642425
 20
3.672488678415694
 30
0.0
 11
24.51310899642423
 21
3.672748928415693
 31
0.0
  0
LINE
  5
7274
330
65CB
100
AcDbEntity
  8
PART
100
AcDbLine
 10
24.97122549642423
 20
3.487238678415693
 30
0.0
 11
24.51300399642423
 21
3.487498928415693
 31
0.0
  0
LINE
  5
7275
330
65CB
100
AcDbEntity
  8
PART
100
AcDbLine
 10
24.97111374642424
 20
3.290738678415693
 30
0.0
 11
24.44048874642423
 21
3.291040178415693
 31
0.0
  0
LINE
  5
7276
330
65CB
100
AcDbEntity
  8
PART
100
AcDbLine
 10
24.46125474642423
 20
3.539306678415695
 30
0.0
 11
24.51300399642423
 21
3.487498928415693
 31
0.0
  0
CIRCLE
  5
7277
330
65CB
100
AcDbEntity
  8
PART
100
AcDbCircle
 10
24.61127799642423
 20
3.580068428415694
 30
0.0
 40
0.0440715
  0
LINE
  5
7278
330
65CB
100
AcDbEntity
  8
PART
100
AcDbLine
 10
24.46130124642423
 20
3.620999678415693
 30
0.0
 11
24.46125474642423
 21
3.539306678415695
 31
0.0
  0
LINE
  5
7279
330
65CB
100
AcDbEntity
  8
PART
100
AcDbLine
 10
24.46130124642423
 20
3.620999678415693
 30
0.0
 11
24.51310899642423
 21
3.672748928415693
 31
0.0
  0
ARC
  5
727A
330
65CB
100
AcDbEntity
  8
PART
100
AcDbCircle
 10
25.11116199642423
 20
3.352485428415693
 30
0.0
 40
0.0225
100
AcDbArc
 50
89.96748100000003
 51
179.9674809999999
  0
LINE
  5
727F
330
65CB
100
AcDbEntity
  8
PART
100
AcDbLine
 10
27.48538974642425
 20
3.583585928415694
 30
0.0
 11
27.58538285694585
 21
3.588552481844196
 31
0.0
  0
LINE
  5
7280
330
65CB
100
AcDbEntity
  8
PART
100
AcDbLine
 10
28.90228974642425
 20
3.513209678415693
 30
0.0
 11
27.7106312228184
 21
3.572398257473653
 31
0.0
  0
LINE
  5
7281
330
65CB
100
AcDbEntity
  8
PART
100
AcDbLine
 10
28.90237899642425
 20
3.355570178415693
 30
0.0
 11
27.7106312228184
 21
3.414761566926303
 31
0.0
  0
LINE
  5
7282
330
65CB
100
AcDbEntity
  8
PART
100
AcDbLine
 10
26.06840049642425
 20
4.111189178415695
 30
0.0
 11
27.58538285694585
 21
4.111189178415695
 31
0.0
  0
LINE
  5
7283
330
65CB
100
AcDbEntity
  8
PART
100
AcDbLine
 10
26.06849049642425
 20
4.268827928415693
 30
0.0
 11
27.58538285694585
 21
4.268827928415693
 31
0.0
  0
LINE
  5
7284
330
65CB
100
AcDbEntity
  8
PART
100
AcDbLine
 10
26.06849049642425
 20
4.575188678415694
 30
0.0
 11
27.58538285694585
 21
4.575188678415694
 31
0.0
  0
LINE
  5
7285
330
65CB
100
AcDbEntity
  8
PART
100
AcDbLine
 10
26.06840049642425
 20
4.417549928415695
 30
0.0
 11
27.58538285694585
 21
4.417549928415695
 31
0.0
  0
LINE
  5
7286
330
65CB
100
AcDbEntity
  8
PART
100
AcDbLine
 10
26.06849049642425
 20
3.819570428415694
 30
0.0
 11
27.58538285694585
 21
3.819251397249352
 31
0.0
  0
LINE
  5
7287
330
65CB
100
AcDbEntity
  8
PART
100
AcDbLine
 10
26.06840049642425
 20
3.661930928415693
 30
0.0
 11
27.58538285694585
 21
3.661612003878728
 31
0.0
  0
LINE
  5
7288
330
65CB
100
AcDbEntity
  8
PART
100
AcDbLine
 10
26.06849049642425
 20
4.843254428415693
 30
0.0
 11
27.58538285694585
 21
4.843254428415693
 31
0.0
  0
LINE
  5
7289
330
65CB
100
AcDbEntity
  8
PART
100
AcDbLine
 10
26.06840049642425
 20
4.685615678415693
 30
0.0
 11
27.58538285694585
 21
4.685615678415693
 31
0.0
  0
LINE
  5
728A
330
65CB
100
AcDbEntity
  8
PART
100
AcDbLine
 10
26.06849049642425
 20
4.087636178415693
 30
0.0
 11
27.58538285694585
 21
4.087317147249351
 31
0.0
  0
LINE
  5
728B
330
65CB
100
AcDbEntity
  8
PART
100
AcDbLine
 10
26.06840049642425
 20
3.929996678415693
 30
0.0
 11
27.58538285694585
 21
3.929677628391583
 31
0.0
  0
ARC
  5
728C
330
65CB
100
AcDbEntity
  8
PART
100
AcDbCircle
 10
26.06835624642425
 20
3.811844678415693
 30
0.0
 40
0.4569840000000001
100
AcDbArc
 50
89.99143800000011
 51
184.3573059999999
  0
ARC
  5
728D
330
65CB
100
AcDbEntity
  8
PART
100
AcDbCircle
 10
26.06835624642425
 20
3.811844678415693
 30
0.0
 40
0.2993445
100
AcDbArc
 50
89.99143800000011
 51
218.6433649999999
  0
ARC
  5
728E
330
65CB
100
AcDbEntity
  8
PART
100
AcDbCircle
 10
26.06835624642425
 20
4.118205428415693
 30
0.0
 40
0.4569840000000001
100
AcDbArc
 50
89.99143800000011
 51
199.5846189999999
  0
LINE
  5
728F
330
65CB
100
AcDbEntity
  8
PART
100
AcDbLine
 10
26.06840049642425
 20
3.355570178415693
 30
0.0
 11
27.48538974642425
 21
3.425948678415694
 31
0.0
  0
LINE
  5
7290
330
65CB
100
AcDbEntity
  8
PART
100
AcDbLine
 10
26.06857299642423
 20
3.659116178415694
 30
0.0
 11
26.06831724642425
 21
3.209116178415693
 31
0.0
  0
LINE
  5
7291
330
65CB
100
AcDbEntity
  8
PART
100
AcDbLine
 10
25.83457299642425
 20
3.659248928415693
 30
0.0
 11
25.83431724642425
 21
3.209248928415694
 31
0.0
  0
ARC
  5
7292
330
65CB
100
AcDbEntity
  8
PART
100
AcDbCircle
 10
25.63354824642424
 20
3.261862928415693
 30
0.0
 40
0.17036325
100
AcDbArc
 50
267.88153
 51
92.05343200000006
  0
LINE
  5
7293
330
65CB
100
AcDbEntity
  8
PART
100
AcDbLine
 10
25.56063849642425
 20
3.352230428415693
 30
0.0
 11
25.56054399642423
 21
3.185545928415693
 31
0.0
  0
LINE
  5
7294
330
65CB
100
AcDbEntity
  8
PART
100
AcDbLine
 10
25.44885474642425
 20
3.352294178415693
 30
0.0
 11
25.44876024642425
 21
3.185609678415694
 31
0.0
  0
LINE
  5
7295
330
65CB
100
AcDbEntity
  8
PART
100
AcDbLine
 10
25.50319449642425
 20
3.352263428415694
 30
0.0
 11
25.50309999642425
 21
3.185578178415693
 31
0.0
  0
ARC
  5
7296
330
65CB
100
AcDbEntity
  8
PART
100
AcDbCircle
 10
25.61898849642425
 20
3.347224928415693
 30
0.0
 40
0.25574175
100
AcDbArc
 50
271.85138
 51
327.349534
  0
ARC
  5
7297
330
65CB
100
AcDbEntity
  8
PART
100
AcDbCircle
 10
25.53804399642425
 20
3.185558678415694
 30
0.0
 40
0.0225
100
AcDbArc
 50
269.967481
 51
359.967481
  0
LINE
  5
7298
330
65CB
100
AcDbEntity
  8
PART
100
AcDbLine
 10
25.83431724642425
 20
3.209248928415694
 30
0.0
 11
26.06831724642425
 21
3.209116178415693
 31
0.0
  0
ARC
  5
7299
330
65CB
100
AcDbEntity
  8
PART
100
AcDbCircle
 10
25.61908749642425
 20
3.521517428415693
 30
0.0
 40
0.25574175
100
AcDbArc
 50
32.58542799999995
 51
88.08358300000007
  0
ARC
  5
729A
330
65CB
100
AcDbEntity
  8
PART
100
AcDbCircle
 10
26.06835624642425
 20
4.118205428415693
 30
0.0
 40
0.4569840000000001
100
AcDbArc
 50
229.5527729999999
 51
269.991438
  0
ARC
  5
729B
330
65CB
100
AcDbEntity
  8
PART
100
AcDbCircle
 10
25.53813849642425
 20
3.352243178415693
 30
0.0
 40
0.0225
100
AcDbArc
 50
359.967481
 51
89.96748100000003
  0
LINE
  5
729C
330
65CB
100
AcDbEntity
  8
PART
100
AcDbLine
 10
25.83457299642425
 20
3.659248928415693
 30
0.0
 11
26.06857299642423
 21
3.659116178415694
 31
0.0
  0
ARC
  5
729D
330
65CB
100
AcDbEntity
  8
PART
100
AcDbCircle
 10
26.06835624642425
 20
4.386271178415693
 30
0.0
 40
0.4569840000000001
100
AcDbArc
 50
238.8253879999999
 51
269.991438
  0
ARC
  5
729E
330
65CB
100
AcDbEntity
  8
PART
100
AcDbCircle
 10
26.06835624642425
 20
4.118205428415693
 30
0.0
 40
0.2993445
100
AcDbArc
 50
210.778416
 51
269.991438
  0
ARC
  5
729F
330
65CB
100
AcDbEntity
  8
PART
100
AcDbCircle
 10
26.06835624642425
 20
4.386271178415693
 30
0.0
 40
0.2993445
100
AcDbArc
 50
253.632495
 51
269.991438
  0
ARC
  5
72A0
330
65CB
100
AcDbEntity
  8
PART
100
AcDbCircle
 10
26.06835624642425
 20
4.386271178415693
 30
0.0
 40
0.2993445
100
AcDbArc
 50
89.99143800000011
 51
162.8335779999999
  0
ARC
  5
72A1
330
65CB
100
AcDbEntity
  8
PART
100
AcDbCircle
 10
26.06835624642425
 20
4.386271178415693
 30
0.0
 40
0.4569840000000001
100
AcDbArc
 50
89.99143800000011
 51
197.0555689999999
  0
ARC
  5
72A2
330
65CB
100
AcDbEntity
  8
PART
100
AcDbCircle
 10
26.06835624642425
 20
4.118205428415693
 30
0.0
 40
0.2993445
100
AcDbArc
 50
89.99143800000011
 51
172.049284
  0
ARC
  5
72A3
330
65CB
100
AcDbEntity
  8
PART
100
AcDbCircle
 10
26.06835624642425
 20
4.386271178415693
 30
0.0
 40
0.2993445
100
AcDbArc
 50
206.599719
 51
217.7912089999999
  0
ARC
  5
72A4
330
65CB
100
AcDbEntity
  8
PART
100
AcDbCircle
 10
29.44189374642425
 20
3.811844678415693
 30
0.0
 40
0.2993445
100
AcDbArc
 50
351.0246289999998
 51
90.00856199999992
  0
ARC
  5
72A5
330
65CB
100
AcDbEntity
  8
PART
100
AcDbCircle
 10
29.44189374642425
 20
3.811844678415693
 30
0.0
 40
0.4569840000000001
100
AcDbArc
 50
354.1345129999998
 51
90.00856199999992
  0
ARC
  5
72A6
330
65CB
100
AcDbEntity
  8
PART
100
AcDbCircle
 10
29.44189374642425
 20
4.118205428415693
 30
0.0
 40
0.4569840000000001
100
AcDbArc
 50
340.415381
 51
90.00856199999992
  0
LINE
  5
72A7
330
65CB
100
AcDbEntity
  8
PART
100
AcDbLine
 10
30.26137899642423
 20
3.102926678415693
 30
0.0
 11
29.13637899642425
 21
3.102926678415693
 31
0.0
  0
LINE
  5
72A8
330
65CB
100
AcDbEntity
  8
PART
100
AcDbLine
 10
30.26137899642423
 20
3.765143678415693
 30
0.0
 11
29.13637899642425
 21
3.765143678415693
 31
0.0
  0
LINE
  5
72A9
330
65CB
100
AcDbEntity
  8
PART
100
AcDbLine
 10
28.90237899642425
 20
3.209035178415694
 30
0.0
 11
28.90237899642425
 21
3.659035178415693
 31
0.0
  0
LINE
  5
72AA
330
65CB
100
AcDbEntity
  8
PART
100
AcDbLine
 10
29.13637899642425
 20
3.765143678415693
 30
0.0
 11
29.13637899642425
 21
3.102926678415693
 31
0.0
  0
LINE
  5
72AB
330
65CB
100
AcDbEntity
  8
PART
100
AcDbLine
 10
29.13637899642425
 20
3.209035178415694
 30
0.0
 11
28.90237899642425
 21
3.209035178415694
 31
0.0
  0
LINE
  5
72AC
330
65CB
100
AcDbEntity
  8
PART
100
AcDbLine
 10
29.13637899642425
 20
3.659035178415693
 30
0.0
 11
28.90237899642425
 21
3.659035178415693
 31
0.0
  0
LINE
  5
72AD
330
65CB
100
AcDbEntity
  8
PART
100
AcDbLine
 10
29.69887899642424
 20
3.765143678415693
 30
0.0
 11
29.69887899642424
 21
3.102926678415693
 31
0.0
  0
LINE
  5
72AE
330
65CB
100
AcDbEntity
  8
PART
100
AcDbLine
 10
30.26137899642423
 20
3.765143678415693
 30
0.0
 11
30.26137899642423
 21
3.102926678415693
 31
0.0
  0
LINE
  5
72AF
330
65CB
100
AcDbEntity
  8
PART
100
AcDbLine
 10
30.26137899642423
 20
3.247346678415693
 30
0.0
 11
29.69887899642424
 21
3.247346678415693
 31
0.0
  0
LINE
  5
72B0
330
65CB
100
AcDbEntity
  8
PART
100
AcDbLine
 10
30.26137899642423
 20
3.620724428415694
 30
0.0
 11
29.69887899642424
 21
3.620724428415694
 31
0.0
  0
ARC
  5
72B1
330
65CB
100
AcDbEntity
  8
PART
100
AcDbCircle
 10
29.44189374642425
 20
4.118205428415693
 30
0.0
 40
0.2993445
100
AcDbArc
 50
270.0085619999999
 51
329.221584
  0
ARC
  5
72B2
330
65CB
100
AcDbEntity
  8
PART
100
AcDbCircle
 10
29.44189374642425
 20
4.386271178415693
 30
0.0
 40
0.4569840000000001
100
AcDbArc
 50
270.0085619999999
 51
301.174612
  0
ARC
  5
72B3
330
65CB
100
AcDbEntity
  8
PART
100
AcDbCircle
 10
29.44189374642425
 20
4.386271178415693
 30
0.0
 40
0.2993445
100
AcDbArc
 50
270.0085619999999
 51
286.3675049999999
  0
ARC
  5
72B4
330
65CB
100
AcDbEntity
  8
PART
100
AcDbCircle
 10
29.44189374642425
 20
4.386271178415693
 30
0.0
 40
0.2993445
100
AcDbArc
 50
17.166422
 51
90.00856199999992
  0
ARC
  5
72B5
330
65CB
100
AcDbEntity
  8
PART
100
AcDbCircle
 10
29.44189374642425
 20
4.386271178415693
 30
0.0
 40
0.4569840000000001
100
AcDbArc
 50
342.944431
 51
90.00856199999992
  0
ARC
  5
72B6
330
65CB
100
AcDbEntity
  8
PART
100
AcDbCircle
 10
29.44189374642425
 20
4.118205428415693
 30
0.0
 40
0.2993445
100
AcDbArc
 50
7.950715999999992
 51
90.00856199999992
  0
ARC
  5
72B7
330
65CB
100
AcDbEntity
  8
PART
100
AcDbCircle
 10
29.44189374642425
 20
4.386271178415693
 30
0.0
 40
0.2993445
100
AcDbArc
 50
322.208791
 51
333.400281
  0
LINE
  5
733D
330
65CB
100
AcDbEntity
  8
PART
100
AcDbLine
 10
27.82153556628003
 20
8.736021014610821
 30
0.0
 11
27.82153556628003
 21
7.460021014610822
 31
0.0
  0
LINE
  5
733E
330
65CB
100
AcDbEntity
  8
PART
100
AcDbLine
 10
26.07153556628003
 20
7.460021014610822
 30
0.0
 11
26.07153556628003
 21
8.736021014610821
 31
0.0
  0
LINE
  5
733F
330
65CB
100
AcDbEntity
  8
PART
100
AcDbLine
 10
27.75953556628004
 20
7.398021014610821
 30
0.0
 11
26.13353556628004
 21
7.398021014610821
 31
0.0
  0
ARC
  5
7341
330
65CB
100
AcDbEntity
  8
PART
100
AcDbCircle
 10
26.13353556628004
 20
7.460021014610822
 30
0.0
 40
0.062
100
AcDbArc
 50
180.0
 51
270.0
  0
ARC
  5
7342
330
65CB
100
AcDbEntity
  8
PART
100
AcDbCircle
 10
27.75953556628004
 20
7.460021014610822
 30
0.0
 40
0.062
100
AcDbArc
 50
270.0
 51
0.0
  0
LINE
  5
7343
330
65CB
100
AcDbEntity
  8
PART
100
AcDbLine
 10
26.13353556628004
 20
8.798021014610824
 30
0.0
 11
27.75953556628004
 21
8.798021014610824
 31
0.0
  0
ARC
  5
7344
330
65CB
100
AcDbEntity
  8
PART
100
AcDbCircle
 10
26.13353556628004
 20
8.736021014610821
 30
0.0
 40
0.062
100
AcDbArc
 50
90.0
 51
180.0
  0
ARC
  5
7347
330
65CB
100
AcDbEntity
  8
PART
100
AcDbCircle
 10
27.75953556628004
 20
8.736021014610821
 30
0.0
 40
0.062
100
AcDbArc
 50
0.0
 51
90.0
  0
TEXT
  5
7360
330
65CB
100
AcDbEntity
  8
FORMAT
100
AcDbText
 10
31.65532011963516
 20
1.450715334664675
 30
0.0
 40
0.0432
  1
REV APPR
  7
ARIAL
100
AcDbText
  0
LWPOLYLINE
  5
7361
330
65CB
100
AcDbEntity
  8
FORMAT
100
AcDbPolyline
 90
        2
 70
     0
 43
0.0096
 10
30.31135905001544
 20
1.26409374101426
 10
31.99135905001543
 20
1.26409374101426
  0
LWPOLYLINE
  5
7362
330
65CB
100
AcDbEntity
  8
FORMAT
100
AcDbPolyline
 90
        2
 70
     0
 43
0.0096
 10
30.31135905001544
 20
1.418124458775085
 10
31.99135905001543
 20
1.418124458775085
  0
LWPOLYLINE
  5
7363
330
65CB
100
AcDbEntity
  8
FORMAT
100
AcDbPolyline
 90
        2
 70
     0
 43
0.0096
 10
30.31135905001544
 20
1.110063023253425
 10
31.99135905001543
 20
1.110063023253425
  0
LWPOLYLINE
  5
7364
330
65CB
100
AcDbEntity
  8
FORMAT
100
AcDbPolyline
 90
        2
 70
     0
 43
0.0096
 10
30.31135905001544
 20
0.9560323054926024
 10
31.99135905001543
 20
0.9560323054926024
  0
LWPOLYLINE
  5
7365
330
65CB
100
AcDbEntity
  8
FORMAT
100
AcDbPolyline
 90
        2
 70
     0
 43
0.0096
 10
30.31135905001544
 20
0.6479708699709441
 10
31.99135905001543
 20
0.6479708699709441
  0
LWPOLYLINE
  5
7366
330
65CB
100
AcDbEntity
  8
FORMAT
100
AcDbPolyline
 90
        2
 70
     0
 43
0.0096
 10
30.31135905001544
 20
0.8020015877317836
 10
31.99135905001543
 20
0.8020015877317836
  0
LWPOLYLINE
  5
7367
330
65CB
100
AcDbEntity
  8
FORMAT
100
AcDbPolyline
 90
        2
 70
     0
 43
0.0096
 10
30.31135905001544
 20
0.4939401522101259
 10
31.99135905001543
 20
0.4939401522101259
  0
LWPOLYLINE
  5
7368
330
65CB
100
AcDbEntity
  8
FORMAT
100
AcDbPolyline
 90
        2
 70
     0
 43
0.0096
 10
25.36749462954996
 20
1.522298977700553
 10
34.71135905001537
 20
1.522298977700553
  0
TEXT
  5
7377
330
65CB
100
AcDbEntity
  8
FORMAT
100
AcDbText
 10
28.87338406472132
 20
0.291132212478491
 30
0.0
 40
0.065664
  1
written permission.
  7
ARIAL
100
AcDbText
  0
LWPOLYLINE
  5
7378
330
65CB
100
AcDbEntity
  8
FORMAT
100
AcDbPolyline
 90
        2
 70
     0
 43
0.0096
 10
28.74147305001476
 20
0.2156282599397308
 10
28.74147305001476
 20
1.522298977700553
  0
TEXT
  5
7379
330
65CB
100
AcDbEntity
  8
FORMAT
100
AcDbText
 10
28.87083096240207
 20
0.9500117759164259
 30
0.0
 40
0.065664
  1
shall be confidential except
  7
ARIAL
100
AcDbText
  0
TEXT
  5
737A
330
65CB
100
AcDbEntity
  8
FORMAT
100
AcDbText
 10
28.86666537440753
 20
1.391131121073311
 30
0.0
 40
0.065664
  1
NOTICE:   This drawing is the 
  7
ARIAL
100
AcDbText
  0
TEXT
  5
737B
330
65CB
100
AcDbEntity
  8
FORMAT
100
AcDbText
 10
28.86760599105146
 20
1.280571339354347
 30
0.0
 40
0.065664
  1
property of AMX Corporation.
  7
ARIAL
100
AcDbText
  0
TEXT
  5
737C
330
65CB
100
AcDbEntity
  8
FORMAT
100
AcDbText
 10
28.87204032665854
 20
1.06057155763538
 30
0.0
 40
0.065664
  1
that is not generally known 
  7
ARIAL
100
AcDbText
  0
TEXT
  5
737D
330
65CB
100
AcDbEntity
  8
FORMAT
100
AcDbText
 10
28.87204032665854
 20
0.839451994197457
 30
0.0
 40
0.065664
  1
to the extent the information
  7
ARIAL
100
AcDbText
  0
TEXT
  5
737E
330
65CB
100
AcDbEntity
  8
FORMAT
100
AcDbText
 10
28.86760599105146
 20
0.7300119941974579
 30
0.0
 40
0.065664
  1
has been previously established.
  7
ARIAL
100
AcDbText
  0
TEXT
  5
737F
330
65CB
100
AcDbEntity
  8
FORMAT
100
AcDbText
 10
28.87150283143345
 20
0.6205719941974586
 30
0.0
 40
0.065664
  1
This drawing may not be copied,
  7
ARIAL
100
AcDbText
  0
TEXT
  5
7380
330
65CB
100
AcDbEntity
  8
FORMAT
100
AcDbText
 10
28.87280177822745
 20
0.4005722124784974
 30
0.0
 40
0.065664
  1
for manufacture or sale without
  7
ARIAL
100
AcDbText
  0
TEXT
  5
7381
330
65CB
100
AcDbEntity
  8
FORMAT
100
AcDbText
 10
28.86769557358898
 20
0.5111319941974523
 30
0.0
 40
0.065664
  1
reproduced, or used as the basis
  7
ARIAL
100
AcDbText
  0
TEXT
  5
7382
330
65CB
100
AcDbEntity
  8
FORMAT
100
AcDbText
 10
28.8675611997827
 20
1.170011557635387
 30
0.0
 40
0.065664
  1
All information contained herein
  7
ARIAL
100
AcDbText
  0
LWPOLYLINE
  5
7385
330
65CB
100
AcDbEntity
  8
FORMAT
100
AcDbPolyline
 90
        2
 70
     1
 43
0.0064
 10
31.42586245974444
 20
0.365253834165582
 42
0.9999999999999998
 10
31.25786245974444
 20
0.365253834165582
 42
1.0
  0
LWPOLYLINE
  5
7386
330
65CB
100
AcDbEntity
  8
FORMAT
100
AcDbPolyline
 90
        2
 70
     0
 43
0.0064
 10
31.34186245974444
 20
0.3367772598345446
 10
31.34186245974444
 20
0.2566209961343411
  0
LWPOLYLINE
  5
7387
330
65CB
100
AcDbEntity
  8
FORMAT
100
AcDbPolyline
 90
        4
 70
     1
 43
0.0064
 10
31.55795310490469
 20
0.4036538341655779
 10
31.7307531049047
 20
0.4492538341655782
 10
31.73075310490469
 20
0.2833973851639619
 10
31.55795310490469
 20
0.3268538341655791
  0
LWPOLYLINE
  5
7388
330
65CB
100
AcDbEntity
  8
FORMAT
100
AcDbPolyline
 90
        2
 70
     0
 43
0.0096
 10
30.31135905001544
 20
0.2156282599397308
 10
30.31135905001544
 20
1.522298977700553
  0
TEXT
  5
7389
330
65CB
100
AcDbEntity
  8
FORMAT
100
AcDbText
 10
30.553212949879
 20
0.2916003854213009
 30
0.0
 40
0.048
  1
PROJECTION
  7
ARIAL
100
AcDbText
  0
TEXT
  5
738B
330
65CB
100
AcDbEntity
  8
FORMAT
100
AcDbText
 10
30.36140705001544
 20
0.6879708699709504
 30
0.0
 40
0.048
  1
MATL SUP
  7
ARIAL
100
AcDbText
  0
TEXT
  5
738C
330
65CB
100
AcDbEntity
  8
FORMAT
100
AcDbText
 10
30.36140705001544
 20
0.5339401522101106
 30
0.0
 40
0.048
  1
QUALITY
  7
ARIAL
100
AcDbText
  0
TEXT
  5
738D
330
65CB
100
AcDbEntity
  8
FORMAT
100
AcDbText
 10
30.36140705001546
 20
1.304093741014259
 30
0.0
 40
0.048
  1
DRAWN
  7
ARIAL
100
AcDbText
  0
TEXT
  5
738E
330
65CB
100
AcDbEntity
  8
FORMAT
100
AcDbText
 10
30.36140705001546
 20
1.153008424976833
 30
0.0
 40
0.048
  1
ENGR SERV
  7
ARIAL
100
AcDbText
  0
TEXT
  5
738F
330
65CB
100
AcDbEntity
  8
FORMAT
100
AcDbText
 10
30.36140705001546
 20
0.8438929053661714
 30
0.0
 40
0.048
  1
PROD ENGR
  7
ARIAL
100
AcDbText
  0
TEXT
  5
7390
330
65CB
100
AcDbEntity
  8
FORMAT
100
AcDbText
 10
30.36140705001546
 20
0.9957104535165903
 30
0.0
 40
0.048
  1
ENGINEER
  7
ARIAL
100
AcDbText
  0
LWPOLYLINE
  5
73A7
330
65CB
100
AcDbEntity
  8
FORMAT
100
AcDbPolyline
 90
        2
 70
     0
 43
0.0096
 10
31.60140705001545
 20
0.4939401522101259
 10
31.60140705001543
 20
1.522298977700545
  0
LWPOLYLINE
  5
73A8
330
65CB
100
AcDbEntity
  8
FORMAT
100
AcDbPolyline
 90
        2
 70
     0
 43
0.0096
 10
31.21151905001545
 20
0.4939401522101259
 10
31.21151905001543
 20
1.522298977700545
  0
LWPOLYLINE
  5
73A9
330
65CB
100
AcDbEntity
  8
FORMAT
100
AcDbPolyline
 90
        2
 70
     0
 43
0.0096
 10
30.80140705001545
 20
0.4939401522101259
 10
30.80140705001545
 20
1.522298977700545
  0
TEXT
  5
73AA
330
65CB
100
AcDbEntity
  8
FORMAT
100
AcDbText
 10
30.553212949879
 20
0.401314671135591
 30
0.0
 40
0.048
  1
THIRD ANGLE
  7
ARIAL
100
AcDbText
  0
LWPOLYLINE
  5
73AB
330
65CB
100
AcDbEntity
  8
FORMAT
100
AcDbPolyline
 90
        2
 70
     0
 43
0.0064
 10
31.37033903407584
 20
0.365253834165582
 10
31.44362671032551
 20
0.365253834165582
  0
LWPOLYLINE
  5
73AC
330
65CB
100
AcDbEntity
  8
FORMAT
100
AcDbPolyline
 90
        2
 70
     0
 43
0.0064
 10
31.23472724136378
 20
0.365253834165582
 10
31.31338588541304
 20
0.365253834165582
  0
LWPOLYLINE
  5
73AD
330
65CB
100
AcDbEntity
  8
FORMAT
100
AcDbPolyline
 90
        2
 70
     1
 43
0.0064
 10
31.38026245974444
 20
0.365253834165582
 42
0.9999999999999998
 10
31.30346245974443
 20
0.365253834165582
 42
1.0
  0
LWPOLYLINE
  5
73AE
330
65CB
100
AcDbEntity
  8
FORMAT
100
AcDbPolyline
 90
        2
 70
     0
 43
0.0064
 10
31.34186245974444
 20
0.4763910783657688
 10
31.34186245974444
 20
0.3937304084968112
  0
LWPOLYLINE
  5
73AF
330
65CB
100
AcDbEntity
  8
FORMAT
100
AcDbPolyline
 90
        2
 70
     0
 43
0.0064
 10
31.32938588541306
 20
0.365253834165582
 10
31.35433903407581
 20
0.365253834165582
  0
LWPOLYLINE
  5
73B0
330
65CB
100
AcDbEntity
  8
FORMAT
100
AcDbPolyline
 90
        2
 70
     0
 43
0.0064
 10
31.34186245974444
 20
0.3777304084965998
 10
31.34186245974444
 20
0.3527772598350261
  0
LWPOLYLINE
  5
73B1
330
65CB
100
AcDbEntity
  8
FORMAT
  6
CENTER
100
AcDbPolyline
 90
        2
 70
     0
 43
0.0064
 10
31.45735874164904
 20
0.365253834165582
 10
31.77149722731053
 20
0.365253834165582
  0
TEXT
  5
73B2
330
65CB
100
AcDbEntity
  8
FORMAT
100
AcDbText
 10
30.85801551991773
 20
1.450715334664675
 30
0.0
 40
0.0432
  1
REL APPR
  7
ARIAL
100
AcDbText
  0
TEXT
  5
73B3
330
65CB
100
AcDbEntity
  8
FORMAT
100
AcDbText
 10
31.26282928223868
 20
1.450715334664675
 30
0.0
 40
0.0432
  1
REL DATE
  7
ARIAL
100
AcDbText
  0
TEXT
  5
73C0
330
65CB
100
AcDbEntity
  8
TB-TXT
100
AcDbText
 10
29.61919305001476
 20
3.456520960207011
 30
0.0
 40
0.1
  1

  7
ROMANS
100
AcDbText
  0
INSERT
  5
73CF
330
65CB
100
AcDbEntity
  8
TB-TXT
100
AcDbBlockReference
 66
     1
  2
TITLE-BLOCK
 10
34.71135905001544
 20
0.2156282599397308
 30
0.0
 41
0.484848484848488
 42
0.4848484848484887
 43
0.4848484848484887
  0
ATTRIB
  5
73D0
330
73CF
100
AcDbEntity
  8
TB-TXT
100
AcDbText
 10
32.06793129685559
 20
1.051816106972647
 30
0.0
 40
0.085
  1
PICTORIAL,
  7
ARIAL
100
AcDbAttribute
  2
LINE1
 70
     0
  0
ATTRIB
  5
73D1
330
73CF
100
AcDbEntity
  8
TB-TXT
100
AcDbText
 10
32.06793129685559
 20
0.9262486610852072
 30
0.0
 40
0.085
  1
PS4.4 POWER SUPPLY
  7
ARIAL
100
AcDbAttribute
  2
LINE2
 70
     0
  0
ATTRIB
  5
73D2
330
73CF
100
AcDbEntity
  8
TB-TXT
100
AcDbText
 10
32.06793129685559
 20
0.8006812151977591
 30
0.0
 40
0.085
  1
13.5VDC 4.4A, SHOWN USING A
  7
ARIAL
100
AcDbAttribute
  2
LINE3
 70
     0
  0
ATTRIB
  5
73D3
330
73CF
100
AcDbEntity
  8
TB-TXT
100
AcDbText
 10
32.06793129685559
 20
0.6751137693103111
 30
0.0
 40
0.085
  1
BARREL PLUG
  7
ARIAL
100
AcDbAttribute
  2
LINE4
 70
     0
  0
ATTRIB
  5
73D4
330
73CF
100
AcDbEntity
  8
TB-TXT
100
AcDbText
 10
33.3880098766238
 20
0.4394481827285797
 30
0.0
 40
0.085
  1
95-0423-44
  7
ARIAL
100
AcDbAttribute
  2
DWG#
 70
     0
  0
ATTRIB
  5
73D5
330
73CF
100
AcDbEntity
  8
TB-TXT
100
AcDbText
 10
32.04134439280797
 20
0.2707108623841954
 30
0.0
 40
0.0581818181818187
  1
95-0423-44-B
  7
ARIAL
100
AcDbAttribute
  2
FILE#
 70
     0
  0
ATTRIB
  5
73D6
330
73CF
100
AcDbEntity
  8
TB-TXT
100
AcDbText
 10
34.55416486230414
 20
0.4098004391107899
 30
0.0
 40
0.085
  1
B
  7
ARIAL
 72
     4
 11
34.59376581728367
 21
0.4523004391107899
 31
0.0
100
AcDbAttribute
  2
REV
 70
     0
  0
ATTRIB
  5
73D7
330
73CF
100
AcDbEntity
  8
TB-TXT
100
AcDbText
 10
32.45139578973859
 20
0.4144825368088477
 30
0.0
 40
0.085
  1
FULL
  7
ARIAL
100
AcDbAttribute
  2
SCALE
 70
     0
  0
ATTRIB
  5
73D8
330
73CF
100
AcDbEntity
  8
TB-TXT
100
AcDbText
 10
34.22429747597162
 20
0.2600814363692301
 30
0.0
 40
0.085
  1
1 OF 1
  7
ARIAL
100
AcDbAttribute
  2
SHT#
 70
     0
  0
SEQEND
  5
73D9
330
73CF
100
AcDbEntity
  8
TB-TXT
  0
TEXT
  5
73DA
330
65CB
100
AcDbEntity
  8
FORMAT
  6
BYBLOCK
100
AcDbText
 10
33.67879299326525
 20
1.322154153844724
 30
0.0
 40
0.0517953436599782
  1
3000 RESEARCH DRIVE
 41
1.011836867459718
  7
ARIAL
100
AcDbText
  0
TEXT
  5
73DB
330
65CB
100
AcDbEntity
  8
FORMAT
  6
BYBLOCK
100
AcDbText
 10
33.67634156871064
 20
1.233362435643281
 30
0.0
 40
0.0517953436599782
  1
RICHARDSON, TX 75082
 41
1.018884921437547
  7
ARIAL
100
AcDbText
  0
LWPOLYLINE
  5
73DC
330
65CB
100
AcDbEntity
  8
FORMAT
100
AcDbPolyline
 90
        2
 70
     0
 43
0.0096
 10
31.99135905001543
 20
1.188637542178906
 10
34.71142305001544
 20
1.188637542178906
  0
LWPOLYLINE
  5
73DD
330
65CB
100
AcDbEntity
  8
FORMAT
100
AcDbPolyline
 90
        2
 70
     0
 43
0.0064
 10
31.99129505001544
 20
0.6053882599397335
 10
34.71135905001544
 20
0.6053882599397335
  0
LWPOLYLINE
  5
73DE
330
65CB
100
AcDbEntity
  8
FORMAT
100
AcDbPolyline
 90
        2
 70
     0
 43
0.0096
 10
31.99129505001544
 20
0.3756282599397274
 10
34.71135905001544
 20
0.3756282599397274
  0
LWPOLYLINE
  5
73DF
330
65CB
100
AcDbEntity
  8
FORMAT
100
AcDbPolyline
 90
        2
 70
     0
 43
0.0064
 10
33.84559086334411
 20
0.2156282599397308
 10
33.84559086334411
 20
0.3756282599397274
  0
TEXT
  5
73E0
330
65CB
100
AcDbEntity
  8
FORMAT
100
AcDbText
 10
33.88828238813369
 20
0.2702523076200087
 30
0.0
 40
0.0581818181818182
  1
SHEET
  7
ARIAL
100
AcDbText
  0
LWPOLYLINE
  5
73E1
330
65CB
100
AcDbEntity
  8
FORMAT
100
AcDbPolyline
 90
        2
 70
     0
 43
0.0096
 10
31.99129505001544
 20
0.2156282599397308
 10
31.99129505001544
 20
1.522298977700553
  0
LWPOLYLINE
  5
73E2
102
{ACAD_REACTORS
330
73E5
102
}
330
65CB
100
AcDbEntity
  8
FORMAT
100
AcDbPolyline
 90
       10
 70
     1
 43
0.0
 10
32.8633113022446
 20
1.235337756204196
 10
32.94004538063851
 20
1.299816918285237
 10
32.9961306292912
 20
1.235337756204196
 10
33.10293840657279
 20
1.235337756204196
 10
33.00924597398228
 20
1.343052524202839
 42
0.0105244554857435
 10
32.88368323033667
 20
1.342196357560179
 10
32.77060478707967
 20
1.247177254923547
 10
32.78589689539057
 20
1.338929904788972
 42
0.0083241925565687
 10
32.70306388523268
 20
1.335038632516024
 10
32.68644707251403
 20
1.235337756204196
  0
LWPOLYLINE
  5
73E4
102
{ACAD_REACTORS
330
73E5
102
}
330
65CB
100
AcDbEntity
  8
FORMAT
100
AcDbPolyline
 90
       13
 70
     1
 43
0.0
 10
33.13099164424764
 20
1.460267859219418
 10
33.0356468407127
 20
1.380150222187859
 42
0.0022906596071181
 10
32.87304650457062
 20
1.376843079227856
 10
32.80521331464878
 20
1.454828420338315
 10
32.79160708167617
 20
1.373191022502639
 42
0.0274655559228494
 10
32.48663588592943
 20
1.340163199395822
 10
32.50664090022464
 20
1.460267859219418
 10
32.57550257371633
 20
1.460267859219418
 10
32.64348115199739
 20
1.385866373468942
 10
32.73636024953145
 20
1.460267859219419
 10
32.90728976056174
 20
1.460267859219419
 10
32.95665518641844
 20
1.403514231991587
 10
33.02419541399407
 20
1.460267859219418
  0
HATCH
  5
73E5
330
65CB
100
AcDbEntity
  8
FORMAT
100
AcDbHatch
 10
0.0
 20
0.0
 30
0.0
210
0.0
220
0.0
230
1.0
  2
SOLID
 70
     1
 71
     1
 91
        5
 92
        1
 93
        4
 72
     1
 10
32.38686979258053
 20
1.460267859219418
 11
32.43727170835626
 21
1.330381672248251
 72
     2
 10
32.65186563830908
 20
0.1986804803010457
 40
1.151867241754588
 50
100.7369884767686
 51
115.8445848643795
 73
     1
 72
     1
 10
32.14973036276635
 20
1.235337756204196
 11
32.30035577105951
 21
1.460267859219418
 72
     1
 10
32.30035577105951
 20
1.460267859219418
 11
32.38686979258053
 21
1.460267859219418
 97
        1
330
73EE
 92
       16
 93
        4
 72
     1
 10
32.35237426294737
 20
1.32846922168838
 11
32.35248425844204
 21
1.328362625953129
 72
     1
 10
32.35248425844204
 20
1.328362625953129
 11
32.332900075337
 21
1.384043146545884
 72
     1
 10
32.332900075337
 20
1.384043146545884
 11
32.29743985113123
 21
1.328362625953129
 72
     1
 10
32.29743985113123
 20
1.328362625953129
 11
32.35237426294737
 21
1.32846922168838
 97
        1
330
73ED
 92
        1
 93
        7
 72
     1
 10
32.36614723717339
 20
1.289901426139363
 11
32.3855087200866
 21
1.235337756204196
 72
     1
 10
32.3855087200866
 20
1.235337756204196
 11
32.55144611866358
 21
1.235337756204196
 72
     1
 10
32.55144611866358
 20
1.235337756204196
 11
32.56597264313551
 21
1.322496903035822
 72
     2
 10
32.86133865048998
 20
-1.150562418760278
 40
2.490635157429348
 50
96.81077116038231
 51
98.7658188097677
 73
     1
 72
     1
 10
32.4817751738778
 20
1.310980807479144
 11
32.47067065376473
 21
1.244312291725764
 72
     1
 10
32.47067065376473
 20
1.244312291725764
 11
32.44710394783076
 21
1.305043903334585
 72
     2
 10
32.66527088890498
 20
-0.0853309646707785
 40
1.407387326843117
 50
98.91769894925042
 51
102.27114230071
 73
     1
 97
        1
330
73EC
 92
        1
 93
       13
 72
     1
 10
33.13099164424764
 20
1.460267859219418
 11
33.0356468407127
 21
1.380150222187859
 72
     2
 10
33.31528262278738
 20
-16.36742710560875
 40
17.74978020080071
 50
90.9026935983279
 51
91.42767319127448
 73
     1
 72
     1
 10
32.87304650457062
 20
1.376843079227856
 11
32.80521331464878
 21
1.454828420338315
 72
     1
 10
32.80521331464878
 20
1.454828420338315
 11
32.79160708167617
 21
1.373191022502639
 72
     2
 10
32.93952418125614
 20
-1.41717115484765
 40
2.794279969712269
 50
93.03440911951231
 51
99.32746877910881
 73
     1
 72
     1
 10
32.48663588592943
 20
1.340163199395822
 11
32.50664090022464
 21
1.460267859219418
 72
     1
 10
32.50664090022464
 20
1.460267859219418
 11
32.57550257371633
 21
1.460267859219418
 72
     1
 10
32.57550257371633
 20
1.460267859219418
 11
32.64348115199739
 21
1.385866373468942
 72
     1
 10
32.64348115199739
 20
1.385866373468942
 11
32.73636024953145
 21
1.460267859219419
 72
     1
 10
32.73636024953145
 20
1.460267859219419
 11
32.90728976056174
 21
1.460267859219419
 72
     1
 10
32.90728976056174
 20
1.460267859219419
 11
32.95665518641844
 21
1.403514231991587
 72
     1
 10
32.95665518641844
 20
1.403514231991587
 11
33.02419541399407
 21
1.460267859219418
 72
     1
 10
33.02419541399407
 20
1.460267859219418
 11
33.13099164424764
 21
1.460267859219418
 97
        1
330
73E4
 92
        1
 93
       10
 72
     1
 10
32.8633113022446
 20
1.235337756204196
 11
32.94004538063851
 21
1.299816918285237
 72
     1
 10
32.94004538063851
 20
1.299816918285237
 11
32.9961306292912
 21
1.235337756204196
 72
     1
 10
32.9961306292912
 20
1.235337756204196
 11
33.10293840657279
 21
1.235337756204196
 72
     1
 10
33.10293840657279
 20
1.235337756204196
 11
33.00924597398228
 21
1.343052524202839
 72
     2
 10
32.96679990148299
 20
-1.639687469778401
 40
2.98304199446904
 50
89.18470377236895
 51
91.5966422469091
 73
     1
 72
     1
 10
32.88368323033667
 20
1.342196357560179
 11
32.77060478707967
 21
1.247177254923547
 72
     1
 10
32.77060478707967
 20
1.247177254923547
 11
32.78589689539057
 21
1.338929904788972
 72
     2
 10
32.86133865048999
 20
-1.150562418759825
 40
2.490635157428897
 50
91.73576423011933
 51
93.64348457294767
 73
     1
 72
     1
 10
32.70306388523268
 20
1.335038632516024
 11
32.68644707251403
 21
1.235337756204196
 72
     1
 10
32.68644707251403
 20
1.235337756204196
 11
32.8633113022446
 21
1.235337756204196
 97
        1
330
73E2
 75
     0
 76
     1
 98
        1
 10
32.14099428108712
 20
1.116296643212784
  0
TEXT
  5
73E6
330
65CB
100
AcDbEntity
  8
FORMAT
100
AcDbText
 10
32.97884111861741
 20
0.5356282599397311
 30
0.0
 40
0.0544
  1
DWG. NO.
  7
ARIAL
100
AcDbText
  0
TEXT
  5
73E7
330
65CB
100
AcDbEntity
  8
FORMAT
100
AcDbText
 10
32.27984727497823
 20
0.5329612538356053
 30
0.0
 40
0.0544
  1
SCALE
  7
ARIAL
100
AcDbText
  0
TEXT
  5
73E8
330
65CB
100
AcDbEntity
  8
FORMAT
100
AcDbText
 10
32.03064159177782
 20
0.5356282599397311
 30
0.0
 40
0.0544
  1
SIZE
  7
ARIAL
100
AcDbText
  0
TEXT
  5
73E9
330
65CB
100
AcDbEntity
  8
FORMAT
100
AcDbText
 10
32.07570520423018
 20
0.4028000506662829
 30
0.0
 40
0.096969696969697
  1
B
  7
ARIAL
100
AcDbText
  0
LWPOLYLINE
  5
73EA
330
65CB
100
AcDbEntity
  8
FORMAT
100
AcDbPolyline
 90
        2
 70
     0
 43
0.0064
 10
32.24134305001543
 20
0.3756282599397274
 10
32.24134305001543
 20
0.6053882599397335
  0
LWPOLYLINE
  5
73EB
330
65CB
100
AcDbEntity
  8
FORMAT
100
AcDbPolyline
 90
        2
 70
     0
 43
0.0064
 10
32.95587758682378
 20
0.3756282599397274
 10
32.95587758682378
 20
0.6053882599397335
  0
LWPOLYLINE
  5
73EC
102
{ACAD_REACTORS
330
73E5
102
}
330
65CB
100
AcDbEntity
  8
FORMAT
100
AcDbPolyline
 90
        7
 70
     1
 43
0.0
 10
32.36614723717339
 20
1.289901426139363
 10
32.3855087200866
 20
1.235337756204196
 10
32.55144611866358
 20
1.235337756204196
 10
32.56597264313551
 20
1.322496903035822
 42
0.0085307115550227
 10
32.4817751738778
 20
1.310980807479144
 10
32.47067065376473
 20
1.244312291725764
 10
32.44710394783076
 20
1.305043903334585
 42
0.014633201278307
  0
LWPOLYLINE
  5
73ED
102
{ACAD_REACTORS
330
73E5
102
}
330
65CB
100
AcDbEntity
  8
FORMAT
100
AcDbPolyline
 90
        4
 70
     1
 43
0.0
 10
32.35237426294737
 20
1.32846922168838
 10
32.35248425844204
 20
1.328362625953129
 10
32.332900075337
 20
1.384043146545884
 10
32.29743985113123
 20
1.328362625953129
  0
LWPOLYLINE
  5
73EE
102
{ACAD_REACTORS
330
73E5
102
}
330
65CB
100
AcDbEntity
  8
FORMAT
100
AcDbPolyline
 90
        4
 70
     1
 43
0.0
 10
32.38686979258053
 20
1.460267859219418
 10
32.43727170835626
 20
1.330381672248251
 42
0.0660149720166298
 10
32.14973036276635
 20
1.235337756204196
 10
32.30035577105951
 20
1.460267859219418
  0
TEXT
  5
73EF
330
65CB
100
AcDbEntity
  8
FORMAT
  6
BYBLOCK
100
AcDbText
 10
33.67879299326525
 20
1.410945872046166
 30
0.0
 40
0.0517953436599782
  1
AMX CORPORATION
 41
1.011836867459718
  7
ARIAL
100
AcDbText
  0
TEXT
  5
73F0
330
65CB
100
AcDbEntity
  8
FORMAT
100
AcDbText
 10
33.12707373782245
 20
1.236096841006581
 30
0.0
 40
0.0291635663041159
  1
TM
  7
ARIAL
 11
33.12707373782245
 21
1.250678624158639
 31
0.0
100
AcDbText
 73
     2
  0
LWPOLYLINE
  5
73F1
330
65CB
100
AcDbEntity
  8
FORMAT
100
AcDbPolyline
 90
        2
 70
     0
 43
0.0064
 10
34.47135905001543
 20
0.3756282599397274
 10
34.47135905001543
 20
0.6053882599397335
  0
TEXT
  5
73F2
330
65CB
100
AcDbEntity
  8
FORMAT
100
AcDbText
 10
34.5085308850024
 20
0.5356282599397311
 30
0.0
 40
0.0544
  1
REV.
  7
ARIAL
 72
     1
 11
34.59721847026843
 21
0.5356282599397311
 31
0.0
100
AcDbText
  0
INSERT
  5
7437
330
65CB
100
AcDbEntity
  8
TB-TXT
100
AcDbBlockReference
 66
     1
  2
REV-BLOCK
 10
34.71135905001544
 20
10.36567625993972
 30
0.0
 41
0.4848484848484845
 42
0.4848484848484845
 43
0.4848484848484845
  0
ATTRIB
  5
7438
330
7437
100
AcDbEntity
  8
TB-TXT
100
AcDbText
 10
31.10377966547381
 20
10.22670102813139
 30
0.0
 40
0.08
  1
A
  7
ARIAL
 72
     1
 11
31.14105115251338
 21
10.26670102813139
 31
0.0
100
AcDbAttribute
  2
REV
 70
     0
 74
     2
  0
ATTRIB
  5
7439
330
7437
100
AcDbEntity
  8
TB-TXT
100
AcDbText
 10
31.30714537911502
 20
10.23423834951655
 30
0.0
 40
0.08
  1
5492
  7
ARIAL
100
AcDbAttribute
  2
ECN
 70
     0
  0
ATTRIB
  5
743A
330
7437
100
AcDbEntity
  8
TB-TXT
100
AcDbText
 10
31.64400814703057
 20
10.23540346304166
 30
0.0
 40
0.08
  1
RELEASE TO PRODUCTION
  7
ARIAL
100
AcDbAttribute
  2
DESCRIPTION
 70
     0
  0
ATTRIB
  5
743B
330
7437
100
AcDbEntity
  8
TB-TXT
100
AcDbText
 10
33.56665927134911
 20
10.22670102813139
 30
0.0
 40
0.08
  1
10/21/03
  7
ARIAL
 72
     1
 11
33.78417632455512
 21
10.26670102813139
 31
0.0
100
AcDbAttribute
  2
REV-DATE
 70
     0
 74
     2
  0
ATTRIB
  5
743C
330
7437
100
AcDbEntity
  8
TB-TXT
100
AcDbText
 10
34.37153743033167
 20
10.22670102813139
 30
0.0
 40
0.08
  1

  7
ARIAL
 72
     1
 11
34.37153743033167
 21
10.26670102813139
 31
0.0
100
AcDbAttribute
  2
APPR
 70
     0
 74
     2
  0
SEQEND
  5
743D
330
7437
100
AcDbEntity
  8
TB-TXT
  0
LWPOLYLINE
  5
743E
330
65CB
100
AcDbEntity
  8
FORMAT
100
AcDbPolyline
 90
        2
 70
     0
 43
0.0096
 10
30.99614281828692
 20
10.53604425993972
 10
34.71135905001544
 20
10.53604425993972
  0
LWPOLYLINE
  5
743F
330
65CB
100
AcDbEntity
  8
FORMAT
100
AcDbPolyline
 90
        2
 70
     0
 43
0.0096
 10
30.99614281828692
 20
10.36567625993972
 10
34.71135905001544
 20
10.36567625993972
  0
LINE
  5
7441
330
65CB
100
AcDbEntity
  8
PART
100
AcDbLine
 10
30.17930137826182
 20
7.130917014610822
 30
0.0
 11
30.17930137826182
 21
8.430917014610821
 31
0.0
  0
LINE
  5
7442
330
65CB
100
AcDbEntity
  8
PART
100
AcDbLine
 10
30.14309837826182
 20
7.130917014610822
 30
0.0
 11
30.17930137826182
 21
7.130917014610822
 31
0.0
  0
LINE
  5
7446
330
65CB
100
AcDbEntity
  8
PART
100
AcDbLine
 10
30.14309837826182
 20
8.430917014610821
 30
0.0
 11
30.17930137826182
 21
8.430917014610821
 31
0.0
  0
LWPOLYLINE
  5
7549
330
65CB
100
AcDbEntity
  8
FORMAT
100
AcDbPolyline
 90
        2
 70
     0
 43
0.0128
 10
30.99614281828692
 20
10.71562825993973
 10
30.99614281828692
 20
9.972008455289541
  0
LWPOLYLINE
  5
754A
330
65CB
100
AcDbEntity
  8
FORMAT
100
AcDbPolyline
 90
        2
 70
     0
 43
0.0096
 10
31.58657570930882
 20
9.972008455289541
 10
31.58657570930882
 20
10.53604425993972
  0
LWPOLYLINE
  5
754B
330
65CB
100
AcDbEntity
  8
FORMAT
100
AcDbPolyline
 90
        2
 70
     0
 43
0.0096
 10
31.27614281828691
 20
9.972008455289541
 10
31.27614281828691
 20
10.53604425993972
  0
TEXT
  5
754C
330
65CB
100
AcDbEntity
  8
FORMAT
100
AcDbText
 10
31.05510384307794
 20
10.42946362919943
 30
0.0
 40
0.0576
  1
REV
  7
ARIAL
 72
     1
 11
31.13783017322801
 21
10.42946362919943
 31
0.0
100
AcDbText
  0
TEXT
  5
754D
330
65CB
100
AcDbEntity
  8
FORMAT
100
AcDbText
 10
31.33288392493333
 20
10.42946362919943
 30
0.0
 40
0.0576
  1
ECN
  7
ARIAL
 72
     1
 11
31.41783017322801
 21
10.42946362919943
 31
0.0
100
AcDbText
  0
TEXT
  5
75D9
330
65CB
100
AcDbEntity
  8
FORMAT
100
AcDbText
 10
34.1453269684682
 20
10.42946362919943
 30
0.0
 40
0.0576
  1
APPROVED
  7
ARIAL
 72
     1
 11
34.36885111580791
 21
10.42946362919943
 31
0.0
100
AcDbText
  0
TEXT
  5
75DA
330
65CB
100
AcDbEntity
  8
FORMAT
100
AcDbText
 10
32.56538856004804
 20
10.58435864863928
 30
0.0
 40
0.0768
  1
REVISIONS
  7
ARIAL
 72
     1
 11
32.85752716850643
 21
10.58435864863928
 31
0.0
100
AcDbText
  0
TEXT
  5
75E1
330
65CB
100
AcDbEntity
  8
FORMAT
100
AcDbText
 10
32.26319016062725
 20
10.42946362919943
 30
0.0
 40
0.0576
  1
DESCRIPTION
  7
ARIAL
 72
     1
 11
32.538145685866
 21
10.42946362919943
 31
0.0
100
AcDbText
  0
LWPOLYLINE
  5
75E2
330
65CB
100
AcDbEntity
  8
FORMAT
100
AcDbPolyline
 90
        2
 70
     0
 43
0.0096
 10
34.05883511580791
 20
9.972008455289541
 10
34.05883511580791
 20
10.53604425993972
  0
LWPOLYLINE
  5
75E3
330
65CB
100
AcDbEntity
  8
FORMAT
100
AcDbPolyline
 90
        2
 70
     0
 43
0.0096
 10
33.4988351158079
 20
9.972008455289541
 10
33.4988351158079
 20
10.53604425993972
  0
TEXT
  5
75E4
330
65CB
100
AcDbEntity
  8
FORMAT
100
AcDbText
 10
33.66154852372058
 20
10.42946362919943
 30
0.0
 40
0.0576
  1
DATE
  7
ARIAL
 72
     1
 11
33.7688511158079
 21
10.42946362919943
 31
0.0
100
AcDbText
  0
TEXT
  5
7A1A
330
65CB
100
AcDbEntity
  8
TXT
100
AcDbText
 10
18.48458048653446
 20
8.104528152953593
 30
0.0
 40
0.12
  1
CONNECTOR DIMS:
  7
ROMANS
100
AcDbText
  0
TEXT
  5
7A1B
330
65CB
100
AcDbEntity
  8
TXT
100
AcDbText
 10
18.48458048653446
 20
7.910242438667879
 30
0.0
 40
0.12
  1
2.1MM ID
  7
ROMANS
100
AcDbText
  0
TEXT
  5
7A1C
330
65CB
100
AcDbEntity
  8
TXT
100
AcDbText
 10
18.48458048653446
 20
7.715956724382164
 30
0.0
 40
0.12
  1
5.5MM OD
  7
ROMANS
100
AcDbText
  0
TEXT
  5
7A1D
330
65CB
100
AcDbEntity
  8
TXT
100
AcDbText
 10
18.48458048653446
 20
7.521671010096451
 30
0.0
 40
0.12
  1
9.5MM LENGTH
  7
ROMANS
100
AcDbText
  0
LINE
  5
7A1E
330
65CB
100
AcDbEntity
  8
TXT
100
AcDbLine
 10
20.88410066781768
 20
7.887757422135164
 30
0.0
 11
20.32585124077789
 21
8.150001891875636
 31
0.0
  0
SOLID
  5
7A1F
330
65CB
100
AcDbEntity
  8
TXT
100
AcDbTrace
 10
20.87701425401892
 20
7.872672313012236
 30
0.0
 11
20.89118708161643
 21
7.90284253125809
 31
0.0
 12
20.97461132255525
 22
7.845238939342659
 32
0.0
 13
20.97461132255525
 23
7.845238939342659
 33
0.0
  0
LINE
  5
7A20
330
65CB
100
AcDbEntity
  8
TXT
100
AcDbLine
 10
20.32585124077789
 20
8.150001891875636
 30
0.0
 11
20.1994402815591
 21
8.150001891875636
 31
0.0
  0
CIRCLE
  5
7ACE
330
65CB
100
AcDbEntity
  8
PART
100
AcDbCircle
 10
19.19797719004344
 20
7.041241304280571
 30
0.0
 40
0.1134629241794446
  0
ARC
  5
7ACF
330
65CB
100
AcDbEntity
  8
PART
100
AcDbCircle
 10
19.19797719004344
 20
7.041241304280571
 30
0.0
 40
0.1968915448996245
100
AcDbArc
 50
215.1887028463218
 51
144.8112971536779
  0
LINE
  5
7AD2
330
65CB
100
AcDbEntity
  8
PART
100
AcDbLine
 10
19.08451426586401
 20
7.041241304280571
 30
0.0
 11
18.89371657859919
 21
7.041241304280571
 31
0.0
  0
LINE
  5
7AD3
330
65CB
100
AcDbEntity
  8
PART
100
AcDbLine
 10
18.74412549332567
 20
7.097972766370292
 30
0.0
 11
18.74412549332567
 21
6.984509842190853
 31
0.0
  0
CIRCLE
  5
7AD4
330
65CB
100
AcDbEntity
  8
PART
100
AcDbCircle
 10
18.74412549332567
 20
7.041241304280571
 30
0.0
 40
0.1134629241794446
  0
LINE
  5
7AD5
330
65CB
100
AcDbEntity
  8
PART
100
AcDbLine
 10
18.80085695541539
 20
7.041241304280571
 30
0.0
 11
18.68739403123595
 21
7.041241304280571
 31
0.0
  0
CIRCLE
  5
7ADA
330
65CB
100
AcDbEntity
  8
PART
100
AcDbCircle
 10
19.65182888676123
 20
7.041241304280571
 30
0.0
 40
0.1134629241794446
  0
LINE
  5
7ADB
330
65CB
100
AcDbEntity
  8
PART
100
AcDbLine
 10
19.49969315803287
 20
7.041241304280571
 30
0.0
 11
19.39486873494307
 21
7.041241304280571
 31
0.0
  0
LINE
  5
7ADC
330
65CB
100
AcDbEntity
  8
PART
100
AcDbLine
 10
19.70856034885096
 20
7.041241304280571
 30
0.0
 11
19.59509742467151
 21
7.041241304280571
 31
0.0
  0
HATCH
  5
7C96
330
65CB
100
AcDbEntity
  8
PART
100
AcDbHatch
 10
0.0
 20
0.0
 30
0.0
210
0.0
220
0.0
230
1.0
  2
SOLID
 70
     1
 71
     0
 91
        1
 92
        1
 93
        1
 72
     2
 10
19.19797719004344
 20
7.041241304280571
 40
0.1134629241794446
 50
0.0
 51
360.0
 73
     1
 97
        0
 75
     0
 76
     1
 98
        1
 10
-1.830367599907112
 20
1.945466521762577
  0
LINE
  5
7CF1
330
65CB
100
AcDbEntity
  8
TXT
100
AcDbLine
 10
27.58538285694585
 20
4.893695582341804
 30
0.0
 11
27.58538285694585
 21
3.359523692486349
 31
0.0
  0
LINE
  5
7CF2
330
65CB
100
AcDbEntity
  8
TXT
100
AcDbLine
 10
27.58538285694585
 20
3.359523692486349
 30
0.0
 11
27.7106312228184
 21
3.359523692486349
 31
0.0
  0
LINE
  5
7CF3
330
65CB
100
AcDbEntity
  8
TXT
100
AcDbLine
 10
27.7106312228184
 20
3.359523692486349
 30
0.0
 11
27.7106312228184
 21
4.893695582341804
 31
0.0
  0
LINE
  5
7CF4
330
65CB
100
AcDbEntity
  8
TXT
100
AcDbLine
 10
27.7106312228184
 20
4.893695582341802
 30
0.0
 11
27.58538285694584
 21
4.893695582341804
 31
0.0
  0
LINE
  5
7CF5
330
65CB
100
AcDbEntity
  8
PART
100
AcDbLine
 10
27.7106312228184
 20
4.417549928415695
 30
0.0
 11
29.44184949642425
 21
4.417549928415695
 31
0.0
  0
LINE
  5
7CF6
330
65CB
100
AcDbEntity
  8
PART
100
AcDbLine
 10
27.7106312228184
 20
4.575188678415694
 30
0.0
 11
29.44193874642423
 21
4.575188678415694
 31
0.0
  0
LINE
  5
7CF7
330
65CB
100
AcDbEntity
  8
PART
100
AcDbLine
 10
27.7106312228184
 20
4.685615678415693
 30
0.0
 11
29.44184949642425
 21
4.685615678415693
 31
0.0
  0
LINE
  5
7CF8
330
65CB
100
AcDbEntity
  8
PART
100
AcDbLine
 10
27.7106312228184
 20
4.843254428415693
 30
0.0
 11
29.44193874642423
 21
4.843254428415693
 31
0.0
  0
LINE
  5
7CF9
330
65CB
100
AcDbEntity
  8
PART
100
AcDbLine
 10
27.7106312228184
 20
4.268827928415694
 30
0.0
 11
29.44193874642423
 21
4.268827928415693
 31
0.0
  0
LINE
  5
7CFA
330
65CB
100
AcDbEntity
  8
PART
100
AcDbLine
 10
27.7106312228184
 20
4.111189178415695
 30
0.0
 11
29.44184949642425
 21
4.111189178415695
 31
0.0
  0
LINE
  5
7CFB
330
65CB
100
AcDbEntity
  8
PART
100
AcDbLine
 10
27.7106312228184
 20
4.087290805148035
 30
0.0
 11
29.44193874642423
 21
4.086926678415693
 31
0.0
  0
LINE
  5
7CFC
330
65CB
100
AcDbEntity
  8
PART
100
AcDbLine
 10
27.7106312228184
 20
3.929651286296123
 30
0.0
 11
29.44184949642425
 21
3.929287178415694
 31
0.0
  0
LINE
  5
7CFD
330
65CB
100
AcDbEntity
  8
PART
100
AcDbLine
 10
27.7106312228184
 20
3.819225055148037
 30
0.0
 11
29.44193874642423
 21
3.818860928415694
 31
0.0
  0
LINE
  5
7CFE
330
65CB
100
AcDbEntity
  8
PART
100
AcDbLine
 10
27.7106312228184
 20
3.661585672144008
 30
0.0
 11
29.13637899642425
 21
3.661285928415694
 31
0.0
  0
LINE
  5
7CFF
330
65CB
100
AcDbEntity
  8
PART
100
AcDbLine
 10
27.7106312228184
 20
3.594773437444975
 30
0.0
 11
28.90804899642425
 21
3.654247928415693
 31
0.0
  0
LINE
  5
7D00
330
65CB
100
AcDbEntity
  8
PART
100
AcDbLine
 10
27.58538285694585
 20
3.578619228211895
 30
0.0
 11
26.06273124642425
 21
3.654247928415693
 31
0.0
  0
LINE
  5
7D01
330
65CB
100
AcDbEntity
  8
PART
100
AcDbLine
 10
27.58538285694585
 20
3.420982367039274
 30
0.0
 11
26.06848074642423
 21
3.496323428415694
 31
0.0
  0
TEXT
  5
7D40
330
65CB
100
AcDbEntity
  8
FORMAT
100
AcDbText
 10
25.46232045867116
 20
1.170011557635387
 30
0.0
 40
0.065664
  1
All information contained herein
  7
ARIAL
100
AcDbText
  0
TEXT
  5
7D41
330
65CB
100
AcDbEntity
  8
FORMAT
100
AcDbText
 10
25.46245483247744
 20
0.5111319941974523
 30
0.0
 40
0.065664
  1
reproduced, or used as the basis
  7
ARIAL
100
AcDbText
  0
TEXT
  5
7D42
330
65CB
100
AcDbEntity
  8
FORMAT
100
AcDbText
 10
25.4675610371159
 20
0.4005722124784974
 30
0.0
 40
0.065664
  1
for manufacture or sale without
  7
ARIAL
100
AcDbText
  0
TEXT
  5
7D43
330
65CB
100
AcDbEntity
  8
FORMAT
100
AcDbText
 10
25.4662620903219
 20
0.6205719941974586
 30
0.0
 40
0.065664
  1
This drawing may not be copied,
  7
ARIAL
100
AcDbText
  0
TEXT
  5
7D44
330
65CB
100
AcDbEntity
  8
FORMAT
100
AcDbText
 10
25.46236524993992
 20
0.7300119941974579
 30
0.0
 40
0.065664
  1
has been previously established.
  7
ARIAL
100
AcDbText
  0
TEXT
  5
7D45
330
65CB
100
AcDbEntity
  8
FORMAT
100
AcDbText
 10
25.46679958554701
 20
0.839451994197457
 30
0.0
 40
0.065664
  1
to the extent the information
  7
ARIAL
100
AcDbText
  0
TEXT
  5
7D46
330
65CB
100
AcDbEntity
  8
FORMAT
100
AcDbText
 10
25.46679958554701
 20
1.06057155763538
 30
0.0
 40
0.065664
  1
that is not generally known 
  7
ARIAL
100
AcDbText
  0
TEXT
  5
7D47
330
65CB
100
AcDbEntity
  8
FORMAT
100
AcDbText
 10
25.46236524993992
 20
1.280571339354347
 30
0.0
 40
0.065664
  1
property of AMX Corporation.
  7
ARIAL
100
AcDbText
  0
TEXT
  5
7D48
330
65CB
100
AcDbEntity
  8
FORMAT
100
AcDbText
 10
25.46142463329598
 20
1.391131121073311
 30
0.0
 40
0.065664
  1
NOTICE:   This drawing is the 
  7
ARIAL
100
AcDbText
  0
TEXT
  5
7D49
330
65CB
100
AcDbEntity
  8
FORMAT
100
AcDbText
 10
25.46559022129053
 20
0.9500117759164259
 30
0.0
 40
0.065664
  1
shall be confidential except
  7
ARIAL
100
AcDbText
  0
LWPOLYLINE
  5
7D4A
330
65CB
100
AcDbEntity
  8
FORMAT
100
AcDbPolyline
 90
        2
 70
     0
 43
0.0096
 10
25.36749462954996
 20
0.2156282599397308
 10
25.36749462954996
 20
1.522298977700553
  0
TEXT
  5
7D4B
330
65CB
100
AcDbEntity
  8
FORMAT
100
AcDbText
 10
25.46814332360977
 20
0.291132212478491
 30
0.0
 40
0.065664
  1
written permission.
  7
ARIAL
100
AcDbText
  0
TEXT
  5
7D56
330
65CB
100
AcDbEntity
  8
FORMAT
100
AcDbText
 10
26.90541631847696
 20
1.232759661537893
 30
0.0
 40
0.04704
  1
TOLERANCE ON DECIMAL DIMENSIONS:    XX = .010
  7
ARIAL
100
AcDbText
  0
LWPOLYLINE
  5
7D57
330
65CB
100
AcDbEntity
  8
FORMAT
100
AcDbPolyline
 90
        2
 70
     0
 43
0.0096
 10
26.84965854523253
 20
0.2156282599397308
 10
26.84965854523253
 20
1.522298977700553
  0
TEXT
  5
7D5A
330
65CB
100
AcDbEntity
  8
FORMAT
100
AcDbText
 10
26.90358576813036
 20
0.5697968483666891
 30
0.0
 40
0.04704
  1
SURFACE FLATNESS .003 TIR PER LINEAR INCH.
  7
ARIAL
100
AcDbText
  0
TEXT
  5
7D5B
330
65CB
100
AcDbEntity
  8
FORMAT
100
AcDbText
 10
26.90411193163187
 20
0.7266293692341998
 30
0.0
 40
0.04704
  1
FRACTIONAL DIMENSIONS INCLUDING HOLES:  +/-  1/64
  7
ARIAL
100
AcDbText
  0
TEXT
  5
7D5C
330
65CB
100
AcDbEntity
  8
FORMAT
100
AcDbText
 10
26.90099062997569
 20
0.2999186501167124
 30
0.0
 40
0.082176
  1
DO NOT SCALE THIS DRAWING.
  7
ARIAL
100
AcDbText
  0
TEXT
  5
7D5D
330
65CB
100
AcDbEntity
  8
FORMAT
100
AcDbText
 10
26.90541631847696
 20
1.057773526942707
 30
0.0
 40
0.04704
  1
TOLERANCE ON HOLE DIAMETERS:
  7
ARIAL
100
AcDbText
  0
TEXT
  5
7D5E
330
65CB
100
AcDbEntity
  8
FORMAT
100
AcDbText
 10
27.66949988109801
 20
0.8148759087553152
 30
0.0
 40
0.04704
  1
OVER .500 
  7
ARIAL
100
AcDbText
  0
TEXT
  5
7D5F
330
65CB
100
AcDbEntity
  8
FORMAT
100
AcDbText
 10
27.66949988109801
 20
0.9001084481511192
 30
0.0
 40
0.04704
  1
.250 TO .500 
  7
ARIAL
100
AcDbText
  0
TEXT
  5
7D60
330
65CB
100
AcDbEntity
  8
FORMAT
100
AcDbText
 10
27.66949988109801
 20
0.9789409875469095
 30
0.0
 40
0.047040000558
  1
UNDER .250 ú
  7
ARIAL
100
AcDbText
  0
TEXT
  5
7D61
330
65CB
100
AcDbEntity
  8
FORMAT
100
AcDbText
 10
26.91033222482328
 20
0.4901317510468
 30
0.0
 40
0.04704
  1
ALL DIMENSIONS IN INCHES. 
  7
ARIAL
100
AcDbText
  0
TEXT
  5
7D62
330
65CB
100
AcDbEntity
  8
FORMAT
100
AcDbText
 10
26.90931384345386
 20
0.6477968298383951
 30
0.0
 40
0.047040000558
  1
ANGLES:  +/- 1.0%%d
  7
ARIAL
100
AcDbText
  0
TEXT
  5
7D63
330
65CB
100
AcDbEntity
  8
FORMAT
100
AcDbText
 10
28.1131465153639
 20
0.8148759087553152
 30
0.0
 40
0.04704
  1
=  +.008  -.005
  7
ARIAL
100
AcDbText
  0
TEXT
  5
7D64
330
65CB
100
AcDbEntity
  8
FORMAT
100
AcDbText
 10
28.1131465153639
 20
0.9001084481511192
 30
0.0
 40
0.04704
  1
=  +.006  -.005
  7
ARIAL
100
AcDbText
  0
TEXT
  5
7D65
330
65CB
100
AcDbEntity
  8
FORMAT
100
AcDbText
 10
28.21665872553331
 20
1.153927122142103
 30
0.0
 40
0.04704
  1
XXX = .005
  7
ARIAL
100
AcDbText
  0
TEXT
  5
7D66
330
65CB
100
AcDbEntity
  8
FORMAT
100
AcDbText
 10
28.1131465153639
 20
0.9789409875469095
 30
0.0
 40
0.04704
  1
=  +/- .005
  7
ARIAL
100
AcDbText
  0
LWPOLYLINE
  5
7D6A
330
65CB
100
AcDbEntity
  8
FORMAT
100
AcDbPolyline
 90
        2
 70
     0
 43
0.0064
 10
26.91044080962269
 20
1.3449358230223
 10
28.63500210859429
 20
1.3449358230223
  0
TEXT
  5
7D6B
330
65CB
100
AcDbEntity
  8
FORMAT
100
AcDbText
 10
26.91020482946948
 20
1.378088162154202
 30
0.0
 40
0.0768
  1
UNLESS OTHERWISE SPECIFIED:
  7
ARIAL
100
AcDbText
  0
TEXT
  5
7F00
330
65CB
100
AcDbEntity
  8
TXT
100
AcDbText
 10
19.07570403988457
 20
7.936642144754829
 30
0.0
 40
0.12
  1

  7
ROMANS
100
AcDbText
  0
TEXT
  5
7F02
330
65CB
100
AcDbEntity
  8
TXT
100
AcDbText
 10
19.31541726746432
 20
6.697080791280122
 30
0.0
 40
0.12
  1

  7
ROMANS
100
AcDbText
  0
DIMENSION
  5
8138
330
65CB
100
AcDbEntity
  8
DIM
100
AcDbDimension
  2
*D3
 10
31.14687516054123
 20
6.587891818716507
 30
0.0
 11
31.14687516054123
 21
7.766904416663678
 31
0.0
 70
    32
  3
STANDARD
100
AcDbAlignedDimension
 13
30.08309842308634
 23
8.945917014610841
 33
0.0
 14
30.08309842308634
 24
6.587891818716507
 34
0.0
 50
90.0
100
AcDbRotatedDimension
1001
ACAD
1000
DSTYLE
1002
{
1070
     4
1000
MM
1070
    78
1070
     4
1070
   140
1040
0.12
1070
   170
1070
     1
1070
   171
1070
     0
1070
   271
1070
     2
1070
   272
1070
     2
1070
   274
1070
     0
1070
   285
1070
     4
1002
}
  0
DIMENSION
  5
8146
330
65CB
100
AcDbEntity
  8
DIM
100
AcDbDimension
  2
*D4
 10
25.40398456628002
 20
5.980788005490007
 30
0.0
 11
27.77354147227093
 21
5.980788005490007
 31
0.0
 70
    32
  3
STANDARD
100
AcDbAlignedDimension
 13
30.14309837826183
 23
6.647891773892011
 33
0.0
 14
25.40398456628002
 24
6.647891773892013
 34
0.0
100
AcDbRotatedDimension
1001
ACAD
1000
DSTYLE
1002
{
1070
     4
1000
MM
1070
    78
1070
     4
1070
   140
1040
0.12
1070
   170
1070
     1
1070
   171
1070
     0
1070
   271
1070
     2
1070
   272
1070
     2
1070
   274
1070
     0
1070
   285
1070
     4
1002
}
  0
LINE
  5
827A
330
65CB
100
AcDbEntity
  8
DIM
100
AcDbLine
 10
25.40398456628002
 20
6.585391773892013
 30
0.0
 11
25.40398456628002
 21
5.803796107631927
 31
0.0
  0
LINE
  5
827B
330
65CB
100
AcDbEntity
  8
DIM
100
AcDbLine
 10
20.97560139285139
 20
7.630663796028282
 30
0.0
 11
20.97560139285139
 21
5.831821303526226
 31
0.0
  0
LINE
  5
827D
330
65CB
100
AcDbEntity
  8
DIM
100
AcDbLine
 10
20.78860039124653
 20
6.011821303526224
 30
0.0
 11
20.60860039124653
 21
6.011821303526224
 31
0.0
  0
SOLID
  5
827F
330
65CB
100
AcDbEntity
  8
DIM
100
AcDbTrace
 10
20.79560139285137
 20
6.041821303526226
 30
0.0
 11
20.79560139285137
 21
5.981821303526224
 31
0.0
 12
20.97560139285139
 22
6.011821303526224
 32
0.0
 13
20.97560139285139
 23
6.011821303526224
 33
0.0
  0
MTEXT
  5
8280
330
65CB
100
AcDbEntity
  8
DIM
100
AcDbMText
 10
23.2508672236787
 20
5.992177926971794
 30
0.0
 40
0.12
 41
0.0
 71
     5
 72
     1
  1
60.00 [1524MM] APPROX LENGTH
1001
ACAD
1000
MTEXTBEGIN
1070
    73
1070
     1
1070
    44
1040
1.0
1070
    74
1070
     0
1000
MTEXTEND
1000
MTEXTBEGIN
1070
    73
1070
     1
1070
    44
1040
1.0
1070
    74
1070
     0
1000
MTEXTEND
1000
MTEXTBEGIN
1070
    73
1070
     1
1070
    44
1040
1.0
1070
    74
1070
     0
1000
MTEXTEND
1000
MTEXTBEGIN
1070
    73
1070
     1
1070
    44
1040
1.0
1070
    74
1070
     0
1000
MTEXTEND
1000
MTEXTBEGIN
1070
    73
1070
     1
1070
    44
1040
1.0
1070
    74
1070
     0
1000
MTEXTEND
1000
MTEXTBEGIN
1070
    73
1070
     1
1070
    44
1040
1.0
1070
    74
1070
     0
1000
MTEXTEND
1000
MTEXTBEGIN
1070
    73
1070
     1
1070
    44
1040
1.0
1070
    74
1070
     0
1000
MTEXTEND
1000
MTEXTBEGIN
1070
    73
1070
     1
1070
    44
1040
1.0
1070
    74
1070
     0
1000
MTEXTEND
1000
MTEXTBEGIN
1070
    73
1070
     1
1070
    44
1040
1.0
1070
    74
1070
     0
1000
MTEXTEND
1000
MTEXTBEGIN
1070
    73
1070
     1
1070
    44
1040
1.0
1070
    74
1070
     0
1000
MTEXTEND
1000
MTEXTBEGIN
1070
    73
1070
     1
1070
    44
1040
1.0
1070
    74
1070
     0
1000
MTEXTEND
1000
MTEXTBEGIN
1070
    73
1070
     1
1070
    44
1040
1.0
1070
    74
1070
     0
1000
MTEXTEND
1000
MTEXTBEGIN
1070
    73
1070
     1
1070
    44
1040
1.0
1070
    74
1070
     0
1000
MTEXTEND
1000
MTEXTBEGIN
1070
    73
1070
     1
1070
    44
1040
1.0
1070
    74
1070
     0
1000
MTEXTEND
1000
MTEXTBEGIN
1070
    73
1070
     1
1070
    44
1040
1.0
1070
    74
1070
     0
1000
MTEXTEND
1000
MTEXTBEGIN
1070
    73
1070
     1
1070
    44
1040
1.0
1070
    74
1070
     0
1000
MTEXTEND
  0
LINE
  5
82E7
330
65CB
100
AcDbEntity
  8
PART
100
AcDbLine
 10
32.07465968604349
 20
8.945917014610824
 30
0.0
 11
33.45465968604348
 21
8.945917014610824
 31
0.0
  0
LINE
  5
82E8
330
65CB
100
AcDbEntity
  8
PART
100
AcDbLine
 10
33.51465968604347
 20
8.885917014610821
 30
0.0
 11
33.51465968604347
 21
6.647891818716525
 31
0.0
  0
LINE
  5
82E9
330
65CB
100
AcDbEntity
  8
PART
100
AcDbLine
 10
32.07465968604349
 20
6.587891818716524
 30
0.0
 11
33.45465968604348
 21
6.587891818716524
 31
0.0
  0
LINE
  5
82EA
330
65CB
100
AcDbEntity
  8
PART
100
AcDbLine
 10
32.01465968604348
 20
8.885917014610821
 30
0.0
 11
32.01465968604348
 21
6.647891818716525
 31
0.0
  0
ARC
  5
82EB
330
65CB
100
AcDbEntity
  8
PART
100
AcDbCircle
 10
32.07465968604349
 20
6.647891818716525
 30
0.0
 40
0.06
100
AcDbArc
 50
180.0
 51
270.0
  0
ARC
  5
82EC
330
65CB
100
AcDbEntity
  8
PART
100
AcDbCircle
 10
33.45465968604348
 20
6.647891818716525
 30
0.0
 40
0.06
100
AcDbArc
 50
270.0
 51
0.0000000000001654
  0
ARC
  5
82ED
330
65CB
100
AcDbEntity
  8
PART
100
AcDbCircle
 10
33.45465968604348
 20
8.885917014610821
 30
0.0
 40
0.06
100
AcDbArc
 50
0.0
 51
90.0
  0
ARC
  5
82EE
330
65CB
100
AcDbEntity
  8
PART
100
AcDbCircle
 10
32.07465968604349
 20
8.885917014610821
 30
0.0
 40
0.06
100
AcDbArc
 50
90.0
 51
180.0
  0
LINE
  5
82EF
330
65CB
100
AcDbEntity
  8
PART
100
AcDbLine
 10
32.31831197439687
 20
8.430917014610821
 30
0.0
 11
33.21100739769009
 21
8.430917014610821
 31
0.0
  0
LINE
  5
82F0
330
65CB
100
AcDbEntity
  8
PART
100
AcDbLine
 10
32.31831197439687
 20
7.130917014610822
 30
0.0
 11
33.21100739769009
 21
7.130917014610824
 31
0.0
  0
LINE
  5
82F1
330
65CB
100
AcDbEntity
  8
PART
100
AcDbLine
 10
32.74419231177278
 20
8.945917014610824
 30
0.0
 11
32.74419231177278
 21
8.430917014610821
 31
0.0
  0
LINE
  5
82F2
330
65CB
100
AcDbEntity
  8
PART
100
AcDbLine
 10
32.31831197439687
 20
8.430917014610821
 30
0.0
 11
32.31831197439687
 21
7.130917014610822
 31
0.0
  0
LINE
  5
82F3
330
65CB
100
AcDbEntity
  8
PART
100
AcDbLine
 10
33.21100739769009
 20
8.430917014610821
 30
0.0
 11
33.21100739769009
 21
7.130917014610824
 31
0.0
  0
LINE
  5
82F4
330
65CB
100
AcDbEntity
  8
PART
100
AcDbLine
 10
32.70296022805558
 20
7.326912048003261
 30
0.0
 11
33.04255198527307
 21
7.326912048003261
 31
0.0
  0
LINE
  5
82F6
330
65CB
100
AcDbEntity
  8
PART
100
AcDbLine
 10
33.04255198527307
 20
8.234921981218382
 30
0.0
 11
33.04255198527307
 21
7.326912048003261
 31
0.0
  0
LINE
  5
82F7
330
65CB
100
AcDbEntity
  8
PART
100
AcDbLine
 10
32.70296022805558
 20
8.234921981218382
 30
0.0
 11
33.04255198527307
 21
8.234921981218382
 31
0.0
  0
LINE
  5
82F8
330
65CB
100
AcDbEntity
  8
PART
100
AcDbLine
 10
32.48676738681389
 20
8.018729139976686
 30
0.0
 11
32.48676738681389
 21
7.543104889244957
 31
0.0
  0
LINE
  5
82F9
330
65CB
100
AcDbEntity
  8
PART
100
AcDbLine
 10
32.48676738681389
 20
7.543104889244957
 30
0.0
 11
32.70296022805558
 21
7.326912048003261
 31
0.0
  0
LINE
  5
82FA
330
65CB
100
AcDbEntity
  8
PART
100
AcDbLine
 10
32.48676738681389
 20
8.018729139976686
 30
0.0
 11
32.70296022805558
 21
8.234921981218382
 31
0.0
  0
LWPOLYLINE
  5
82FC
330
65CB
100
AcDbEntity
  8
PART
100
AcDbPolyline
 90
        4
 70
     1
 43
0.0
 10
32.81526094020817
 20
8.105847013519932
 10
32.93030828270406
 20
8.105847013519932
 10
32.93030828270406
 20
8.035080758625191
 10
32.81526094020817
 20
8.035080758625191
  0
LWPOLYLINE
  5
82FE
330
65CB
100
AcDbEntity
  8
PART
100
AcDbPolyline
 90
        4
 70
     1
 43
0.0
 10
32.56746662122498
 20
7.816300142058194
 10
32.68251396372087
 20
7.816300142058194
 10
32.68251396372087
 20
7.745533887163451
 10
32.56746662122498
 20
7.745533887163451
  0
LWPOLYLINE
  5
82FF
330
65CB
100
AcDbEntity
  8
PART
100
AcDbPolyline
 90
        4
 70
     1
 43
0.0
 10
32.81526094020817
 20
7.455987015701711
 10
32.93030828270406
 20
7.455987015701711
 10
32.93030828270406
 20
7.526753270596455
 10
32.81526094020817
 20
7.526753270596455
  0
LINE
  5
8304
330
65CB
100
AcDbEntity
  8
PART
100
AcDbLine
 10
32.38831197439687
 20
7.200917014610825
 30
0.0
 11
33.1410073976901
 21
7.200917014610825
 31
0.0
  0
LINE
  5
8306
330
65CB
100
AcDbEntity
  8
PART
100
AcDbLine
 10
33.1410073976901
 20
8.360917014610821
 30
0.0
 11
33.1410073976901
 21
7.200917014610825
 31
0.0
  0
LINE
  5
8307
330
65CB
100
AcDbEntity
  8
PART
100
AcDbLine
 10
32.38831197439687
 20
8.360917014610825
 30
0.0
 11
33.1410073976901
 21
8.360917014610821
 31
0.0
  0
LINE
  5
8308
330
65CB
100
AcDbEntity
  8
PART
100
AcDbLine
 10
32.38831197439687
 20
8.360917014610825
 30
0.0
 11
32.38831197439687
 21
7.200917014610825
 31
0.0
  0
LINE
  5
8309
330
65CB
100
AcDbEntity
  8
PART
100
AcDbLine
 10
32.78171581114468
 20
8.945917014610824
 30
0.0
 11
32.78171581114468
 21
8.430917014610821
 31
0.0
  0
LINE
  5
830A
330
65CB
100
AcDbEntity
  8
PART
100
AcDbLine
 10
32.78171581114468
 20
7.130917014610824
 30
0.0
 11
32.78171581114468
 21
6.587891818716524
 31
0.0
  0
LINE
  5
830B
330
65CB
100
AcDbEntity
  8
PART
100
AcDbLine
 10
32.74419231177278
 20
7.130917014610824
 30
0.0
 11
32.74419231177278
 21
6.587891818716524
 31
0.0
  0
DIMENSION
  5
830C
330
65CB
100
AcDbEntity
  8
DIM
100
AcDbDimension
  2
*D5
 10
33.51465968604347
 20
5.941984748241085
 30
0.0
 11
32.76465968604348
 21
5.941984748241085
 31
0.0
 70
    32
  3
STANDARD
100
AcDbAlignedDimension
 13
32.01465968604348
 23
6.647891818716525
 33
0.0
 14
33.51465968604347
 24
6.647891818716525
 34
0.0
100
AcDbRotatedDimension
1001
ACAD
1000
DSTYLE
1002
{
1070
     4
1000
MM
1070
    78
1070
     4
1070
   140
1040
0.12
1070
   170
1070
     1
1070
   171
1070
     0
1070
   271
1070
     2
1070
   272
1070
     2
1070
   274
1070
     0
1070
   285
1070
     4
1002
}
  0
LINE
  5
859F
330
65CB
100
AcDbEntity
  8
0
100
AcDbLine
 10
21.49169680577278
 20
7.888031848397825
 30
0.0
 11
21.49169680577278
 21
7.674031848397825
 31
0.0
  0
LWPOLYLINE
  5
8644
330
65CB
100
AcDbEntity
  8
PART
100
AcDbPolyline
 90
        4
 70
     1
 43
0.0
 10
22.87395771384133
 20
8.099130547575303
 10
24.03303243998748
 20
8.099130547575303
 10
24.03303243998748
 20
7.476326758827292
 10
22.87395771384133
 20
7.476326758827292
  0
LWPOLYLINE
  5
8645
330
65CB
100
AcDbEntity
  8
PART
100
AcDbPolyline
 90
        4
 70
     0
 43
0.0
 10
22.87395771384133
 20
7.603566243660067
 10
22.82035891468046
 20
7.603566243660067
 10
22.82035891468046
 20
7.958497453135588
 10
22.87395771384133
 20
7.958497453135588
  0
LWPOLYLINE
  5
8646
330
65CB
100
AcDbEntity
  8
PART
100
AcDbPolyline
 90
        4
 70
     0
 43
0.0
 10
24.03303243998748
 20
7.958497453135588
 10
24.08663127939719
 20
7.958497453135588
 10
24.08663127939719
 20
7.603566243660067
 10
24.03303243998748
 20
7.603566243660067
  0
LINE
  5
8648
330
65CB
100
AcDbEntity
  8
PART
100
AcDbLine
 10
22.82035891468046
 20
7.740917014610817
 30
0.0
 11
22.57497402036455
 21
7.740917014610817
 31
0.0
  0
LINE
  5
8649
330
65CB
100
AcDbEntity
  8
PART
100
AcDbLine
 10
22.82035891468046
 20
7.820917014610818
 30
0.0
 11
22.5945002649789
 21
7.820917014610818
 31
0.0
  0
LINE
  5
8695
330
65CB
100
AcDbEntity
  8
PART
100
AcDbLine
 10
24.52385911986157
 20
7.780400417387901
 30
0.0
 11
24.56916000736685
 21
7.784307123723692
 31
0.0
  0
LINE
  5
8696
330
65CB
100
AcDbEntity
  8
PART
100
AcDbLine
 10
24.56916000736685
 20
7.784307123723692
 30
0.0
 11
24.53479381684561
 21
7.740917014610817
 31
0.0
  0
LINE
  5
8697
330
65CB
100
AcDbEntity
  8
PART
100
AcDbLine
 10
24.55432006145995
 20
7.820917014610818
 30
0.0
 11
24.52385911986157
 21
7.780400417387901
 31
0.0
  0
LINE
  5
8698
330
65CB
100
AcDbEntity
  8
PART
100
AcDbLine
 10
24.43979657664545
 20
7.784307123723692
 30
0.0
 11
24.4054303861242
 21
7.740917014610817
 31
0.0
  0
LINE
  5
8699
330
65CB
100
AcDbEntity
  8
PART
100
AcDbLine
 10
24.39449568914018
 20
7.780400417387901
 30
0.0
 11
24.43979657664545
 21
7.784307123723692
 31
0.0
  0
LINE
  5
869A
330
65CB
100
AcDbEntity
  8
PART
100
AcDbLine
 10
24.42495663073855
 20
7.820917014610818
 30
0.0
 11
24.39449568914018
 21
7.780400417387901
 31
0.0
  0
LINE
  5
869B
330
65CB
100
AcDbEntity
  8
PART
100
AcDbLine
 10
24.4054303861242
 20
7.740917014610817
 30
0.0
 11
24.08663127939719
 21
7.740917014610817
 31
0.0
  0
LINE
  5
869C
330
65CB
100
AcDbEntity
  8
PART
100
AcDbLine
 10
24.42495663073854
 20
7.820917014610818
 30
0.0
 11
24.08663127939719
 21
7.820917014610818
 31
0.0
  0
INSERT
  5
876A
330
65CB
100
AcDbEntity
  8
FORMAT
100
AcDbBlockReference
 66
     1
  2
APPR-BLOCK
 10
30.79266230310835
 20
1.421070265677644
 30
0.0
 41
0.4777693498332951
 42
0.4777693498332951
 43
0.477769349833295
  0
ATTRIB
  5
876B
330
876A
100
AcDbEntity
  8
TB-TXT
100
AcDbText
 10
30.84191650092137
 20
1.308704478038563
 30
0.0
 40
0.0573323219799954
  1
DAS
  7
ARIAL
100
AcDbAttribute
  2
REL-DR
 70
     0
  0
ATTRIB
  5
876C
330
876A
100
AcDbEntity
  8
TB-TXT
100
AcDbText
 10
31.24604057209394
 20
1.308704478038563
 30
0.0
 40
0.0573323219799954
  1
10/16/03
  7
ARIAL
100
AcDbAttribute
  2
DATE-DR
 70
     0
  0
ATTRIB
  5
876D
330
876A
100
AcDbEntity
  8
TB-TXT
100
AcDbText
 10
30.84191650092137
 20
1.156922719038235
 30
0.0
 40
0.0573323219799954
  1
DB
  7
ARIAL
100
AcDbAttribute
  2
REL-ES
 70
     0
  0
ATTRIB
  5
876E
330
876A
100
AcDbEntity
  8
TB-TXT
100
AcDbText
 10
31.24604057209394
 20
1.156922719038235
 30
0.0
 40
0.0573323219799954
  1
10/21/03
  7
ARIAL
100
AcDbAttribute
  2
DATE-ES
 70
     0
  0
ATTRIB
  5
876F
330
876A
100
AcDbEntity
  8
TB-TXT
100
AcDbText
 10
30.84191650092137
 20
1.005140960037903
 30
0.0
 40
0.0573323219799954
  1
RDR
  7
ARIAL
100
AcDbAttribute
  2
REL-ENGR
 70
     0
  0
ATTRIB
  5
8770
330
876A
100
AcDbEntity
  8
TB-TXT
100
AcDbText
 10
31.24604057209394
 20
1.005140960037903
 30
0.0
 40
0.0573323219799954
  1
10/21/03
  7
ARIAL
100
AcDbAttribute
  2
DATE-ENGR
 70
     0
  0
ATTRIB
  5
8771
330
876A
100
AcDbEntity
  8
TB-TXT
100
AcDbText
 10
30.84191650092137
 20
0.8533592010375823
 30
0.0
 40
0.0573323219799954
  1
KZ
  7
ARIAL
100
AcDbAttribute
  2
REL-PROD
 70
     0
  0
ATTRIB
  5
8772
330
876A
100
AcDbEntity
  8
TB-TXT
100
AcDbText
 10
31.24604057209394
 20
0.8533592010375823
 30
0.0
 40
0.0573323219799954
  1
10/21/03
  7
ARIAL
100
AcDbAttribute
  2
DATE-PROD
 70
     0
  0
ATTRIB
  5
8773
330
876A
100
AcDbEntity
  8
TB-TXT
100
AcDbText
 10
30.84191650092137
 20
0.7015774420372596
 30
0.0
 40
0.0573323219799954
  1
MD
  7
ARIAL
100
AcDbAttribute
  2
REL-MATL
 70
     0
  0
ATTRIB
  5
8774
330
876A
100
AcDbEntity
  8
TB-TXT
100
AcDbText
 10
31.24604057209394
 20
0.7015774420372596
 30
0.0
 40
0.0573323219799954
  1
10/21/03
  7
ARIAL
100
AcDbAttribute
  2
DATE-MATL
 70
     0
  0
ATTRIB
  5
8775
330
876A
100
AcDbEntity
  8
TB-TXT
100
AcDbText
 10
30.84191650092137
 20
0.5497956830369298
 30
0.0
 40
0.0573323219799954
  1
AK
  7
ARIAL
100
AcDbAttribute
  2
REL-QUAL
 70
     0
  0
ATTRIB
  5
8776
330
876A
100
AcDbEntity
  8
TB-TXT
100
AcDbText
 10
31.24604057209394
 20
0.5497956830369298
 30
0.0
 40
0.0573323219799954
  1
10/21/03
  7
ARIAL
100
AcDbAttribute
  2
DATE-QUAL
 70
     0
  0
SEQEND
  5
8777
330
876A
100
AcDbEntity
  8
FORMAT
  0
INSERT
  5
87A5
330
65CB
100
AcDbEntity
  8
TB-TXT
100
AcDbBlockReference
 66
     1
  2
REV-BLOCK
 10
34.71135905001544
 20
10.16884235761463
 30
0.0
 41
0.4848484848484845
 42
0.4848484848484845
 43
0.4848484848484845
  0
ATTRIB
  5
87A6
330
87A5
100
AcDbEntity
  8
TB-TXT
100
AcDbText
 10
31.10377966547381
 20
10.0298671258063
 30
0.0
 40
0.08
  1
B
  7
ARIAL
 72
     1
 11
31.14105115251338
 21
10.0698671258063
 31
0.0
100
AcDbAttribute
  2
REV
 70
     0
 74
     2
  0
ATTRIB
  5
87A7
330
87A5
100
AcDbEntity
  8
TB-TXT
100
AcDbText
 10
31.30714537911502
 20
10.03740444719146
 30
0.0
 40
0.08
  1
5566
  7
ARIAL
100
AcDbAttribute
  2
ECN
 70
     0
  0
ATTRIB
  5
87A8
330
87A5
100
AcDbEntity
  8
TB-TXT
100
AcDbText
 10
31.64400814703057
 20
10.03856956071657
 30
0.0
 40
0.08
  1
REMOVE NOTE
  7
ARIAL
100
AcDbAttribute
  2
DESCRIPTION
 70
     0
  0
ATTRIB
  5
87A9
330
87A5
100
AcDbEntity
  8
TB-TXT
100
AcDbText
 10
33.59773703396849
 20
10.0298671258063
 30
0.0
 40
0.08
  1
11/4/03
  7
ARIAL
 72
     1
 11
33.78417632455512
 21
10.0698671258063
 31
0.0
100
AcDbAttribute
  2
REV-DATE
 70
     0
 74
     2
  0
ATTRIB
  5
87AA
330
87A5
100
AcDbEntity
  8
TB-TXT
100
AcDbText
 10
34.37153743033167
 20
10.0298671258063
 30
0.0
 40
0.08
  1

  7
ARIAL
 72
     1
 11
34.37153743033167
 21
10.0698671258063
 31
0.0
100
AcDbAttribute
  2
APPR
 70
     0
 74
     2
  0
SEQEND
  5
87AB
330
87A5
100
AcDbEntity
  8
TB-TXT
  0
INSERT
  5
886A
330
65CB
100
AcDbEntity
  8
FORMAT
100
AcDbBlockReference
 66
     1
  2
APPR-BLOCK
 10
31.66913898930995
 20
1.411705079724426
 30
0.0
 41
0.4777693498332988
 42
0.4777693498332951
 43
0.477769349833295
  0
ATTRIB
  5
886B
330
886A
100
AcDbEntity
  8
TB-TXT
100
AcDbText
 10
31.71839318712295
 20
1.299339292085345
 30
0.0
 40
0.0573323219799954
  1

  7
ARIAL
100
AcDbAttribute
  2
REL-DR
 70
     0
  0
ATTRIB
  5
886C
330
886A
100
AcDbEntity
  8
TB-TXT
100
AcDbText
 10
32.12251725829553
 20
1.299339292085345
 30
0.0
 40
0.0573323219799954
  1

  7
ARIAL
100
AcDbAttribute
  2
DATE-DR
 70
     0
  0
ATTRIB
  5
886D
330
886A
100
AcDbEntity
  8
TB-TXT
100
AcDbText
 10
31.71839318712295
 20
1.147557533085016
 30
0.0
 40
0.0573323219799954
  1
DB
  7
ARIAL
100
AcDbAttribute
  2
REL-ES
 70
     0
  0
ATTRIB
  5
886E
330
886A
100
AcDbEntity
  8
TB-TXT
100
AcDbText
 10
32.12251725829553
 20
1.147557533085016
 30
0.0
 40
0.0573323219799954
  1

  7
ARIAL
100
AcDbAttribute
  2
DATE-ES
 70
     0
  0
ATTRIB
  5
886F
330
886A
100
AcDbEntity
  8
TB-TXT
100
AcDbText
 10
31.71839318712295
 20
0.9957757740846862
 30
0.0
 40
0.0573323219799954
  1
PL
  7
ARIAL
100
AcDbAttribute
  2
REL-ENGR
 70
     0
  0
ATTRIB
  5
8870
330
886A
100
AcDbEntity
  8
TB-TXT
100
AcDbText
 10
32.12251725829553
 20
0.9957757740846862
 30
0.0
 40
0.0573323219799954
  1

  7
ARIAL
100
AcDbAttribute
  2
DATE-ENGR
 70
     0
  0
ATTRIB
  5
8871
330
886A
100
AcDbEntity
  8
TB-TXT
100
AcDbText
 10
31.71839318712295
 20
0.8439940150843643
 30
0.0
 40
0.0573323219799954
  1
KZ
  7
ARIAL
100
AcDbAttribute
  2
REL-PROD
 70
     0
  0
ATTRIB
  5
8872
330
886A
100
AcDbEntity
  8
TB-TXT
100
AcDbText
 10
32.12251725829553
 20
0.8439940150843643
 30
0.0
 40
0.0573323219799954
  1

  7
ARIAL
100
AcDbAttribute
  2
DATE-PROD
 70
     0
  0
ATTRIB
  5
8873
330
886A
100
AcDbEntity
  8
TB-TXT
100
AcDbText
 10
31.71839318712295
 20
0.6922122560840416
 30
0.0
 40
0.0573323219799954
  1
KL
  7
ARIAL
100
AcDbAttribute
  2
REL-MATL
 70
     0
  0
ATTRIB
  5
8874
330
886A
100
AcDbEntity
  8
TB-TXT
100
AcDbText
 10
32.12251725829553
 20
0.6922122560840416
 30
0.0
 40
0.0573323219799954
  1

  7
ARIAL
100
AcDbAttribute
  2
DATE-MATL
 70
     0
  0
ATTRIB
  5
8875
330
886A
100
AcDbEntity
  8
TB-TXT
100
AcDbText
 10
31.71839318712295
 20
0.5404304970837118
 30
0.0
 40
0.0573323219799954
  1
AK
  7
ARIAL
100
AcDbAttribute
  2
REL-QUAL
 70
     0
  0
ATTRIB
  5
8876
330
886A
100
AcDbEntity
  8
TB-TXT
100
AcDbText
 10
32.12251725829553
 20
0.5404304970837118
 30
0.0
 40
0.0573323219799954
  1

  7
ARIAL
100
AcDbAttribute
  2
DATE-QUAL
 70
     0
  0
SEQEND
  5
8877
330
886A
100
AcDbEntity
  8
FORMAT
  0
ENDSEC
  0
SECTION
  2
OBJECTS
  0
DICTIONARY
  5
65B9
330
0
100
AcDbDictionary
  3
ACAD_GROUP
350
65BA
  3
ACAD_LAYOUT
350
65C6
  3
ACAD_MLINESTYLE
350
65C3
  3
ACAD_PLOTSETTINGS
350
65C5
  3
ACAD_PLOTSTYLENAME
350
65BB
  3
ACADDIM
350
7F62
  3
ACDBHEADERROUNDTRIPXREC
350
891E
  3
ACDBVARIABLEDICTIONARY
350
6664
  3
ASE_INDEX_DICTIONARY
350
7DD1
  0
DICTIONARY
  5
668E
330
65CB
100
AcDbDictionary
280
     1
  3
ACAD_LAYOUTSELFREF
360
893F
  0
DICTIONARY
  5
6690
330
65C7
100
AcDbDictionary
280
     1
  3
ACAD_LAYOUTSELFREF
360
893E
  0
DICTIONARY
  5
65BA
102
{ACAD_REACTORS
330
65B9
102
}
330
65B9
100
AcDbDictionary
  0
DICTIONARY
  5
65C6
102
{ACAD_REACTORS
330
65B9
102
}
330
65B9
100
AcDbDictionary
  0
DICTIONARY
  5
65C3
102
{ACAD_REACTORS
330
65B9
102
}
330
65B9
100
AcDbDictionary
  3
STANDARD
350
65C4
  0
DICTIONARY
  5
65C5
102
{ACAD_REACTORS
330
65B9
102
}
330
65B9
100
AcDbDictionary
  0
ACDBDICTIONARYWDFLT
  5
65BB
102
{ACAD_REACTORS
330
65B9
102
}
330
65B9
100
AcDbDictionary
281
     1
  3
Normal
350
65BC
100
AcDbDictionaryWithDefault
340
65BC
  0
XRECORD
  5
7F62
102
{ACAD_REACTORS
330
65B9
102
}
330
65B9
100
AcDbXrecord
 90
   990106
  3

 60
     0
 61
     0
 62
     1
 63
     3
 64
     0
 65
     0
 66
     0
 67
     3
 68
     1
 69
     0
 70
     0
 71
     0
 72
     0
 40
0.0
170
     0
340
0
  0
DICTIONARY
  5
891E
102
{ACAD_REACTORS
330
65B9
102
}
330
65B9
100
AcDbDictionary
  3
CEPSNTYPE
350
8928
  3
FINGERPRINTGUID
350
8929
  3
HYPERLINKBASE
350
8921
  3
INSUNITS
350
8927
  3
LAYOUTDICT
350
8923
  3
LWETCUNION
350
8926
  3
PLOTSETDICT
350
8924
  3
PLOTSTYLNAMDICT
350
8925
  3
PSVPSCALE
350
892B
  3
PUCSBASE
350
892E
  3
PUCSORGBACK
350
8934
  3
PUCSORGBOTTOM
350
8930
  3
PUCSORGFRONT
350
8933
  3
PUCSORGLEFT
350
8931
  3
PUCSORGRIGHT
350
8932
  3
PUCSORGTOP
350
892F
  3
PUCSORTHOREF
350
892C
  3
PUCSORTHOVIEW
350
892D
  3
STYLESHEET
350
8922
  3
TSTACKALIGN
350
891F
  3
TSTACKSIZE
350
8920
  3
UCSBASE
350
8937
  3
UCSORGBACK
350
893D
  3
UCSORGBOTTOM
350
8939
  3
UCSORGFRONT
350
893C
  3
UCSORGLEFT
350
893A
  3
UCSORGRIGHT
350
893B
  3
UCSORGTOP
350
8938
  3
UCSORTHOREF
350
8935
  3
UCSORTHOVIEW
350
8936
  3
VERSIONGUID
350
892A
  0
DICTIONARY
  5
6664
102
{ACAD_REACTORS
330
65B9
102
}
330
65B9
100
AcDbDictionary
  3
DIMASSOC
350
6666
  3
HIDETEXT
350
6665
  0
DICTIONARY
  5
7DD1
102
{ACAD_REACTORS
330
65B9
102
}
330
65B9
100
AcDbDictionary
  3
ASEBLOCKHIERARCHYINDEXRECORD
350
7DD3
1001
DCO15
1040
1452420229.0
  0
XRECORD
  5
893F
102
{ACAD_REACTORS
330
668E
102
}
330
668E
100
AcDbXrecord
340
65CB
  0
XRECORD
  5
893E
102
{ACAD_REACTORS
330
6690
102
}
330
6690
100
AcDbXrecord
340
65C7
  0
MLINESTYLE
  5
65C4
102
{ACAD_REACTORS
330
65C3
102
}
330
65C3
100
AcDbMlineStyle
  2
STANDARD
 70
     0
  3

 62
   256
 51
90.0
 52
90.0
 71
     2
 49
0.5
 62
   256
  6
BYLAYER
 49
-0.5
 62
   256
  6
BYLAYER
  0
ACDBPLACEHOLDER
  5
65BC
102
{ACAD_REACTORS
330
65BB
102
}
330
65BB
100
AcDbPlaceHolder
280
     0
  0
XRECORD
  5
8928
102
{ACAD_REACTORS
330
891E
102
}
330
891E
100
AcDbXrecord
 90
        0
  0
XRECORD
  5
8929
102
{ACAD_REACTORS
330
891E
102
}
330
891E
100
AcDbXrecord
  1
{A5F9ACC9-AE9B-4E86-99EA-F891D87D6B1E}
  0
XRECORD
  5
8921
102
{ACAD_REACTORS
330
891E
102
}
330
891E
100
AcDbXrecord
  1

  0
XRECORD
  5
8927
102
{ACAD_REACTORS
330
891E
102
}
330
891E
100
AcDbXrecord
 90
        0
  0
XRECORD
  5
8923
102
{ACAD_REACTORS
330
891E
102
}
330
891E
100
AcDbXrecord
340
65C6
  0
XRECORD
  5
8926
102
{ACAD_REACTORS
330
891E
102
}
330
891E
100
AcDbXrecord
 90
    10781
  0
XRECORD
  5
8924
102
{ACAD_REACTORS
330
891E
102
}
330
891E
100
AcDbXrecord
340
65C5
  0
XRECORD
  5
8925
102
{ACAD_REACTORS
330
891E
102
}
330
891E
100
AcDbXrecord
340
65BB
  0
XRECORD
  5
892B
102
{ACAD_REACTORS
330
891E
102
}
330
891E
100
AcDbXrecord
 40
0.0
  0
XRECORD
  5
892E
102
{ACAD_REACTORS
330
891E
102
}
330
891E
100
AcDbXrecord
340
0
  0
XRECORD
  5
8934
102
{ACAD_REACTORS
330
891E
102
}
330
891E
100
AcDbXrecord
 10
0.0
 20
0.0
 30
0.0
  0
XRECORD
  5
8930
102
{ACAD_REACTORS
330
891E
102
}
330
891E
100
AcDbXrecord
 10
0.0
 20
0.0
 30
0.0
  0
XRECORD
  5
8933
102
{ACAD_REACTORS
330
891E
102
}
330
891E
100
AcDbXrecord
 10
0.0
 20
0.0
 30
0.0
  0
XRECORD
  5
8931
102
{ACAD_REACTORS
330
891E
102
}
330
891E
100
AcDbXrecord
 10
0.0
 20
0.0
 30
0.0
  0
XRECORD
  5
8932
102
{ACAD_REACTORS
330
891E
102
}
330
891E
100
AcDbXrecord
 10
0.0
 20
0.0
 30
0.0
  0
XRECORD
  5
892F
102
{ACAD_REACTORS
330
891E
102
}
330
891E
100
AcDbXrecord
 10
0.0
 20
0.0
 30
0.0
  0
XRECORD
  5
892C
102
{ACAD_REACTORS
330
891E
102
}
330
891E
100
AcDbXrecord
340
0
  0
XRECORD
  5
892D
102
{ACAD_REACTORS
330
891E
102
}
330
891E
100
AcDbXrecord
 70
     0
  0
XRECORD
  5
8922
102
{ACAD_REACTORS
330
891E
102
}
330
891E
100
AcDbXrecord
  1
monochrome.ctb
  0
XRECORD
  5
891F
102
{ACAD_REACTORS
330
891E
102
}
330
891E
100
AcDbXrecord
 90
        1
  0
XRECORD
  5
8920
102
{ACAD_REACTORS
330
891E
102
}
330
891E
100
AcDbXrecord
 90
       70
  0
XRECORD
  5
8937
102
{ACAD_REACTORS
330
891E
102
}
330
891E
100
AcDbXrecord
340
0
  0
XRECORD
  5
893D
102
{ACAD_REACTORS
330
891E
102
}
330
891E
100
AcDbXrecord
 10
0.0
 20
0.0
 30
0.0
  0
XRECORD
  5
8939
102
{ACAD_REACTORS
330
891E
102
}
330
891E
100
AcDbXrecord
 10
0.0
 20
0.0
 30
0.0
  0
XRECORD
  5
893C
102
{ACAD_REACTORS
330
891E
102
}
330
891E
100
AcDbXrecord
 10
0.0
 20
0.0
 30
0.0
  0
XRECORD
  5
893A
102
{ACAD_REACTORS
330
891E
102
}
330
891E
100
AcDbXrecord
 10
0.0
 20
0.0
 30
0.0
  0
XRECORD
  5
893B
102
{ACAD_REACTORS
330
891E
102
}
330
891E
100
AcDbXrecord
 10
0.0
 20
0.0
 30
0.0
  0
XRECORD
  5
8938
102
{ACAD_REACTORS
330
891E
102
}
330
891E
100
AcDbXrecord
 10
0.0
 20
0.0
 30
0.0
  0
XRECORD
  5
8935
102
{ACAD_REACTORS
330
891E
102
}
330
891E
100
AcDbXrecord
340
0
  0
XRECORD
  5
8936
102
{ACAD_REACTORS
330
891E
102
}
330
891E
100
AcDbXrecord
 70
     0
  0
XRECORD
  5
892A
102
{ACAD_REACTORS
330
891E
102
}
330
891E
100
AcDbXrecord
  1
{A6AFB8AF-F2CC-4B44-9E38-4273ABD84FAE}
  0
DICTIONARYVAR
  5
6666
102
{ACAD_REACTORS
330
6664
102
}
330
6664
100
DictionaryVariables
280
     0
  1
0
  0
DICTIONARYVAR
  5
6665
102
{ACAD_REACTORS
330
6664
102
}
330
6664
100
DictionaryVariables
280
     0
  1
1
  0
XRECORD
  5
7DD3
102
{ACAD_REACTORS
330
7DD1
102
}
330
7DD1
100
AcDbXrecord
330
73CF
330
0
330
7437
330
0
330
0
  0
ENDSEC
  0
EOF
