  0
SECTION
  2
HEADER
  9
$ACADVER
  1
AC1014
  9
$ACADMAINTVER
 70
     9
  9
$DWGCODEPAGE
  3
ANSI_1252
  9
$INSBASE
 10
0.0
 20
0.0
 30
0.0
  9
$EXTMIN
 10
0.0
 20
0.0
 30
0.0
  9
$EXTMAX
 10
594.0
 20
420.0
 30
0.0
  9
$LIMMIN
 10
0.0
 20
0.0
  9
$LIMMAX
 10
594.0
 20
420.0
  9
$ORTHOMODE
 70
     0
  9
$REGENMODE
 70
     1
  9
$FILLMODE
 70
     1
  9
$QTEXTMODE
 70
     0
  9
$MIRRTEXT
 70
     1
  9
$DRAGMODE
 70
     2
  9
$LTSCALE
 40
2.0
  9
$OSMODE
 70
    37
  9
$ATTMODE
 70
     1
  9
$TEXTSIZE
 40
8.4666666667
  9
$TRACEWID
 40
1.0
  9
$TEXTSTYLE
  7
STANDARD
  9
$CLAYER
  8
0
  9
$CELTYPE
  6
BYLAYER
  9
$CECOLOR
 62
   256
  9
$CELTSCALE
 40
1.0
  9
$DELOBJ
 70
     1
  9
$DISPSILH
 70
     0
  9
$DIMSCALE
 40
1.0
  9
$DIMASZ
 40
6.0
  9
$DIMEXO
 40
2.0
  9
$DIMDLI
 40
3.75
  9
$DIMRND
 40
0.0
  9
$DIMDLE
 40
0.0
  9
$DIMEXE
 40
2.0
  9
$DIMTP
 40
0.0
  9
$DIMTM
 40
0.0
  9
$DIMTXT
 40
8.4666666667
  9
$DIMCEN
 40
2.5
  9
$DIMTSZ
 40
0.0
  9
$DIMTOL
 70
     0
  9
$DIMLIM
 70
     0
  9
$DIMTIH
 70
     1
  9
$DIMTOH
 70
     1
  9
$DIMSE1
 70
     0
  9
$DIMSE2
 70
     0
  9
$DIMTAD
 70
     1
  9
$DIMZIN
 70
     0
  9
$DIMBLK
  1

  9
$DIMASO
 70
     1
  9
$DIMSHO
 70
     1
  9
$DIMPOST
  1

  9
$DIMAPOST
  1

  9
$DIMALT
 70
     0
  9
$DIMALTD
 70
     3
  9
$DIMALTF
 40
0.0393700787
  9
$DIMLFAC
 40
1.0
  9
$DIMTOFL
 70
     1
  9
$DIMTVP
 40
0.0
  9
$DIMTIX
 70
     0
  9
$DIMSOXD
 70
     0
  9
$DIMSAH
 70
     0
  9
$DIMBLK1
  1

  9
$DIMBLK2
  1

  9
$DIMSTYLE
  2
ISO-25
  9
$DIMCLRD
 70
     0
  9
$DIMCLRE
 70
     0
  9
$DIMCLRT
 70
     0
  9
$DIMTFAC
 40
1.0
  9
$DIMGAP
 40
3.0
  9
$DIMJUST
 70
     0
  9
$DIMSD1
 70
     0
  9
$DIMSD2
 70
     0
  9
$DIMTOLJ
 70
     0
  9
$DIMTZIN
 70
     0
  9
$DIMALTZ
 70
     0
  9
$DIMALTTZ
 70
     0
  9
$DIMFIT
 70
     3
  9
$DIMUPT
 70
     0
  9
$DIMUNIT
 70
     2
  9
$DIMDEC
 70
     2
  9
$DIMTDEC
 70
     2
  9
$DIMALTU
 70
     2
  9
$DIMALTTD
 70
     3
  9
$DIMTXSTY
  7
STANDARD
  9
$DIMAUNIT
 70
     0
  9
$LUNITS
 70
     2
  9
$LUPREC
 70
     2
  9
$SKETCHINC
 40
1.0
  9
$FILLETRAD
 40
10.0
  9
$AUNITS
 70
     0
  9
$AUPREC
 70
     2
  9
$MENU
  1
.
  9
$ELEVATION
 40
0.0
  9
$PELEVATION
 40
0.0
  9
$THICKNESS
 40
0.0
  9
$LIMCHECK
 70
     0
  9
$CHAMFERA
 40
10.0
  9
$CHAMFERB
 40
10.0
  9
$CHAMFERC
 40
20.0
  9
$CHAMFERD
 40
0.0
  9
$SKPOLY
 70
     0
  9
$TDCREATE
 40
2456975.542981563
  9
$TDUPDATE
 40
2456975.542983727
  9
$TDINDWG
 40
0.0000000116
  9
$TDUSRTIMER
 40
0.0000000116
  9
$USRTIMER
 70
     1
  9
$ANGBASE
 50
0.0
  9
$ANGDIR
 70
     0
  9
$PDMODE
 70
     0
  9
$PDSIZE
 40
-1.0
  9
$PLINEWID
 40
0.0
  9
$COORDS
 70
     1
  9
$SPLFRAME
 70
     0
  9
$SPLINETYPE
 70
     6
  9
$SPLINESEGS
 70
     8
  9
$ATTDIA
 70
     0
  9
$ATTREQ
 70
     1
  9
$HANDLING
 70
     1
  9
$HANDSEED
  5
382
  9
$SURFTAB1
 70
     6
  9
$SURFTAB2
 70
     6
  9
$SURFTYPE
 70
     6
  9
$SURFU
 70
     6
  9
$SURFV
 70
     6
  9
$UCSNAME
  2

  9
$UCSORG
 10
0.0
 20
0.0
 30
0.0
  9
$UCSXDIR
 10
1.0
 20
0.0
 30
0.0
  9
$UCSYDIR
 10
0.0
 20
1.0
 30
0.0
  9
$PUCSNAME
  2

  9
$PUCSORG
 10
0.0
 20
0.0
 30
0.0
  9
$PUCSXDIR
 10
1.0
 20
0.0
 30
0.0
  9
$PUCSYDIR
 10
0.0
 20
1.0
 30
0.0
  9
$USERI1
 70
     0
  9
$USERI2
 70
     0
  9
$USERI3
 70
     0
  9
$USERI4
 70
     0
  9
$USERI5
 70
     0
  9
$USERR1
 40
0.0
  9
$USERR2
 40
0.0
  9
$USERR3
 40
0.0
  9
$USERR4
 40
0.0
  9
$USERR5
 40
0.0
  9
$WORLDVIEW
 70
     1
  9
$SHADEDGE
 70
     3
  9
$SHADEDIF
 70
    70
  9
$TILEMODE
 70
     1
  9
$MAXACTVP
 70
    64
  9
$PINSBASE
 10
0.0
 20
0.0
 30
0.0
  9
$PLIMCHECK
 70
     0
  9
$PEXTMIN
 10
1.0000000000E+20
 20
1.0000000000E+20
 30
1.0000000000E+20
  9
$PEXTMAX
 10
-1.0000000000E+20
 20
-1.0000000000E+20
 30
-1.0000000000E+20
  9
$PLIMMIN
 10
0.0
 20
0.0
  9
$PLIMMAX
 10
420.0
 20
297.0
  9
$UNITMODE
 70
     0
  9
$VISRETAIN
 70
     1
  9
$PLINEGEN
 70
     0
  9
$PSLTSCALE
 70
     1
  9
$TREEDEPTH
 70
  3020
  9
$PICKSTYLE
 70
     1
  9
$CMLSTYLE
  2
STANDARD
  9
$CMLJUST
 70
     0
  9
$CMLSCALE
 40
20.0
  9
$PROXYGRAPHICS
 70
     1
  9
$MEASUREMENT
 70
     1
  0
ENDSEC
  0
SECTION
  2
CLASSES
  0
CLASS
  1
ACDBDICTIONARYWDFLT
  2
AcDbDictionaryWithDefault
  3
ObjectDBX Classes
 90
        0
280
     0
281
     0
  0
CLASS
  1
VISUALSTYLE
  2
AcDbVisualStyle
  3
ObjectDBX Classes
 90
     4095
280
     0
281
     0
  0
CLASS
  1
MATERIAL
  2
AcDbMaterial
  3
ObjectDBX Classes
 90
     1153
280
     0
281
     0
  0
CLASS
  1
XRECORD
  2
AcDbXrecord
  3
AutoCAD 2000
 90
        0
280
     0
281
     0
  0
CLASS
  1
LWPOLYLINE
  2
AcDbPolyline
  3
AutoCAD 2000
 90
        0
280
     0
281
     1
  0
CLASS
  1
HATCH
  2
AcDbHatch
  3
AutoCAD 2000
 90
        0
280
     0
281
     1
  0
ENDSEC
  0
SECTION
  2
TABLES
  0
TABLE
  2
VPORT
  5
8
330
0
100
AcDbSymbolTable
 70
     1
  0
VPORT
  5
29
330
8
100
AcDbSymbolTableRecord
100
AcDbViewportTableRecord
  2
*ACTIVE
 70
     0
 10
0.0
 20
0.0
 11
1.0
 21
1.0
 12
297.0
 22
210.0
 13
0.0
 23
0.0
 14
10.0
 24
10.0
 15
10.0
 25
10.0
 16
0.0
 26
0.0
 36
1.0
 17
0.0
 27
0.0
 37
0.0
 40
420.0
 41
1.4142857143
 42
50.0
 43
0.0
 44
0.0
 50
0.0
 51
0.0
 71
     0
 72
  2000
 73
     1
 74
     3
 75
     0
 76
     0
 77
     0
 78
     0
  0
ENDTAB
  0
TABLE
  2
LTYPE
  5
5
330
0
100
AcDbSymbolTable
 70
     6
  0
LTYPE
  5
14
330
5
100
AcDbSymbolTableRecord
100
AcDbLinetypeTableRecord
  2
BYBLOCK
 70
     0
  3

 72
    65
 73
     0
 40
0.0
  0
LTYPE
  5
15
330
5
100
AcDbSymbolTableRecord
100
AcDbLinetypeTableRecord
  2
BYLAYER
 70
     0
  3

 72
    65
 73
     0
 40
0.0
  0
LTYPE
  5
16
330
5
100
AcDbSymbolTableRecord
100
AcDbLinetypeTableRecord
  2
CONTINUOUS
 70
     0
  3
Solid line
 72
    65
 73
     0
 40
0.0
  0
LTYPE
  5
3F
330
5
100
AcDbSymbolTableRecord
100
AcDbLinetypeTableRecord
  2
HIDDEN
 70
     0
  3
Hidden __ __ __ __ __ __ __ __ __ __ __ __ __ __
 72
    65
 73
     2
 40
1.905
 49
1.27
 74
     0
 49
-0.635
 74
     0
  0
LTYPE
  5
40
330
5
100
AcDbSymbolTableRecord
100
AcDbLinetypeTableRecord
  2
PHANTOM
 70
     0
  3
Phantom ______  __  __  ______  __  __  ______
 72
    65
 73
     6
 40
12.7
 49
6.35
 74
     0
 49
-1.27
 74
     0
 49
1.27
 74
     0
 49
-1.27
 74
     0
 49
1.27
 74
     0
 49
-1.27
 74
     0
  0
LTYPE
  5
41
330
5
100
AcDbSymbolTableRecord
100
AcDbLinetypeTableRecord
  2
CENTER
 70
     0
  3
Center ____ _ ____ _ ____ _ ____ _ ____ _ ____
 72
    65
 73
     4
 40
10.16
 49
6.35
 74
     0
 49
-1.27
 74
     0
 49
1.27
 74
     0
 49
-1.27
 74
     0
  0
LTYPE
  5
42
330
5
100
AcDbSymbolTableRecord
100
AcDbLinetypeTableRecord
  2
CENTERX2
 70
     0
  3
Center (2x) ________  __  ________  __  _____
 72
    65
 73
     4
 40
20.32
 49
12.7
 74
     0
 49
-2.54
 74
     0
 49
2.54
 74
     0
 49
-2.54
 74
     0
  0
LTYPE
  5
43
330
5
100
AcDbSymbolTableRecord
100
AcDbLinetypeTableRecord
  2
DOT2
 70
     0
  3
Dot (.5x) ........................................
 72
    65
 73
     2
 40
0.635
 49
0.0
 74
     0
 49
-0.635
 74
     0
  0
ENDTAB
  0
TABLE
  2
LAYER
  5
2
330
0
100
AcDbSymbolTable
 70
     2
  0
LAYER
  5
10
330
2
100
AcDbSymbolTableRecord
100
AcDbLayerTableRecord
  2
0
 70
     0
 62
     7
  6
CONTINUOUS
  0
LAYER
  5
44
330
2
100
AcDbSymbolTableRecord
100
AcDbLayerTableRecord
  2
FORMAT
 70
     0
 62
     7
  6
CONTINUOUS
  0
ENDTAB
  0
TABLE
  2
STYLE
  5
3
330
0
100
AcDbSymbolTable
 70
     3
  0
STYLE
  5
11
330
3
100
AcDbSymbolTableRecord
100
AcDbTextStyleTableRecord
  2
STANDARD
 70
     0
 40
0.0
 41
1.0
 50
0.0
 71
     0
 42
8.4666666667
  3
txt
  4

  0
STYLE
  5
7D
330
3
100
AcDbSymbolTableRecord
100
AcDbTextStyleTableRecord
  2
SLDTEXTSTYLE0
 70
     0
 40
0.0
 41
0.605
 50
0.0
 71
     0
 42
0.2
  3
TXT
  4

  0
STYLE
  5
9C
330
3
100
AcDbSymbolTableRecord
100
AcDbTextStyleTableRecord
  2
SLDTEXTSTYLE1
 70
     0
 40
0.0
 41
0.605
 50
0.0
 71
     0
 42
0.2
  3
TXT
  4
bigfont
  0
ENDTAB
  0
TABLE
  2
VIEW
  5
6
330
0
100
AcDbSymbolTable
 70
     0
  0
ENDTAB
  0
TABLE
  2
UCS
  5
7
330
0
100
AcDbSymbolTable
 70
     0
  0
ENDTAB
  0
TABLE
  2
APPID
  5
9
330
0
100
AcDbSymbolTable
 70
     1
  0
APPID
  5
12
330
9
100
AcDbSymbolTableRecord
100
AcDbRegAppTableRecord
  2
ACAD
 70
     0
  0
ENDTAB
  0
TABLE
  2
DIMSTYLE
  5
A
330
0
100
AcDbSymbolTable
 70
     3
  0
DIMSTYLE
105
27
330
A
100
AcDbSymbolTableRecord
100
AcDbDimStyleTableRecord
  2
ISO-25
 70
     0
  3

  4

  5

  6

  7

 40
1.0
 41
2.5
 42
0.625
 43
3.75
 44
1.25
 45
0.0
 46
0.0
 47
0.0
 48
0.0
140
2.5
141
2.5
142
0.0
143
0.0393700787
144
1.0
145
0.0
146
1.0
147
0.625
 71
     0
 72
     0
 73
     0
 74
     0
 75
     0
 76
     0
 77
     1
 78
     8
170
     0
171
     3
172
     1
173
     0
174
     0
175
     0
176
     0
177
     0
178
     0
270
     2
271
     2
272
     2
273
     2
274
     3
340
11
275
     0
280
     0
281
     0
282
     0
283
     0
284
     8
285
     0
286
     0
287
     3
288
     0
  0
DIMSTYLE
105
134
102
{ACAD_REACTORS
330
133
330
30D
102
}
330
A
100
AcDbSymbolTableRecord
100
AcDbDimStyleTableRecord
  2
SLDDIMSTYLE0
 70
     0
  3

  4

  5

  6

  7

 40
1.0
 41
6.0
 42
0.0625
 43
0.38
 44
0.0
 45
0.000000001
 46
0.0
 47
0.0
 48
0.0
140
6.1639648437
141
0.09
142
0.0
143
25.4
144
1.0
145
0.0
146
1.0
147
1.5409912109
 71
     0
 72
     0
 73
     0
 74
     0
 75
     0
 76
     0
 77
     1
 78
    12
170
     0
171
     2
172
     0
173
     1
174
     0
175
     0
176
     0
177
     0
178
     0
270
     2
271
     0
272
     2
273
     2
274
     2
340
7D
275
     0
280
     0
281
     0
282
     0
283
     1
284
    12
285
     0
286
     0
287
     3
288
     0
  0
DIMSTYLE
105
303
102
{ACAD_REACTORS
330
302
102
}
330
A
100
AcDbSymbolTableRecord
100
AcDbDimStyleTableRecord
  2
SLDDIMSTYLE1
 70
     0
  3

  4

  5

  6

  7

 40
1.0
 41
6.0
 42
0.0625
 43
0.38
 44
0.0
 45
0.000000001
 46
0.0
 47
0.0
 48
0.0
140
6.1639648437
141
0.09
142
0.0
143
25.4
144
1.0
145
0.0
146
1.0
147
1.5409912109
 71
     0
 72
     0
 73
     0
 74
     0
 75
     0
 76
     0
 77
     1
 78
    12
170
     0
171
     2
172
     0
173
     1
174
     0
175
     0
176
     0
177
     0
178
     0
270
     2
271
     2
272
     2
273
     2
274
     2
340
7D
275
     0
280
     0
281
     0
282
     0
283
     1
284
    12
285
     0
286
     0
287
     3
288
     0
  0
ENDTAB
  0
TABLE
  2
BLOCK_RECORD
  5
1
330
0
100
AcDbSymbolTable
 70
     5
  0
BLOCK_RECORD
  5
1F
330
1
100
AcDbSymbolTableRecord
100
AcDbBlockTableRecord
  2
*MODEL_SPACE
  0
BLOCK_RECORD
  5
1B
330
1
100
AcDbSymbolTableRecord
100
AcDbBlockTableRecord
  2
*PAPER_SPACE
  0
BLOCK_RECORD
  5
23
330
1
100
AcDbSymbolTableRecord
100
AcDbBlockTableRecord
  2
*PAPER_SPACE0
  0
BLOCK_RECORD
  5
45
330
1
100
AcDbSymbolTableRecord
100
AcDbBlockTableRecord
  2
BLOCK1
  0
BLOCK_RECORD
  5
135
330
1
100
AcDbSymbolTableRecord
100
AcDbBlockTableRecord
  2
_D
  0
BLOCK_RECORD
  5
304
330
1
100
AcDbSymbolTableRecord
100
AcDbBlockTableRecord
  2
_D_1
  0
BLOCK_RECORD
  5
30E
330
1
100
AcDbSymbolTableRecord
100
AcDbBlockTableRecord
  2
_D_2
  0
ENDTAB
  0
ENDSEC
  0
SECTION
  2
BLOCKS
  0
BLOCK
  5
20
330
1F
100
AcDbEntity
  8
0
100
AcDbBlockBegin
  2
*MODEL_SPACE
 70
     0
 10
0.0
 20
0.0
 30
0.0
  3
*MODEL_SPACE
  1

  0
ENDBLK
  5
21
330
1F
100
AcDbEntity
  8
0
100
AcDbBlockEnd
  0
BLOCK
  5
1C
330
1B
100
AcDbEntity
 67
     1
  8
0
100
AcDbBlockBegin
  2
*PAPER_SPACE
 70
     0
 10
0.0
 20
0.0
 30
0.0
  3
*PAPER_SPACE
  1

  0
ENDBLK
  5
1D
330
1B
100
AcDbEntity
 67
     1
  8
0
100
AcDbBlockEnd
  0
BLOCK
  5
24
330
23
100
AcDbEntity
  8
0
100
AcDbBlockBegin
  2
*PAPER_SPACE0
 70
     0
 10
0.0
 20
0.0
 30
0.0
  3
*PAPER_SPACE0
  1

  0
ENDBLK
  5
25
330
23
100
AcDbEntity
  8
0
100
AcDbBlockEnd
  0
BLOCK
  5
46
330
45
100
AcDbEntity
  8
0
100
AcDbBlockBegin
  2
BLOCK1
 70
     0
 10
0.0
 20
0.0
 30
0.0
  3
BLOCK1
  1

  0
CIRCLE
  5
48
330
45
100
AcDbEntity
  8
0
  6
CONTINUOUS
 62
     7
100
AcDbCircle
 10
-40.8811324665
 20
-0.1116593705
 30
0.0
 40
9.999999999999998
  0
CIRCLE
  5
49
330
45
100
AcDbEntity
  8
0
  6
CONTINUOUS
 62
     7
100
AcDbCircle
 10
-40.8811324665
 20
-0.1116593705
 30
0.0
 40
20.0
  0
LINE
  5
4A
330
45
100
AcDbEntity
  8
0
  6
CENTERX2
 62
     7
100
AcDbLine
 10
-123.1192301237
 20
-0.1116593705
 30
0.0
 11
-17.621872523
 21
-0.1116593705
 31
0.0
  0
LINE
  5
4B
330
45
100
AcDbEntity
  8
0
  6
CENTERX2
 62
     7
100
AcDbLine
 10
-40.8811324665
 20
23.147600573
 30
0.0
 11
-40.8811324665
 21
-23.3709193139
 31
0.0
  0
LINE
  5
4C
330
45
100
AcDbEntity
  8
0
  6
CONTINUOUS
 62
     7
100
AcDbLine
 10
-117.7197590654
 20
9.5768326838
 30
0.0
 11
-68.7091756131
 21
19.5768326838
 31
0.0
  0
LINE
  5
4D
330
45
100
AcDbEntity
  8
0
  6
CONTINUOUS
 62
     7
100
AcDbLine
 10
-117.7197590654
 20
-10.4231673162
 30
0.0
 11
-117.7197590654
 21
9.5768326838
 31
0.0
  0
LINE
  5
4E
330
45
100
AcDbEntity
  8
0
  6
CONTINUOUS
 62
     7
100
AcDbLine
 10
-68.7091756131
 20
-20.4231673162
 30
0.0
 11
-117.7197590654
 21
-10.4231673162
 31
0.0
  0
LINE
  5
4F
330
45
100
AcDbEntity
  8
0
  6
CONTINUOUS
 62
     7
100
AcDbLine
 10
-68.7091756131
 20
19.5768326838
 30
0.0
 11
-68.7091756131
 21
-20.4231673162
 31
0.0
  0
ENDBLK
  5
47
330
45
100
AcDbEntity
  8
0
100
AcDbBlockEnd
  0
BLOCK
  5
136
330
135
100
AcDbEntity
  8
0
100
AcDbBlockBegin
  2
_D
 70
     0
 10
0.0
 20
0.0
 30
0.0
  3
_D
  1

  0
SOLID
  5
138
330
135
100
AcDbEntity
  8
0
  6
CONTINUOUS
 62
     7
100
AcDbTrace
 10
252.633222707
 20
360.7517309979
 30
0.0
 11
251.133222707
 21
354.7517309979
 31
0.0
 12
254.133222707
 22
354.7517309979
 32
0.0
 13
254.133222707
 23
354.7517309979
 33
0.0
  0
SOLID
  5
139
330
135
100
AcDbEntity
  8
0
  6
CONTINUOUS
 62
     7
100
AcDbTrace
 10
252.633222707
 20
311.2467975977
 30
0.0
 11
254.133222707
 21
317.2467975977
 31
0.0
 12
251.133222707
 22
317.2467975977
 32
0.0
 13
251.133222707
 23
317.2467975977
 33
0.0
  0
LINE
  5
13A
330
135
100
AcDbEntity
  8
0
  6
CONTINUOUS
 62
     7
100
AcDbLine
 10
231.0557422399
 20
360.7517309979
 30
0.0
 11
254.633222707
 21
360.7517309979
 31
0.0
  0
LINE
  5
13B
330
135
100
AcDbEntity
  8
0
  6
CONTINUOUS
 62
     7
100
AcDbLine
 10
185.897130712
 20
311.2467975977
 30
0.0
 11
254.633222707
 21
311.2467975977
 31
0.0
  0
LINE
  5
13C
330
135
100
AcDbEntity
  8
0
  6
CONTINUOUS
 62
     7
100
AcDbLine
 10
252.633222707
 20
360.7517309979
 30
0.0
 11
252.633222707
 21
311.2467975977
 31
0.0
  0
MTEXT
  5
13D
330
135
100
AcDbEntity
  8
0
  6
CONTINUOUS
 62
     7
100
AcDbMText
 10
244.4476425595
 20
328.4733383076
 30
0.0
 40
6.35
 41
0.0
 71
     1
 72
     1
  1
50
  7
SLDTEXTSTYLE0
 11
-7.044195017643634E-15
 21
1.0
 31
0.0
  0
ENDBLK
  5
137
330
135
100
AcDbEntity
  8
0
100
AcDbBlockEnd
  0
BLOCK
  5
305
330
304
100
AcDbEntity
  8
0
100
AcDbBlockBegin
  2
_D_1
 70
     0
 10
0.0
 20
0.0
 30
0.0
  3
_D_1
  1

  0
SOLID
  5
307
330
304
100
AcDbEntity
  8
0
  6
CONTINUOUS
 62
     7
100
AcDbTrace
 10
252.633222707
 20
234.0
 30
0.0
 11
251.133222707
 21
228.0
 31
0.0
 12
254.133222707
 22
228.0
 32
0.0
 13
254.133222707
 23
228.0
 33
0.0
  0
SOLID
  5
308
330
304
100
AcDbEntity
  8
0
  6
CONTINUOUS
 62
     7
100
AcDbTrace
 10
252.633222707
 20
102.0
 30
0.0
 11
254.133222707
 21
108.0
 31
0.0
 12
251.133222707
 22
108.0
 32
0.0
 13
251.133222707
 23
108.0
 33
0.0
  0
LINE
  5
309
330
304
100
AcDbEntity
  8
0
  6
CONTINUOUS
 62
     7
100
AcDbLine
 10
233.0432128594
 20
234.0
 30
0.0
 11
254.633222707
 21
234.0
 31
0.0
  0
LINE
  5
30A
330
304
100
AcDbEntity
  8
0
  6
CONTINUOUS
 62
     7
100
AcDbLine
 10
233.0432128594
 20
102.0
 30
0.0
 11
254.633222707
 21
102.0
 31
0.0
  0
LINE
  5
30B
330
304
100
AcDbEntity
  8
0
  6
CONTINUOUS
 62
     7
100
AcDbLine
 10
252.633222707
 20
234.0
 30
0.0
 11
252.633222707
 21
102.0
 31
0.0
  0
MTEXT
  5
30C
330
304
100
AcDbEntity
  8
0
  6
CONTINUOUS
 62
     7
100
AcDbMText
 10
244.4476425595
 20
158.1222223416
 30
20.7467975977
 40
6.35
 41
0.0
 71
     1
 72
     1
  1
132
  7
SLDTEXTSTYLE0
 11
-7.932373437343760E-15
 21
1.0
 31
0.0
  0
ENDBLK
  5
306
330
304
100
AcDbEntity
  8
0
100
AcDbBlockEnd
  0
BLOCK
  5
30F
330
30E
100
AcDbEntity
  8
0
100
AcDbBlockBegin
  2
_D_2
 70
     0
 10
0.0
 20
0.0
 30
0.0
  3
_D_2
  1

  0
SOLID
  5
311
330
30E
100
AcDbEntity
  8
0
  6
CONTINUOUS
 62
     7
100
AcDbTrace
 10
232.547130712
 20
254.0876234928
 30
0.0
 11
226.547130712
 21
255.5876234928
 31
0.0
 12
226.547130712
 22
252.5876234928
 32
0.0
 13
226.547130712
 23
252.5876234928
 33
0.0
  0
SOLID
  5
312
330
30E
100
AcDbEntity
  8
0
  6
CONTINUOUS
 62
     7
100
AcDbTrace
 10
112.147130712
 20
254.0876234928
 30
0.0
 11
118.147130712
 21
252.5876234928
 31
0.0
 12
118.147130712
 22
255.5876234928
 32
0.0
 13
118.147130712
 23
255.5876234928
 33
0.0
  0
LINE
  5
313
330
30E
100
AcDbEntity
  8
0
  6
CONTINUOUS
 62
     7
100
AcDbLine
 10
232.547130712
 20
234.4848899504
 30
0.0
 11
232.547130712
 21
256.0876234928
 31
0.0
  0
LINE
  5
314
330
30E
100
AcDbEntity
  8
0
  6
CONTINUOUS
 62
     7
100
AcDbLine
 10
112.147130712
 20
234.4848899504
 30
0.0
 11
112.147130712
 21
256.0876234928
 31
0.0
  0
LINE
  5
315
330
30E
100
AcDbEntity
  8
0
  6
CONTINUOUS
 62
     7
100
AcDbLine
 10
232.547130712
 20
254.0876234928
 30
0.0
 11
112.147130712
 21
254.0876234928
 31
0.0
  0
MTEXT
  5
316
330
30E
100
AcDbEntity
  8
0
  6
CONTINUOUS
 62
     7
100
AcDbMText
 10
162.4693530536
 20
262.2732036403
 30
20.7467975977
 40
6.35
 41
0.0
 71
     1
 72
     1
  1
120
  7
SLDTEXTSTYLE0
  0
ENDBLK
  5
310
330
30E
100
AcDbEntity
  8
0
100
AcDbBlockEnd
  0
ENDSEC
  0
SECTION
  2
ENTITIES
  0
LINE
  5
50
330
1F
100
AcDbEntity
  8
0
  6
CONTINUOUS
 62
     7
100
AcDbLine
 10
584.0
 20
32.0
 30
0.0
 11
316.0
 21
32.0
 31
0.0
  0
LINE
  5
51
330
1F
100
AcDbEntity
  8
0
  6
CONTINUOUS
 62
     7
100
AcDbLine
 10
584.0
 20
10.0
 30
0.0
 11
10.0
 21
10.0
 31
0.0
  0
LINE
  5
52
330
1F
100
AcDbEntity
  8
0
  6
CONTINUOUS
 62
     7
100
AcDbLine
 10
584.0
 20
10.0
 30
0.0
 11
584.0
 21
410.0
 31
0.0
  0
LINE
  5
53
330
1F
100
AcDbEntity
  8
0
  6
CONTINUOUS
 62
     7
100
AcDbLine
 10
584.0
 20
410.0
 30
0.0
 11
10.0
 21
410.0
 31
0.0
  0
LINE
  5
54
330
1F
100
AcDbEntity
  8
0
  6
CONTINUOUS
 62
     7
100
AcDbLine
 10
10.0
 20
10.0
 30
0.0
 11
10.0
 21
410.0
 31
0.0
  0
LINE
  5
55
330
1F
100
AcDbEntity
  8
0
  6
CONTINUOUS
 62
     7
100
AcDbLine
 10
518.0
 20
32.0
 30
0.0
 11
518.0
 21
10.0
 31
0.0
  0
LINE
  5
56
330
1F
100
AcDbEntity
  8
0
  6
CONTINUOUS
 62
     7
100
AcDbLine
 10
584.0
 20
104.0
 30
0.0
 11
316.0
 21
104.0
 31
0.0
  0
LINE
  5
57
330
1F
100
AcDbEntity
  8
0
  6
CONTINUOUS
 62
     7
100
AcDbLine
 10
316.0
 20
32.0
 30
0.0
 11
316.0
 21
10.0
 31
0.0
  0
LINE
  5
58
330
1F
100
AcDbEntity
  8
0
  6
CONTINUOUS
 62
     7
100
AcDbLine
 10
316.0
 20
104.0
 30
0.0
 11
316.0
 21
112.0
 31
0.0
  0
LINE
  5
59
330
1F
100
AcDbEntity
  8
0
  6
CONTINUOUS
 62
     7
100
AcDbLine
 10
316.0
 20
112.0
 30
0.0
 11
584.0
 21
112.0
 31
0.0
  0
LINE
  5
5A
330
1F
100
AcDbEntity
  8
0
  6
CONTINUOUS
 62
     7
100
AcDbLine
 10
316.0
 20
112.0
 30
0.0
 11
316.0
 21
120.0
 31
0.0
  0
LINE
  5
5B
330
1F
100
AcDbEntity
  8
0
  6
CONTINUOUS
 62
     7
100
AcDbLine
 10
316.0
 20
120.0
 30
0.0
 11
584.0
 21
120.0
 31
0.0
  0
LINE
  5
5C
330
1F
100
AcDbEntity
  8
0
  6
CONTINUOUS
 62
     7
100
AcDbLine
 10
316.0
 20
120.0
 30
0.0
 11
316.0
 21
128.0
 31
0.0
  0
LINE
  5
5D
330
1F
100
AcDbEntity
  8
0
  6
CONTINUOUS
 62
     7
100
AcDbLine
 10
316.0
 20
128.0
 30
0.0
 11
584.0
 21
128.0
 31
0.0
  0
LINE
  5
5E
330
1F
100
AcDbEntity
  8
0
  6
CONTINUOUS
 62
     7
100
AcDbLine
 10
316.0
 20
128.0
 30
0.0
 11
316.0
 21
136.0
 31
0.0
  0
LINE
  5
5F
330
1F
100
AcDbEntity
  8
0
  6
CONTINUOUS
 62
     7
100
AcDbLine
 10
316.0
 20
136.0
 30
0.0
 11
584.0
 21
136.0
 31
0.0
  0
LINE
  5
60
330
1F
100
AcDbEntity
  8
0
  6
CONTINUOUS
 62
     7
100
AcDbLine
 10
584.0
 20
144.0
 30
0.0
 11
518.0
 21
144.0
 31
0.0
  0
LINE
  5
61
330
1F
100
AcDbEntity
  8
0
  6
CONTINUOUS
 62
     7
100
AcDbLine
 10
518.0
 20
144.0
 30
0.0
 11
518.0
 21
136.0
 31
0.0
  0
LINE
  5
62
330
1F
100
AcDbEntity
  8
0
  6
CONTINUOUS
 62
     7
100
AcDbLine
 10
564.0
 20
144.0
 30
0.0
 11
564.0
 21
136.0
 31
0.0
  0
LINE
  5
63
330
1F
100
AcDbEntity
  8
0
  6
CONTINUOUS
 62
     7
100
AcDbLine
 10
330.0
 20
96.0
 30
0.0
 11
330.0
 21
136.0
 31
0.0
  0
LINE
  5
64
330
1F
100
AcDbEntity
  8
0
  6
CONTINUOUS
 62
     7
100
AcDbLine
 10
362.0
 20
136.0
 30
0.0
 11
362.0
 21
96.0
 31
0.0
  0
LINE
  5
65
330
1F
100
AcDbEntity
  8
0
  6
CONTINUOUS
 62
     7
100
AcDbLine
 10
392.0
 20
136.0
 30
0.0
 11
392.0
 21
96.0
 31
0.0
  0
LINE
  5
66
330
1F
100
AcDbEntity
  8
0
  6
CONTINUOUS
 62
     7
100
AcDbLine
 10
316.0
 20
104.0
 30
0.0
 11
316.0
 21
96.0
 31
0.0
  0
LINE
  5
67
330
1F
100
AcDbEntity
  8
0
  6
CONTINUOUS
 62
     7
100
AcDbLine
 10
316.0
 20
96.0
 30
0.0
 11
584.0
 21
96.0
 31
0.0
  0
LINE
  5
68
330
1F
100
AcDbEntity
  8
0
  6
CONTINUOUS
 62
     7
100
AcDbLine
 10
584.0
 20
48.0
 30
0.0
 11
316.0
 21
48.0
 31
0.0
  0
LINE
  5
69
330
1F
100
AcDbEntity
  8
0
  6
CONTINUOUS
 62
     7
100
AcDbLine
 10
316.0
 20
48.0
 30
0.0
 11
316.0
 21
32.0
 31
0.0
  0
LINE
  5
6A
330
1F
100
AcDbEntity
  8
0
  6
CONTINUOUS
 62
     7
100
AcDbLine
 10
568.0
 20
48.0
 30
0.0
 11
568.0
 21
32.0
 31
0.0
  0
LINE
  5
6B
330
1F
100
AcDbEntity
  8
0
  6
CONTINUOUS
 62
     7
100
AcDbLine
 10
584.0
 20
64.0
 30
0.0
 11
316.0
 21
64.0
 31
0.0
  0
LINE
  5
6C
330
1F
100
AcDbEntity
  8
0
  6
CONTINUOUS
 62
     7
100
AcDbLine
 10
550.0
 20
48.0
 30
0.0
 11
550.0
 21
32.0
 31
0.0
  0
LINE
  5
6D
330
1F
100
AcDbEntity
  8
0
  6
CONTINUOUS
 62
     7
100
AcDbLine
 10
316.0
 20
64.0
 30
0.0
 11
316.0
 21
48.0
 31
0.0
  0
LINE
  5
6E
330
1F
100
AcDbEntity
  8
0
  6
CONTINUOUS
 62
     7
100
AcDbLine
 10
528.0
 20
48.0
 30
0.0
 11
528.0
 21
32.0
 31
0.0
  0
LINE
  5
6F
330
1F
100
AcDbEntity
  8
0
  6
CONTINUOUS
 62
     7
100
AcDbLine
 10
316.0
 20
80.0
 30
0.0
 11
316.0
 21
96.0
 31
0.0
  0
LINE
  5
70
330
1F
100
AcDbEntity
  8
0
  6
CONTINUOUS
 62
     7
100
AcDbLine
 10
584.0
 20
80.0
 30
0.0
 11
316.0
 21
80.0
 31
0.0
  0
LINE
  5
71
330
1F
100
AcDbEntity
  8
0
  6
CONTINUOUS
 62
     7
100
AcDbLine
 10
316.0
 20
80.0
 30
0.0
 11
316.0
 21
64.0
 31
0.0
  0
LINE
  5
72
330
1F
100
AcDbEntity
  8
0
  6
CONTINUOUS
 62
     7
100
AcDbLine
 10
90.0
 20
18.0
 30
0.0
 11
90.0
 21
10.0
 31
0.0
  0
LINE
  5
73
330
1F
100
AcDbEntity
  8
0
  6
CONTINUOUS
 62
     7
100
AcDbLine
 10
452.0
 20
48.0
 30
0.0
 11
452.0
 21
64.0
 31
0.0
  0
LINE
  5
74
330
1F
100
AcDbEntity
  8
0
  6
CONTINUOUS
 62
     7
100
AcDbLine
 10
452.0
 20
64.0
 30
0.0
 11
452.0
 21
80.0
 31
0.0
  0
LINE
  5
75
330
1F
100
AcDbEntity
  8
0
  6
CONTINUOUS
 62
     7
100
AcDbLine
 10
362.0
 20
96.0
 30
0.0
 11
362.0
 21
80.0
 31
0.0
  0
LINE
  5
76
330
1F
100
AcDbEntity
  8
0
  6
CONTINUOUS
 62
     7
100
AcDbLine
 10
452.0
 20
80.0
 30
0.0
 11
452.0
 21
96.0
 31
0.0
  0
LINE
  5
77
330
1F
100
AcDbEntity
  8
0
  6
CONTINUOUS
 62
     7
100
AcDbLine
 10
10.0
 20
18.0
 30
0.0
 11
274.0
 21
18.0
 31
0.0
  0
LINE
  5
78
330
1F
100
AcDbEntity
  8
0
  6
CONTINUOUS
 62
     7
100
AcDbLine
 10
436.0
 20
48.0
 30
0.0
 11
436.0
 21
32.0
 31
0.0
  0
LINE
  5
79
330
1F
100
AcDbEntity
  8
0
  6
CONTINUOUS
 62
     7
100
AcDbLine
 10
124.0
 20
18.0
 30
0.0
 11
124.0
 21
10.0
 31
0.0
  0
LINE
  5
7A
330
1F
100
AcDbEntity
  8
0
  6
CONTINUOUS
 62
     7
100
AcDbLine
 10
316.0
 20
32.0
 30
0.0
 11
274.0
 21
32.0
 31
0.0
  0
LINE
  5
7B
330
1F
100
AcDbEntity
  8
0
  6
CONTINUOUS
 62
     7
100
AcDbLine
 10
274.0
 20
32.0
 30
0.0
 11
274.0
 21
10.0
 31
0.0
  0
INSERT
  5
7C
330
1F
100
AcDbEntity
  8
0
  6
CONTINUOUS
 62
     7
100
AcDbBlockReference
  2
BLOCK1
 10
316.3361944045
 20
21.0334978111
 30
0.0
 41
0.3
 42
0.3
 43
0.3
  0
MTEXT
  5
7E
330
1F
100
AcDbEntity
  8
0
  6
CONTINUOUS
 62
     7
100
AcDbMText
 10
582.0672273517
 20
22.8589087315
 30
0.0
 40
8.4666666667
 41
0.0
 71
     3
 72
     1
  1
-
  7
SLDTEXTSTYLE0
  0
MTEXT
  5
7F
330
1F
100
AcDbEntity
  8
0
  6
CONTINUOUS
 62
     7
100
AcDbMText
 10
454.0289086677
 20
87.6870010387
 30
0.0
 40
5.2916666667
 41
0.0
 71
     1
 72
     1
  1
-
  7
SLDTEXTSTYLE0
  0
MTEXT
  5
80
330
1F
100
AcDbEntity
  8
0
  6
CONTINUOUS
 62
     7
100
AcDbMText
 10
318.0794257929
 20
21.5734231489
 30
0.0
 40
7.4083333333
 41
0.0
 71
     1
 72
     1
  1
General Dimensions
  7
SLDTEXTSTYLE0
  0
MTEXT
  5
81
330
1F
100
AcDbEntity
  8
0
  6
CONTINUOUS
 62
     7
100
AcDbMText
 10
348.0090087623
 20
29.7272305862
 30
0.0
 40
4.2333333333
 41
0.0
 71
     1
 72
     1
  1
( Model in view  Multifunction Remote- General Dimensions )
  7
SLDTEXTSTYLE0
  0
MTEXT
  5
82
330
1F
100
AcDbEntity
  8
0
  6
CONTINUOUS
 62
     7
100
AcDbMText
 10
538.0002209264
 20
71.6833264966
 30
0.0
 40
5.2916666667
 41
0.0
 71
     1
 72
     1
  1
ISO 2768
  7
SLDTEXTSTYLE0
  0
MTEXT
  5
83
330
1F
100
AcDbEntity
  8
0
  6
CONTINUOUS
 62
     7
100
AcDbMText
 10
538.0002209264
 20
55.7405913532
 30
0.0
 40
5.2916666667
 41
0.0
 71
     1
 72
     1
  1
ISO 2768
  7
SLDTEXTSTYLE0
  0
MTEXT
  5
84
330
1F
100
AcDbEntity
  8
0
  6
CONTINUOUS
 62
     7
100
AcDbMText
 10
438.0083561308
 20
39.7174125924
 30
0.0
 40
5.2916666667
 41
0.0
 71
     1
 72
     1
  1
-
  7
SLDTEXTSTYLE0
  0
MTEXT
  5
85
330
1F
100
AcDbEntity
  8
0
  6
CONTINUOUS
 62
     7
100
AcDbMText
 10
332.0296907192
 20
109.7940560938
 30
0.0
 40
4.2333333333
 41
0.0
 71
     1
 72
     1
  1
13/11/2014
  7
SLDTEXTSTYLE0
  0
MTEXT
  5
86
330
1F
100
AcDbEntity
  8
0
  6
CONTINUOUS
 62
     7
100
AcDbMText
 10
328.1543561844
 20
109.7300701286
 30
0.0
 40
4.2333333333
 41
0.0
 71
     3
 72
     1
  1
-A
  7
SLDTEXTSTYLE0
  0
MTEXT
  5
87
330
1F
100
AcDbEntity
  8
0
  6
CONTINUOUS
 62
     7
100
AcDbMText
 10
364.0311016286
 20
109.78332288
 30
0.0
 40
4.2333333333
 41
0.0
 71
     1
 72
     1
  1
M.D
  7
SLDTEXTSTYLE0
  0
MTEXT
  5
88
330
1F
100
AcDbEntity
  8
0
  6
CONTINUOUS
 62
     7
100
AcDbMText
 10
394.0527165611
 20
109.7983569547
 30
0.0
 40
4.2333333333
 41
0.0
 71
     1
 72
     1
  1
First Release
  7
SLDTEXTSTYLE0
  0
MTEXT
  5
89
330
1F
100
AcDbEntity
  8
0
  6
CONTINUOUS
 62
     7
100
AcDbMText
 10
520.0391057878
 20
29.7510131043
 30
0.0
 40
4.2333333333
 41
0.0
 71
     1
 72
     1
  1
Item no.-Rev.
  7
SLDTEXTSTYLE0
  0
MTEXT
  5
8A
330
1F
100
AcDbEntity
  8
0
  6
CONTINUOUS
 62
     7
100
AcDbMText
 10
364.0944935123
 20
87.7371706486
 30
0.0
 40
5.2916666667
 41
0.0
 71
     1
 72
     1
  1
Remote, Multifunction
  7
SLDTEXTSTYLE0
  0
MTEXT
  5
8B
330
1F
100
AcDbEntity
  8
0
  6
CONTINUOUS
 62
     7
100
AcDbMText
 10
318.0994513455
 20
29.7232136757
 30
0.0
 40
4.2333333333
 41
0.0
 71
     1
 72
     1
  1
Description
  7
SLDTEXTSTYLE0
  0
MTEXT
  5
8C
330
1F
100
AcDbEntity
  8
0
  6
CONTINUOUS
 62
     7
100
AcDbMText
 10
318.1014532167
 20
101.7310374179
 30
0.0
 40
4.2333333333
 41
0.0
 71
     1
 72
     1
  1
Rev.
  7
SLDTEXTSTYLE0
  0
MTEXT
  5
8D
330
1F
100
AcDbEntity
  8
0
  6
CONTINUOUS
 62
     7
100
AcDbMText
 10
332.0928260735
 20
101.7211366638
 30
0.0
 40
4.2333333333
 41
0.0
 71
     1
 72
     1
  1
Date
  7
SLDTEXTSTYLE0
  0
MTEXT
  5
8E
330
1F
100
AcDbEntity
  8
0
  6
CONTINUOUS
 62
     7
100
AcDbMText
 10
364.0007004244
 20
101.7444974695
 30
0.0
 40
4.2333333333
 41
0.0
 71
     1
 72
     1
  1
Resp.
  7
SLDTEXTSTYLE0
  0
MTEXT
  5
8F
330
1F
100
AcDbEntity
  8
0
  6
CONTINUOUS
 62
     7
100
AcDbMText
 10
394.0089862545
 20
101.7951153876
 30
0.0
 40
4.2333333333
 41
0.0
 71
     1
 72
     1
  1
CO no. / Comment
  7
SLDTEXTSTYLE0
  0
MTEXT
  5
90
330
1F
100
AcDbEntity
  8
0
  6
CONTINUOUS
 62
     7
100
AcDbMText
 10
454.0931240327
 20
55.6712423998
 30
0.0
 40
5.2916666667
 41
0.0
 71
     1
 72
     1
  1
General angular tolerance
  7
SLDTEXTSTYLE0
  0
MTEXT
  5
91
330
1F
100
AcDbEntity
  8
0
  6
CONTINUOUS
 62
     7
100
AcDbMText
 10
454.1444746698
 20
71.6833263802
 30
0.0
 40
5.2916666667
 41
0.0
 71
     1
 72
     1
  1
General linear tolerance
  7
SLDTEXTSTYLE0
  0
MTEXT
  5
92
330
1F
100
AcDbEntity
  8
0
  6
CONTINUOUS
 62
     7
100
AcDbMText
 10
570.0256695248
 20
39.7638590627
 30
0.0
 40
5.2916666667
 41
0.0
 71
     1
 72
     1
  1
mm
  7
SLDTEXTSTYLE0
  0
MTEXT
  5
93
330
1F
100
AcDbEntity
  8
0
  6
CONTINUOUS
 62
     7
100
AcDbMText
 10
570.0010689891
 20
45.8123338607
 30
0.0
 40
4.2333333333
 41
0.0
 71
     1
 72
     1
  1
Unit
  7
SLDTEXTSTYLE0
  0
MTEXT
  5
94
330
1F
100
AcDbEntity
  8
0
  6
CONTINUOUS
 62
     7
100
AcDbMText
 10
552.0136186971
 20
45.7903553382
 30
0.0
 40
4.2333333333
 41
0.0
 71
     1
 72
     1
  1
Scale
  7
SLDTEXTSTYLE0
  0
MTEXT
  5
95
330
1F
100
AcDbEntity
  8
0
  6
CONTINUOUS
 62
     7
100
AcDbMText
 10
530.1074376901
 20
45.8039297447
 30
0.0
 40
4.2333333333
 41
0.0
 71
     1
 72
     1
  1
Format
  7
SLDTEXTSTYLE0
  0
MTEXT
  5
96
330
1F
100
AcDbEntity
  8
0
  6
CONTINUOUS
 62
     7
100
AcDbMText
 10
530.0152314801
 20
39.7064860214
 30
0.0
 40
5.2916666667
 41
0.0
 71
     1
 72
     1
  1
A4
  7
SLDTEXTSTYLE0
  0
MTEXT
  5
97
330
1F
100
AcDbEntity
  8
0
  6
CONTINUOUS
 62
     7
100
AcDbMText
 10
552.0607836638
 20
39.7571538281
 30
0.0
 40
5.2916666667
 41
0.0
 71
     1
 72
     1
  1
1:2
  7
SLDTEXTSTYLE0
  0
MTEXT
  5
98
330
1F
100
AcDbEntity
  8
0
  6
CONTINUOUS
 62
     7
100
AcDbMText
 10
438.0826199445
 20
45.7338890479
 30
0.0
 40
4.2333333333
 41
0.0
 71
     1
 72
     1
  1
Colour
  7
SLDTEXTSTYLE0
  0
MTEXT
  5
99
330
1F
100
AcDbEntity
  8
0
  6
CONTINUOUS
 62
     7
100
AcDbMText
 10
318.0372146823
 20
77.739518182
 30
0.0
 40
4.2333333333
 41
0.0
 71
     1
 72
     1
  1
Item to be
  7
SLDTEXTSTYLE0
  0
MTEXT
  5
9A
330
1F
100
AcDbEntity
  8
0
  6
CONTINUOUS
 62
     7
100
AcDbMText
 10
318.1113761949
 20
45.7687319699
 30
0.0
 40
4.2333333333
 41
0.0
 71
     1
 72
     1
  1
Item to be
  7
SLDTEXTSTYLE0
  0
MTEXT
  5
9B
330
1F
100
AcDbEntity
  8
0
  6
CONTINUOUS
 62
     7
100
AcDbMText
 10
318.1073258361
 20
61.7647354804
 30
0.0
 40
4.2333333333
 41
0.0
 71
     1
 72
     1
  1
Item to be
  7
SLDTEXTSTYLE0
  0
MTEXT
  5
9D
330
1F
100
AcDbEntity
  8
0
  6
CONTINUOUS
 62
     7
100
AcDbMText
 10
318.0372146823
 20
92.0416268277
 30
0.0
 40
8.4666666667
 41
0.0
 71
     1
 72
     1
  1
Martin™
  7
SLDTEXTSTYLE1
  0
MTEXT
  5
9E
330
1F
100
AcDbEntity
  8
0
  6
CONTINUOUS
 62
     7
100
AcDbMText
 10
364.0281695876
 20
93.7624720425
 30
0.0
 40
4.2333333333
 41
0.0
 71
     1
 72
     1
  1
First used in
  7
SLDTEXTSTYLE0
  0
MTEXT
  5
9F
330
1F
100
AcDbEntity
  8
0
  6
CONTINUOUS
 62
     7
100
AcDbMText
 10
454.0518708622
 20
93.8007693764
 30
0.0
 40
4.2333333333
 41
0.0
 71
     1
 72
     1
  1
Material
  7
SLDTEXTSTYLE0
  0
MTEXT
  5
A0
330
1F
100
AcDbEntity
  8
0
  6
CONTINUOUS
 62
     7
100
AcDbMText
 10
318.1079281909
 20
71.6410841217
 30
0.0
 40
5.2916666667
 41
0.0
 71
     1
 72
     1
  1
-
  7
SLDTEXTSTYLE0
  0
MTEXT
  5
A1
330
1F
100
AcDbEntity
  8
0
  6
CONTINUOUS
 62
     7
100
AcDbMText
 10
318.0158241824
 20
55.6983006088
 30
0.0
 40
5.2916666667
 41
0.0
 71
     1
 72
     1
  1
-
  7
SLDTEXTSTYLE0
  0
MTEXT
  5
A2
330
1F
100
AcDbEntity
  8
0
  6
CONTINUOUS
 62
     7
100
AcDbMText
 10
318.0248549179
 20
39.7628616794
 30
0.0
 40
5.2916666667
 41
0.0
 71
     1
 72
     1
  1
-
  7
SLDTEXTSTYLE0
  0
MTEXT
  5
A3
330
1F
100
AcDbEntity
  8
0
  6
CONTINUOUS
 62
     7
100
AcDbMText
 10
11.369123259
 20
16.6599175763
 30
0.0
 40
4.2333333333
 41
0.0
 71
     1
 72
     1
  1
© 2009 Martin Professional A/S
  7
SLDTEXTSTYLE0
  0
MTEXT
  5
A4
330
1F
100
AcDbEntity
  8
0
  6
CONTINUOUS
 62
     7
100
AcDbMText
 10
125.8341118938
 20
16.5383908235
 30
0.0
 40
4.2333333333
 41
0.0
 71
     1
 72
     1
  1
Martin™ General Technical Specification apply to this item
  7
SLDTEXTSTYLE1
  0
MTEXT
  5
A5
330
1F
100
AcDbEntity
  8
0
  6
CONTINUOUS
 62
     7
100
AcDbMText
 10
91.8624009128
 20
16.6599175763
 30
0.0
 40
4.2333333333
 41
0.0
 71
     1
 72
     1
  1
Confidential
  7
SLDTEXTSTYLE0
  0
MTEXT
  5
A6
330
1F
100
AcDbEntity
  8
0
  6
CONTINUOUS
 62
     7
100
AcDbMText
 10
520.0391057878
 20
141.900256199
 30
0.0
 40
4.2333333333
 41
0.0
 71
     1
 72
     1
  1
Approved by
  7
SLDTEXTSTYLE0
  0
LINE
  5
A7
330
1F
100
AcDbEntity
  8
0
  6
CONTINUOUS
 62
     7
100
AcDbLine
 10
147.5658812485
 20
348.7467972177
 30
0.0
 11
147.5658812485
 21
349.0467976394
 31
0.0
  0
LINE
  5
A8
330
1F
100
AcDbEntity
  8
0
  6
CONTINUOUS
 62
     7
100
AcDbLine
 10
150.5472105852
 20
348.8467979792
 30
0.0
 11
150.5472105852
 21
349.0467976394
 31
0.0
  0
LINE
  5
A9
330
1F
100
AcDbEntity
  8
0
  6
CONTINUOUS
 62
     7
100
AcDbLine
 10
149.5472104213
 20
349.0467976394
 30
0.0
 11
149.5472104213
 21
348.8467979792
 31
0.0
  0
LINE
  5
AA
330
1F
100
AcDbEntity
  8
0
  6
CONTINUOUS
 62
     7
100
AcDbLine
 10
148.1472109369
 20
348.8467979792
 30
0.0
 11
148.1472109369
 21
349.0467976394
 31
0.0
  0
ARC
  5
AB
330
1F
100
AcDbEntity
  8
0
  6
CONTINUOUS
 62
     7
100
AcDbCircle
 10
145.817130712
 20
357.8467975977
 30
0.0
 40
1.0
100
AcDbArc
 50
90.0
 51
180.0
  0
ARC
  5
AC
330
1F
100
AcDbEntity
  8
0
  6
CONTINUOUS
 62
     7
100
AcDbCircle
 10
163.317130712
 20
357.8467975977
 30
0.0
 40
1.0
100
AcDbArc
 50
0.0
 51
90.0
  0
LINE
  5
AD
330
1F
100
AcDbEntity
  8
0
  6
CONTINUOUS
 62
     7
100
AcDbLine
 10
164.3171305693
 20
356.7467975977
 30
0.0
 11
164.3171305693
 21
357.8467975918
 31
0.0
  0
LINE
  5
AE
330
1F
100
AcDbEntity
  8
0
  6
CONTINUOUS
 62
     7
100
AcDbLine
 10
144.8171310982
 20
357.8467975918
 30
0.0
 11
144.8171310982
 21
356.7467975977
 31
0.0
  0
LINE
  5
AF
330
1F
100
AcDbEntity
  8
0
  6
CONTINUOUS
 62
     7
100
AcDbLine
 10
151.3976980856
 20
349.0467976394
 30
0.0
 11
151.408173602
 21
348.7467972177
 31
0.0
  0
LINE
  5
B0
330
1F
100
AcDbEntity
  8
0
  6
CONTINUOUS
 62
     7
100
AcDbLine
 10
157.7260880655
 20
348.7467972177
 30
0.0
 11
157.7365635819
 21
349.0467976394
 31
0.0
  0
ARC
  5
B1
330
1F
100
AcDbEntity
  8
0
  6
CONTINUOUS
 62
     7
100
AcDbCircle
 10
181.377130712
 20
357.8467975977
 30
0.0
 40
1.0
100
AcDbArc
 50
90.0
 51
180.0
  0
ARC
  5
B2
330
1F
100
AcDbEntity
  8
0
  6
CONTINUOUS
 62
     7
100
AcDbCircle
 10
198.877130712
 20
357.8467975977
 30
0.0
 40
1.0
100
AcDbArc
 50
0.0
 51
90.0
  0
LINE
  5
B3
330
1F
100
AcDbEntity
  8
0
  6
CONTINUOUS
 62
     7
100
AcDbLine
 10
199.8771303258
 20
356.7467975977
 30
0.0
 11
199.8771303258
 21
357.8467975918
 31
0.0
  0
LINE
  5
B4
330
1F
100
AcDbEntity
  8
0
  6
CONTINUOUS
 62
     7
100
AcDbLine
 10
180.3771308548
 20
357.8467975918
 30
0.0
 11
180.3771308548
 21
356.7467975977
 31
0.0
  0
LINE
  5
B5
330
1F
100
AcDbEntity
  8
0
  6
CONTINUOUS
 62
     7
100
AcDbLine
 10
160.547130268
 20
311.7467958096
 30
0.0
 11
160.547130268
 21
311.4967990282
 31
0.0
  0
LINE
  5
B6
330
1F
100
AcDbEntity
  8
0
  6
CONTINUOUS
 62
     7
100
AcDbLine
 10
184.1471311561
 20
311.4967990282
 30
0.0
 11
184.1471311561
 21
311.7467958096
 31
0.0
  0
ARC
  5
B7
330
1F
100
AcDbEntity
  8
0
  6
CONTINUOUS
 62
     7
100
AcDbCircle
 10
183.897130712
 20
311.4967975977
 30
0.0
 40
0.2500000000000568
100
AcDbArc
 50
270.0
 51
0.0
  0
ARC
  5
B8
330
1F
100
AcDbEntity
  8
0
  6
CONTINUOUS
 62
     7
100
AcDbCircle
 10
160.797130712
 20
311.4967975977
 30
0.0
 40
0.2500000000000568
100
AcDbArc
 50
180.0
 51
270.0
  0
LINE
  5
B9
330
1F
100
AcDbEntity
  8
0
  6
CONTINUOUS
 62
     7
100
AcDbLine
 10
162.1671304962
 20
348.7467972177
 30
0.0
 11
146.9671302399
 21
348.7467972177
 31
0.0
  0
LINE
  5
BA
330
1F
100
AcDbEntity
  8
0
  6
CONTINUOUS
 62
     7
100
AcDbLine
 10
162.1671304962
 20
339.8467983666
 30
0.0
 11
162.1671304962
 21
348.7467972177
 31
0.0
  0
LINE
  5
BB
330
1F
100
AcDbEntity
  8
0
  6
CONTINUOUS
 62
     7
100
AcDbLine
 10
146.9671302399
 20
339.8467983666
 30
0.0
 11
162.1671304962
 21
339.8467983666
 31
0.0
  0
LINE
  5
BC
330
1F
100
AcDbEntity
  8
0
  6
CONTINUOUS
 62
     7
100
AcDbLine
 10
146.9671302399
 20
348.7467972177
 30
0.0
 11
146.9671302399
 21
339.8467983666
 31
0.0
  0
LINE
  5
BD
330
1F
100
AcDbEntity
  8
0
  6
CONTINUOUS
 62
     7
100
AcDbLine
 10
160.9671306721
 20
347.5467973936
 30
0.0
 11
148.1671300641
 21
347.5467973936
 31
0.0
  0
LINE
  5
BE
330
1F
100
AcDbEntity
  8
0
  6
CONTINUOUS
 62
     7
100
AcDbLine
 10
148.1671300641
 20
347.5467973936
 30
0.0
 11
148.1671300641
 21
341.0467981908
 31
0.0
  0
LINE
  5
BF
330
1F
100
AcDbEntity
  8
0
  6
CONTINUOUS
 62
     7
100
AcDbLine
 10
148.1671300641
 20
341.0467981908
 30
0.0
 11
160.9671306721
 21
341.0467981908
 31
0.0
  0
LINE
  5
C0
330
1F
100
AcDbEntity
  8
0
  6
CONTINUOUS
 62
     7
100
AcDbLine
 10
160.9671306721
 20
341.0467981908
 30
0.0
 11
160.9671306721
 21
347.5467973936
 31
0.0
  0
LINE
  5
C1
330
1F
100
AcDbEntity
  8
0
  6
CONTINUOUS
 62
     7
100
AcDbLine
 10
146.6671307496
 20
339.8467983666
 30
0.0
 11
146.9671302399
 21
339.8467983666
 31
0.0
  0
LINE
  5
C2
330
1F
100
AcDbEntity
  8
0
  6
CONTINUOUS
 62
     7
100
AcDbLine
 10
162.1671304962
 20
339.8467983666
 30
0.0
 11
162.4671309179
 21
339.8467983666
 31
0.0
  0
LINE
  5
C3
330
1F
100
AcDbEntity
  8
0
  6
CONTINUOUS
 62
     7
100
AcDbLine
 10
137.1471309027
 20
352.6467975776
 30
0.0
 11
136.9634033105
 21
352.6467975776
 31
0.0
  0
LINE
  5
C4
330
1F
100
AcDbEntity
  8
0
  6
CONTINUOUS
 62
     7
100
AcDbLine
 10
207.7308581135
 20
352.6467975776
 30
0.0
 11
207.5471305213
 21
352.6467975776
 31
0.0
  0
LINE
  5
C5
330
1F
100
AcDbEntity
  8
0
  6
CONTINUOUS
 62
     7
100
AcDbLine
 10
162.1671304962
 20
346.3467975694
 30
0.0
 11
162.4671309179
 21
346.3467975694
 31
0.0
  0
LINE
  5
C6
330
1F
100
AcDbEntity
  8
0
  6
CONTINUOUS
 62
     7
100
AcDbLine
 10
149.347210761
 20
348.8467979792
 30
0.0
 11
149.347210761
 21
348.7467972177
 31
0.0
  0
LINE
  5
C7
330
1F
100
AcDbEntity
  8
0
  6
CONTINUOUS
 62
     7
100
AcDbLine
 10
149.347210761
 20
348.8467979792
 30
0.0
 11
151.4046811423
 21
348.8467979792
 31
0.0
  0
LINE
  5
C8
330
1F
100
AcDbEntity
  8
0
  6
CONTINUOUS
 62
     7
100
AcDbLine
 10
147.5658812485
 20
348.8467979792
 30
0.0
 11
148.3472105971
 21
348.8467979792
 31
0.0
  0
LINE
  5
C9
330
1F
100
AcDbEntity
  8
0
  6
CONTINUOUS
 62
     7
100
AcDbLine
 10
148.3472105971
 20
348.8467979792
 30
0.0
 11
148.3472105971
 21
348.7467972177
 31
0.0
  0
LINE
  5
CA
330
1F
100
AcDbEntity
  8
0
  6
CONTINUOUS
 62
     7
100
AcDbLine
 10
162.4671309179
 20
345.3467974055
 30
0.0
 11
162.1671304962
 21
345.3467974055
 31
0.0
  0
LINE
  5
CB
330
1F
100
AcDbEntity
  8
0
  6
CONTINUOUS
 62
     7
100
AcDbLine
 10
162.4671309179
 20
343.7467973295
 30
0.0
 11
162.1671304962
 21
343.7467973295
 31
0.0
  0
LINE
  5
CC
330
1F
100
AcDbEntity
  8
0
  6
CONTINUOUS
 62
     7
100
AcDbLine
 10
145.8171312622
 20
358.8467975228
 30
0.0
 11
163.3171304053
 21
358.8467975228
 31
0.0
  0
LINE
  5
CD
330
1F
100
AcDbEntity
  8
0
  6
CONTINUOUS
 62
     7
100
AcDbLine
 10
184.619607862
 20
358.8467975228
 30
0.0
 11
198.8771301619
 21
358.8467975228
 31
0.0
  0
LINE
  5
CE
330
1F
100
AcDbEntity
  8
0
  6
CONTINUOUS
 62
     7
100
AcDbLine
 10
181.3771310187
 20
358.8467975228
 30
0.0
 11
184.619607862
 21
358.8467975228
 31
0.0
  0
CIRCLE
  5
CF
330
1F
100
AcDbEntity
  8
0
  6
CONTINUOUS
 62
     7
100
AcDbCircle
 10
135.1156030672
 20
328.1493552974
 30
0.0
 40
1.75
  0
CIRCLE
  5
D0
330
1F
100
AcDbEntity
  8
0
  6
CONTINUOUS
 62
     7
100
AcDbCircle
 10
209.5786583568
 20
328.1493552974
 30
0.0
 40
1.75
  0
LINE
  5
D1
330
1F
100
AcDbEntity
  8
0
  6
CONTINUOUS
 62
     7
100
AcDbLine
 10
162.1671304962
 20
340.7467968378
 30
0.0
 11
162.4671309179
 21
340.7467968378
 31
0.0
  0
LINE
  5
D2
330
1F
100
AcDbEntity
  8
0
  6
CONTINUOUS
 62
     7
100
AcDbLine
 10
183.8971306494
 20
311.2467985216
 30
0.0
 11
160.7971307746
 21
311.2467985216
 31
0.0
  0
LINE
  5
D3
330
1F
100
AcDbEntity
  8
0
  6
CONTINUOUS
 62
     7
100
AcDbLine
 10
137.1383801958
 20
354.6467976726
 30
0.0
 11
137.1471309027
 21
354.6467976726
 31
0.0
  0
LINE
  5
D4
330
1F
100
AcDbEntity
  8
0
  6
CONTINUOUS
 62
     7
100
AcDbLine
 10
137.0071493945
 20
353.1467976596
 30
0.0
 11
137.1471309027
 21
353.1467976596
 31
0.0
  0
LINE
  5
D5
330
1F
100
AcDbEntity
  8
0
  6
CONTINUOUS
 62
     7
100
AcDbLine
 10
207.5471305213
 20
353.1467976596
 30
0.0
 11
207.6871120295
 21
353.1467976596
 31
0.0
  0
LWPOLYLINE
  5
D6
330
1F
100
AcDbEntity
  8
0
  6
CONTINUOUS
 62
     7
100
AcDbPolyline
 90
        6
 70
   128
 43
0.0
 10
137.1469707153
 20
354.7449490602
 10
137.1012390516
 20
354.707442139
 10
136.8971005938
 20
354.661742606
 10
136.5521685145
 20
354.614487997
 10
136.1267217359
 20
354.5549890573
 10
135.6585011742
 20
354.4503957115
  0
LINE
  5
D7
330
1F
100
AcDbEntity
  8
0
  6
CONTINUOUS
 62
     7
100
AcDbLine
 10
135.6585011742
 20
354.4503957115
 30
0.0
 11
135.4961492977
 21
356.3060790789
 31
0.0
  0
ARC
  5
D8
330
1F
100
AcDbEntity
  8
0
  6
CONTINUOUS
 62
     7
100
AcDbCircle
 10
136.4984879835
 20
349.1819426754
 30
0.0
 40
7.19430346434059
100
AcDbArc
 50
85.9536735213
 51
98.00872732
  0
LINE
  5
D9
330
1F
100
AcDbEntity
  8
0
  6
CONTINUOUS
 62
     7
100
AcDbLine
 10
137.0061398408
 20
356.3583130622
 30
0.0
 11
137.1471309027
 21
354.7467975027
 31
0.0
  0
LINE
  5
DA
330
1F
100
AcDbEntity
  8
0
  6
CONTINUOUS
 62
     7
100
AcDbLine
 10
137.1471309027
 20
354.7467975027
 30
0.0
 11
137.1469707153
 21
354.7449490602
 31
0.0
  0
LINE
  5
DB
330
1F
100
AcDbEntity
  8
0
  6
CONTINUOUS
 62
     7
100
AcDbLine
 10
137.1469707153
 20
354.7449490602
 30
0.0
 11
136.5430303774
 21
347.8418813634
 31
0.0
  0
ARC
  5
DC
330
1F
100
AcDbEntity
  8
0
  6
CONTINUOUS
 62
     7
100
AcDbCircle
 10
136.0580225807
 20
355.0661672855
 30
0.0
 40
7.240548297416561
100
AcDbArc
 50
262.1126853343
 51
273.8408311227
  0
LINE
  5
DD
330
1F
100
AcDbEntity
  8
0
  6
CONTINUOUS
 62
     7
100
AcDbLine
 10
135.0644365809
 20
347.8941155213
 30
0.0
 11
135.6375538668
 21
354.4448822818
 31
0.0
  0
ELLIPSE
  5
DE
330
1F
100
AcDbEntity
  8
0
  6
CONTINUOUS
 62
     7
100
AcDbEllipse
 10
136.8907389503
 20
369.0267962202
 30
0.0
 11
1.298787863208361
 21
14.58452740340937
 31
0.0
210
0.0
220
0.0
230
1.0
 40
0.1024316898
 41
3.171728555767975
 42
3.18532247329451
  0
ARC
  5
DF
330
1F
100
AcDbEntity
  8
0
  6
CONTINUOUS
 62
     7
100
AcDbCircle
 10
156.0368516054
 20
347.5243116282
 30
0.0
 40
42.46567424875883
100
AcDbArc
 50
164.3709141188
 51
176.5947519939
  0
ARC
  5
E0
330
1F
100
AcDbEntity
  8
0
  6
CONTINUOUS
 62
     7
100
AcDbCircle
 10
113.8659691342
 20
344.9891924121
 30
0.0
 40
5.062261733184734
100
AcDbArc
 50
92.4886789493
 51
109.8462971847
  0
ARC
  5
E1
330
1F
100
AcDbEntity
  8
0
  6
CONTINUOUS
 62
     7
100
AcDbCircle
 10
156.0525515322
 20
347.445811994
 30
0.0
 40
43.96567424875886
100
AcDbArc
 50
164.3709141188
 51
176.9947902994
  0
ARC
  5
E2
330
1F
100
AcDbEntity
  8
0
  6
CONTINUOUS
 62
     7
100
AcDbCircle
 10
112.7267839116
 20
351.6674510597
 30
0.0
 40
7.686558638175607
100
AcDbArc
 50
71.6921539831
 51
82.6324177857
  0
LINE
  5
E3
330
1F
100
AcDbEntity
  8
0
  6
CONTINUOUS
 62
     7
100
AcDbLine
 10
113.6461556813
 20
350.0466795254
 30
0.0
 11
113.6510469875
 21
350.0475810456
 31
0.0
  0
ARC
  5
E4
330
1F
100
AcDbEntity
  8
0
  6
CONTINUOUS
 62
     7
100
AcDbCircle
 10
211.209460455
 20
353.1270824923
 30
0.0
 40
97.60700312472515
100
AcDbArc
 50
181.8079820937
 51
187.4724297221
  0
ARC
  5
E5
330
1F
100
AcDbEntity
  8
0
  6
CONTINUOUS
 62
     7
100
AcDbCircle
 10
113.1303973272
 20
347.4597128318
 30
0.0
 40
7.145762705873071
100
AcDbArc
 50
268.3802914577
 51
280.489975364
  0
ARC
  5
E6
330
1F
100
AcDbEntity
  8
0
  6
CONTINUOUS
 62
     7
100
AcDbCircle
 10
211.1937605282
 20
353.2055821265
 30
0.0
 40
99.10700312472511
100
AcDbArc
 50
182.0
 51
187.4724297221
  0
LINE
  5
E7
330
1F
100
AcDbEntity
  8
0
  6
CONTINUOUS
 62
     7
100
AcDbLine
 10
112.1471323929
 20
349.7467973817
 30
0.0
 11
112.1473410091
 21
349.7507899615
 31
0.0
  0
ARC
  5
E8
330
1F
100
AcDbEntity
  8
0
  6
CONTINUOUS
 62
     7
100
AcDbCircle
 10
115.6228192573
 20
358.830230632
 30
0.0
 40
0.500000000000051
100
AcDbArc
 50
89.6480693915
 51
164.3709141188
  0
ARC
  5
E9
330
1F
100
AcDbEntity
  8
0
  6
CONTINUOUS
 62
     7
100
AcDbCircle
 10
115.1437191371
 20
280.8317020365
 30
0.0
 40
78.49999999999997
100
AcDbArc
 50
75.2535085638
 51
89.6480693915
  0
ARC
  5
EA
330
1F
100
AcDbEntity
  8
0
  6
CONTINUOUS
 62
     7
100
AcDbCircle
 10
134.9980520546
 20
356.2625012129
 30
0.0
 40
0.5000000000000333
100
AcDbArc
 50
5.0
 51
75.2535085639
  0
LINE
  5
EB
330
1F
100
AcDbEntity
  8
0
  6
CONTINUOUS
 62
     7
100
AcDbLine
 10
113.6510469875
 20
350.0475810456
 30
0.0
 11
135.6375538668
 21
354.4448822818
 31
0.0
  0
ARC
  5
EC
330
1F
100
AcDbEntity
  8
0
  6
CONTINUOUS
 62
     7
100
AcDbCircle
 10
134.5663393859
 20
347.9376936304
 30
0.0
 40
0.500000000000005
100
AcDbArc
 50
297.0094642006
 51
355.0
  0
ARC
  5
ED
330
1F
100
AcDbEntity
  8
0
  6
CONTINUOUS
 62
     7
100
AcDbCircle
 10
99.1436010241
 20
417.4303522855
 30
0.0
 40
78.50000000000011
100
AcDbArc
 50
281.2300478051
 51
297.0094642006
  0
ARC
  5
EE
330
1F
100
AcDbEntity
  8
0
  6
CONTINUOUS
 62
     7
100
AcDbCircle
 10
149.700149963
 20
353.2671287137
 30
0.0
 40
14.98427031648713
100
AcDbArc
 50
161.110791541
 51
166.5751170065
  0
ARC
  5
EF
330
1F
100
AcDbEntity
  8
0
  6
CONTINUOUS
 62
     7
100
AcDbCircle
 10
135.0137519814
 20
356.1840015787
 30
0.0
 40
2.000000000000038
100
AcDbArc
 50
5.0
 51
75.2535085638
  0
ARC
  5
F0
330
1F
100
AcDbEntity
  8
0
  6
CONTINUOUS
 62
     7
100
AcDbCircle
 10
147.9278344414
 20
359.475005777
 30
0.0
 40
32.30226848824378
100
AcDbArc
 50
177.7349001534
 51
180.2568108004
  0
ARC
  5
F1
330
1F
100
AcDbEntity
  8
0
  6
CONTINUOUS
 62
     7
100
AcDbCircle
 10
115.1594190639
 20
280.7532024023
 30
0.0
 40
79.99999999999997
100
AcDbArc
 50
75.2535085638
 51
89.6480693915
  0
ARC
  5
F2
330
1F
100
AcDbEntity
  8
0
  6
CONTINUOUS
 62
     7
100
AcDbCircle
 10
134.5506394591
 20
348.0161932646
 30
0.0
 40
2.00000000000002
100
AcDbArc
 50
297.0094642006
 51
355.0
  0
ARC
  5
F3
330
1F
100
AcDbEntity
  8
0
  6
CONTINUOUS
 62
     7
100
AcDbCircle
 10
156.4810779698
 20
358.1613967158
 30
0.0
 40
24.16994523212604
100
AcDbArc
 50
206.1947081178
 51
209.5687030124
  0
ARC
  5
F4
330
1F
100
AcDbEntity
  8
0
  6
CONTINUOUS
 62
     7
100
AcDbCircle
 10
99.1279010973
 20
417.5088519196
 30
0.0
 40
80.00000000000011
100
AcDbArc
 50
281.2300478051
 51
297.0094642006
  0
LWPOLYLINE
  5
F5
330
1F
100
AcDbEntity
  8
0
  6
CONTINUOUS
 62
     7
100
AcDbPolyline
 90
        9
 70
   128
 43
0.0
 10
114.7078038118
 20
339.0405989799
 10
114.7025846801
 20
339.066990799
 10
114.6870762965
 20
339.1452069941
 10
114.6618300042
 20
339.2724461469
 10
114.6277584991
 20
339.4441410515
 10
114.586076226
 20
339.6541356656
 10
114.5382844767
 20
339.8948955897
 10
114.4860968849
 20
340.1577874634
 10
114.431379821
 20
340.4333788517
  0
ARC
  5
F6
330
1F
100
AcDbEntity
  8
0
  6
CONTINUOUS
 62
     7
100
AcDbCircle
 10
115.6385191841
 20
358.7517309979
 30
0.0
 40
2.000000000000033
100
AcDbArc
 50
89.6480693915
 51
164.3709141188
  0
ARC
  5
F7
330
1F
100
AcDbEntity
  8
0
  6
CONTINUOUS
 62
     7
100
AcDbCircle
 10
114.4156795321
 20
340.5118790536
 30
0.0
 40
1.500000000000034
100
AcDbArc
 50
187.4724297221
 51
281.2300478051
  0
LINE
  5
F8
330
1F
100
AcDbEntity
  8
0
  6
CONTINUOUS
 62
     7
100
AcDbLine
 10
207.5472907088
 20
354.7449490602
 30
0.0
 11
207.5471305213
 21
354.7467975027
 31
0.0
  0
LINE
  5
F9
330
1F
100
AcDbEntity
  8
0
  6
CONTINUOUS
 62
     7
100
AcDbLine
 10
207.5471305213
 20
354.7467975027
 30
0.0
 11
207.6881215832
 21
356.3583130622
 31
0.0
  0
ARC
  5
FA
330
1F
100
AcDbEntity
  8
0
  6
CONTINUOUS
 62
     7
100
AcDbCircle
 10
208.1957734405
 20
349.1819426754
 30
0.0
 40
7.19430346434059
100
AcDbArc
 50
81.99127268
 51
94.0463264787
  0
LINE
  5
FB
330
1F
100
AcDbEntity
  8
0
  6
CONTINUOUS
 62
     7
100
AcDbLine
 10
209.1981121263
 20
356.3060790789
 30
0.0
 11
209.0357602498
 21
354.4503957115
 31
0.0
  0
LWPOLYLINE
  5
FC
330
1F
100
AcDbEntity
  8
0
  6
CONTINUOUS
 62
     7
100
AcDbPolyline
 90
        6
 70
   128
 43
0.0
 10
207.5472907088
 20
354.7449490602
 10
207.5930223725
 20
354.707442139
 10
207.7971608302
 20
354.661742606
 10
208.1420929096
 20
354.614487997
 10
208.5675396881
 20
354.5549890573
 10
209.0357602498
 20
354.4503957115
  0
ARC
  5
FD
330
1F
100
AcDbEntity
  8
0
  6
CONTINUOUS
 62
     7
100
AcDbCircle
 10
208.6362388433
 20
355.0661672855
 30
0.0
 40
7.240548297416559
100
AcDbArc
 50
266.1591688774
 51
277.8873146657
  0
LINE
  5
FE
330
1F
100
AcDbEntity
  8
0
  6
CONTINUOUS
 62
     7
100
AcDbLine
 10
208.1512310467
 20
347.8418813634
 30
0.0
 11
207.5472907088
 21
354.7449490602
 31
0.0
  0
ELLIPSE
  5
FF
330
1F
100
AcDbEntity
  8
0
  6
CONTINUOUS
 62
     7
100
AcDbEllipse
 10
207.8035224737
 20
369.0267962202
 30
0.0
 11
-1.298787863208389
 21
14.58452740340942
 31
0.0
210
0.0
220
0.0
230
1.0
 40
0.1024316898
 41
3.09786283388507
 42
3.1114567514116
  0
LINE
  5
100
330
1F
100
AcDbEntity
  8
0
  6
CONTINUOUS
 62
     7
100
AcDbLine
 10
209.0567075572
 20
354.4448822818
 30
0.0
 11
209.6298248431
 21
347.8941155213
 31
0.0
  0
ARC
  5
101
330
1F
100
AcDbEntity
  8
0
  6
CONTINUOUS
 62
     7
100
AcDbCircle
 10
133.484800969
 20
353.1270824923
 30
0.0
 40
97.60700312472537
100
AcDbArc
 50
352.5275702779
 51
358.1920179063
  0
LINE
  5
102
330
1F
100
AcDbEntity
  8
0
  6
CONTINUOUS
 62
     7
100
AcDbLine
 10
231.0432144365
 20
350.0475810456
 30
0.0
 11
231.0481057427
 21
350.0466795254
 31
0.0
  0
ARC
  5
103
330
1F
100
AcDbEntity
  8
0
  6
CONTINUOUS
 62
     7
100
AcDbCircle
 10
230.8282922898
 20
344.9891924121
 30
0.0
 40
5.062261733184723
100
AcDbArc
 50
70.1537028153
 51
87.5113210507
  0
LINE
  5
104
330
1F
100
AcDbEntity
  8
0
  6
CONTINUOUS
 62
     7
100
AcDbLine
 10
232.5469204149
 20
349.7507899615
 30
0.0
 11
232.5471290312
 21
349.7467973817
 31
0.0
  0
ARC
  5
105
330
1F
100
AcDbEntity
  8
0
  6
CONTINUOUS
 62
     7
100
AcDbCircle
 10
133.5005008958
 20
353.2055821265
 30
0.0
 40
99.1070031247254
100
AcDbArc
 50
352.5275702779
 51
358.0
  0
ARC
  5
106
330
1F
100
AcDbEntity
  8
0
  6
CONTINUOUS
 62
     7
100
AcDbCircle
 10
231.5638640968
 20
347.4597128318
 30
0.0
 40
7.145762705873077
100
AcDbArc
 50
259.510024636
 51
271.6197085423
  0
ARC
  5
107
330
1F
100
AcDbEntity
  8
0
  6
CONTINUOUS
 62
     7
100
AcDbCircle
 10
188.6574098186
 20
347.5243116282
 30
0.0
 40
42.46567424875936
100
AcDbArc
 50
3.4052480061
 51
15.6290858812
  0
ARC
  5
108
330
1F
100
AcDbEntity
  8
0
  6
CONTINUOUS
 62
     7
100
AcDbCircle
 10
231.9674775124
 20
351.6674510597
 30
0.0
 40
7.686558638175607
100
AcDbArc
 50
97.3675822143
 51
108.3078460169
  0
ARC
  5
109
330
1F
100
AcDbEntity
  8
0
  6
CONTINUOUS
 62
     7
100
AcDbCircle
 10
188.6417098918
 20
347.445811994
 30
0.0
 40
43.96567424875934
100
AcDbArc
 50
3.0052097006
 51
15.6290858812
  0
ARC
  5
10A
330
1F
100
AcDbEntity
  8
0
  6
CONTINUOUS
 62
     7
100
AcDbCircle
 10
209.6962093694
 20
356.2625012129
 30
0.0
 40
0.500000000000005
100
AcDbArc
 50
104.7464914362
 51
175.0
  0
ARC
  5
10B
330
1F
100
AcDbEntity
  8
0
  6
CONTINUOUS
 62
     7
100
AcDbCircle
 10
229.550542287
 20
280.8317020365
 30
0.0
 40
78.49999999999994
100
AcDbArc
 50
90.3519306085
 51
104.7464914362
  0
ARC
  5
10C
330
1F
100
AcDbEntity
  8
0
  6
CONTINUOUS
 62
     7
100
AcDbCircle
 10
229.0714421667
 20
358.830230632
 30
0.0
 40
0.4999999999999939
100
AcDbArc
 50
15.6290858812
 51
90.3519306085
  0
LINE
  5
10D
330
1F
100
AcDbEntity
  8
0
  6
CONTINUOUS
 62
     7
100
AcDbLine
 10
231.0432144365
 20
350.0475810456
 30
0.0
 11
209.0567075572
 21
354.4448822818
 31
0.0
  0
ARC
  5
10E
330
1F
100
AcDbEntity
  8
0
  6
CONTINUOUS
 62
     7
100
AcDbCircle
 10
210.1279220381
 20
347.9376936304
 30
0.0
 40
0.4999999999999992
100
AcDbArc
 50
185.0
 51
242.9905357994
  0
ARC
  5
10F
330
1F
100
AcDbEntity
  8
0
  6
CONTINUOUS
 62
     7
100
AcDbCircle
 10
245.5506603999
 20
417.4303522855
 30
0.0
 40
78.5000000000005
100
AcDbArc
 50
242.9905357994
 51
258.7699521949
  0
ARC
  5
110
330
1F
100
AcDbEntity
  8
0
  6
CONTINUOUS
 62
     7
100
AcDbCircle
 10
209.6805094426
 20
356.1840015787
 30
0.0
 40
1.999999999999992
100
AcDbArc
 50
104.7464914362
 51
175.0
  0
ARC
  5
111
330
1F
100
AcDbEntity
  8
0
  6
CONTINUOUS
 62
     7
100
AcDbCircle
 10
194.994111461
 20
353.2671287137
 30
0.0
 40
14.9842703164871
100
AcDbArc
 50
13.4248829935
 51
18.889208459
  0
ARC
  5
112
330
1F
100
AcDbEntity
  8
0
  6
CONTINUOUS
 62
     7
100
AcDbCircle
 10
229.5348423601
 20
280.7532024023
 30
0.0
 40
80.00000000000003
100
AcDbArc
 50
90.3519306085
 51
104.7464914362
  0
ARC
  5
113
330
1F
100
AcDbEntity
  8
0
  6
CONTINUOUS
 62
     7
100
AcDbCircle
 10
196.7664269826
 20
359.475005777
 30
0.0
 40
32.30226848824375
100
AcDbArc
 50
359.7431891996
 51
2.2650998466
  0
ARC
  5
114
330
1F
100
AcDbEntity
  8
0
  6
CONTINUOUS
 62
     7
100
AcDbCircle
 10
210.1436219649
 20
348.0161932646
 30
0.0
 40
2.000000000000048
100
AcDbArc
 50
185.0
 51
242.9905357994
  0
ARC
  5
115
330
1F
100
AcDbEntity
  8
0
  6
CONTINUOUS
 62
     7
100
AcDbCircle
 10
188.2131834543
 20
358.1613967158
 30
0.0
 40
24.16994523212601
100
AcDbArc
 50
330.4312969876
 51
333.8052918822
  0
ARC
  5
116
330
1F
100
AcDbEntity
  8
0
  6
CONTINUOUS
 62
     7
100
AcDbCircle
 10
245.5663603267
 20
417.5088519196
 30
0.0
 40
80.00000000000043
100
AcDbArc
 50
242.9905357994
 51
258.7699521949
  0
LWPOLYLINE
  5
117
330
1F
100
AcDbEntity
  8
0
  6
CONTINUOUS
 62
     7
100
AcDbPolyline
 90
        9
 70
   128
 43
0.0
 10
229.9864576123
 20
339.0405989799
 10
229.991676744
 20
339.066990799
 10
230.0071851275
 20
339.1452069941
 10
230.0324314198
 20
339.2724461469
 10
230.0665029249
 20
339.4441410515
 10
230.108185198
 20
339.6541356656
 10
230.1559769473
 20
339.8948955897
 10
230.2081645391
 20
340.1577874634
 10
230.262881603
 20
340.4333788517
  0
ARC
  5
118
330
1F
100
AcDbEntity
  8
0
  6
CONTINUOUS
 62
     7
100
AcDbCircle
 10
229.0557422399
 20
358.7517309979
 30
0.0
 40
1.999999999999998
100
AcDbArc
 50
15.6290858812
 51
90.3519306085
  0
ARC
  5
119
330
1F
100
AcDbEntity
  8
0
  6
CONTINUOUS
 62
     7
100
AcDbCircle
 10
230.2785818919
 20
340.5118790536
 30
0.0
 40
1.5
100
AcDbArc
 50
258.7699521949
 51
352.5275702779
  0
LINE
  5
11A
330
1F
100
AcDbEntity
  8
0
  6
CONTINUOUS
 62
     7
100
AcDbLine
 10
137.1471309027
 20
352.9467975336
 30
0.0
 11
207.5471305213
 21
352.9467975336
 31
0.0
  0
LINE
  5
11B
330
1F
100
AcDbEntity
  8
0
  6
CONTINUOUS
 62
     7
100
AcDbLine
 10
137.1471309027
 20
356.7467975977
 30
0.0
 11
137.1471309027
 21
352.9467975336
 31
0.0
  0
LINE
  5
11C
330
1F
100
AcDbEntity
  8
0
  6
CONTINUOUS
 62
     7
100
AcDbLine
 10
207.5471305213
 20
356.7467975977
 30
0.0
 11
137.1471309027
 21
356.7467975977
 31
0.0
  0
LINE
  5
11D
330
1F
100
AcDbEntity
  8
0
  6
CONTINUOUS
 62
     7
100
AcDbLine
 10
207.5471305213
 20
352.9467975336
 30
0.0
 11
207.5471305213
 21
356.7467975977
 31
0.0
  0
LINE
  5
11E
330
1F
100
AcDbEntity
  8
0
  6
CONTINUOUS
 62
     7
100
AcDbLine
 10
207.5471305213
 20
352.9467975336
 30
0.0
 11
207.5471305213
 21
352.2467977914
 31
0.0
  0
LINE
  5
11F
330
1F
100
AcDbEntity
  8
0
  6
CONTINUOUS
 62
     7
100
AcDbLine
 10
137.1471309027
 20
352.2467977914
 30
0.0
 11
137.1471309027
 21
352.9467975336
 31
0.0
  0
LINE
  5
120
330
1F
100
AcDbEntity
  8
0
  6
CONTINUOUS
 62
     7
100
AcDbLine
 10
117.34713101
 20
334.7467977169
 30
0.0
 11
117.34713101
 21
339.6111011121
 31
0.0
  0
LINE
  5
121
330
1F
100
AcDbEntity
  8
0
  6
CONTINUOUS
 62
     7
100
AcDbLine
 10
207.5471305213
 20
352.2467977914
 30
0.0
 11
207.7658534906
 21
352.2467977914
 31
0.0
  0
CIRCLE
  5
122
330
1F
100
AcDbEntity
  8
0
  6
CONTINUOUS
 62
     7
100
AcDbCircle
 10
209.5786583568
 20
328.1493552974
 30
0.0
 40
2.250000000000028
  0
LINE
  5
123
330
1F
100
AcDbEntity
  8
0
  6
CONTINUOUS
 62
     7
100
AcDbLine
 10
144.3471298477
 20
311.7467958096
 30
0.0
 11
200.3471315763
 21
311.7467958096
 31
0.0
  0
CIRCLE
  5
124
330
1F
100
AcDbEntity
  8
0
  6
CONTINUOUS
 62
     7
100
AcDbCircle
 10
135.1156030672
 20
328.1493552974
 30
0.0
 40
2.250000000000028
  0
LINE
  5
125
330
1F
100
AcDbEntity
  8
0
  6
CONTINUOUS
 62
     7
100
AcDbLine
 10
200.3471315763
 20
311.7467958096
 30
0.0
 11
227.347130414
 21
334.7467977169
 31
0.0
  0
LINE
  5
126
330
1F
100
AcDbEntity
  8
0
  6
CONTINUOUS
 62
     7
100
AcDbLine
 10
117.34713101
 20
334.7467977169
 30
0.0
 11
144.3471298477
 21
311.7467958096
 31
0.0
  0
LINE
  5
127
330
1F
100
AcDbEntity
  8
0
  6
CONTINUOUS
 62
     7
100
AcDbLine
 10
146.6671307496
 20
349.0467976394
 30
0.0
 11
146.6671307496
 21
339.5467970136
 31
0.0
  0
LINE
  5
128
330
1F
100
AcDbEntity
  8
0
  6
CONTINUOUS
 62
     7
100
AcDbLine
 10
136.9284079334
 20
352.2467977914
 30
0.0
 11
137.1471309027
 21
352.2467977914
 31
0.0
  0
LINE
  5
129
330
1F
100
AcDbEntity
  8
0
  6
CONTINUOUS
 62
     7
100
AcDbLine
 10
227.347130414
 20
334.7467977169
 30
0.0
 11
227.347130414
 21
339.6111011121
 31
0.0
  0
LINE
  5
12A
330
1F
100
AcDbEntity
  8
0
  6
CONTINUOUS
 62
     7
100
AcDbLine
 10
162.4671309179
 20
349.0467976394
 30
0.0
 11
146.6671307496
 21
349.0467976394
 31
0.0
  0
LINE
  5
12B
330
1F
100
AcDbEntity
  8
0
  6
CONTINUOUS
 62
     7
100
AcDbLine
 10
146.6671307496
 20
339.5467970136
 30
0.0
 11
162.4671309179
 21
339.5467970136
 31
0.0
  0
LINE
  5
12C
330
1F
100
AcDbEntity
  8
0
  6
CONTINUOUS
 62
     7
100
AcDbLine
 10
162.4671309179
 20
339.5467970136
 30
0.0
 11
162.4671309179
 21
349.0467976394
 31
0.0
  0
LINE
  5
12D
330
1F
100
AcDbEntity
  8
0
  6
CONTINUOUS
 62
     7
100
AcDbLine
 10
137.1471309027
 20
356.7467975977
 30
0.0
 11
136.9329341612
 21
356.7467975977
 31
0.0
  0
LINE
  5
12E
330
1F
100
AcDbEntity
  8
0
  6
CONTINUOUS
 62
     7
100
AcDbLine
 10
207.7613272629
 20
356.7467975977
 30
0.0
 11
207.5471305213
 21
356.7467975977
 31
0.0
  0
LINE
  5
12F
330
1F
100
AcDbEntity
  8
0
  6
CONTINUOUS
 62
     8
100
AcDbLine
 10
164.3171305693
 20
357.8467975918
 30
0.0
 11
144.8171310982
 21
357.8467975918
 31
0.0
  0
LINE
  5
130
330
1F
100
AcDbEntity
  8
0
  6
CONTINUOUS
 62
     8
100
AcDbLine
 10
183.9901762939
 20
357.8467975918
 30
0.0
 11
180.3771308548
 21
357.8467975918
 31
0.0
  0
LINE
  5
131
330
1F
100
AcDbEntity
  8
0
  6
CONTINUOUS
 62
     8
100
AcDbLine
 10
199.8771303258
 20
357.8467975918
 30
0.0
 11
183.9901762939
 21
357.8467975918
 31
0.0
  0
LINE
  5
132
330
1F
100
AcDbEntity
  8
0
  6
CONTINUOUS
 62
     8
100
AcDbLine
 10
160.547130268
 20
311.4967990282
 30
0.0
 11
184.1471311561
 21
311.4967990282
 31
0.0
  0
DIMENSION
  5
133
330
1F
100
AcDbEntity
  8
0
  6
CONTINUOUS
 62
     7
100
AcDbDimension
  2
_D
 10
252.633222707
 20
311.2467975977
 30
0.0
 11
252.633222707
 21
335.9992642978
 31
0.0
 70
   160
  1
<>
  3
SLDDIMSTYLE0
100
AcDbAlignedDimension
 13
229.0557422399
 23
360.7517309979
 33
0.0
 14
183.897130712
 24
311.2467975977
 34
0.0
 50
90.0
100
AcDbRotatedDimension
  0
LINE
  5
13E
330
1F
100
AcDbEntity
  8
0
  6
CONTINUOUS
 62
     7
100
AcDbLine
 10
142.6878073177
 20
171.4940075129
 30
0.0
 11
146.4472100994
 21
168.1975122868
 31
0.0
  0
LINE
  5
13F
330
1F
100
AcDbEntity
  8
0
  6
CONTINUOUS
 62
     7
100
AcDbLine
 10
146.4472100994
 20
174.7905024625
 30
0.0
 11
142.6878073177
 21
171.4940075129
 31
0.0
  0
LINE
  5
140
330
1F
100
AcDbEntity
  8
0
  6
CONTINUOUS
 62
     7
100
AcDbLine
 10
146.4472100994
 20
168.1975122868
 30
0.0
 11
146.4472100994
 21
174.7905024625
 31
0.0
  0
LINE
  5
141
330
1F
100
AcDbEntity
  8
0
  6
CONTINUOUS
 62
     7
100
AcDbLine
 10
202.6435458026
 20
172.594007507
 30
0.0
 11
196.050554972
 21
172.594007507
 31
0.0
  0
LINE
  5
142
330
1F
100
AcDbEntity
  8
0
  6
CONTINUOUS
 62
     7
100
AcDbLine
 10
199.3470513186
 20
168.8346032118
 30
0.0
 11
202.6435458026
 21
172.594007507
 31
0.0
  0
LINE
  5
143
330
1F
100
AcDbEntity
  8
0
  6
CONTINUOUS
 62
     7
100
AcDbLine
 10
196.050554972
 20
172.594007507
 30
0.0
 11
199.3470513186
 21
168.8346032118
 31
0.0
  0
LINE
  5
144
330
1F
100
AcDbEntity
  8
0
  6
CONTINUOUS
 62
     7
100
AcDbLine
 10
151.2472112587
 20
162.7905023582
 30
0.0
 11
151.2472112587
 21
156.1975119933
 31
0.0
  0
LINE
  5
145
330
1F
100
AcDbEntity
  8
0
  6
CONTINUOUS
 62
     7
100
AcDbLine
 10
155.0066140405
 20
159.4940074086
 30
0.0
 11
151.2472112587
 21
162.7905023582
 31
0.0
  0
LINE
  5
146
330
1F
100
AcDbEntity
  8
0
  6
CONTINUOUS
 62
     7
100
AcDbLine
 10
151.2472112587
 20
156.1975119933
 30
0.0
 11
155.0066140405
 21
159.4940074086
 31
0.0
  0
CIRCLE
  5
147
330
1F
100
AcDbEntity
  8
0
  6
CONTINUOUS
 62
     7
100
AcDbCircle
 10
172.347130712
 20
159.4940074071
 30
0.0
 40
1.75
  0
CIRCLE
  5
148
330
1F
100
AcDbEntity
  8
0
  6
CONTINUOUS
 62
     7
100
AcDbCircle
 10
172.347130712
 20
159.4940074071
 30
0.0
 40
3.25
  0
LINE
  5
149
330
1F
100
AcDbEntity
  8
0
  6
CONTINUOUS
 62
     7
100
AcDbLine
 10
189.0505556873
 20
158.3940074146
 30
0.0
 11
195.6435465178
 21
158.3940074146
 31
0.0
  0
LINE
  5
14A
330
1F
100
AcDbEntity
  8
0
  6
CONTINUOUS
 62
     7
100
AcDbLine
 10
195.6435465178
 20
158.3940074146
 30
0.0
 11
192.3470501712
 21
162.1534115933
 31
0.0
  0
LINE
  5
14B
330
1F
100
AcDbEntity
  8
0
  6
CONTINUOUS
 62
     7
100
AcDbLine
 10
192.3470501712
 20
162.1534115933
 30
0.0
 11
189.0505556873
 21
158.3940074146
 31
0.0
  0
LINE
  5
14C
330
1F
100
AcDbEntity
  8
0
  6
CONTINUOUS
 62
     7
100
AcDbLine
 10
148.0971299968
 20
188.634226501
 30
0.0
 11
196.5971314273
 21
188.634226501
 31
0.0
  0
LINE
  5
14D
330
1F
100
AcDbEntity
  8
0
  6
CONTINUOUS
 62
     7
100
AcDbLine
 10
148.0971299968
 20
208.134228766
 30
0.0
 11
148.0971299968
 21
188.634226501
 31
0.0
  0
LINE
  5
14E
330
1F
100
AcDbEntity
  8
0
  6
CONTINUOUS
 62
     7
100
AcDbLine
 10
196.5971314273
 20
188.634226501
 30
0.0
 11
196.5971314273
 21
208.134228766
 31
0.0
  0
LINE
  5
14F
330
1F
100
AcDbEntity
  8
0
  6
CONTINUOUS
 62
     7
100
AcDbLine
 10
196.5971314273
 20
208.134228766
 30
0.0
 11
148.0971299968
 21
208.134228766
 31
0.0
  0
CIRCLE
  5
150
330
1F
100
AcDbEntity
  8
0
  6
CONTINUOUS
 62
     7
100
AcDbCircle
 10
199.347050712
 20
171.4940074071
 30
0.0
 40
5.0
  0
CIRCLE
  5
151
330
1F
100
AcDbEntity
  8
0
  6
CONTINUOUS
 62
     7
100
AcDbCircle
 10
145.347210712
 20
171.4940074071
 30
0.0
 40
4.876072063491989
  0
CIRCLE
  5
152
330
1F
100
AcDbEntity
  8
0
  6
CONTINUOUS
 62
     7
100
AcDbCircle
 10
172.347130712
 20
159.4940074071
 30
0.0
 40
5.0
  0
CIRCLE
  5
153
330
1F
100
AcDbEntity
  8
0
  6
CONTINUOUS
 62
     7
100
AcDbCircle
 10
192.347050712
 20
159.4940074071
 30
0.0
 40
5.0
  0
CIRCLE
  5
154
330
1F
100
AcDbEntity
  8
0
  6
CONTINUOUS
 62
     7
100
AcDbCircle
 10
152.347210712
 20
159.4940074071
 30
0.0
 40
5.0
  0
LINE
  5
155
330
1F
100
AcDbEntity
  8
0
  6
CONTINUOUS
 62
     7
100
AcDbLine
 10
197.5971315912
 20
209.1342270672
 30
0.0
 11
147.0971298328
 21
209.1342270672
 31
0.0
  0
LINE
  5
156
330
1F
100
AcDbEntity
  8
0
  6
CONTINUOUS
 62
     7
100
AcDbLine
 10
197.5971315912
 20
187.6342281997
 30
0.0
 11
197.5971315912
 21
209.1342270672
 31
0.0
  0
LINE
  5
157
330
1F
100
AcDbEntity
  8
0
  6
CONTINUOUS
 62
     7
100
AcDbLine
 10
147.0971298328
 20
187.6342281997
 30
0.0
 11
197.5971315912
 21
187.6342281997
 31
0.0
  0
LINE
  5
158
330
1F
100
AcDbEntity
  8
0
  6
CONTINUOUS
 62
     7
100
AcDbLine
 10
147.0971298328
 20
209.1342270672
 30
0.0
 11
147.0971298328
 21
187.6342281997
 31
0.0
  0
LINE
  5
159
330
1F
100
AcDbEntity
  8
0
  6
CONTINUOUS
 62
     7
100
AcDbLine
 10
163.1916207186
 20
180.3744420707
 30
0.0
 11
170.347130617
 21
172.9646948464
 31
0.0
  0
LINE
  5
15A
330
1F
100
AcDbEntity
  8
0
  6
CONTINUOUS
 62
     7
100
AcDbLine
 10
182.6790221891
 20
184.8734639883
 30
0.0
 11
163.1916207186
 21
180.3744420707
 31
0.0
  0
LINE
  5
15B
330
1F
100
AcDbEntity
  8
0
  6
CONTINUOUS
 62
     7
100
AcDbLine
 10
170.347130617
 20
172.9646948464
 30
0.0
 11
182.6790221891
 21
184.8734639883
 31
0.0
  0
CIRCLE
  5
15C
330
1F
100
AcDbEntity
  8
0
  6
CONTINUOUS
 62
     7
100
AcDbCircle
 10
199.347050712
 20
171.4940074071
 30
0.0
 40
6.0
  0
CIRCLE
  5
15D
330
1F
100
AcDbEntity
  8
0
  6
CONTINUOUS
 62
     7
100
AcDbCircle
 10
145.347210712
 20
171.4940074071
 30
0.0
 40
6.0
  0
LINE
  5
15E
330
1F
100
AcDbEntity
  8
0
  6
CONTINUOUS
 62
     7
100
AcDbLine
 10
172.7667922311
 20
168.6937606959
 30
0.0
 11
172.9975614505
 21
168.6937606959
 31
0.0
  0
LINE
  5
15F
330
1F
100
AcDbEntity
  8
0
  6
CONTINUOUS
 62
     7
100
AcDbLine
 10
172.9975614505
 20
168.6937606959
 30
0.0
 11
172.9975614505
 21
168.3860683937
 31
0.0
  0
LINE
  5
160
330
1F
100
AcDbEntity
  8
0
  6
CONTINUOUS
 62
     7
100
AcDbLine
 10
172.9975614505
 20
168.3860683937
 30
0.0
 11
172.7667922311
 21
168.3860683937
 31
0.0
  0
LINE
  5
161
330
1F
100
AcDbEntity
  8
0
  6
CONTINUOUS
 62
     7
100
AcDbLine
 10
172.7667922311
 20
168.3860683937
 30
0.0
 11
172.7667922311
 21
167.2322222679
 31
0.0
  0
LINE
  5
162
330
1F
100
AcDbEntity
  8
0
  6
CONTINUOUS
 62
     7
100
AcDbLine
 10
172.7667922311
 20
167.2322222679
 30
0.0
 11
172.4078178701
 21
167.2322222679
 31
0.0
  0
LINE
  5
163
330
1F
100
AcDbEntity
  8
0
  6
CONTINUOUS
 62
     7
100
AcDbLine
 10
172.4078178701
 20
167.2322222679
 30
0.0
 11
172.4078178701
 21
168.3860683937
 31
0.0
  0
LINE
  5
164
330
1F
100
AcDbEntity
  8
0
  6
CONTINUOUS
 62
     7
100
AcDbLine
 10
172.4078178701
 20
168.3860683937
 30
0.0
 11
172.2283306878
 21
168.3860683937
 31
0.0
  0
LINE
  5
165
330
1F
100
AcDbEntity
  8
0
  6
CONTINUOUS
 62
     7
100
AcDbLine
 10
172.2283306878
 20
168.3860683937
 30
0.0
 11
172.2283306878
 21
168.6937606959
 31
0.0
  0
LINE
  5
166
330
1F
100
AcDbEntity
  8
0
  6
CONTINUOUS
 62
     7
100
AcDbLine
 10
172.2283306878
 20
168.6937606959
 30
0.0
 11
172.4078178701
 21
168.6937606959
 31
0.0
  0
LINE
  5
167
330
1F
100
AcDbEntity
  8
0
  6
CONTINUOUS
 62
     7
100
AcDbLine
 10
172.4078178701
 20
169.2835043017
 30
0.0
 11
172.7667922311
 21
169.2835043017
 31
0.0
  0
LINE
  5
168
330
1F
100
AcDbEntity
  8
0
  6
CONTINUOUS
 62
     7
100
AcDbLine
 10
172.7667922311
 20
169.2835043017
 30
0.0
 11
172.7667922311
 21
168.6937606959
 31
0.0
  0
LINE
  5
169
330
1F
100
AcDbEntity
  8
0
  6
CONTINUOUS
 62
     7
100
AcDbLine
 10
172.4078178701
 20
168.6937606959
 30
0.0
 11
172.4078178701
 21
169.2835043017
 31
0.0
  0
LINE
  5
16A
330
1F
100
AcDbEntity
  8
0
  6
CONTINUOUS
 62
     7
100
AcDbLine
 10
189.6871351561
 20
167.2322222679
 30
0.0
 11
189.328160595
 21
167.2322222679
 31
0.0
  0
LINE
  5
16B
330
1F
100
AcDbEntity
  8
0
  6
CONTINUOUS
 62
     7
100
AcDbLine
 10
189.328160595
 20
169.2835043017
 30
0.0
 11
189.6871351561
 21
169.2835043017
 31
0.0
  0
LINE
  5
16C
330
1F
100
AcDbEntity
  8
0
  6
CONTINUOUS
 62
     7
100
AcDbLine
 10
189.6871351561
 20
169.2835043017
 30
0.0
 11
189.6871351561
 21
167.2322222679
 31
0.0
  0
LINE
  5
16D
330
1F
100
AcDbEntity
  8
0
  6
CONTINUOUS
 62
     7
100
AcDbLine
 10
189.328160595
 20
167.2322222679
 30
0.0
 11
189.328160595
 21
169.2835043017
 31
0.0
  0
LINE
  5
16E
330
1F
100
AcDbEntity
  8
0
  6
CONTINUOUS
 62
     7
100
AcDbLine
 10
185.4691863916
 20
169.2322223047
 30
0.0
 11
185.8525997883
 21
169.2322223047
 31
0.0
  0
LINE
  5
16F
330
1F
100
AcDbEntity
  8
0
  6
CONTINUOUS
 62
     7
100
AcDbLine
 10
185.8525997883
 20
169.2322223047
 30
0.0
 11
186.366621863
 21
167.8115491762
 31
0.0
  0
LINE
  5
170
330
1F
100
AcDbEntity
  8
0
  6
CONTINUOUS
 62
     7
100
AcDbLine
 10
186.366621863
 20
167.8115491762
 30
0.0
 11
186.8818462751
 21
169.2322223047
 31
0.0
  0
LINE
  5
171
330
1F
100
AcDbEntity
  8
0
  6
CONTINUOUS
 62
     7
100
AcDbLine
 10
186.8818462751
 20
169.2322223047
 30
0.0
 11
187.2640582657
 21
169.2322223047
 31
0.0
  0
LINE
  5
172
330
1F
100
AcDbEntity
  8
0
  6
CONTINUOUS
 62
     7
100
AcDbLine
 10
186.5388979128
 20
167.2322222679
 30
0.0
 11
186.193144407
 21
167.2322222679
 31
0.0
  0
LINE
  5
173
330
1F
100
AcDbEntity
  8
0
  6
CONTINUOUS
 62
     7
100
AcDbLine
 10
186.193144407
 20
167.2322222679
 30
0.0
 11
185.4691863916
 21
169.2322223047
 31
0.0
  0
LINE
  5
174
330
1F
100
AcDbEntity
  8
0
  6
CONTINUOUS
 62
     7
100
AcDbLine
 10
187.2640582657
 20
169.2322223047
 30
0.0
 11
186.5388979128
 21
167.2322222679
 31
0.0
  0
LINE
  5
175
330
1F
100
AcDbEntity
  8
0
  6
CONTINUOUS
 62
     7
100
AcDbLine
 10
169.3308947067
 20
169.2322223047
 30
0.0
 11
170.4078179243
 21
169.2322223047
 31
0.0
  0
LINE
  5
176
330
1F
100
AcDbEntity
  8
0
  6
CONTINUOUS
 62
     7
100
AcDbLine
 10
170.4078179243
 20
169.2322223047
 30
0.0
 11
170.4078179243
 21
168.8732479182
 31
0.0
  0
LINE
  5
177
330
1F
100
AcDbEntity
  8
0
  6
CONTINUOUS
 62
     7
100
AcDbLine
 10
170.4078179243
 20
168.8732479182
 30
0.0
 11
169.6898690349
 21
168.8732479182
 31
0.0
  0
LINE
  5
178
330
1F
100
AcDbEntity
  8
0
  6
CONTINUOUS
 62
     7
100
AcDbLine
 10
169.6898690349
 20
168.8732479182
 30
0.0
 11
169.6898690349
 21
168.4886325332
 31
0.0
  0
LINE
  5
179
330
1F
100
AcDbEntity
  8
0
  6
CONTINUOUS
 62
     7
100
AcDbLine
 10
169.6898690349
 20
168.4886325332
 30
0.0
 11
170.4078179243
 21
168.4886325332
 31
0.0
  0
LINE
  5
17A
330
1F
100
AcDbEntity
  8
0
  6
CONTINUOUS
 62
     7
100
AcDbLine
 10
170.4078179243
 20
168.4886325332
 30
0.0
 11
170.4078179243
 21
168.1296581468
 31
0.0
  0
LINE
  5
17B
330
1F
100
AcDbEntity
  8
0
  6
CONTINUOUS
 62
     7
100
AcDbLine
 10
170.4078179243
 20
168.1296581468
 30
0.0
 11
169.6898690349
 21
168.1296581468
 31
0.0
  0
LINE
  5
17C
330
1F
100
AcDbEntity
  8
0
  6
CONTINUOUS
 62
     7
100
AcDbLine
 10
169.6898690349
 20
168.1296581468
 30
0.0
 11
169.6898690349
 21
167.5911965962
 31
0.0
  0
LINE
  5
17D
330
1F
100
AcDbEntity
  8
0
  6
CONTINUOUS
 62
     7
100
AcDbLine
 10
169.6898690349
 20
167.5911965962
 30
0.0
 11
170.4078179243
 21
167.5911965962
 31
0.0
  0
LINE
  5
17E
330
1F
100
AcDbEntity
  8
0
  6
CONTINUOUS
 62
     7
100
AcDbLine
 10
170.4078179243
 20
167.5911965962
 30
0.0
 11
170.4078179243
 21
167.2322222679
 31
0.0
  0
LINE
  5
17F
330
1F
100
AcDbEntity
  8
0
  6
CONTINUOUS
 62
     7
100
AcDbLine
 10
170.4078179243
 20
167.2322222679
 30
0.0
 11
169.3308947067
 21
167.2322222679
 31
0.0
  0
LINE
  5
180
330
1F
100
AcDbEntity
  8
0
  6
CONTINUOUS
 62
     7
100
AcDbLine
 10
169.3308947067
 20
167.2322222679
 30
0.0
 11
169.3308947067
 21
169.2322223047
 31
0.0
  0
LINE
  5
181
330
1F
100
AcDbEntity
  8
0
  6
CONTINUOUS
 62
     7
100
AcDbLine
 10
152.7941063902
 20
169.2322223047
 30
0.0
 11
153.1667024753
 21
169.2322223047
 31
0.0
  0
LINE
  5
182
330
1F
100
AcDbEntity
  8
0
  6
CONTINUOUS
 62
     7
100
AcDbLine
 10
153.1667024753
 20
169.2322223047
 30
0.0
 11
153.6230319104
 21
167.8371902038
 31
0.0
  0
LINE
  5
183
330
1F
100
AcDbEntity
  8
0
  6
CONTINUOUS
 62
     7
100
AcDbLine
 10
154.4515588245
 20
169.2322223047
 30
0.0
 11
154.7896996996
 21
167.2322222679
 31
0.0
  0
LINE
  5
184
330
1F
100
AcDbEntity
  8
0
  6
CONTINUOUS
 62
     7
100
AcDbLine
 10
154.7896996996
 20
167.2322222679
 30
0.0
 11
154.4263181201
 21
167.2322222679
 31
0.0
  0
LINE
  5
185
330
1F
100
AcDbEntity
  8
0
  6
CONTINUOUS
 62
     7
100
AcDbLine
 10
154.4263181201
 20
167.2322222679
 30
0.0
 11
154.212775167
 21
168.4954434116
 31
0.0
  0
LINE
  5
186
330
1F
100
AcDbEntity
  8
0
  6
CONTINUOUS
 62
     7
100
AcDbLine
 10
154.212775167
 20
168.4954434116
 30
0.0
 11
153.7969098351
 21
167.2322222679
 31
0.0
  0
LINE
  5
187
330
1F
100
AcDbEntity
  8
0
  6
CONTINUOUS
 62
     7
100
AcDbLine
 10
153.7969098351
 20
167.2322222679
 30
0.0
 11
153.4467511735
 21
167.2322222679
 31
0.0
  0
LINE
  5
188
330
1F
100
AcDbEntity
  8
0
  6
CONTINUOUS
 62
     7
100
AcDbLine
 10
153.4467511735
 20
167.2322222679
 30
0.0
 11
153.0332886538
 21
168.4954434116
 31
0.0
  0
LINE
  5
189
330
1F
100
AcDbEntity
  8
0
  6
CONTINUOUS
 62
     7
100
AcDbLine
 10
153.0332886538
 20
168.4954434116
 30
0.0
 11
152.820148032
 21
167.2322222679
 31
0.0
  0
LINE
  5
18A
330
1F
100
AcDbEntity
  8
0
  6
CONTINUOUS
 62
     7
100
AcDbLine
 10
152.820148032
 20
167.2322222679
 30
0.0
 11
152.4563659838
 21
167.2322222679
 31
0.0
  0
LINE
  5
18B
330
1F
100
AcDbEntity
  8
0
  6
CONTINUOUS
 62
     7
100
AcDbLine
 10
152.4563659838
 20
167.2322222679
 30
0.0
 11
152.7941063902
 21
169.2322223047
 31
0.0
  0
LINE
  5
18C
330
1F
100
AcDbEntity
  8
0
  6
CONTINUOUS
 62
     7
100
AcDbLine
 10
153.6230319104
 20
167.8371902038
 30
0.0
 11
154.0825669578
 21
169.2322223047
 31
0.0
  0
LINE
  5
18D
330
1F
100
AcDbEntity
  8
0
  6
CONTINUOUS
 62
     7
100
AcDbLine
 10
154.0825669578
 20
169.2322223047
 30
0.0
 11
154.4515588245
 21
169.2322223047
 31
0.0
  0
LINE
  5
18E
330
1F
100
AcDbEntity
  8
0
  6
CONTINUOUS
 62
     7
100
AcDbLine
 10
170.7155101391
 20
168.6937606959
 30
0.0
 11
171.0744845838
 21
168.6937606959
 31
0.0
  0
LINE
  5
18F
330
1F
100
AcDbEntity
  8
0
  6
CONTINUOUS
 62
     7
100
AcDbLine
 10
171.0744845838
 20
168.6937606959
 30
0.0
 11
171.0744845838
 21
168.5391133018
 31
0.0
  0
LWPOLYLINE
  5
190
330
1F
100
AcDbEntity
  8
0
  6
CONTINUOUS
 62
     7
100
AcDbPolyline
 90
        3
 70
   128
 43
0.0
 10
171.0744845838
 20
168.5391133018
 10
171.306837459
 20
168.680746045
 10
171.5167922009
 20
168.7194017526
  0
LWPOLYLINE
  5
191
330
1F
100
AcDbEntity
  8
0
  6
CONTINUOUS
 62
     7
100
AcDbPolyline
 90
        3
 70
   128
 43
0.0
 10
171.5167922009
 20
168.7194017526
 10
171.7432131333
 20
168.672458089
 10
171.8929941632
 20
168.5687607336
  0
LWPOLYLINE
  5
192
330
1F
100
AcDbEntity
  8
0
  6
CONTINUOUS
 62
     7
100
AcDbPolyline
 90
        3
 70
   128
 43
0.0
 10
171.8929941632
 20
168.5687607336
 10
172.0026800683
 20
168.369698595
 10
172.0232024888
 20
168.1905555837
  0
LINE
  5
193
330
1F
100
AcDbEntity
  8
0
  6
CONTINUOUS
 62
     7
100
AcDbLine
 10
172.0232024888
 20
168.1905555837
 30
0.0
 11
172.0232024888
 21
167.2322222679
 31
0.0
  0
LINE
  5
194
330
1F
100
AcDbEntity
  8
0
  6
CONTINUOUS
 62
     7
100
AcDbLine
 10
172.0232024888
 20
167.2322222679
 30
0.0
 11
171.6642281314
 21
167.2322222679
 31
0.0
  0
LINE
  5
195
330
1F
100
AcDbEntity
  8
0
  6
CONTINUOUS
 62
     7
100
AcDbLine
 10
171.6642281314
 20
167.2322222679
 30
0.0
 11
171.6642281314
 21
167.8668376356
 31
0.0
  0
LWPOLYLINE
  5
196
330
1F
100
AcDbEntity
  8
0
  6
CONTINUOUS
 62
     7
100
AcDbPolyline
 90
        6
 70
   128
 43
0.0
 10
171.6642281314
 20
167.8668376356
 10
171.6433621402
 20
168.1972894242
 10
171.6137041146
 20
168.27441766
 10
171.5603960253
 20
168.3373605723
 10
171.4869206696
 20
168.3747986339
 10
171.4050134103
 20
168.3860683937
  0
ARC
  5
197
330
1F
100
AcDbEntity
  8
0
  6
CONTINUOUS
 62
     7
100
AcDbCircle
 10
171.4102528756
 20
168.064168717
 30
0.0
 40
0.3219423144988204
100
AcDbArc
 50
90.9325040219
 51
172.1708577723
  0
LWPOLYLINE
  5
198
330
1F
100
AcDbEntity
  8
0
  6
CONTINUOUS
 62
     7
100
AcDbPolyline
 90
        3
 70
   128
 43
0.0
 10
171.0913114873
 20
168.1080235306
 10
171.0763499065
 20
167.9437374063
 10
171.0744845838
 20
167.8139530217
  0
LINE
  5
199
330
1F
100
AcDbEntity
  8
0
  6
CONTINUOUS
 62
     7
100
AcDbLine
 10
171.0744845838
 20
167.8139530217
 30
0.0
 11
171.0744845838
 21
167.2322222679
 31
0.0
  0
LINE
  5
19A
330
1F
100
AcDbEntity
  8
0
  6
CONTINUOUS
 62
     7
100
AcDbLine
 10
171.0744845838
 20
167.2322222679
 30
0.0
 11
170.7155101391
 21
167.2322222679
 31
0.0
  0
LINE
  5
19B
330
1F
100
AcDbEntity
  8
0
  6
CONTINUOUS
 62
     7
100
AcDbLine
 10
170.7155101391
 20
167.2322222679
 30
0.0
 11
170.7155101391
 21
168.6937606959
 31
0.0
  0
LINE
  5
19C
330
1F
100
AcDbEntity
  8
0
  6
CONTINUOUS
 62
     7
100
AcDbLine
 10
174.9206383171
 20
168.6937606959
 30
0.0
 11
175.2283307648
 21
168.6937606959
 31
0.0
  0
LINE
  5
19D
330
1F
100
AcDbEntity
  8
0
  6
CONTINUOUS
 62
     7
100
AcDbLine
 10
175.2283307648
 20
168.6937606959
 30
0.0
 11
175.2283307648
 21
168.5138728884
 31
0.0
  0
LINE
  5
19E
330
1F
100
AcDbEntity
  8
0
  6
CONTINUOUS
 62
     7
100
AcDbLine
 10
175.6898690871
 20
168.6833440275
 30
0.0
 11
175.5784910562
 21
168.3792575153
 31
0.0
  0
LWPOLYLINE
  5
19F
330
1F
100
AcDbEntity
  8
0
  6
CONTINUOUS
 62
     7
100
AcDbPolyline
 90
        3
 70
   128
 43
0.0
 10
175.5784910562
 20
168.3792575153
 10
175.5223069264
 20
168.4033366567
 10
175.4751256591
 20
168.4117094213
  0
LWPOLYLINE
  5
1A0
330
1F
100
AcDbEntity
  8
0
  6
CONTINUOUS
 62
     7
100
AcDbPolyline
 90
        5
 70
   128
 43
0.0
 10
175.4751256591
 20
168.4117094213
 10
175.4043633043
 20
168.3893842804
 10
175.3527459147
 20
168.3351702471
 10
175.299589049
 20
168.1954156614
 10
175.2784107736
 20
167.8952831447
  0
LINE
  5
1A1
330
1F
100
AcDbEntity
  8
0
  6
CONTINUOUS
 62
     7
100
AcDbLine
 10
175.2784107736
 20
167.8952831447
 30
0.0
 11
175.2796126454
 21
167.8239690467
 31
0.0
  0
LINE
  5
1A2
330
1F
100
AcDbEntity
  8
0
  6
CONTINUOUS
 62
     7
100
AcDbLine
 10
175.2796126454
 20
167.8239690467
 30
0.0
 11
175.2796126454
 21
167.2322222679
 31
0.0
  0
LINE
  5
1A3
330
1F
100
AcDbEntity
  8
0
  6
CONTINUOUS
 62
     7
100
AcDbLine
 10
175.2796126454
 20
167.2322222679
 30
0.0
 11
174.9206383171
 21
167.2322222679
 31
0.0
  0
LINE
  5
1A4
330
1F
100
AcDbEntity
  8
0
  6
CONTINUOUS
 62
     7
100
AcDbLine
 10
174.9206383171
 20
167.2322222679
 30
0.0
 11
174.9206383171
 21
168.6937606959
 31
0.0
  0
ARC
  5
1A5
330
1F
100
AcDbEntity
  8
0
  6
CONTINUOUS
 62
     7
100
AcDbCircle
 10
175.5460403649
 20
168.3710912622
 30
0.0
 40
0.3483187947789625
100
AcDbArc
 50
90.3956434864
 51
155.8004095326
  0
LWPOLYLINE
  5
1A6
330
1F
100
AcDbEntity
  8
0
  6
CONTINUOUS
 62
     7
100
AcDbPolyline
 90
        3
 70
   128
 43
0.0
 10
175.5436351447
 20
168.7194017526
 10
175.6274683791
 20
168.7068951963
 10
175.6898690871
 20
168.6833440275
  0
LINE
  5
1A7
330
1F
100
AcDbEntity
  8
0
  6
CONTINUOUS
 62
     7
100
AcDbLine
 10
156.8409814424
 20
168.6937606959
 30
0.0
 11
157.1999550721
 21
168.6937606959
 31
0.0
  0
LINE
  5
1A8
330
1F
100
AcDbEntity
  8
0
  6
CONTINUOUS
 62
     7
100
AcDbLine
 10
157.1999550721
 20
168.6937606959
 30
0.0
 11
157.1999550721
 21
168.5391133018
 31
0.0
  0
LWPOLYLINE
  5
1A9
330
1F
100
AcDbEntity
  8
0
  6
CONTINUOUS
 62
     7
100
AcDbPolyline
 90
        3
 70
   128
 43
0.0
 10
157.6422634459
 20
168.7194017526
 10
157.8686837963
 20
168.672458089
 10
158.0184646806
 20
168.5687607336
  0
LWPOLYLINE
  5
1AA
330
1F
100
AcDbEntity
  8
0
  6
CONTINUOUS
 62
     7
100
AcDbPolyline
 90
        3
 70
   128
 43
0.0
 10
158.0184646806
 20
168.5687607336
 10
158.1281511969
 20
168.369698595
 10
158.1486738211
 20
168.1905555837
  0
LINE
  5
1AB
330
1F
100
AcDbEntity
  8
0
  6
CONTINUOUS
 62
     7
100
AcDbLine
 10
158.1486738211
 20
168.1905555837
 30
0.0
 11
158.1486738211
 21
167.2322222679
 31
0.0
  0
LINE
  5
1AC
330
1F
100
AcDbEntity
  8
0
  6
CONTINUOUS
 62
     7
100
AcDbLine
 10
158.1486738211
 20
167.2322222679
 30
0.0
 11
157.78969926
 21
167.2322222679
 31
0.0
  0
LINE
  5
1AD
330
1F
100
AcDbEntity
  8
0
  6
CONTINUOUS
 62
     7
100
AcDbLine
 10
157.78969926
 20
167.2322222679
 30
0.0
 11
157.78969926
 21
167.8668376356
 31
0.0
  0
LWPOLYLINE
  5
1AE
330
1F
100
AcDbEntity
  8
0
  6
CONTINUOUS
 62
     7
100
AcDbPolyline
 90
        6
 70
   128
 43
0.0
 10
157.78969926
 20
167.8668376356
 10
157.7688329777
 20
168.1972894242
 10
157.7391750104
 20
168.27441766
 10
157.6858670375
 20
168.3373605723
 10
157.6123912743
 20
168.3747986339
 10
157.5304842478
 20
168.3860683937
  0
ARC
  5
1AF
330
1F
100
AcDbEntity
  8
0
  6
CONTINUOUS
 62
     7
100
AcDbCircle
 10
157.5357239614
 20
168.0641683034
 30
0.0
 40
0.32194273209407
100
AcDbArc
 50
90.9325469965
 51
172.170793689
  0
LWPOLYLINE
  5
1B0
330
1F
100
AcDbEntity
  8
0
  6
CONTINUOUS
 62
     7
100
AcDbPolyline
 90
        3
 70
   128
 43
0.0
 10
157.2167822084
 20
168.1080235306
 10
157.2018205113
 20
167.9437374063
 10
157.1999550721
 20
167.8139530217
  0
LINE
  5
1B1
330
1F
100
AcDbEntity
  8
0
  6
CONTINUOUS
 62
     7
100
AcDbLine
 10
157.1999550721
 20
167.8139530217
 30
0.0
 11
157.1999550721
 21
167.2322222679
 31
0.0
  0
LINE
  5
1B2
330
1F
100
AcDbEntity
  8
0
  6
CONTINUOUS
 62
     7
100
AcDbLine
 10
157.1999550721
 20
167.2322222679
 30
0.0
 11
156.8409814424
 21
167.2322222679
 31
0.0
  0
LINE
  5
1B3
330
1F
100
AcDbEntity
  8
0
  6
CONTINUOUS
 62
     7
100
AcDbLine
 10
156.8409814424
 20
167.2322222679
 30
0.0
 11
156.8409814424
 21
168.6937606959
 31
0.0
  0
LWPOLYLINE
  5
1B4
330
1F
100
AcDbEntity
  8
0
  6
CONTINUOUS
 62
     7
100
AcDbPolyline
 90
        3
 70
   128
 43
0.0
 10
157.1999550721
 20
168.5391133018
 10
157.4323088786
 20
168.680746045
 10
157.6422634459
 20
168.7194017526
  0
ARC
  5
1B5
330
1F
100
AcDbEntity
  8
0
  6
CONTINUOUS
 62
     7
100
AcDbCircle
 10
155.8146561779
 20
168.0319649088
 30
0.0
 40
0.3802169111432386
100
AcDbArc
 50
18.9279376821
 51
92.8564144729
  0
LWPOLYLINE
  5
1B6
330
1F
100
AcDbEntity
  8
0
  6
CONTINUOUS
 62
     7
100
AcDbPolyline
 90
        3
 70
   128
 43
0.0
 10
155.7957087568
 20
168.4117094213
 10
155.6431674323
 20
168.3874267568
 10
155.5352923385
 20
168.331581221
  0
LWPOLYLINE
  5
1B7
330
1F
100
AcDbEntity
  8
0
  6
CONTINUOUS
 62
     7
100
AcDbPolyline
 90
        3
 70
   128
 43
0.0
 10
155.5352923385
 20
168.331581221
 10
155.4522109142
 20
168.2403907274
 10
155.4050841293
 20
168.1552991744
  0
LINE
  5
1B8
330
1F
100
AcDbEntity
  8
0
  6
CONTINUOUS
 62
     7
100
AcDbLine
 10
155.4050841293
 20
168.1552991744
 30
0.0
 11
156.1743137351
 21
168.1552991744
 31
0.0
  0
LINE
  5
1B9
330
1F
100
AcDbEntity
  8
0
  6
CONTINUOUS
 62
     7
100
AcDbLine
 10
156.5320868901
 20
167.8732478853
 30
0.0
 11
155.3794429562
 21
167.8732478853
 31
0.0
  0
ARC
  5
1BA
330
1F
100
AcDbEntity
  8
0
  6
CONTINUOUS
 62
     7
100
AcDbCircle
 10
155.7737019011
 20
167.9100241715
 30
0.0
 40
0.3959704671808753
100
AcDbArc
 50
185.3291023774
 51
271.9093160227
  0
LWPOLYLINE
  5
1BB
330
1F
100
AcDbEntity
  8
0
  6
CONTINUOUS
 62
     7
100
AcDbPolyline
 90
        3
 70
   128
 43
0.0
 10
155.7868947199
 20
167.5142735424
 10
155.9957549832
 20
167.5632348582
 10
156.1302435509
 20
167.6661164914
  0
LINE
  5
1BC
330
1F
100
AcDbEntity
  8
0
  6
CONTINUOUS
 62
     7
100
AcDbLine
 10
156.1302435509
 20
167.6661164914
 30
0.0
 11
156.4307254663
 21
167.5230876375
 31
0.0
  0
ARC
  5
1BD
330
1F
100
AcDbEntity
  8
0
  6
CONTINUOUS
 62
     7
100
AcDbCircle
 10
155.828159862
 20
167.9351795286
 30
0.0
 40
0.7300034481123108
100
AcDbArc
 50
266.4444792479
 51
325.6319522116
  0
ARC
  5
1BE
330
1F
100
AcDbEntity
  8
0
  6
CONTINUOUS
 62
     7
100
AcDbCircle
 10
155.7498200953
 20
167.9354446968
 30
0.0
 40
0.7296132387833087
100
AcDbArc
 50
178.4658346634
 51
272.59769188
  0
ARC
  5
1BF
330
1F
100
AcDbEntity
  8
0
  6
CONTINUOUS
 62
     7
100
AcDbCircle
 10
155.7542329319
 20
167.9851202186
 30
0.0
 40
0.7343833529708931
100
AcDbArc
 50
89.0458962995
 51
182.3522719891
  0
ARC
  5
1C0
330
1F
100
AcDbEntity
  8
0
  6
CONTINUOUS
 62
     7
100
AcDbCircle
 10
155.7970236963
 20
167.9825942867
 30
0.0
 40
0.7374410413378452
100
AcDbArc
 50
356.7631923683
 51
92.3752222449
  0
LINE
  5
1C1
330
1F
100
AcDbEntity
  8
0
  6
CONTINUOUS
 62
     7
100
AcDbLine
 10
156.5332882962
 20
167.9409562224
 30
0.0
 11
156.5320868901
 21
167.8732478853
 31
0.0
  0
ARC
  5
1C2
330
1F
100
AcDbEntity
  8
0
  6
CONTINUOUS
 62
     7
100
AcDbCircle
 10
192.4300409205
 20
168.0319649088
 30
0.0
 40
0.3802169111432386
100
AcDbArc
 50
18.9279376821
 51
92.8564144729
  0
LWPOLYLINE
  5
1C3
330
1F
100
AcDbEntity
  8
0
  6
CONTINUOUS
 62
     7
100
AcDbPolyline
 90
        3
 70
   128
 43
0.0
 10
192.4110934994
 20
168.4117094213
 10
192.2585521749
 20
168.3874267568
 10
192.1506770811
 20
168.331581221
  0
LWPOLYLINE
  5
1C4
330
1F
100
AcDbEntity
  8
0
  6
CONTINUOUS
 62
     7
100
AcDbPolyline
 90
        3
 70
   128
 43
0.0
 10
192.1506770811
 20
168.331581221
 10
192.0675956568
 20
168.2403907274
 10
192.0204688719
 20
168.1552991744
  0
LINE
  5
1C5
330
1F
100
AcDbEntity
  8
0
  6
CONTINUOUS
 62
     7
100
AcDbLine
 10
192.0204688719
 20
168.1552991744
 30
0.0
 11
192.7896984777
 21
168.1552991744
 31
0.0
  0
LINE
  5
1C6
330
1F
100
AcDbEntity
  8
0
  6
CONTINUOUS
 62
     7
100
AcDbLine
 10
193.1474716327
 20
167.8732478853
 30
0.0
 11
191.9948276988
 21
167.8732478853
 31
0.0
  0
ARC
  5
1C7
330
1F
100
AcDbEntity
  8
0
  6
CONTINUOUS
 62
     7
100
AcDbCircle
 10
192.3890866437
 20
167.9100241715
 30
0.0
 40
0.3959704671808753
100
AcDbArc
 50
185.3291023774
 51
271.9093160227
  0
LWPOLYLINE
  5
1C8
330
1F
100
AcDbEntity
  8
0
  6
CONTINUOUS
 62
     7
100
AcDbPolyline
 90
        3
 70
   128
 43
0.0
 10
192.4022794626
 20
167.5142735424
 10
192.6111397258
 20
167.5632348582
 10
192.7456282935
 20
167.6661164914
  0
LINE
  5
1C9
330
1F
100
AcDbEntity
  8
0
  6
CONTINUOUS
 62
     7
100
AcDbLine
 10
192.7456282935
 20
167.6661164914
 30
0.0
 11
193.046110209
 21
167.5230876375
 31
0.0
  0
ARC
  5
1CA
330
1F
100
AcDbEntity
  8
0
  6
CONTINUOUS
 62
     7
100
AcDbCircle
 10
192.4435446046
 20
167.9351795286
 30
0.0
 40
0.7300034481123108
100
AcDbArc
 50
266.4444792479
 51
325.6319522116
  0
ARC
  5
1CB
330
1F
100
AcDbEntity
  8
0
  6
CONTINUOUS
 62
     7
100
AcDbCircle
 10
192.3652048379
 20
167.9354446968
 30
0.0
 40
0.7296132387833087
100
AcDbArc
 50
178.4658346634
 51
272.59769188
  0
ARC
  5
1CC
330
1F
100
AcDbEntity
  8
0
  6
CONTINUOUS
 62
     7
100
AcDbCircle
 10
192.3696176745
 20
167.9851202186
 30
0.0
 40
0.7343833529708931
100
AcDbArc
 50
89.0458962995
 51
182.3522719891
  0
ARC
  5
1CD
330
1F
100
AcDbEntity
  8
0
  6
CONTINUOUS
 62
     7
100
AcDbCircle
 10
192.4124084389
 20
167.9825942867
 30
0.0
 40
0.7374410413378167
100
AcDbArc
 50
356.7631923683
 51
92.3752222449
  0
LINE
  5
1CE
330
1F
100
AcDbEntity
  8
0
  6
CONTINUOUS
 62
     7
100
AcDbLine
 10
193.1486730388
 20
167.9409562224
 30
0.0
 11
193.1474716327
 21
167.8732478853
 31
0.0
  0
ARC
  5
1CF
330
1F
100
AcDbEntity
  8
0
  6
CONTINUOUS
 62
     7
100
AcDbCircle
 10
173.9455956417
 20
168.0319642877
 30
0.0
 40
0.3802175436292201
100
AcDbArc
 50
18.9280039519
 51
92.8564463597
  0
LWPOLYLINE
  5
1D0
330
1F
100
AcDbEntity
  8
0
  6
CONTINUOUS
 62
     7
100
AcDbPolyline
 90
        3
 70
   128
 43
0.0
 10
173.9266479778
 20
168.4117094213
 10
173.7741073518
 20
168.3874267568
 10
173.6662313266
 20
168.331581221
  0
LWPOLYLINE
  5
1D1
330
1F
100
AcDbEntity
  8
0
  6
CONTINUOUS
 62
     7
100
AcDbPolyline
 90
        3
 70
   128
 43
0.0
 10
173.6662313266
 20
168.331581221
 10
173.5831503681
 20
168.2403907274
 10
173.5360230011
 20
168.1552991744
  0
LINE
  5
1D2
330
1F
100
AcDbEntity
  8
0
  6
CONTINUOUS
 62
     7
100
AcDbLine
 10
173.5360230011
 20
168.1552991744
 30
0.0
 11
174.3052536546
 21
168.1552991744
 31
0.0
  0
LINE
  5
1D3
330
1F
100
AcDbEntity
  8
0
  6
CONTINUOUS
 62
     7
100
AcDbLine
 10
174.6630261111
 20
167.8732478853
 30
0.0
 11
173.5103819444
 21
167.8732478853
 31
0.0
  0
ARC
  5
1D4
330
1F
100
AcDbEntity
  8
0
  6
CONTINUOUS
 62
     7
100
AcDbCircle
 10
173.9046411256
 20
167.9100244312
 30
0.0
 40
0.3959707266126558
100
AcDbArc
 50
185.3291366156
 51
271.9093142641
  0
LWPOLYLINE
  5
1D5
330
1F
100
AcDbEntity
  8
0
  6
CONTINUOUS
 62
     7
100
AcDbPolyline
 90
        3
 70
   128
 43
0.0
 10
173.9178339409
 20
167.5142735424
 10
174.1266949027
 20
167.5632348582
 10
174.2611832375
 20
167.6661164914
  0
LINE
  5
1D6
330
1F
100
AcDbEntity
  8
0
  6
CONTINUOUS
 62
     7
100
AcDbLine
 10
174.2611832375
 20
167.6661164914
 30
0.0
 11
174.5616639889
 21
167.5230876375
 31
0.0
  0
ARC
  5
1D7
330
1F
100
AcDbEntity
  8
0
  6
CONTINUOUS
 62
     7
100
AcDbCircle
 10
173.959100954
 20
167.9351743859
 30
0.0
 40
0.7299984240983244
100
AcDbArc
 50
266.4443167695
 51
325.6321715426
  0
ARC
  5
1D8
330
1F
100
AcDbEntity
  8
0
  6
CONTINUOUS
 62
     7
100
AcDbCircle
 10
173.8807596795
 20
167.9354450617
 30
0.0
 40
0.7296135921216886
100
AcDbArc
 50
178.4658640721
 51
272.5976712184
  0
ARC
  5
1D9
330
1F
100
AcDbEntity
  8
0
  6
CONTINUOUS
 62
     7
100
AcDbCircle
 10
173.9279621126
 20
167.982592815
 30
0.0
 40
0.737442459081529
100
AcDbArc
 50
356.7633131212
 51
92.3751188867
  0
LINE
  5
1DA
330
1F
100
AcDbEntity
  8
0
  6
CONTINUOUS
 62
     7
100
AcDbLine
 10
174.6642282157
 20
167.9409562224
 30
0.0
 11
174.6630261111
 21
167.8732478853
 31
0.0
  0
ARC
  5
1DB
330
1F
100
AcDbEntity
  8
0
  6
CONTINUOUS
 62
     7
100
AcDbCircle
 10
173.885172396
 20
167.9851199888
 30
0.0
 40
0.7343835863786549
100
AcDbArc
 50
89.0458792318
 51
182.3522533025
  0
ARC
  5
1DC
330
1F
100
AcDbEntity
  8
0
  6
CONTINUOUS
 62
     7
100
AcDbCircle
 10
188.2470986776
 20
167.9464855368
 30
0.0
 40
0.4065765770343466
100
AcDbArc
 50
177.2777021361
 51
270.3009963843
  0
ARC
  5
1DD
330
1F
100
AcDbEntity
  8
0
  6
CONTINUOUS
 62
     7
100
AcDbCircle
 10
188.2573542425
 20
167.9445932525
 30
0.0
 40
0.4047601328448486
100
AcDbArc
 50
268.850543228
 51
3.1731079242
  0
ARC
  5
1DE
330
1F
100
AcDbEntity
  8
0
  6
CONTINUOUS
 62
     7
100
AcDbCircle
 10
188.2616225905
 20
167.9859909434
 30
0.0
 40
0.4003220397995355
100
AcDbArc
 50
357.2806131445
 51
92.0029676375
  0
ARC
  5
1DF
330
1F
100
AcDbEntity
  8
0
  6
CONTINUOUS
 62
     7
100
AcDbCircle
 10
188.2415780573
 20
167.9850543026
 30
0.0
 40
0.4010597677374241
100
AcDbArc
 50
89.1352622052
 51
182.7523225337
  0
LINE
  5
1E0
330
1F
100
AcDbEntity
  8
0
  6
CONTINUOUS
 62
     7
100
AcDbLine
 10
188.635852646
 20
168.6937606959
 30
0.0
 11
188.9948272071
 21
168.6937606959
 31
0.0
  0
LINE
  5
1E1
330
1F
100
AcDbEntity
  8
0
  6
CONTINUOUS
 62
     7
100
AcDbLine
 10
188.9948272071
 20
168.6937606959
 30
0.0
 11
188.9948272071
 21
167.2322222679
 31
0.0
  0
LINE
  5
1E2
330
1F
100
AcDbEntity
  8
0
  6
CONTINUOUS
 62
     7
100
AcDbLine
 10
188.9948272071
 20
167.2322222679
 30
0.0
 11
188.635852646
 21
167.2322222679
 31
0.0
  0
LINE
  5
1E3
330
1F
100
AcDbEntity
  8
0
  6
CONTINUOUS
 62
     7
100
AcDbLine
 10
188.635852646
 20
167.2322222679
 30
0.0
 11
188.635852646
 21
167.3916773819
 31
0.0
  0
LWPOLYLINE
  5
1E4
330
1F
100
AcDbEntity
  8
0
  6
CONTINUOUS
 62
     7
100
AcDbPolyline
 90
        3
 70
   128
 43
0.0
 10
188.635852646
 20
167.3916773819
 10
188.3998685441
 20
167.2425910314
 10
188.1831292919
 20
167.2065812112
  0
ARC
  5
1E5
330
1F
100
AcDbEntity
  8
0
  6
CONTINUOUS
 62
     7
100
AcDbCircle
 10
188.2054881928
 20
167.9303334179
 30
0.0
 40
0.7240974914897015
100
AcDbArc
 50
177.6371015843
 51
268.2305223567
  0
LINE
  5
1E6
330
1F
100
AcDbEntity
  8
0
  6
CONTINUOUS
 62
     7
100
AcDbLine
 10
188.635852646
 20
168.5290972767
 30
0.0
 11
188.635852646
 21
168.6937606959
 31
0.0
  0
ARC
  5
1E7
330
1F
100
AcDbEntity
  8
0
  6
CONTINUOUS
 62
     7
100
AcDbCircle
 10
188.1884650526
 20
168.0112819819
 30
0.0
 40
0.7083040035763376
100
AcDbArc
 50
91.3068350391
 51
184.1367438053
  0
LWPOLYLINE
  5
1E8
330
1F
100
AcDbEntity
  8
0
  6
CONTINUOUS
 62
     7
100
AcDbPolyline
 90
        3
 70
   128
 43
0.0
 10
188.1723110488
 20
168.7194017526
 10
188.4514898917
 20
168.6586638629
 10
188.635852646
 20
168.5290972767
  0
LWPOLYLINE
  5
1E9
330
1F
100
AcDbEntity
  8
0
  6
CONTINUOUS
 62
     7
100
AcDbPolyline
 90
        5
 70
   128
 43
0.0
 10
190.3794431052
 20
167.9922382749
 10
190.4194415471
 20
167.6860676038
 10
190.4629268608
 20
167.6219124296
 10
190.5242861173
 20
167.5744772605
 10
190.6743147335
 20
167.5399145701
  0
ARC
  5
1EA
330
1F
100
AcDbEntity
  8
0
  6
CONTINUOUS
 62
     7
100
AcDbCircle
 10
190.6934694111
 20
167.8081053404
 30
0.0
 40
0.268873931403291
100
AcDbArc
 50
265.9147670967
 51
338.9176646909
  0
LWPOLYLINE
  5
1EB
330
1F
100
AcDbEntity
  8
0
  6
CONTINUOUS
 62
     7
100
AcDbPolyline
 90
        3
 70
   128
 43
0.0
 10
190.9443461261
 20
167.7113889258
 10
190.9664668998
 20
167.8610132752
 10
190.9691863618
 20
167.980219045
  0
LINE
  5
1EC
330
1F
100
AcDbEntity
  8
0
  6
CONTINUOUS
 62
     7
100
AcDbLine
 10
190.9691863618
 20
167.980219045
 30
0.0
 11
190.9691863618
 21
168.6937606959
 31
0.0
  0
LINE
  5
1ED
330
1F
100
AcDbEntity
  8
0
  6
CONTINUOUS
 62
     7
100
AcDbLine
 10
191.3281609229
 20
168.6937606959
 30
0.0
 11
191.3281609229
 21
168.0795780215
 31
0.0
  0
LWPOLYLINE
  5
1EE
330
1F
100
AcDbEntity
  8
0
  6
CONTINUOUS
 62
     7
100
AcDbPolyline
 90
        3
 70
   128
 43
0.0
 10
191.3281609229
 20
168.0795780215
 10
191.3153608254
 20
167.7851572552
 10
191.2664626649
 20
167.5595459768
  0
ARC
  5
1EF
330
1F
100
AcDbEntity
  8
0
  6
CONTINUOUS
 62
     7
100
AcDbCircle
 10
190.7261817638
 20
167.7925764142
 30
0.0
 40
0.5883932672490275
100
AcDbArc
 50
264.8253402709
 51
336.6688120591
  0
ARC
  5
1F0
330
1F
100
AcDbEntity
  8
0
  6
CONTINUOUS
 62
     7
100
AcDbCircle
 10
190.6199121858
 20
167.7874286437
 30
0.0
 40
0.5832787509543141
100
AcDbArc
 50
197.665484719
 51
275.233249595
  0
LWPOLYLINE
  5
1F1
330
1F
100
AcDbEntity
  8
0
  6
CONTINUOUS
 62
     7
100
AcDbPolyline
 90
        3
 70
   128
 43
0.0
 10
190.0641382596
 20
167.6104273887
 10
190.0254939607
 20
167.8775130662
 10
190.0204685441
 20
168.0899946826
  0
LINE
  5
1F2
330
1F
100
AcDbEntity
  8
0
  6
CONTINUOUS
 62
     7
100
AcDbLine
 10
190.0204685441
 20
168.0899946826
 30
0.0
 11
190.0204685441
 21
168.6937606959
 31
0.0
  0
LINE
  5
1F3
330
1F
100
AcDbEntity
  8
0
  6
CONTINUOUS
 62
     7
100
AcDbLine
 10
190.9691863618
 20
168.6937606959
 30
0.0
 11
191.3281609229
 21
168.6937606959
 31
0.0
  0
LINE
  5
1F4
330
1F
100
AcDbEntity
  8
0
  6
CONTINUOUS
 62
     7
100
AcDbLine
 10
190.0204685441
 20
168.6937606959
 30
0.0
 11
190.3794431052
 21
168.6937606959
 31
0.0
  0
LINE
  5
1F5
330
1F
100
AcDbEntity
  8
0
  6
CONTINUOUS
 62
     7
100
AcDbLine
 10
190.3794431052
 20
168.6937606959
 30
0.0
 11
190.3794431052
 21
167.9922382749
 31
0.0
  0
LINE
  5
1F6
330
1F
100
AcDbEntity
  8
0
  6
CONTINUOUS
 62
     7
100
AcDbLine
 10
158.5076474509
 20
168.6937606959
 30
0.0
 11
158.866622012
 21
168.6937606959
 31
0.0
  0
LWPOLYLINE
  5
1F7
330
1F
100
AcDbEntity
  8
0
  6
CONTINUOUS
 62
     7
100
AcDbPolyline
 90
        5
 70
   128
 43
0.0
 10
158.866622012
 20
167.9922382749
 10
158.9066213853
 20
167.6860676038
 10
158.9501057676
 20
167.6219124296
 10
159.0114650241
 20
167.5744772605
 10
159.1614936403
 20
167.5399145701
  0
ARC
  5
1F8
330
1F
100
AcDbEntity
  8
0
  6
CONTINUOUS
 62
     7
100
AcDbCircle
 10
159.1806491108
 20
167.8081054543
 30
0.0
 40
0.2688741014511194
100
AcDbArc
 50
265.9146002773
 51
338.9176526604
  0
LWPOLYLINE
  5
1F9
330
1F
100
AcDbEntity
  8
0
  6
CONTINUOUS
 62
     7
100
AcDbPolyline
 90
        3
 70
   128
 43
0.0
 10
159.4315259642
 20
167.7113889258
 10
159.4536458066
 20
167.8610132752
 10
159.4563661999
 20
167.980219045
  0
LINE
  5
1FA
330
1F
100
AcDbEntity
  8
0
  6
CONTINUOUS
 62
     7
100
AcDbLine
 10
159.4563661999
 20
167.980219045
 30
0.0
 11
159.4563661999
 21
168.6937606959
 31
0.0
  0
LINE
  5
1FB
330
1F
100
AcDbEntity
  8
0
  6
CONTINUOUS
 62
     7
100
AcDbLine
 10
159.4563661999
 20
168.6937606959
 30
0.0
 11
159.8153398297
 21
168.6937606959
 31
0.0
  0
LINE
  5
1FC
330
1F
100
AcDbEntity
  8
0
  6
CONTINUOUS
 62
     7
100
AcDbLine
 10
159.8153398297
 20
168.6937606959
 30
0.0
 11
159.8153398297
 21
168.0795780215
 31
0.0
  0
LWPOLYLINE
  5
1FD
330
1F
100
AcDbEntity
  8
0
  6
CONTINUOUS
 62
     7
100
AcDbPolyline
 90
        3
 70
   128
 43
0.0
 10
159.8153398297
 20
168.0795780215
 10
159.8025406635
 20
167.7851572552
 10
159.7536415717
 20
167.5595459768
  0
ARC
  5
1FE
330
1F
100
AcDbEntity
  8
0
  6
CONTINUOUS
 62
     7
100
AcDbCircle
 10
159.2133623682
 20
167.7925735604
 30
0.0
 40
0.588390578161502
100
AcDbArc
 50
264.8251505674
 51
336.6690017626
  0
ARC
  5
1FF
330
1F
100
AcDbEntity
  8
0
  6
CONTINUOUS
 62
     7
100
AcDbCircle
 10
159.1070904676
 20
167.7874264195
 30
0.0
 40
0.5832765930431321
100
AcDbArc
 50
197.6653229307
 51
275.2333306644
  0
LWPOLYLINE
  5
200
330
1F
100
AcDbEntity
  8
0
  6
CONTINUOUS
 62
     7
100
AcDbPolyline
 90
        3
 70
   128
 43
0.0
 10
158.5513180977
 20
167.6104273887
 10
158.5126747302
 20
167.8775130662
 10
158.5076474509
 20
168.0899946826
  0
LINE
  5
201
330
1F
100
AcDbEntity
  8
0
  6
CONTINUOUS
 62
     7
100
AcDbLine
 10
158.5076474509
 20
168.0899946826
 30
0.0
 11
158.5076474509
 21
168.6937606959
 31
0.0
  0
LINE
  5
202
330
1F
100
AcDbEntity
  8
0
  6
CONTINUOUS
 62
     7
100
AcDbLine
 10
158.866622012
 20
168.6937606959
 30
0.0
 11
158.866622012
 21
167.9922382749
 31
0.0
  0
CIRCLE
  5
203
330
1F
100
AcDbEntity
  8
0
  6
CONTINUOUS
 62
     7
100
AcDbCircle
 10
192.347050712
 20
159.4940074071
 30
0.0
 40
6.0
  0
CIRCLE
  5
204
330
1F
100
AcDbEntity
  8
0
  6
CONTINUOUS
 62
     7
100
AcDbCircle
 10
152.347210712
 20
159.4940074071
 30
0.0
 40
6.0
  0
CIRCLE
  5
205
330
1F
100
AcDbEntity
  8
0
  6
CONTINUOUS
 62
     7
100
AcDbCircle
 10
172.347130712
 20
159.4940074071
 30
0.0
 40
6.0
  0
CIRCLE
  5
206
330
1F
100
AcDbEntity
  8
0
  6
CONTINUOUS
 62
     7
100
AcDbCircle
 10
197.347130712
 20
220.0342274071
 30
0.0
 40
3.0
  0
CIRCLE
  5
207
330
1F
100
AcDbEntity
  8
0
  6
CONTINUOUS
 62
     7
100
AcDbCircle
 10
147.347130712
 20
220.0342274071
 30
0.0
 40
3.0
  0
CIRCLE
  5
208
330
1F
100
AcDbEntity
  8
0
  6
CONTINUOUS
 62
     7
100
AcDbCircle
 10
172.347130712
 20
122.7529774071
 30
0.0
 40
2.999999999999992
  0
CIRCLE
  5
209
330
1F
100
AcDbEntity
  8
0
  6
CONTINUOUS
 62
     7
100
AcDbCircle
 10
154.567130712
 20
128.9725
 30
0.0
 40
8.749999999999993
  0
CIRCLE
  5
20A
330
1F
100
AcDbEntity
  8
0
  6
CONTINUOUS
 62
     7
100
AcDbCircle
 10
154.567130712
 20
128.9725
 30
0.0
 40
9.749999999999998
  0
CIRCLE
  5
20B
330
1F
100
AcDbEntity
  8
0
  6
CONTINUOUS
 62
     7
100
AcDbCircle
 10
190.127130712
 20
128.9725
 30
0.0
 40
8.749999999999991
  0
CIRCLE
  5
20C
330
1F
100
AcDbEntity
  8
0
  6
CONTINUOUS
 62
     7
100
AcDbCircle
 10
190.127130712
 20
128.9725
 30
0.0
 40
9.750000000000005
  0
LWPOLYLINE
  5
20D
330
1F
100
AcDbEntity
  8
0
  6
CONTINUOUS
 62
     7
100
AcDbPolyline
 90
       20
 70
   128
 43
0.0
 10
119.3512477836
 20
168.0
 10
119.2522444687
 20
167.4142390788
 10
118.9648420474
 20
166.8942488562
 10
118.5233355424
 20
166.5044591594
 10
117.9876276216
 20
166.2915763976
 10
117.422702249
 20
166.2716136146
 10
116.8879480026
 20
166.4388183802
 10
116.4349899552
 20
166.7737274496
 10
116.1098503432
 20
167.2454945459
 10
115.9521364531
 20
167.8090937006
 10
115.9880892298
 20
168.4030978598
 10
116.2200444302
 20
168.9543234482
 10
116.6198276839
 20
169.3915770687
 10
117.1335005126
 20
169.6625581775
 10
117.6961795351
 20
169.7428377178
 10
118.2460584602
 20
169.6323877499
 10
118.7293478212
 20
169.346977544
 10
119.0985725186
 20
168.9137608577
 10
119.3118267617
 20
168.3729452437
 10
119.3512477836
 20
167.9999999981
  0
LWPOLYLINE
  5
20E
330
1F
100
AcDbEntity
  8
0
  6
CONTINUOUS
 62
     7
100
AcDbPolyline
 90
       20
 70
   128
 43
0.0
 10
124.2206045351
 20
168.0
 10
124.1220966837
 20
167.4142390788
 10
123.8360986969
 20
166.8942488562
 10
123.3966262004
 20
166.5044591594
 10
122.8631832561
 20
166.2915763976
 10
122.3004111013
 20
166.2716136146
 10
121.7674673459
 20
166.4388183802
 10
121.3158727548
 20
166.7737274496
 10
120.9916160366
 20
167.2454945459
 10
120.8343007526
 20
167.8090937006
 10
120.8701641223
 20
168.4030978598
 10
121.101519551
 20
168.9543234482
 10
121.5001740417
 20
169.3915770687
 10
122.0122151932
 20
169.6625581775
 10
122.5728751085
 20
169.7428377178
 10
123.1205449364
 20
169.6323877499
 10
123.6017071566
 20
169.346977544
 10
123.9691846928
 20
168.9137608577
 10
124.1813809535
 20
168.3729452437
 10
124.2206045351
 20
168.0
  0
LWPOLYLINE
  5
20F
330
1F
100
AcDbEntity
  8
0
  6
CONTINUOUS
 62
     7
100
AcDbPolyline
 90
       20
 70
   128
 43
0.0
 10
119.3512477836
 20
160.9999997839
 10
119.2522444687
 20
160.4142388627
 10
118.9648420474
 20
159.894248873
 10
118.5233355424
 20
159.5044587106
 10
117.9876276216
 20
159.2915760651
 10
117.422702249
 20
159.2716140971
 10
116.8879480026
 20
159.4388181642
 10
116.4349899552
 20
159.7737273499
 10
116.1098503432
 20
160.245494388
 10
115.9521364531
 20
160.8090935573
 10
115.9880892298
 20
161.4030980803
 10
116.2200444302
 20
161.9543232322
 10
116.6198276839
 20
162.3915768526
 10
117.1335005126
 20
162.6625581942
 10
117.6961795351
 20
162.7428377345
 10
118.2460584602
 20
162.6323879994
 10
118.7293478212
 20
162.3469776772
 10
119.0985725186
 20
161.9137608744
 10
119.3118267617
 20
161.372945115
 10
119.3512477836
 20
160.9999997839
  0
LWPOLYLINE
  5
210
330
1F
100
AcDbEntity
  8
0
  6
CONTINUOUS
 62
     7
100
AcDbPolyline
 90
       20
 70
   128
 43
0.0
 10
119.3512477836
 20
153.9999995679
 10
119.2522444687
 20
153.4142386466
 10
118.9648420474
 20
152.8942486569
 10
118.5233355424
 20
152.5044594258
 10
117.9876276216
 20
152.2915758491
 10
117.422702249
 20
152.271613881
 10
116.8879480026
 20
152.4388179481
 10
116.4349899552
 20
152.7737271339
 10
116.1098503432
 20
153.245494172
 10
115.9521364531
 20
153.8090933412
 10
115.9880892298
 20
154.4030983299
 10
116.2200444302
 20
154.9543230161
 10
116.6198276839
 20
155.3915771022
 10
117.1335005126
 20
155.6625584438
 10
117.6961795351
 20
155.7428375185
 10
118.2460584602
 20
155.632388249
 10
118.7293478212
 20
155.3469779268
 10
119.0985725186
 20
154.913761124
 10
119.3118267617
 20
154.3729448989
 10
119.3512477836
 20
153.9999995679
  0
LWPOLYLINE
  5
211
330
1F
100
AcDbEntity
  8
0
  6
CONTINUOUS
 62
     7
100
AcDbPolyline
 90
       20
 70
   128
 43
0.0
 10
119.3512477836
 20
147.0000002831
 10
119.2522444687
 20
146.4142393619
 10
118.9648420474
 20
145.8942484409
 10
118.5233355424
 20
145.5044582784
 10
117.9876276216
 20
145.2915765643
 10
117.422702249
 20
145.2716127336
 10
116.8879480026
 20
145.4388186634
 10
116.4349899552
 20
145.7737278491
 10
116.1098503432
 20
146.2454948872
 10
115.9521364531
 20
146.8090940565
 10
115.9880892298
 20
147.4030971825
 10
116.2200444302
 20
147.9543228
 10
116.6198276839
 20
148.3915768862
 10
117.1335005126
 20
148.6625582278
 10
117.6961795351
 20
148.7428382337
 10
118.2460584602
 20
148.6323871017
 10
118.7293478212
 20
148.3469777107
 10
119.0985725186
 20
147.9137599766
 10
119.3118267617
 20
147.3729446828
 10
119.3512477836
 20
147.0000002831
  0
LWPOLYLINE
  5
212
330
1F
100
AcDbEntity
  8
0
  6
CONTINUOUS
 62
     7
100
AcDbPolyline
 90
       20
 70
   128
 43
0.0
 10
119.3512477836
 20
139.9999991357
 10
119.2522444687
 20
139.4142382145
 10
118.9648420474
 20
138.8942491561
 10
118.5233355424
 20
138.5044589937
 10
117.9876276216
 20
138.2915754169
 10
117.422702249
 20
138.2716134489
 10
116.8879480026
 20
138.438817516
 10
116.4349899552
 20
138.7737267017
 10
116.1098503432
 20
139.2454937398
 10
115.9521364531
 20
139.8090929091
 10
115.9880892298
 20
140.4030978978
 10
116.2200444302
 20
140.9543235153
 10
116.6198276839
 20
141.3915776014
 10
117.1335005126
 20
141.662558943
 10
117.6961795351
 20
141.7428370863
 10
118.2460584602
 20
141.6323878169
 10
118.7293478212
 20
141.3469765633
 10
119.0985725186
 20
140.9137606919
 10
119.3118267617
 20
140.3729453981
 10
119.3512477836
 20
139.9999991357
  0
LWPOLYLINE
  5
213
330
1F
100
AcDbEntity
  8
0
  6
CONTINUOUS
 62
     7
100
AcDbPolyline
 90
       20
 70
   128
 43
0.0
 10
119.3512477836
 20
132.999999851
 10
119.2522444687
 20
132.4142389297
 10
118.9648420474
 20
131.8942480087
 10
118.5233355424
 20
131.5044597089
 10
117.9876276216
 20
131.2915779948
 10
117.422702249
 20
131.2716141641
 10
116.8879480026
 20
131.4388200939
 10
116.4349899552
 20
131.773727417
 10
116.1098503432
 20
132.2454944551
 10
115.9521364531
 20
132.8090936244
 10
115.9880892298
 20
133.403098613
 10
116.2200444302
 20
133.9543223679
 10
116.6198276839
 20
134.3915783167
 10
117.1335005126
 20
134.6625596583
 10
117.6961795351
 20
134.7428359389
 10
118.2460584602
 20
134.6323885322
 10
118.7293478212
 20
134.3469791412
 10
119.0985725186
 20
133.9137614071
 10
119.3118267617
 20
133.3729461133
 10
119.3512477836
 20
132.999999851
  0
LWPOLYLINE
  5
214
330
1F
100
AcDbEntity
  8
0
  6
CONTINUOUS
 62
     7
100
AcDbPolyline
 90
       20
 70
   128
 43
0.0
 10
119.3512477836
 20
126.0000005662
 10
119.2522444687
 20
125.414239645
 10
118.9648420474
 20
124.894248724
 10
118.5233355424
 20
124.5044604242
 10
117.9876276216
 20
124.2915749848
 10
117.422702249
 20
124.2716148794
 10
116.8879480026
 20
124.4388170838
 10
116.4349899552
 20
124.7737281322
 10
116.1098503432
 20
125.2454951704
 10
115.9521364531
 20
125.8090943396
 10
115.9880892298
 20
126.4030993283
 10
116.2200444302
 20
126.9543230832
 10
116.6198276839
 20
127.3915753067
 10
117.1335005126
 20
127.6625566483
 10
117.6961795351
 20
127.7428366542
 10
118.2460584602
 20
127.6323892474
 10
118.7293478212
 20
127.3469761312
 10
119.0985725186
 20
126.9137621224
 10
119.3118267617
 20
126.3729468286
 10
119.3512477836
 20
126.0000005662
  0
LWPOLYLINE
  5
215
330
1F
100
AcDbEntity
  8
0
  6
CONTINUOUS
 62
     7
100
AcDbPolyline
 90
       20
 70
   128
 43
0.0
 10
119.3512477836
 20
119.0000012815
 10
119.2522444687
 20
118.4142403603
 10
118.9648420474
 20
117.8942494392
 10
118.5233355424
 20
117.5044574142
 10
117.9876276216
 20
117.2915757
 10
117.422702249
 20
117.2716118693
 10
116.8879480026
 20
117.4388177991
 10
116.4349899552
 20
117.7737288475
 10
116.1098503432
 20
118.2454958856
 10
115.9521364531
 20
118.8090950549
 10
115.9880892298
 20
119.4030963182
 10
116.2200444302
 20
119.9543237984
 10
116.6198276839
 20
120.3915760219
 10
117.1335005126
 20
120.6625573635
 10
117.6961795351
 20
120.7428373694
 10
118.2460584602
 20
120.6323862374
 10
118.7293478212
 20
120.3469768465
 10
119.0985725186
 20
119.9137591124
 10
119.3118267617
 20
119.3729438186
 10
119.3512477836
 20
119.0000012815
  0
LWPOLYLINE
  5
216
330
1F
100
AcDbEntity
  8
0
  6
CONTINUOUS
 62
     7
100
AcDbPolyline
 90
       20
 70
   128
 43
0.0
 10
119.3512477836
 20
111.9999982715
 10
119.2522444687
 20
111.4142373502
 10
118.9648420474
 20
110.8942501545
 10
118.5233355424
 20
110.5044581294
 10
117.9876276216
 20
110.2915764153
 10
117.422702249
 20
110.2716125846
 10
116.8879480026
 20
110.4388185143
 10
116.4349899552
 20
110.7737258375
 10
116.1098503432
 20
111.2454928756
 10
115.9521364531
 20
111.8090920448
 10
115.9880892298
 20
112.4030970335
 10
116.2200444302
 20
112.9543245137
 10
116.6198276839
 20
113.3915767372
 10
117.1335005126
 20
113.6625580788
 10
117.6961795351
 20
113.7428380847
 10
118.2460584602
 20
113.6323869526
 10
118.7293478212
 20
113.3469775617
 10
119.0985725186
 20
112.9137598276
 10
119.3118267617
 20
112.3729445338
 10
119.3512477836
 20
111.9999982715
  0
LWPOLYLINE
  5
217
330
1F
100
AcDbEntity
  8
0
  6
CONTINUOUS
 62
     7
100
AcDbPolyline
 90
       20
 70
   128
 43
0.0
 10
119.3512477836
 20
175.0000002161
 10
119.2522444687
 20
174.4142392948
 10
118.9648420474
 20
173.8942488395
 10
118.5233355424
 20
173.5044591427
 10
117.9876276216
 20
173.2915764973
 10
117.422702249
 20
173.2716135979
 10
116.8879480026
 20
173.4388181306
 10
116.4349899552
 20
173.7737273164
 10
116.1098503432
 20
174.2454943545
 10
115.9521364531
 20
174.8090935238
 10
115.9880892298
 20
175.4030980468
 10
116.2200444302
 20
175.9543236643
 10
116.6198276839
 20
176.3915768191
 10
117.1335005126
 20
176.6625581607
 10
117.6961795351
 20
176.7428381667
 10
118.2460584602
 20
176.6323879659
 10
118.7293478212
 20
176.3469776437
 10
119.0985725186
 20
175.9137608409
 10
119.3118267617
 20
175.3729450814
 10
119.3512477836
 20
175.0000002161
  0
LWPOLYLINE
  5
218
330
1F
100
AcDbEntity
  8
0
  6
CONTINUOUS
 62
     7
100
AcDbPolyline
 90
       20
 70
   128
 43
0.0
 10
119.3512477836
 20
182.0000004321
 10
119.2522444687
 20
181.4142395109
 10
118.9648420474
 20
180.8942485899
 10
118.5233355424
 20
180.5044593588
 10
117.9876276216
 20
180.2915767133
 10
117.422702249
 20
180.2716138139
 10
116.8879480026
 20
180.4388188124
 10
116.4349899552
 20
180.7737270668
 10
116.1098503432
 20
181.2454941049
 10
115.9521364531
 20
181.8090932742
 10
115.9880892298
 20
182.4030982628
 10
116.2200444302
 20
182.9543238804
 10
116.6198276839
 20
183.3915770352
 10
117.1335005126
 20
183.6625583768
 10
117.6961795351
 20
183.7428383827
 10
118.2460584602
 20
183.6323872507
 10
118.7293478212
 20
183.3469778597
 10
119.0985725186
 20
182.913761057
 10
119.3118267617
 20
182.3729448318
 10
119.3512477836
 20
182.0000004321
  0
LWPOLYLINE
  5
219
330
1F
100
AcDbEntity
  8
0
  6
CONTINUOUS
 62
     7
100
AcDbPolyline
 90
       20
 70
   128
 43
0.0
 10
119.3512477836
 20
188.9999997169
 10
119.2522444687
 20
188.4142387956
 10
118.9648420474
 20
187.8942497373
 10
118.5233355424
 20
187.5044595748
 10
117.9876276216
 20
187.2915759981
 10
117.422702249
 20
187.27161403
 10
116.8879480026
 20
187.4388180971
 10
116.4349899552
 20
187.7737272829
 10
116.1098503432
 20
188.245494321
 10
115.9521364531
 20
188.8090934902
 10
115.9880892298
 20
189.4030984789
 10
116.2200444302
 20
189.9543240964
 10
116.6198276839
 20
190.3915763199
 10
117.1335005126
 20
190.6625576615
 10
117.6961795351
 20
190.7428376675
 10
118.2460584602
 20
190.6323883981
 10
118.7293478212
 20
190.3469771445
 10
119.0985725186
 20
189.913761273
 10
119.3118267617
 20
189.3729459792
 10
119.3512477836
 20
188.9999997169
  0
LWPOLYLINE
  5
21A
330
1F
100
AcDbEntity
  8
0
  6
CONTINUOUS
 62
     7
100
AcDbPolyline
 90
       20
 70
   128
 43
0.0
 10
119.3512477836
 20
196.0000008643
 10
119.2522444687
 20
195.414239943
 10
118.9648420474
 20
194.894249022
 10
118.5233355424
 20
194.5044588596
 10
117.9876276216
 20
194.2915771455
 10
117.422702249
 20
194.2716133147
 10
116.8879480026
 20
194.4388192445
 10
116.4349899552
 20
194.7737265676
 10
116.1098503432
 20
195.2454954684
 10
115.9521364531
 20
195.809092775
 10
115.9880892298
 20
196.4030977637
 10
116.2200444302
 20
196.9543233812
 10
116.6198276839
 20
197.3915774673
 10
117.1335005126
 20
197.6625588089
 10
117.6961795351
 20
197.7428369522
 10
118.2460584602
 20
197.6323876828
 10
118.7293478212
 20
197.3469782919
 10
119.0985725186
 20
196.9137605578
 10
119.3118267617
 20
196.372945264
 10
119.3512477836
 20
196.0000008643
  0
LWPOLYLINE
  5
21B
330
1F
100
AcDbEntity
  8
0
  6
CONTINUOUS
 62
     7
100
AcDbPolyline
 90
       20
 70
   128
 43
0.0
 10
119.3512477836
 20
203.000000149
 10
119.2522444687
 20
202.4142392278
 10
118.9648420474
 20
201.8942483068
 10
118.5233355424
 20
201.504460007
 10
117.9876276216
 20
201.2915745676
 10
117.422702249
 20
201.2716144621
 10
116.8879480026
 20
201.4388166666
 10
116.4349899552
 20
201.773727715
 10
116.1098503432
 20
202.2454947531
 10
115.9521364531
 20
202.8090939224
 10
115.9880892298
 20
203.403098911
 10
116.2200444302
 20
203.9543226659
 10
116.6198276839
 20
204.3915786147
 10
117.1335005126
 20
204.6625599563
 10
117.6961795351
 20
204.742836237
 10
118.2460584602
 20
204.6323888302
 10
118.7293478212
 20
204.346975714
 10
119.0985725186
 20
203.9137617052
 10
119.3118267617
 20
203.3729464114
 10
119.3512477836
 20
203.000000149
  0
LWPOLYLINE
  5
21C
330
1F
100
AcDbEntity
  8
0
  6
CONTINUOUS
 62
     7
100
AcDbPolyline
 90
       20
 70
   128
 43
0.0
 10
119.3512477836
 20
209.9999994338
 10
119.2522444687
 20
209.4142385125
 10
118.9648420474
 20
208.8942475915
 10
118.5233355424
 20
208.5044592917
 10
117.9876276216
 20
208.2915775776
 10
117.422702249
 20
208.2716137469
 10
116.8879480026
 20
208.4388196766
 10
116.4349899552
 20
208.7737269998
 10
116.1098503432
 20
209.2454940379
 10
115.9521364531
 20
209.8090932071
 10
115.9880892298
 20
210.4030981958
 10
116.2200444302
 20
210.9543219507
 10
116.6198276839
 20
211.3915778995
 10
117.1335005126
 20
211.6625592411
 10
117.6961795351
 20
211.742839247
 10
118.2460584602
 20
211.6323881149
 10
118.7293478212
 20
211.346978724
 10
119.0985725186
 20
210.9137609899
 10
119.3118267617
 20
210.3729456961
 10
119.3512477836
 20
209.9999994338
  0
LWPOLYLINE
  5
21D
330
1F
100
AcDbEntity
  8
0
  6
CONTINUOUS
 62
     7
100
AcDbPolyline
 90
       20
 70
   128
 43
0.0
 10
119.3512477836
 20
216.9999987185
 10
119.2522444687
 20
216.4142377973
 10
118.9648420474
 20
215.8942506015
 10
118.5233355424
 20
215.5044585764
 10
117.9876276216
 20
215.2915768623
 10
117.422702249
 20
215.2716130316
 10
116.8879480026
 20
215.4388189614
 10
116.4349899552
 20
215.7737262845
 10
116.1098503432
 20
216.2454933226
 10
115.9521364531
 20
216.8090924919
 10
115.9880892298
 20
217.4030974805
 10
116.2200444302
 20
217.9543249607
 10
116.6198276839
 20
218.3915771842
 10
117.1335005126
 20
218.6625585258
 10
117.6961795351
 20
218.7428385317
 10
118.2460584602
 20
218.6323873997
 10
118.7293478212
 20
218.3469780087
 10
119.0985725186
 20
217.9137602746
 10
119.3118267617
 20
217.3729449809
 10
119.3512477836
 20
216.9999987185
  0
LWPOLYLINE
  5
21E
330
1F
100
AcDbEntity
  8
0
  6
CONTINUOUS
 62
     7
100
AcDbPolyline
 90
       20
 70
   128
 43
0.0
 10
119.3512477836
 20
224.0000017285
 10
119.2522444687
 20
223.4142408073
 10
118.9648420474
 20
222.8942498863
 10
118.5233355424
 20
222.5044578612
 10
117.9876276216
 20
222.2915761471
 10
117.422702249
 20
222.2716123164
 10
116.8879480026
 20
222.4388182461
 10
116.4349899552
 20
222.7737292945
 10
116.1098503432
 20
223.2454963326
 10
115.9521364531
 20
223.8090955019
 10
115.9880892298
 20
224.4030967653
 10
116.2200444302
 20
224.9543242455
 10
116.6198276839
 20
225.3915764689
 10
117.1335005126
 20
225.6625578105
 10
117.6961795351
 20
225.7428378165
 10
118.2460584602
 20
225.6323866844
 10
118.7293478212
 20
225.3469772935
 10
119.0985725186
 20
224.9137595594
 10
119.3118267617
 20
224.3729442656
 10
119.3512477836
 20
224.0000017285
  0
LWPOLYLINE
  5
21F
330
1F
100
AcDbEntity
  8
0
  6
CONTINUOUS
 62
     7
100
AcDbPolyline
 90
       20
 70
   128
 43
0.0
 10
124.2206045351
 20
160.9999997839
 10
124.1220966837
 20
160.4142388627
 10
123.8360986969
 20
159.894248873
 10
123.3966262004
 20
159.5044587106
 10
122.8631832561
 20
159.2915760651
 10
122.3004111013
 20
159.2716140971
 10
121.7674673459
 20
159.4388181642
 10
121.3158727548
 20
159.7737273499
 10
120.9916160366
 20
160.245494388
 10
120.8343007526
 20
160.8090935573
 10
120.8701641223
 20
161.4030980803
 10
121.101519551
 20
161.9543232322
 10
121.5001740417
 20
162.3915768526
 10
122.0122151932
 20
162.6625581942
 10
122.5728751085
 20
162.7428377345
 10
123.1205449364
 20
162.6323879994
 10
123.6017071566
 20
162.3469776772
 10
123.9691846928
 20
161.9137608744
 10
124.1813809535
 20
161.372945115
 10
124.2206045351
 20
160.9999997839
  0
LWPOLYLINE
  5
220
330
1F
100
AcDbEntity
  8
0
  6
CONTINUOUS
 62
     7
100
AcDbPolyline
 90
       20
 70
   128
 43
0.0
 10
124.2206045351
 20
153.9999995679
 10
124.1220966837
 20
153.4142386466
 10
123.8360986969
 20
152.8942486569
 10
123.3966262004
 20
152.5044594258
 10
122.8631832561
 20
152.2915758491
 10
122.3004111013
 20
152.271613881
 10
121.7674673459
 20
152.4388179481
 10
121.3158727548
 20
152.7737271339
 10
120.9916160366
 20
153.245494172
 10
120.8343007526
 20
153.8090933412
 10
120.8701641223
 20
154.4030983299
 10
121.101519551
 20
154.9543230161
 10
121.5001740417
 20
155.3915771022
 10
122.0122151932
 20
155.6625584438
 10
122.5728751085
 20
155.7428375185
 10
123.1205449364
 20
155.632388249
 10
123.6017071566
 20
155.3469779268
 10
123.9691846928
 20
154.913761124
 10
124.1813809535
 20
154.3729448989
 10
124.2206045351
 20
153.9999995679
  0
LWPOLYLINE
  5
221
330
1F
100
AcDbEntity
  8
0
  6
CONTINUOUS
 62
     7
100
AcDbPolyline
 90
       20
 70
   128
 43
0.0
 10
124.2206045351
 20
147.0000002831
 10
124.1220966837
 20
146.4142393619
 10
123.8360986969
 20
145.8942484409
 10
123.3966262004
 20
145.5044582784
 10
122.8631832561
 20
145.2915765643
 10
122.3004111013
 20
145.2716127336
 10
121.7674673459
 20
145.4388186634
 10
121.3158727548
 20
145.7737278491
 10
120.9916160366
 20
146.2454948872
 10
120.8343007526
 20
146.8090940565
 10
120.8701641223
 20
147.4030971825
 10
121.101519551
 20
147.9543228
 10
121.5001740417
 20
148.3915768862
 10
122.0122151932
 20
148.6625582278
 10
122.5728751085
 20
148.7428382337
 10
123.1205449364
 20
148.6323871017
 10
123.6017071566
 20
148.3469777107
 10
123.9691846928
 20
147.9137599766
 10
124.1813809535
 20
147.3729446828
 10
124.2206045351
 20
147.0000002831
  0
LWPOLYLINE
  5
222
330
1F
100
AcDbEntity
  8
0
  6
CONTINUOUS
 62
     7
100
AcDbPolyline
 90
       20
 70
   128
 43
0.0
 10
124.2206045351
 20
139.9999991357
 10
124.1220966837
 20
139.4142382145
 10
123.8360986969
 20
138.8942491561
 10
123.3966262004
 20
138.5044589937
 10
122.8631832561
 20
138.2915754169
 10
122.3004111013
 20
138.2716134489
 10
121.7674673459
 20
138.438817516
 10
121.3158727548
 20
138.7737267017
 10
120.9916160366
 20
139.2454937398
 10
120.8343007526
 20
139.8090929091
 10
120.8701641223
 20
140.4030978978
 10
121.101519551
 20
140.9543235153
 10
121.5001740417
 20
141.3915776014
 10
122.0122151932
 20
141.662558943
 10
122.5728751085
 20
141.7428370863
 10
123.1205449364
 20
141.6323878169
 10
123.6017071566
 20
141.3469765633
 10
123.9691846928
 20
140.9137606919
 10
124.1813809535
 20
140.3729453981
 10
124.2206045351
 20
139.9999991357
  0
LWPOLYLINE
  5
223
330
1F
100
AcDbEntity
  8
0
  6
CONTINUOUS
 62
     7
100
AcDbPolyline
 90
       20
 70
   128
 43
0.0
 10
124.2206045351
 20
132.999999851
 10
124.1220966837
 20
132.4142389297
 10
123.8360986969
 20
131.8942480087
 10
123.3966262004
 20
131.5044597089
 10
122.8631832561
 20
131.2915779948
 10
122.3004111013
 20
131.2716141641
 10
121.7674673459
 20
131.4388200939
 10
121.3158727548
 20
131.773727417
 10
120.9916160366
 20
132.2454944551
 10
120.8343007526
 20
132.8090936244
 10
120.8701641223
 20
133.403098613
 10
121.101519551
 20
133.9543223679
 10
121.5001740417
 20
134.3915783167
 10
122.0122151932
 20
134.6625596583
 10
122.5728751085
 20
134.7428359389
 10
123.1205449364
 20
134.6323885322
 10
123.6017071566
 20
134.3469791412
 10
123.9691846928
 20
133.9137614071
 10
124.1813809535
 20
133.3729461133
 10
124.2206045351
 20
132.999999851
  0
LWPOLYLINE
  5
224
330
1F
100
AcDbEntity
  8
0
  6
CONTINUOUS
 62
     7
100
AcDbPolyline
 90
       20
 70
   128
 43
0.0
 10
124.2206045351
 20
126.0000005662
 10
124.1220966837
 20
125.414239645
 10
123.8360986969
 20
124.894248724
 10
123.3966262004
 20
124.5044604242
 10
122.8631832561
 20
124.2915749848
 10
122.3004111013
 20
124.2716148794
 10
121.7674673459
 20
124.4388170838
 10
121.3158727548
 20
124.7737281322
 10
120.9916160366
 20
125.2454951704
 10
120.8343007526
 20
125.8090943396
 10
120.8701641223
 20
126.4030993283
 10
121.101519551
 20
126.9543230832
 10
121.5001740417
 20
127.3915753067
 10
122.0122151932
 20
127.6625566483
 10
122.5728751085
 20
127.7428366542
 10
123.1205449364
 20
127.6323892474
 10
123.6017071566
 20
127.3469761312
 10
123.9691846928
 20
126.9137621224
 10
124.1813809535
 20
126.3729468286
 10
124.2206045351
 20
126.0000005662
  0
LWPOLYLINE
  5
225
330
1F
100
AcDbEntity
  8
0
  6
CONTINUOUS
 62
     7
100
AcDbPolyline
 90
       20
 70
   128
 43
0.0
 10
124.2206045351
 20
119.0000012815
 10
124.1220966837
 20
118.4142403603
 10
123.8360986969
 20
117.8942494392
 10
123.3966262004
 20
117.5044574142
 10
122.8631832561
 20
117.2915757
 10
122.3004111013
 20
117.2716118693
 10
121.7674673459
 20
117.4388177991
 10
121.3158727548
 20
117.7737288475
 10
120.9916160366
 20
118.2454958856
 10
120.8343007526
 20
118.8090950549
 10
120.8701641223
 20
119.4030963182
 10
121.101519551
 20
119.9543237984
 10
121.5001740417
 20
120.3915760219
 10
122.0122151932
 20
120.6625573635
 10
122.5728751085
 20
120.7428373694
 10
123.1205449364
 20
120.6323862374
 10
123.6017071566
 20
120.3469768465
 10
123.9691846928
 20
119.9137591124
 10
124.1813809535
 20
119.3729438186
 10
124.2206045351
 20
119.0000012815
  0
LWPOLYLINE
  5
226
330
1F
100
AcDbEntity
  8
0
  6
CONTINUOUS
 62
     7
100
AcDbPolyline
 90
       20
 70
   128
 43
0.0
 10
124.2206045351
 20
111.9999982715
 10
124.1220966837
 20
111.4142373502
 10
123.8360986969
 20
110.8942501545
 10
123.3966262004
 20
110.5044581294
 10
122.8631832561
 20
110.2915764153
 10
122.3004111013
 20
110.2716125846
 10
121.7674673459
 20
110.4388185143
 10
121.3158727548
 20
110.7737258375
 10
120.9916160366
 20
111.2454928756
 10
120.8343007526
 20
111.8090920448
 10
120.8701641223
 20
112.4030970335
 10
121.101519551
 20
112.9543245137
 10
121.5001740417
 20
113.3915767372
 10
122.0122151932
 20
113.6625580788
 10
122.5728751085
 20
113.7428380847
 10
123.1205449364
 20
113.6323869526
 10
123.6017071566
 20
113.3469775617
 10
123.9691846928
 20
112.9137598276
 10
124.1813809535
 20
112.3729445338
 10
124.2206045351
 20
111.9999982715
  0
LWPOLYLINE
  5
227
330
1F
100
AcDbEntity
  8
0
  6
CONTINUOUS
 62
     7
100
AcDbPolyline
 90
       20
 70
   128
 43
0.0
 10
124.2206045351
 20
175.0000002161
 10
124.1220966837
 20
174.4142392948
 10
123.8360986969
 20
173.8942488395
 10
123.3966262004
 20
173.5044591427
 10
122.8631832561
 20
173.2915764973
 10
122.3004111013
 20
173.2716135979
 10
121.7674673459
 20
173.4388181306
 10
121.3158727548
 20
173.7737273164
 10
120.9916160366
 20
174.2454943545
 10
120.8343007526
 20
174.8090935238
 10
120.8701641223
 20
175.4030980468
 10
121.101519551
 20
175.9543236643
 10
121.5001740417
 20
176.3915768191
 10
122.0122151932
 20
176.6625581607
 10
122.5728751085
 20
176.7428381667
 10
123.1205449364
 20
176.6323879659
 10
123.6017071566
 20
176.3469776437
 10
123.9691846928
 20
175.9137608409
 10
124.1813809535
 20
175.3729450814
 10
124.2206045351
 20
175.0000002161
  0
LWPOLYLINE
  5
228
330
1F
100
AcDbEntity
  8
0
  6
CONTINUOUS
 62
     7
100
AcDbPolyline
 90
       20
 70
   128
 43
0.0
 10
124.2206045351
 20
182.0000004321
 10
124.1220966837
 20
181.4142395109
 10
123.8360986969
 20
180.8942485899
 10
123.3966262004
 20
180.5044593588
 10
122.8631832561
 20
180.2915767133
 10
122.3004111013
 20
180.2716138139
 10
121.7674673459
 20
180.4388188124
 10
121.3158727548
 20
180.7737270668
 10
120.9916160366
 20
181.2454941049
 10
120.8343007526
 20
181.8090932742
 10
120.8701641223
 20
182.4030982628
 10
121.101519551
 20
182.9543238804
 10
121.5001740417
 20
183.3915770352
 10
122.0122151932
 20
183.6625583768
 10
122.5728751085
 20
183.7428383827
 10
123.1205449364
 20
183.6323872507
 10
123.6017071566
 20
183.3469778597
 10
123.9691846928
 20
182.913761057
 10
124.1813809535
 20
182.3729448318
 10
124.2206045351
 20
182.0000004321
  0
LWPOLYLINE
  5
229
330
1F
100
AcDbEntity
  8
0
  6
CONTINUOUS
 62
     7
100
AcDbPolyline
 90
       20
 70
   128
 43
0.0
 10
124.2206045351
 20
188.9999997169
 10
124.1220966837
 20
188.4142387956
 10
123.8360986969
 20
187.8942497373
 10
123.3966262004
 20
187.5044595748
 10
122.8631832561
 20
187.2915759981
 10
122.3004111013
 20
187.27161403
 10
121.7674673459
 20
187.4388180971
 10
121.3158727548
 20
187.7737272829
 10
120.9916160366
 20
188.245494321
 10
120.8343007526
 20
188.8090934902
 10
120.8701641223
 20
189.4030984789
 10
121.101519551
 20
189.9543240964
 10
121.5001740417
 20
190.3915763199
 10
122.0122151932
 20
190.6625576615
 10
122.5728751085
 20
190.7428376675
 10
123.1205449364
 20
190.6323883981
 10
123.6017071566
 20
190.3469771445
 10
123.9691846928
 20
189.913761273
 10
124.1813809535
 20
189.3729459792
 10
124.2206045351
 20
188.9999997169
  0
LWPOLYLINE
  5
22A
330
1F
100
AcDbEntity
  8
0
  6
CONTINUOUS
 62
     7
100
AcDbPolyline
 90
       20
 70
   128
 43
0.0
 10
124.2206045351
 20
196.0000008643
 10
124.1220966837
 20
195.414239943
 10
123.8360986969
 20
194.894249022
 10
123.3966262004
 20
194.5044588596
 10
122.8631832561
 20
194.2915771455
 10
122.3004111013
 20
194.2716133147
 10
121.7674673459
 20
194.4388192445
 10
121.3158727548
 20
194.7737265676
 10
120.9916160366
 20
195.2454954684
 10
120.8343007526
 20
195.809092775
 10
120.8701641223
 20
196.4030977637
 10
121.101519551
 20
196.9543233812
 10
121.5001740417
 20
197.3915774673
 10
122.0122151932
 20
197.6625588089
 10
122.5728751085
 20
197.7428369522
 10
123.1205449364
 20
197.6323876828
 10
123.6017071566
 20
197.3469782919
 10
123.9691846928
 20
196.9137605578
 10
124.1813809535
 20
196.372945264
 10
124.2206045351
 20
196.0000008643
  0
LWPOLYLINE
  5
22B
330
1F
100
AcDbEntity
  8
0
  6
CONTINUOUS
 62
     7
100
AcDbPolyline
 90
       20
 70
   128
 43
0.0
 10
124.2206045351
 20
203.000000149
 10
124.1220966837
 20
202.4142392278
 10
123.8360986969
 20
201.8942483068
 10
123.3966262004
 20
201.504460007
 10
122.8631832561
 20
201.2915745676
 10
122.3004111013
 20
201.2716144621
 10
121.7674673459
 20
201.4388166666
 10
121.3158727548
 20
201.773727715
 10
120.9916160366
 20
202.2454947531
 10
120.8343007526
 20
202.8090939224
 10
120.8701641223
 20
203.403098911
 10
121.101519551
 20
203.9543226659
 10
121.5001740417
 20
204.3915786147
 10
122.0122151932
 20
204.6625599563
 10
122.5728751085
 20
204.742836237
 10
123.1205449364
 20
204.6323888302
 10
123.6017071566
 20
204.346975714
 10
123.9691846928
 20
203.9137617052
 10
124.1813809535
 20
203.3729464114
 10
124.2206045351
 20
203.000000149
  0
LWPOLYLINE
  5
22C
330
1F
100
AcDbEntity
  8
0
  6
CONTINUOUS
 62
     7
100
AcDbPolyline
 90
       20
 70
   128
 43
0.0
 10
124.2206045351
 20
209.9999994338
 10
124.1220966837
 20
209.4142385125
 10
123.8360986969
 20
208.8942475915
 10
123.3966262004
 20
208.5044592917
 10
122.8631832561
 20
208.2915775776
 10
122.3004111013
 20
208.2716137469
 10
121.7674673459
 20
208.4388196766
 10
121.3158727548
 20
208.7737269998
 10
120.9916160366
 20
209.2454940379
 10
120.8343007526
 20
209.8090932071
 10
120.8701641223
 20
210.4030981958
 10
121.101519551
 20
210.9543219507
 10
121.5001740417
 20
211.3915778995
 10
122.0122151932
 20
211.6625592411
 10
122.5728751085
 20
211.742839247
 10
123.1205449364
 20
211.6323881149
 10
123.6017071566
 20
211.346978724
 10
123.9691846928
 20
210.9137609899
 10
124.1813809535
 20
210.3729456961
 10
124.2206045351
 20
209.9999994338
  0
LWPOLYLINE
  5
22D
330
1F
100
AcDbEntity
  8
0
  6
CONTINUOUS
 62
     7
100
AcDbPolyline
 90
       20
 70
   128
 43
0.0
 10
124.2206045351
 20
216.9999987185
 10
124.1220966837
 20
216.4142377973
 10
123.8360986969
 20
215.8942506015
 10
123.3966262004
 20
215.5044585764
 10
122.8631832561
 20
215.2915768623
 10
122.3004111013
 20
215.2716130316
 10
121.7674673459
 20
215.4388189614
 10
121.3158727548
 20
215.7737262845
 10
120.9916160366
 20
216.2454933226
 10
120.8343007526
 20
216.8090924919
 10
120.8701641223
 20
217.4030974805
 10
121.101519551
 20
217.9543249607
 10
121.5001740417
 20
218.3915771842
 10
122.0122151932
 20
218.6625585258
 10
122.5728751085
 20
218.7428385317
 10
123.1205449364
 20
218.6323873997
 10
123.6017071566
 20
218.3469780087
 10
123.9691846928
 20
217.9137602746
 10
124.1813809535
 20
217.3729449809
 10
124.2206045351
 20
216.9999987185
  0
LWPOLYLINE
  5
22E
330
1F
100
AcDbEntity
  8
0
  6
CONTINUOUS
 62
     7
100
AcDbPolyline
 90
       20
 70
   128
 43
0.0
 10
124.2206045351
 20
224.0000017285
 10
124.1220966837
 20
223.4142408073
 10
123.8360986969
 20
222.8942498863
 10
123.3966262004
 20
222.5044578612
 10
122.8631832561
 20
222.2915761471
 10
122.3004111013
 20
222.2716123164
 10
121.7674673459
 20
222.4388182461
 10
121.3158727548
 20
222.7737292945
 10
120.9916160366
 20
223.2454963326
 10
120.8343007526
 20
223.8090955019
 10
120.8701641223
 20
224.4030967653
 10
121.101519551
 20
224.9543242455
 10
121.5001740417
 20
225.3915764689
 10
122.0122151932
 20
225.6625578105
 10
122.5728751085
 20
225.7428378165
 10
123.1205449364
 20
225.6323866844
 10
123.6017071566
 20
225.3469772935
 10
123.9691846928
 20
224.9137595594
 10
124.1813809535
 20
224.3729442656
 10
124.2206045351
 20
224.0000017285
  0
ELLIPSE
  5
22F
330
1F
100
AcDbEntity
  8
0
  6
CONTINUOUS
 62
     7
100
AcDbEllipse
 10
115.1594190639
 20
236.1452337765
 30
0.0
 11
79.99998875319147
 21
0.8249834931315833
 31
0.0
210
0.0
220
0.0
230
1.0
 40
0.0514196797
 41
4.718001073379451
 42
4.969233554200308
  0
LINE
  5
230
330
1F
100
AcDbEntity
  8
0
  6
CONTINUOUS
 62
     7
100
AcDbLine
 10
135.5228372774
 20
225.4285462499
 30
0.0
 11
135.5228372774
 21
232.376167953
 31
0.0
  0
LWPOLYLINE
  5
231
330
1F
100
AcDbEntity
  8
0
  6
CONTINUOUS
 62
     7
100
AcDbPolyline
 90
        4
 70
   128
 43
0.0
 10
127.9673301539
 20
221.1754270196
 10
130.5026025436
 20
222.6025745571
 10
133.0219753942
 20
224.0207702219
 10
135.5228372774
 20
225.4285462499
  0
ARC
  5
232
330
1F
100
AcDbEntity
  8
0
  6
CONTINUOUS
 62
     7
100
AcDbCircle
 10
131.367557159
 20
215.0680366207
 30
0.0
 40
6.990118823779614
100
AcDbArc
 50
119.1064251821
 51
179.6294205561
  0
LINE
  5
233
330
1F
100
AcDbEntity
  8
0
  6
CONTINUOUS
 62
     7
100
AcDbLine
 10
124.377584543
 20
120.8867527843
 30
0.0
 11
124.377584543
 21
215.1132472157
 31
0.0
  0
ARC
  5
234
330
1F
100
AcDbEntity
  8
0
  6
CONTINUOUS
 62
     7
100
AcDbCircle
 10
131.3321609078
 20
120.9110033383
 30
0.0
 40
6.954618645429069
100
AcDbArc
 50
180.1997891305
 51
241.0643651313
  0
LWPOLYLINE
  5
235
330
1F
100
AcDbEntity
  8
0
  6
CONTINUOUS
 62
     7
100
AcDbPolyline
 90
        4
 70
   128
 43
0.0
 10
135.5228372774
 20
110.5714537501
 10
133.0219753942
 20
111.9792297781
 10
130.5026025436
 20
113.3974254429
 10
127.9673301539
 20
114.8245729804
  0
LINE
  5
236
330
1F
100
AcDbEntity
  8
0
  6
CONTINUOUS
 62
     7
100
AcDbLine
 10
135.5228372774
 20
103.623832047
 30
0.0
 11
135.5228372774
 21
110.5714537501
 31
0.0
  0
ELLIPSE
  5
237
330
1F
100
AcDbEntity
  8
0
  6
CONTINUOUS
 62
     7
100
AcDbEllipse
 10
115.1594190639
 20
99.8547662235
 30
0.0
 11
79.99998875319152
 21
-0.8249834931315692
 31
0.0
210
0.0
220
0.0
230
1.0
 40
0.0514196797
 41
1.313951752979297
 42
1.565184233800135
  0
LINE
  5
238
330
1F
100
AcDbEntity
  8
0
  6
CONTINUOUS
 62
     7
100
AcDbLine
 10
115.6508051715
 20
232.0363544226
 30
0.0
 11
115.6508051715
 21
103.9636455774
 31
0.0
  0
ELLIPSE
  5
239
330
1F
100
AcDbEntity
  8
0
  6
CONTINUOUS
 62
     7
100
AcDbEllipse
 10
115.6228192573
 20
233.56038807
 30
0.0
 11
0.499999924163916
 21
0.005255209371910041
 31
0.0
210
0.0
220
0.0
230
1.0
 40
0.0524020064
 41
3.413820894236212
 42
4.717980561183889
  0
ARC
  5
23A
330
1F
100
AcDbEntity
  8
0
  6
CONTINUOUS
 62
     7
100
AcDbCircle
 10
46.9753224147
 20
231.6431799552
 30
0.0
 40
68.67660823044547
100
AcDbArc
 50
0.3280208681
 51
1.5778627339
  0
ELLIPSE
  5
23B
330
1F
100
AcDbEntity
  8
0
  6
CONTINUOUS
 62
     7
100
AcDbEllipse
 10
115.6385191841
 20
232.0625258201
 30
0.0
 11
1.999999998820897
 21
0.005241677710415615
 31
0.0
210
0.0
220
0.0
230
1.0
 40
0.0131018548
 41
3.414337323446111
 42
4.7184969903916
  0
ARC
  5
23C
330
1F
100
AcDbEntity
  8
0
  6
CONTINUOUS
 62
     7
100
AcDbCircle
 10
115.2087130323
 20
232.0535471383
 30
0.0
 40
1.496250449112425
100
AcDbArc
 50
92.5821362074
 51
180.1197044639
  0
ELLIPSE
  5
23D
330
1F
100
AcDbEntity
  8
0
  6
CONTINUOUS
 62
     7
100
AcDbEllipse
 10
115.6385191841
 20
103.9374741799
 30
0.0
 11
1.999999998820911
 21
-0.005241677710444037
 31
0.0
210
0.0
220
0.0
230
1.0
 40
0.0131018548
 41
1.564688316787986
 42
2.868847983735014
  0
LINE
  5
23E
330
1F
100
AcDbEntity
  8
0
  6
CONTINUOUS
 62
     7
100
AcDbLine
 10
113.7124658487
 20
103.9495788813
 30
0.0
 11
113.7124658487
 21
232.0504211187
 31
0.0
  0
ELLIPSE
  5
23F
330
1F
100
AcDbEntity
  8
0
  6
CONTINUOUS
 62
     7
100
AcDbEllipse
 10
115.6228192573
 20
102.43961193
 30
0.0
 11
0.499999924163916
 21
-0.005255209371910041
 31
0.0
210
0.0
220
0.0
230
1.0
 40
0.0524020064
 41
1.565204745995701
 42
2.869364412943868
  0
ARC
  5
240
330
1F
100
AcDbEntity
  8
0
  6
CONTINUOUS
 62
     7
100
AcDbCircle
 10
115.2087130323
 20
103.9464528617
 30
0.0
 40
1.496250449112425
100
AcDbArc
 50
179.8802955361
 51
267.4178637926
  0
ARC
  5
241
330
1F
100
AcDbEntity
  8
0
  6
CONTINUOUS
 62
     7
100
AcDbCircle
 10
46.9753224147
 20
104.3568200448
 30
0.0
 40
68.67660823044547
100
AcDbArc
 50
358.4221372661
 51
359.6719791319
  0
ELLIPSE
  5
242
330
1F
100
AcDbEntity
  8
0
  6
CONTINUOUS
 62
     7
100
AcDbEllipse
 10
115.1437191371
 20
237.6430960264
 30
0.0
 11
78.49998809373446
 21
0.8250678713883702
 31
0.0
210
0.0
220
0.0
230
1.0
 40
0.0524020064
 41
4.717980561183865
 42
4.969213042004721
  0
ARC
  5
243
330
1F
100
AcDbEntity
  8
0
  6
CONTINUOUS
 62
     7
100
AcDbCircle
 10
133.565734321
 20
232.6584573766
 30
0.0
 40
1.97735664479017
100
AcDbArc
 50
351.792354585
 51
37.9335845058
  0
ELLIPSE
  5
244
330
1F
100
AcDbEntity
  8
0
  6
CONTINUOUS
 62
     7
100
AcDbEllipse
 10
115.1437191371
 20
98.3569039736
 30
0.0
 11
78.49998809373446
 21
-0.8250678713883559
 31
0.0
210
0.0
220
0.0
230
1.0
 40
0.0524020064
 41
1.313972265174886
 42
1.565204745995723
  0
ARC
  5
245
330
1F
100
AcDbEntity
  8
0
  6
CONTINUOUS
 62
     7
100
AcDbCircle
 10
133.565734321
 20
103.3415426234
 30
0.0
 40
1.977356644790179
100
AcDbArc
 50
322.0664154942
 51
8.207645415
  0
ARC
  5
246
330
1F
100
AcDbEntity
  8
0
  6
CONTINUOUS
 62
     7
100
AcDbCircle
 10
131.147104565
 20
120.8867369056
 30
0.0
 40
4.999973602695781
100
AcDbArc
 50
179.9998180435
 51
240.0001923897
  0
ARC
  5
247
330
1F
100
AcDbEntity
  8
0
  6
CONTINUOUS
 62
     7
100
AcDbCircle
 10
125.2126400857
 20
116.9051756384
 30
0.0
 40
3.45213336833065
100
AcDbArc
 50
322.9364443308
 51
354.2051470645
  0
LINE
  5
248
330
1F
100
AcDbEntity
  8
0
  6
CONTINUOUS
 62
     7
100
AcDbLine
 10
126.1471309623
 20
120.8867527843
 30
0.0
 11
124.377584543
 21
120.8867527843
 31
0.0
  0
ARC
  5
249
330
1F
100
AcDbEntity
  8
0
  6
CONTINUOUS
 62
     7
100
AcDbCircle
 10
131.1471211583
 20
215.1132535142
 30
0.0
 40
4.999990195994124
100
AcDbArc
 50
119.9999173917
 51
180.0000721752
  0
LINE
  5
24A
330
1F
100
AcDbEntity
  8
0
  6
CONTINUOUS
 62
     7
100
AcDbLine
 10
126.1471309623
 20
215.1132472157
 30
0.0
 11
124.377584543
 21
215.1132472157
 31
0.0
  0
ARC
  5
24B
330
1F
100
AcDbEntity
  8
0
  6
CONTINUOUS
 62
     7
100
AcDbCircle
 10
125.2126400857
 20
219.0948243616
 30
0.0
 40
3.452133368330641
100
AcDbArc
 50
5.7948529355
 51
37.0635556692
  0
LINE
  5
24C
330
1F
100
AcDbEntity
  8
0
  6
CONTINUOUS
 62
     7
100
AcDbLine
 10
126.1471309623
 20
215.1132472157
 30
0.0
 11
126.1471309623
 21
120.8867527843
 31
0.0
  0
LWPOLYLINE
  5
24D
330
1F
100
AcDbEntity
  8
0
  6
CONTINUOUS
 62
     7
100
AcDbPolyline
 90
        3
 70
   128
 43
0.0
 10
133.7370597682
 20
222.3820485473
 10
131.4686448238
 20
221.0723780394
 10
128.6471323035
 20
219.4433756471
  0
ARC
  5
24E
330
1F
100
AcDbEntity
  8
0
  6
CONTINUOUS
 62
     7
100
AcDbCircle
 10
131.6907300914
 20
218.6013486363
 30
0.0
 40
7.82915530180176
100
AcDbArc
 50
48.2006745631
 51
60.694495068
  0
ARC
  5
24F
330
1F
100
AcDbEntity
  8
0
  6
CONTINUOUS
 62
     7
100
AcDbCircle
 10
132.1957711293
 20
116.69197829
 30
0.0
 40
6.966361302489644
100
AcDbArc
 50
298.5281345396
 51
312.5766958294
  0
LWPOLYLINE
  5
250
330
1F
100
AcDbEntity
  8
0
  6
CONTINUOUS
 62
     7
100
AcDbPolyline
 90
        3
 70
   128
 43
0.0
 10
128.6471323035
 20
116.5566243529
 10
131.4686448238
 20
114.9276219606
 10
133.7370597682
 20
113.6179514527
  0
ELLIPSE
  5
251
330
1F
100
AcDbEntity
  8
0
  6
CONTINUOUS
 62
     7
100
AcDbEllipse
 10
136.8907389503
 20
233.2489295995
 30
0.0
 11
1.974410236301935
 21
-0.5161316025807423
 31
0.0
210
0.0
220
0.0
230
1.0
 40
0.2763521849
 41
2.314822849006212
 42
2.328416766532704
  0
LINE
  5
252
330
1F
100
AcDbEntity
  8
0
  6
CONTINUOUS
 62
     7
100
AcDbLine
 10
135.4961492977
 20
233.9009739757
 30
0.0
 11
135.6585011742
 21
233.9999325871
 31
0.0
  0
ELLIPSE
  5
253
330
1F
100
AcDbEntity
  8
0
  6
CONTINUOUS
 62
     7
100
AcDbEllipse
 10
134.9980520546
 20
233.8980396515
 30
0.0
 11
0.4999999241638876
 21
0.005255209371910041
 31
0.0
210
0.0
220
0.0
230
1.0
 40
0.0524020064
 41
4.969213042005197
 42
6.195368077522023
  0
ELLIPSE
  5
254
330
1F
100
AcDbEntity
  8
0
  6
CONTINUOUS
 62
     7
100
AcDbEllipse
 10
156.0368516054
 20
234.5765081152
 30
0.0
 11
42.46566780789806
 21
0.4463320185922725
 31
0.0
210
0.0
220
0.0
230
1.0
 40
0.0524020064
 41
3.200474676086356
 42
3.413820894236391
  0
LINE
  5
255
330
1F
100
AcDbEntity
  8
0
  6
CONTINUOUS
 62
     7
100
AcDbLine
 10
113.6510469875
 20
233.9999996424
 30
0.0
 11
113.6461556813
 21
233.9999996424
 31
0.0
  0
LINE
  5
256
330
1F
100
AcDbEntity
  8
0
  6
CONTINUOUS
 62
     7
100
AcDbLine
 10
113.6510469875
 20
233.9999996424
 30
0.0
 11
135.6375538668
 21
233.9999996424
 31
0.0
  0
ELLIPSE
  5
257
330
1F
100
AcDbEntity
  8
0
  6
CONTINUOUS
 62
     7
100
AcDbEllipse
 10
134.9980520546
 20
102.1019603485
 30
0.0
 11
0.4999999241638876
 21
-0.00525520937189583
 31
0.0
210
0.0
220
0.0
230
1.0
 40
0.0524020064
 41
0.087817229657433
 42
1.313972265174912
  0
LINE
  5
258
330
1F
100
AcDbEntity
  8
0
  6
CONTINUOUS
 62
     7
100
AcDbLine
 10
135.6585011742
 20
102.0000674129
 30
0.0
 11
135.4961492977
 21
102.0990260243
 31
0.0
  0
ELLIPSE
  5
259
330
1F
100
AcDbEntity
  8
0
  6
CONTINUOUS
 62
     7
100
AcDbEllipse
 10
136.8907389503
 20
102.7510704005
 30
0.0
 11
1.974410236301906
 21
0.5161316025807565
 31
0.0
210
0.0
220
0.0
230
1.0
 40
0.2763521849
 41
3.954768540646691
 42
3.96836245817323
  0
LINE
  5
25A
330
1F
100
AcDbEntity
  8
0
  6
CONTINUOUS
 62
     7
100
AcDbLine
 10
113.6510469875
 20
102.0000003576
 30
0.0
 11
135.6375538668
 21
102.0000003576
 31
0.0
  0
LINE
  5
25B
330
1F
100
AcDbEntity
  8
0
  6
CONTINUOUS
 62
     7
100
AcDbLine
 10
113.6461556813
 20
102.0000003576
 30
0.0
 11
113.6510469875
 21
102.0000003576
 31
0.0
  0
ELLIPSE
  5
25C
330
1F
100
AcDbEntity
  8
0
  6
CONTINUOUS
 62
     7
100
AcDbEllipse
 10
156.0368516054
 20
101.4234918848
 30
0.0
 11
42.46566780789806
 21
-0.4463320185922867
 31
0.0
210
0.0
220
0.0
230
1.0
 40
0.0524020064
 41
2.869364412943458
 42
3.082710631093496
  0
ELLIPSE
  5
25D
330
1F
100
AcDbEntity
  8
0
  6
CONTINUOUS
 62
     7
100
AcDbEllipse
 10
156.0525515322
 20
233.0786458653
 30
0.0
 11
43.96566844695801
 21
0.4462496124050119
 31
0.0
210
0.0
220
0.0
230
1.0
 40
0.0506145545
 41
3.193529722109078
 42
3.413857925824219
  0
ARC
  5
25E
330
1F
100
AcDbEntity
  8
0
  6
CONTINUOUS
 62
     7
100
AcDbCircle
 10
113.6479805604
 20
232.4992505334
 30
0.0
 40
1.500750218447038
100
AcDbArc
 50
90.0696704156
 51
179.3041821662
  0
ARC
  5
25F
330
1F
100
AcDbEntity
  8
0
  6
CONTINUOUS
 62
     7
100
AcDbCircle
 10
113.6479805604
 20
103.5007494666
 30
0.0
 40
1.500750218447038
100
AcDbArc
 50
180.6958178338
 51
269.9303295844
  0
ELLIPSE
  5
260
330
1F
100
AcDbEntity
  8
0
  6
CONTINUOUS
 62
     7
100
AcDbEllipse
 10
156.0525515322
 20
102.9213541347
 30
0.0
 11
43.96566844695801
 21
-0.4462496124049977
 31
0.0
210
0.0
220
0.0
230
1.0
 40
0.0506145545
 41
2.869327381355598
 42
3.089655585070756
  0
LINE
  5
261
330
1F
100
AcDbEntity
  8
0
  6
CONTINUOUS
 62
     7
100
AcDbLine
 10
112.1473410091
 20
232.5174756646
 30
0.0
 11
112.1471323929
 21
232.4848868251
 31
0.0
  0
LINE
  5
262
330
1F
100
AcDbEntity
  8
0
  6
CONTINUOUS
 62
     7
100
AcDbLine
 10
112.1471323929
 20
103.5151131749
 30
0.0
 11
112.1473410091
 21
103.4825243354
 31
0.0
  0
LINE
  5
263
330
1F
100
AcDbEntity
  8
0
  6
CONTINUOUS
 62
     7
100
AcDbLine
 10
112.1471323929
 20
232.4848868251
 30
0.0
 11
112.1471323929
 21
103.5151131749
 31
0.0
  0
ELLIPSE
  5
264
330
1F
100
AcDbEntity
  8
0
  6
CONTINUOUS
 62
     7
100
AcDbEllipse
 10
135.0137519814
 20
232.4001774016
 30
0.0
 11
1.999999998820869
 21
0.005241677710444037
 31
0.0
210
0.0
220
0.0
230
1.0
 40
0.0131018548
 41
4.969729471212696
 42
6.195884506731141
  0
ELLIPSE
  5
265
330
1F
100
AcDbEntity
  8
0
  6
CONTINUOUS
 62
     7
100
AcDbEllipse
 10
135.0137519814
 20
103.5998225984
 30
0.0
 11
1.999999998820897
 21
-0.005241677710444037
 31
0.0
210
0.0
220
0.0
230
1.0
 40
0.0131018548
 41
0.0873008004495397
 42
1.313455835967081
  0
ARC
  5
266
330
1F
100
AcDbEntity
  8
0
  6
CONTINUOUS
 62
     7
100
AcDbCircle
 10
135.501965931
 20
232.3967980407
 30
0.0
 40
1.504187181304227
100
AcDbArc
 50
0.2406839725
 51
90.2215611033
  0
ARC
  5
267
330
1F
100
AcDbEntity
  8
0
  6
CONTINUOUS
 62
     7
100
AcDbCircle
 10
135.501965931
 20
103.6032019593
 30
0.0
 40
1.504187181304229
100
AcDbArc
 50
269.7784388967
 51
359.7593160275
  0
ELLIPSE
  5
268
330
1F
100
AcDbEntity
  8
0
  6
CONTINUOUS
 62
     7
100
AcDbEllipse
 10
136.3942658339
 20
232.9409518771
 30
0.0
 11
-0.2724260954348665
 21
1.563847164383844
 31
0.0
210
0.0
220
0.0
230
1.0
 40
0.4487952885
 41
4.34213461093348
 42
4.362862045969093
  0
LINE
  5
269
330
1F
100
AcDbEntity
  8
0
  6
CONTINUOUS
 62
     7
100
AcDbLine
 10
137.1471309027
 20
232.4890516996
 30
0.0
 11
137.0061398408
 21
232.403116703
 31
0.0
  0
ARC
  5
26A
330
1F
100
AcDbEntity
  8
0
  6
CONTINUOUS
 62
     7
100
AcDbCircle
 10
135.6510808611
 20
232.5039722797
 30
0.0
 40
1.49597871054018
100
AcDbArc
 50
0.6244840906
 51
89.7158018607
  0
ARC
  5
26B
330
1F
100
AcDbEntity
  8
0
  6
CONTINUOUS
 62
     7
100
AcDbCircle
 10
135.6510808611
 20
103.4960277203
 30
0.0
 40
1.49597871054018
100
AcDbArc
 50
270.2841981393
 51
359.3755159094
  0
LINE
  5
26C
330
1F
100
AcDbEntity
  8
0
  6
CONTINUOUS
 62
     7
100
AcDbLine
 10
137.0061398408
 20
103.596883297
 30
0.0
 11
137.1471309027
 21
103.5109483004
 31
0.0
  0
ELLIPSE
  5
26D
330
1F
100
AcDbEntity
  8
0
  6
CONTINUOUS
 62
     7
100
AcDbEllipse
 10
136.3942658339
 20
103.0590481229
 30
0.0
 11
0.2724260954348665
 21
1.563847164383859
 31
0.0
210
0.0
220
0.0
230
1.0
 40
0.4487952885
 41
5.06191591480037
 42
5.08264334983604
  0
LINE
  5
26E
330
1F
100
AcDbEntity
  8
0
  6
CONTINUOUS
 62
     7
100
AcDbLine
 10
137.1471309027
 20
232.4890516996
 30
0.0
 11
137.1471309027
 21
230.5466406345
 31
0.0
  0
LINE
  5
26F
330
1F
100
AcDbEntity
  8
0
  6
CONTINUOUS
 62
     7
100
AcDbLine
 10
137.1471309027
 20
105.4533593655
 30
0.0
 11
137.1471309027
 21
103.5109483004
 31
0.0
  0
LINE
  5
270
330
1F
100
AcDbEntity
  8
0
  6
CONTINUOUS
 62
     7
100
AcDbLine
 10
126.3471306226
 20
163.0000001118
 30
0.0
 11
126.1471309623
 21
163.0000001118
 31
0.0
  0
LINE
  5
271
330
1F
100
AcDbEntity
  8
0
  6
CONTINUOUS
 62
     7
100
AcDbLine
 10
126.1471309623
 20
172.9999998882
 30
0.0
 11
126.3471306226
 21
172.9999998882
 31
0.0
  0
LWPOLYLINE
  5
272
330
1F
100
AcDbEntity
  8
0
  6
CONTINUOUS
 62
     7
100
AcDbPolyline
 90
       20
 70
   128
 43
0.0
 10
225.3430136404
 20
168.0
 10
225.4420169554
 20
168.5857609212
 10
225.7294193766
 20
169.1057511438
 10
226.1709258816
 20
169.4955408406
 10
226.7066338024
 20
169.7084236024
 10
227.271559175
 20
169.7283863854
 10
227.8063134215
 20
169.5611816198
 10
228.2592714689
 20
169.2262725504
 10
228.5844110808
 20
168.7545054541
 10
228.7421249709
 20
168.1909062994
 10
228.7061721942
 20
167.5969021402
 10
228.4742169938
 20
167.0456765518
 10
228.0744337401
 20
166.6084229313
 10
227.5607609114
 20
166.3374418225
 10
226.9980818889
 20
166.2571622822
 10
226.4482029638
 20
166.3676122501
 10
225.9649136028
 20
166.653022456
 10
225.5956889055
 20
167.0862391423
 10
225.3824346623
 20
167.6270547563
 10
225.3430136404
 20
168.0000000019
  0
LWPOLYLINE
  5
273
330
1F
100
AcDbEntity
  8
0
  6
CONTINUOUS
 62
     7
100
AcDbPolyline
 90
       20
 70
   128
 43
0.0
 10
220.4736568889
 20
168.0
 10
220.5721647403
 20
168.5857609212
 10
220.8581627271
 20
169.1057511438
 10
221.2976352236
 20
169.4955408406
 10
221.8310781679
 20
169.7084236024
 10
222.3938503227
 20
169.7283863854
 10
222.9267940781
 20
169.5611816198
 10
223.3783886692
 20
169.2262725504
 10
223.7026453874
 20
168.7545054541
 10
223.8599606714
 20
168.1909062994
 10
223.8240973017
 20
167.5969021402
 10
223.592741873
 20
167.0456765518
 10
223.1940873823
 20
166.6084229313
 10
222.6820462308
 20
166.3374418225
 10
222.1213863156
 20
166.2571622822
 10
221.5737164876
 20
166.3676122501
 10
221.0925542674
 20
166.653022456
 10
220.7250767312
 20
167.0862391423
 10
220.5128804705
 20
167.6270547563
 10
220.4736568889
 20
168.0
  0
LWPOLYLINE
  5
274
330
1F
100
AcDbEntity
  8
0
  6
CONTINUOUS
 62
     7
100
AcDbPolyline
 90
       20
 70
   128
 43
0.0
 10
225.3430136404
 20
175.0000002161
 10
225.4420169554
 20
175.5857611373
 10
225.7294193766
 20
176.105751127
 10
226.1709258816
 20
176.4955412894
 10
226.7066338024
 20
176.7084239349
 10
227.271559175
 20
176.7283859029
 10
227.8063134215
 20
176.5611818358
 10
228.2592714689
 20
176.2262726501
 10
228.5844110808
 20
175.754505612
 10
228.7421249709
 20
175.1909064427
 10
228.7061721942
 20
174.5969019197
 10
228.4742169938
 20
174.0456767678
 10
228.0744337401
 20
173.6084231474
 10
227.5607609114
 20
173.3374418058
 10
226.9980818889
 20
173.2571622655
 10
226.4482029638
 20
173.3676120006
 10
225.9649136028
 20
173.6530223228
 10
225.5956889055
 20
174.0862391256
 10
225.3824346623
 20
174.627054885
 10
225.3430136404
 20
175.0000002161
  0
LWPOLYLINE
  5
275
330
1F
100
AcDbEntity
  8
0
  6
CONTINUOUS
 62
     7
100
AcDbPolyline
 90
       20
 70
   128
 43
0.0
 10
225.3430136404
 20
182.0000004321
 10
225.4420169554
 20
182.5857613534
 10
225.7294193766
 20
183.1057513431
 10
226.1709258816
 20
183.4955405742
 10
226.7066338024
 20
183.7084241509
 10
227.271559175
 20
183.728386119
 10
227.8063134215
 20
183.5611820519
 10
228.2592714689
 20
183.2262728661
 10
228.5844110808
 20
182.754505828
 10
228.7421249709
 20
182.1909066588
 10
228.7061721942
 20
181.5969016701
 10
228.4742169938
 20
181.0456769839
 10
228.0744337401
 20
180.6084228978
 10
227.5607609114
 20
180.3374415562
 10
226.9980818889
 20
180.2571624815
 10
226.4482029638
 20
180.367611751
 10
225.9649136028
 20
180.6530220732
 10
225.5956889055
 20
181.086238876
 10
225.3824346623
 20
181.6270551011
 10
225.3430136404
 20
182.0000004321
  0
LWPOLYLINE
  5
276
330
1F
100
AcDbEntity
  8
0
  6
CONTINUOUS
 62
     7
100
AcDbPolyline
 90
       20
 70
   128
 43
0.0
 10
225.3430136404
 20
188.9999997169
 10
225.4420169554
 20
189.5857606381
 10
225.7294193766
 20
190.1057515591
 10
226.1709258816
 20
190.4955417216
 10
226.7066338024
 20
190.7084234357
 10
227.271559175
 20
190.7283872664
 10
227.8063134215
 20
190.5611813366
 10
228.2592714689
 20
190.2262721509
 10
228.5844110808
 20
189.7545051128
 10
228.7421249709
 20
189.1909059435
 10
228.7061721942
 20
188.5969028175
 10
228.4742169938
 20
188.0456772
 10
228.0744337401
 20
187.6084231138
 10
227.5607609114
 20
187.3374417722
 10
226.9980818889
 20
187.2571617663
 10
226.4482029638
 20
187.3676128983
 10
225.9649136028
 20
187.6530222893
 10
225.5956889055
 20
188.0862400234
 10
225.3824346623
 20
188.6270553172
 10
225.3430136404
 20
188.9999997169
  0
LWPOLYLINE
  5
277
330
1F
100
AcDbEntity
  8
0
  6
CONTINUOUS
 62
     7
100
AcDbPolyline
 90
       20
 70
   128
 43
0.0
 10
225.3430136404
 20
196.0000008643
 10
225.4420169554
 20
196.5857617855
 10
225.7294193766
 20
197.1057508439
 10
226.1709258816
 20
197.4955410063
 10
226.7066338024
 20
197.7084245831
 10
227.271559175
 20
197.7283865511
 10
227.8063134215
 20
197.561182484
 10
228.2592714689
 20
197.2262732983
 10
228.5844110808
 20
196.7545062602
 10
228.7421249709
 20
196.1909070909
 10
228.7061721942
 20
195.5969021022
 10
228.4742169938
 20
195.0456764847
 10
228.0744337401
 20
194.6084223986
 10
227.5607609114
 20
194.337441057
 10
226.9980818889
 20
194.2571629137
 10
226.4482029638
 20
194.3676121831
 10
225.9649136028
 20
194.6530234367
 10
225.5956889055
 20
195.0862393081
 10
225.3824346623
 20
195.6270546019
 10
225.3430136404
 20
196.0000008643
  0
LWPOLYLINE
  5
278
330
1F
100
AcDbEntity
  8
0
  6
CONTINUOUS
 62
     7
100
AcDbPolyline
 90
       20
 70
   128
 43
0.0
 10
225.3430136404
 20
203.000000149
 10
225.4420169554
 20
203.5857610703
 10
225.7294193766
 20
204.1057519913
 10
226.1709258816
 20
204.4955402911
 10
226.7066338024
 20
204.7084220052
 10
227.271559175
 20
204.7283858359
 10
227.8063134215
 20
204.5611799061
 10
228.2592714689
 20
204.226272583
 10
228.5844110808
 20
203.7545055449
 10
228.7421249709
 20
203.1909063756
 10
228.7061721942
 20
202.596901387
 10
228.4742169938
 20
202.0456776321
 10
228.0744337401
 20
201.6084216833
 10
227.5607609114
 20
201.3374403417
 10
226.9980818889
 20
201.2571640611
 10
226.4482029638
 20
201.3676114678
 10
225.9649136028
 20
201.6530208588
 10
225.5956889055
 20
202.0862385929
 10
225.3824346623
 20
202.6270538867
 10
225.3430136404
 20
203.000000149
  0
LWPOLYLINE
  5
279
330
1F
100
AcDbEntity
  8
0
  6
CONTINUOUS
 62
     7
100
AcDbPolyline
 90
       20
 70
   128
 43
0.0
 10
225.3430136404
 20
209.9999994338
 10
225.4420169554
 20
210.585760355
 10
225.7294193766
 20
211.105751276
 10
226.1709258816
 20
211.4955395758
 10
226.7066338024
 20
211.7084250152
 10
227.271559175
 20
211.7283851206
 10
227.8063134215
 20
211.5611829162
 10
228.2592714689
 20
211.2262718678
 10
228.5844110808
 20
210.7545048296
 10
228.7421249709
 20
210.1909056604
 10
228.7061721942
 20
209.5969006717
 10
228.4742169938
 20
209.0456769168
 10
228.0744337401
 20
208.6084246933
 10
227.5607609114
 20
208.3374433517
 10
226.9980818889
 20
208.2571633458
 10
226.4482029638
 20
208.3676107526
 10
225.9649136028
 20
208.6530238688
 10
225.5956889055
 20
209.0862378776
 10
225.3824346623
 20
209.6270531714
 10
225.3430136404
 20
209.9999994338
  0
LWPOLYLINE
  5
27A
330
1F
100
AcDbEntity
  8
0
  6
CONTINUOUS
 62
     7
100
AcDbPolyline
 90
       20
 70
   128
 43
0.0
 10
225.3430136404
 20
216.9999987185
 10
225.4420169554
 20
217.5857596397
 10
225.7294193766
 20
218.1057505608
 10
226.1709258816
 20
218.4955425858
 10
226.7066338024
 20
218.7084243
 10
227.271559175
 20
218.7283881307
 10
227.8063134215
 20
218.5611822009
 10
228.2592714689
 20
218.2262711525
 10
228.5844110808
 20
217.7545041144
 10
228.7421249709
 20
217.1909049451
 10
228.7061721942
 20
216.5969036818
 10
228.4742169938
 20
216.0456762016
 10
228.0744337401
 20
215.6084239781
 10
227.5607609114
 20
215.3374426365
 10
226.9980818889
 20
215.2571626306
 10
226.4482029638
 20
215.3676137626
 10
225.9649136028
 20
215.6530231535
 10
225.5956889055
 20
216.0862408876
 10
225.3824346623
 20
216.6270561814
 10
225.3430136404
 20
216.9999987185
  0
LWPOLYLINE
  5
27B
330
1F
100
AcDbEntity
  8
0
  6
CONTINUOUS
 62
     7
100
AcDbPolyline
 90
       20
 70
   128
 43
0.0
 10
225.3430136404
 20
224.0000017285
 10
225.4420169554
 20
224.5857626498
 10
225.7294193766
 20
225.1057498455
 10
226.1709258816
 20
225.4955418706
 10
226.7066338024
 20
225.7084235847
 10
227.271559175
 20
225.7283874154
 10
227.8063134215
 20
225.5611814857
 10
228.2592714689
 20
225.2262741625
 10
228.5844110808
 20
224.7545071244
 10
228.7421249709
 20
224.1909079552
 10
228.7061721942
 20
223.5969029665
 10
228.4742169938
 20
223.0456754863
 10
228.0744337401
 20
222.6084232628
 10
227.5607609114
 20
222.3374419212
 10
226.9980818889
 20
222.2571619153
 10
226.4482029638
 20
222.3676130474
 10
225.9649136028
 20
222.6530224383
 10
225.5956889055
 20
223.0862401724
 10
225.3824346623
 20
223.6270554662
 10
225.3430136404
 20
224.0000017285
  0
LWPOLYLINE
  5
27C
330
1F
100
AcDbEntity
  8
0
  6
CONTINUOUS
 62
     7
100
AcDbPolyline
 90
       20
 70
   128
 43
0.0
 10
225.3430136404
 20
160.9999997839
 10
225.4420169554
 20
161.5857607052
 10
225.7294193766
 20
162.1057511605
 10
226.1709258816
 20
162.4955408573
 10
226.7066338024
 20
162.7084235027
 10
227.271559175
 20
162.7283864021
 10
227.8063134215
 20
162.5611818694
 10
228.2592714689
 20
162.2262726836
 10
228.5844110808
 20
161.7545056455
 10
228.7421249709
 20
161.1909064762
 10
228.7061721942
 20
160.5969019532
 10
228.4742169938
 20
160.0456763357
 10
228.0744337401
 20
159.6084231809
 10
227.5607609114
 20
159.3374418393
 10
226.9980818889
 20
159.2571618333
 10
226.4482029638
 20
159.3676120341
 10
225.9649136028
 20
159.6530223563
 10
225.5956889055
 20
160.0862391591
 10
225.3824346623
 20
160.6270549186
 10
225.3430136404
 20
160.9999997839
  0
LWPOLYLINE
  5
27D
330
1F
100
AcDbEntity
  8
0
  6
CONTINUOUS
 62
     7
100
AcDbPolyline
 90
       20
 70
   128
 43
0.0
 10
225.3430136404
 20
153.9999995679
 10
225.4420169554
 20
154.5857604891
 10
225.7294193766
 20
155.1057514101
 10
226.1709258816
 20
155.4955406412
 10
226.7066338024
 20
155.7084232867
 10
227.271559175
 20
155.7283861861
 10
227.8063134215
 20
155.5611811876
 10
228.2592714689
 20
155.2262729332
 10
228.5844110808
 20
154.7545058951
 10
228.7421249709
 20
154.1909067258
 10
228.7061721942
 20
153.5969017372
 10
228.4742169938
 20
153.0456761196
 10
228.0744337401
 20
152.6084229648
 10
227.5607609114
 20
152.3374416232
 10
226.9980818889
 20
152.2571616173
 10
226.4482029638
 20
152.3676127493
 10
225.9649136028
 20
152.6530221403
 10
225.5956889055
 20
153.086238943
 10
225.3824346623
 20
153.6270551682
 10
225.3430136404
 20
153.9999995679
  0
LWPOLYLINE
  5
27E
330
1F
100
AcDbEntity
  8
0
  6
CONTINUOUS
 62
     7
100
AcDbPolyline
 90
       20
 70
   128
 43
0.0
 10
225.3430136404
 20
147.0000002831
 10
225.4420169554
 20
147.5857612044
 10
225.7294193766
 20
148.1057502627
 10
226.1709258816
 20
148.4955404252
 10
226.7066338024
 20
148.7084240019
 10
227.271559175
 20
148.72838597
 10
227.8063134215
 20
148.5611819029
 10
228.2592714689
 20
148.2262727171
 10
228.5844110808
 20
147.754505679
 10
228.7421249709
 20
147.1909065098
 10
228.7061721942
 20
146.5969015211
 10
228.4742169938
 20
146.0456759036
 10
228.0744337401
 20
145.6084236801
 10
227.5607609114
 20
145.3374423385
 10
226.9980818889
 20
145.2571623325
 10
226.4482029638
 20
145.3676116019
 10
225.9649136028
 20
145.6530228555
 10
225.5956889055
 20
146.086238727
 10
225.3824346623
 20
146.6270540208
 10
225.3430136404
 20
147.0000002831
  0
LWPOLYLINE
  5
27F
330
1F
100
AcDbEntity
  8
0
  6
CONTINUOUS
 62
     7
100
AcDbPolyline
 90
       20
 70
   128
 43
0.0
 10
225.3430136404
 20
139.9999991357
 10
225.4420169554
 20
140.585760057
 10
225.7294193766
 20
141.105750978
 10
226.1709258816
 20
141.4955411404
 10
226.7066338024
 20
141.7084228545
 10
227.271559175
 20
141.7283866853
 10
227.8063134215
 20
141.5611807555
 10
228.2592714689
 20
141.2262734324
 10
228.5844110808
 20
140.7545045316
 10
228.7421249709
 20
140.190907225
 10
228.7061721942
 20
139.5969022363
 10
228.4742169938
 20
139.0456766188
 10
228.0744337401
 20
138.6084225327
 10
227.5607609114
 20
138.3374411911
 10
226.9980818889
 20
138.2571630478
 10
226.4482029638
 20
138.3676123172
 10
225.9649136028
 20
138.6530217081
 10
225.5956889055
 20
139.0862394422
 10
225.3824346623
 20
139.627054736
 10
225.3430136404
 20
139.9999991357
  0
LWPOLYLINE
  5
280
330
1F
100
AcDbEntity
  8
0
  6
CONTINUOUS
 62
     7
100
AcDbPolyline
 90
       20
 70
   128
 43
0.0
 10
225.3430136404
 20
132.999999851
 10
225.4420169554
 20
133.5857607722
 10
225.7294193766
 20
134.1057516932
 10
226.1709258816
 20
134.495539993
 10
226.7066338024
 20
134.7084254324
 10
227.271559175
 20
134.7283855379
 10
227.8063134215
 20
134.5611833334
 10
228.2592714689
 20
134.226272285
 10
228.5844110808
 20
133.7545052469
 10
228.7421249709
 20
133.1909060776
 10
228.7061721942
 20
132.596901089
 10
228.4742169938
 20
132.0456773341
 10
228.0744337401
 20
131.6084213853
 10
227.5607609114
 20
131.3374400437
 10
226.9980818889
 20
131.257163763
 10
226.4482029638
 20
131.3676111698
 10
225.9649136028
 20
131.653024286
 10
225.5956889055
 20
132.0862382948
 10
225.3824346623
 20
132.6270535886
 10
225.3430136404
 20
132.999999851
  0
LWPOLYLINE
  5
281
330
1F
100
AcDbEntity
  8
0
  6
CONTINUOUS
 62
     7
100
AcDbPolyline
 90
       20
 70
   128
 43
0.0
 10
225.3430136404
 20
126.0000005662
 10
225.4420169554
 20
126.5857614875
 10
225.7294193766
 20
127.1057524085
 10
226.1709258816
 20
127.4955407083
 10
226.7066338024
 20
127.7084224224
 10
227.271559175
 20
127.7283862531
 10
227.8063134215
 20
127.5611803234
 10
228.2592714689
 20
127.2262730002
 10
228.5844110808
 20
126.7545059621
 10
228.7421249709
 20
126.1909067929
 10
228.7061721942
 20
125.5969018042
 10
228.4742169938
 20
125.0456780493
 10
228.0744337401
 20
124.6084221005
 10
227.5607609114
 20
124.3374407589
 10
226.9980818889
 20
124.257160753
 10
226.4482029638
 20
124.3676118851
 10
225.9649136028
 20
124.653021276
 10
225.5956889055
 20
125.0862390101
 10
225.3824346623
 20
125.6270543039
 10
225.3430136404
 20
126.0000005662
  0
LWPOLYLINE
  5
282
330
1F
100
AcDbEntity
  8
0
  6
CONTINUOUS
 62
     7
100
AcDbPolyline
 90
       20
 70
   128
 43
0.0
 10
225.3430136404
 20
119.0000012815
 10
225.4420169554
 20
119.5857622027
 10
225.7294193766
 20
120.1057493985
 10
226.1709258816
 20
120.4955414236
 10
226.7066338024
 20
120.7084231377
 10
227.271559175
 20
120.7283869684
 10
227.8063134215
 20
120.5611810386
 10
228.2592714689
 20
120.2262737155
 10
228.5844110808
 20
119.7545066774
 10
228.7421249709
 20
119.1909075081
 10
228.7061721942
 20
118.5969025195
 10
228.4742169938
 20
118.0456750393
 10
228.0744337401
 20
117.6084228158
 10
227.5607609114
 20
117.3374414742
 10
226.9980818889
 20
117.2571614683
 10
226.4482029638
 20
117.3676126003
 10
225.9649136028
 20
117.6530219913
 10
225.5956889055
 20
118.0862397254
 10
225.3824346623
 20
118.6270550191
 10
225.3430136404
 20
119.0000012815
  0
LWPOLYLINE
  5
283
330
1F
100
AcDbEntity
  8
0
  6
CONTINUOUS
 62
     7
100
AcDbPolyline
 90
       20
 70
   128
 43
0.0
 10
225.3430136404
 20
111.9999982715
 10
225.4420169554
 20
112.5857591927
 10
225.7294193766
 20
113.1057501137
 10
226.1709258816
 20
113.4955421388
 10
226.7066338024
 20
113.7084238529
 10
227.271559175
 20
113.7283876836
 10
227.8063134215
 20
113.5611817539
 10
228.2592714689
 20
113.2262707055
 10
228.5844110808
 20
112.7545036674
 10
228.7421249709
 20
112.1909044981
 10
228.7061721942
 20
111.5969032347
 10
228.4742169938
 20
111.0456757545
 10
228.0744337401
 20
110.6084235311
 10
227.5607609114
 20
110.3374421895
 10
226.9980818889
 20
110.2571621835
 10
226.4482029638
 20
110.3676133156
 10
225.9649136028
 20
110.6530227065
 10
225.5956889055
 20
111.0862404406
 10
225.3824346623
 20
111.6270557344
 10
225.3430136404
 20
111.9999982715
  0
LWPOLYLINE
  5
284
330
1F
100
AcDbEntity
  8
0
  6
CONTINUOUS
 62
     7
100
AcDbPolyline
 90
       20
 70
   128
 43
0.0
 10
220.4736568889
 20
175.0000002161
 10
220.5721647403
 20
175.5857611373
 10
220.8581627271
 20
176.105751127
 10
221.2976352236
 20
176.4955412894
 10
221.8310781679
 20
176.7084239349
 10
222.3938503227
 20
176.7283859029
 10
222.9267940781
 20
176.5611818358
 10
223.3783886692
 20
176.2262726501
 10
223.7026453874
 20
175.754505612
 10
223.8599606714
 20
175.1909064427
 10
223.8240973017
 20
174.5969019197
 10
223.592741873
 20
174.0456767678
 10
223.1940873823
 20
173.6084231474
 10
222.6820462308
 20
173.3374418058
 10
222.1213863156
 20
173.2571622655
 10
221.5737164876
 20
173.3676120006
 10
221.0925542674
 20
173.6530223228
 10
220.7250767312
 20
174.0862391256
 10
220.5128804705
 20
174.627054885
 10
220.4736568889
 20
175.0000002161
  0
LWPOLYLINE
  5
285
330
1F
100
AcDbEntity
  8
0
  6
CONTINUOUS
 62
     7
100
AcDbPolyline
 90
       20
 70
   128
 43
0.0
 10
220.4736568889
 20
182.0000004321
 10
220.5721647403
 20
182.5857613534
 10
220.8581627271
 20
183.1057513431
 10
221.2976352236
 20
183.4955405742
 10
221.8310781679
 20
183.7084241509
 10
222.3938503227
 20
183.728386119
 10
222.9267940781
 20
183.5611820519
 10
223.3783886692
 20
183.2262728661
 10
223.7026453874
 20
182.754505828
 10
223.8599606714
 20
182.1909066588
 10
223.8240973017
 20
181.5969016701
 10
223.592741873
 20
181.0456769839
 10
223.1940873823
 20
180.6084228978
 10
222.6820462308
 20
180.3374415562
 10
222.1213863156
 20
180.2571624815
 10
221.5737164876
 20
180.367611751
 10
221.0925542674
 20
180.6530220732
 10
220.7250767312
 20
181.086238876
 10
220.5128804705
 20
181.6270551011
 10
220.4736568889
 20
182.0000004321
  0
LWPOLYLINE
  5
286
330
1F
100
AcDbEntity
  8
0
  6
CONTINUOUS
 62
     7
100
AcDbPolyline
 90
       20
 70
   128
 43
0.0
 10
220.4736568889
 20
188.9999997169
 10
220.5721647403
 20
189.5857606381
 10
220.8581627271
 20
190.1057515591
 10
221.2976352236
 20
190.4955417216
 10
221.8310781679
 20
190.7084234357
 10
222.3938503227
 20
190.7283872664
 10
222.9267940781
 20
190.5611813366
 10
223.3783886692
 20
190.2262721509
 10
223.7026453874
 20
189.7545051128
 10
223.8599606714
 20
189.1909059435
 10
223.8240973017
 20
188.5969028175
 10
223.592741873
 20
188.0456772
 10
223.1940873823
 20
187.6084231138
 10
222.6820462308
 20
187.3374417722
 10
222.1213863156
 20
187.2571617663
 10
221.5737164876
 20
187.3676128983
 10
221.0925542674
 20
187.6530222893
 10
220.7250767312
 20
188.0862400234
 10
220.5128804705
 20
188.6270553172
 10
220.4736568889
 20
188.9999997169
  0
LWPOLYLINE
  5
287
330
1F
100
AcDbEntity
  8
0
  6
CONTINUOUS
 62
     7
100
AcDbPolyline
 90
       20
 70
   128
 43
0.0
 10
220.4736568889
 20
196.0000008643
 10
220.5721647403
 20
196.5857617855
 10
220.8581627271
 20
197.1057508439
 10
221.2976352236
 20
197.4955410063
 10
221.8310781679
 20
197.7084245831
 10
222.3938503227
 20
197.7283865511
 10
222.9267940781
 20
197.561182484
 10
223.3783886692
 20
197.2262732983
 10
223.7026453874
 20
196.7545062602
 10
223.8599606714
 20
196.1909070909
 10
223.8240973017
 20
195.5969021022
 10
223.592741873
 20
195.0456764847
 10
223.1940873823
 20
194.6084223986
 10
222.6820462308
 20
194.337441057
 10
222.1213863156
 20
194.2571629137
 10
221.5737164876
 20
194.3676121831
 10
221.0925542674
 20
194.6530234367
 10
220.7250767312
 20
195.0862393081
 10
220.5128804705
 20
195.6270546019
 10
220.4736568889
 20
196.0000008643
  0
LWPOLYLINE
  5
288
330
1F
100
AcDbEntity
  8
0
  6
CONTINUOUS
 62
     7
100
AcDbPolyline
 90
       20
 70
   128
 43
0.0
 10
220.4736568889
 20
203.000000149
 10
220.5721647403
 20
203.5857610703
 10
220.8581627271
 20
204.1057519913
 10
221.2976352236
 20
204.4955402911
 10
221.8310781679
 20
204.7084220052
 10
222.3938503227
 20
204.7283858359
 10
222.9267940781
 20
204.5611799061
 10
223.3783886692
 20
204.226272583
 10
223.7026453874
 20
203.7545055449
 10
223.8599606714
 20
203.1909063756
 10
223.8240973017
 20
202.596901387
 10
223.592741873
 20
202.0456776321
 10
223.1940873823
 20
201.6084216833
 10
222.6820462308
 20
201.3374403417
 10
222.1213863156
 20
201.2571640611
 10
221.5737164876
 20
201.3676114678
 10
221.0925542674
 20
201.6530208588
 10
220.7250767312
 20
202.0862385929
 10
220.5128804705
 20
202.6270538867
 10
220.4736568889
 20
203.000000149
  0
LWPOLYLINE
  5
289
330
1F
100
AcDbEntity
  8
0
  6
CONTINUOUS
 62
     7
100
AcDbPolyline
 90
       20
 70
   128
 43
0.0
 10
220.4736568889
 20
209.9999994338
 10
220.5721647403
 20
210.585760355
 10
220.8581627271
 20
211.105751276
 10
221.2976352236
 20
211.4955395758
 10
221.8310781679
 20
211.7084250152
 10
222.3938503227
 20
211.7283851206
 10
222.9267940781
 20
211.5611829162
 10
223.3783886692
 20
211.2262718678
 10
223.7026453874
 20
210.7545048296
 10
223.8599606714
 20
210.1909056604
 10
223.8240973017
 20
209.5969006717
 10
223.592741873
 20
209.0456769168
 10
223.1940873823
 20
208.6084246933
 10
222.6820462308
 20
208.3374433517
 10
222.1213863156
 20
208.2571633458
 10
221.5737164876
 20
208.3676107526
 10
221.0925542674
 20
208.6530238688
 10
220.7250767312
 20
209.0862378776
 10
220.5128804705
 20
209.6270531714
 10
220.4736568889
 20
209.9999994338
  0
LWPOLYLINE
  5
28A
330
1F
100
AcDbEntity
  8
0
  6
CONTINUOUS
 62
     7
100
AcDbPolyline
 90
       20
 70
   128
 43
0.0
 10
220.4736568889
 20
216.9999987185
 10
220.5721647403
 20
217.5857596397
 10
220.8581627271
 20
218.1057505608
 10
221.2976352236
 20
218.4955425858
 10
221.8310781679
 20
218.7084243
 10
222.3938503227
 20
218.7283881307
 10
222.9267940781
 20
218.5611822009
 10
223.3783886692
 20
218.2262711525
 10
223.7026453874
 20
217.7545041144
 10
223.8599606714
 20
217.1909049451
 10
223.8240973017
 20
216.5969036818
 10
223.592741873
 20
216.0456762016
 10
223.1940873823
 20
215.6084239781
 10
222.6820462308
 20
215.3374426365
 10
222.1213863156
 20
215.2571626306
 10
221.5737164876
 20
215.3676137626
 10
221.0925542674
 20
215.6530231535
 10
220.7250767312
 20
216.0862408876
 10
220.5128804705
 20
216.6270561814
 10
220.4736568889
 20
216.9999987185
  0
LWPOLYLINE
  5
28B
330
1F
100
AcDbEntity
  8
0
  6
CONTINUOUS
 62
     7
100
AcDbPolyline
 90
       20
 70
   128
 43
0.0
 10
220.4736568889
 20
224.0000017285
 10
220.5721647403
 20
224.5857626498
 10
220.8581627271
 20
225.1057498455
 10
221.2976352236
 20
225.4955418706
 10
221.8310781679
 20
225.7084235847
 10
222.3938503227
 20
225.7283874154
 10
222.9267940781
 20
225.5611814857
 10
223.3783886692
 20
225.2262741625
 10
223.7026453874
 20
224.7545071244
 10
223.8599606714
 20
224.1909079552
 10
223.8240973017
 20
223.5969029665
 10
223.592741873
 20
223.0456754863
 10
223.1940873823
 20
222.6084232628
 10
222.6820462308
 20
222.3374419212
 10
222.1213863156
 20
222.2571619153
 10
221.5737164876
 20
222.3676130474
 10
221.0925542674
 20
222.6530224383
 10
220.7250767312
 20
223.0862401724
 10
220.5128804705
 20
223.6270554662
 10
220.4736568889
 20
224.0000017285
  0
LWPOLYLINE
  5
28C
330
1F
100
AcDbEntity
  8
0
  6
CONTINUOUS
 62
     7
100
AcDbPolyline
 90
       20
 70
   128
 43
0.0
 10
220.4736568889
 20
160.9999997839
 10
220.5721647403
 20
161.5857607052
 10
220.8581627271
 20
162.1057511605
 10
221.2976352236
 20
162.4955408573
 10
221.8310781679
 20
162.7084235027
 10
222.3938503227
 20
162.7283864021
 10
222.9267940781
 20
162.5611818694
 10
223.3783886692
 20
162.2262726836
 10
223.7026453874
 20
161.7545056455
 10
223.8599606714
 20
161.1909064762
 10
223.8240973017
 20
160.5969019532
 10
223.592741873
 20
160.0456763357
 10
223.1940873823
 20
159.6084231809
 10
222.6820462308
 20
159.3374418393
 10
222.1213863156
 20
159.2571618333
 10
221.5737164876
 20
159.3676120341
 10
221.0925542674
 20
159.6530223563
 10
220.7250767312
 20
160.0862391591
 10
220.5128804705
 20
160.6270549186
 10
220.4736568889
 20
160.9999997839
  0
LWPOLYLINE
  5
28D
330
1F
100
AcDbEntity
  8
0
  6
CONTINUOUS
 62
     7
100
AcDbPolyline
 90
       20
 70
   128
 43
0.0
 10
220.4736568889
 20
153.9999995679
 10
220.5721647403
 20
154.5857604891
 10
220.8581627271
 20
155.1057514101
 10
221.2976352236
 20
155.4955406412
 10
221.8310781679
 20
155.7084232867
 10
222.3938503227
 20
155.7283861861
 10
222.9267940781
 20
155.5611811876
 10
223.3783886692
 20
155.2262729332
 10
223.7026453874
 20
154.7545058951
 10
223.8599606714
 20
154.1909067258
 10
223.8240973017
 20
153.5969017372
 10
223.592741873
 20
153.0456761196
 10
223.1940873823
 20
152.6084229648
 10
222.6820462308
 20
152.3374416232
 10
222.1213863156
 20
152.2571616173
 10
221.5737164876
 20
152.3676127493
 10
221.0925542674
 20
152.6530221403
 10
220.7250767312
 20
153.086238943
 10
220.5128804705
 20
153.6270551682
 10
220.4736568889
 20
153.9999995679
  0
LWPOLYLINE
  5
28E
330
1F
100
AcDbEntity
  8
0
  6
CONTINUOUS
 62
     7
100
AcDbPolyline
 90
       20
 70
   128
 43
0.0
 10
220.4736568889
 20
147.0000002831
 10
220.5721647403
 20
147.5857612044
 10
220.8581627271
 20
148.1057502627
 10
221.2976352236
 20
148.4955404252
 10
221.8310781679
 20
148.7084240019
 10
222.3938503227
 20
148.72838597
 10
222.9267940781
 20
148.5611819029
 10
223.3783886692
 20
148.2262727171
 10
223.7026453874
 20
147.754505679
 10
223.8599606714
 20
147.1909065098
 10
223.8240973017
 20
146.5969015211
 10
223.592741873
 20
146.0456759036
 10
223.1940873823
 20
145.6084236801
 10
222.6820462308
 20
145.3374423385
 10
222.1213863156
 20
145.2571623325
 10
221.5737164876
 20
145.3676116019
 10
221.0925542674
 20
145.6530228555
 10
220.7250767312
 20
146.086238727
 10
220.5128804705
 20
146.6270540208
 10
220.4736568889
 20
147.0000002831
  0
LWPOLYLINE
  5
28F
330
1F
100
AcDbEntity
  8
0
  6
CONTINUOUS
 62
     7
100
AcDbPolyline
 90
       20
 70
   128
 43
0.0
 10
220.4736568889
 20
139.9999991357
 10
220.5721647403
 20
140.585760057
 10
220.8581627271
 20
141.105750978
 10
221.2976352236
 20
141.4955411404
 10
221.8310781679
 20
141.7084228545
 10
222.3938503227
 20
141.7283866853
 10
222.9267940781
 20
141.5611807555
 10
223.3783886692
 20
141.2262734324
 10
223.7026453874
 20
140.7545045316
 10
223.8599606714
 20
140.190907225
 10
223.8240973017
 20
139.5969022363
 10
223.592741873
 20
139.0456766188
 10
223.1940873823
 20
138.6084225327
 10
222.6820462308
 20
138.3374411911
 10
222.1213863156
 20
138.2571630478
 10
221.5737164876
 20
138.3676123172
 10
221.0925542674
 20
138.6530217081
 10
220.7250767312
 20
139.0862394422
 10
220.5128804705
 20
139.627054736
 10
220.4736568889
 20
139.9999991357
  0
LWPOLYLINE
  5
290
330
1F
100
AcDbEntity
  8
0
  6
CONTINUOUS
 62
     7
100
AcDbPolyline
 90
       20
 70
   128
 43
0.0
 10
220.4736568889
 20
132.999999851
 10
220.5721647403
 20
133.5857607722
 10
220.8581627271
 20
134.1057516932
 10
221.2976352236
 20
134.495539993
 10
221.8310781679
 20
134.7084254324
 10
222.3938503227
 20
134.7283855379
 10
222.9267940781
 20
134.5611833334
 10
223.3783886692
 20
134.226272285
 10
223.7026453874
 20
133.7545052469
 10
223.8599606714
 20
133.1909060776
 10
223.8240973017
 20
132.596901089
 10
223.592741873
 20
132.0456773341
 10
223.1940873823
 20
131.6084213853
 10
222.6820462308
 20
131.3374400437
 10
222.1213863156
 20
131.257163763
 10
221.5737164876
 20
131.3676111698
 10
221.0925542674
 20
131.653024286
 10
220.7250767312
 20
132.0862382948
 10
220.5128804705
 20
132.6270535886
 10
220.4736568889
 20
132.999999851
  0
LWPOLYLINE
  5
291
330
1F
100
AcDbEntity
  8
0
  6
CONTINUOUS
 62
     7
100
AcDbPolyline
 90
       20
 70
   128
 43
0.0
 10
220.4736568889
 20
126.0000005662
 10
220.5721647403
 20
126.5857614875
 10
220.8581627271
 20
127.1057524085
 10
221.2976352236
 20
127.4955407083
 10
221.8310781679
 20
127.7084224224
 10
222.3938503227
 20
127.7283862531
 10
222.9267940781
 20
127.5611803234
 10
223.3783886692
 20
127.2262730002
 10
223.7026453874
 20
126.7545059621
 10
223.8599606714
 20
126.1909067929
 10
223.8240973017
 20
125.5969018042
 10
223.592741873
 20
125.0456780493
 10
223.1940873823
 20
124.6084221005
 10
222.6820462308
 20
124.3374407589
 10
222.1213863156
 20
124.257160753
 10
221.5737164876
 20
124.3676118851
 10
221.0925542674
 20
124.653021276
 10
220.7250767312
 20
125.0862390101
 10
220.5128804705
 20
125.6270543039
 10
220.4736568889
 20
126.0000005662
  0
LWPOLYLINE
  5
292
330
1F
100
AcDbEntity
  8
0
  6
CONTINUOUS
 62
     7
100
AcDbPolyline
 90
       20
 70
   128
 43
0.0
 10
220.4736568889
 20
119.0000012815
 10
220.5721647403
 20
119.5857622027
 10
220.8581627271
 20
120.1057493985
 10
221.2976352236
 20
120.4955414236
 10
221.8310781679
 20
120.7084231377
 10
222.3938503227
 20
120.7283869684
 10
222.9267940781
 20
120.5611810386
 10
223.3783886692
 20
120.2262737155
 10
223.7026453874
 20
119.7545066774
 10
223.8599606714
 20
119.1909075081
 10
223.8240973017
 20
118.5969025195
 10
223.592741873
 20
118.0456750393
 10
223.1940873823
 20
117.6084228158
 10
222.6820462308
 20
117.3374414742
 10
222.1213863156
 20
117.2571614683
 10
221.5737164876
 20
117.3676126003
 10
221.0925542674
 20
117.6530219913
 10
220.7250767312
 20
118.0862397254
 10
220.5128804705
 20
118.6270550191
 10
220.4736568889
 20
119.0000012815
  0
LWPOLYLINE
  5
293
330
1F
100
AcDbEntity
  8
0
  6
CONTINUOUS
 62
     7
100
AcDbPolyline
 90
       20
 70
   128
 43
0.0
 10
220.4736568889
 20
111.9999982715
 10
220.5721647403
 20
112.5857591927
 10
220.8581627271
 20
113.1057501137
 10
221.2976352236
 20
113.4955421388
 10
221.8310781679
 20
113.7084238529
 10
222.3938503227
 20
113.7283876836
 10
222.9267940781
 20
113.5611817539
 10
223.3783886692
 20
113.2262707055
 10
223.7026453874
 20
112.7545036674
 10
223.8599606714
 20
112.1909044981
 10
223.8240973017
 20
111.5969032347
 10
223.592741873
 20
111.0456757545
 10
223.1940873823
 20
110.6084235311
 10
222.6820462308
 20
110.3374421895
 10
222.1213863156
 20
110.2571621835
 10
221.5737164876
 20
110.3676133156
 10
221.0925542674
 20
110.6530227065
 10
220.7250767312
 20
111.0862404406
 10
220.5128804705
 20
111.6270557344
 10
220.4736568889
 20
111.9999982715
  0
ELLIPSE
  5
294
330
1F
100
AcDbEntity
  8
0
  6
CONTINUOUS
 62
     7
100
AcDbEllipse
 10
229.5348423601
 20
99.8547662235
 30
0.0
 11
79.99998875319154
 21
0.8249834931315548
 31
0.0
210
0.0
220
0.0
230
1.0
 40
0.0514196797
 41
1.576408419789658
 42
1.827640900610498
  0
LINE
  5
295
330
1F
100
AcDbEntity
  8
0
  6
CONTINUOUS
 62
     7
100
AcDbLine
 10
209.1714241466
 20
110.5714537501
 30
0.0
 11
209.1714241466
 21
103.623832047
 31
0.0
  0
LWPOLYLINE
  5
296
330
1F
100
AcDbEntity
  8
0
  6
CONTINUOUS
 62
     7
100
AcDbPolyline
 90
        4
 70
   128
 43
0.0
 10
216.7269312701
 20
114.8245729804
 10
214.1916588804
 20
113.3974254429
 10
211.6722860298
 20
111.9792297781
 10
209.1714241466
 20
110.5714537501
  0
ARC
  5
297
330
1F
100
AcDbEntity
  8
0
  6
CONTINUOUS
 62
     7
100
AcDbCircle
 10
213.326704265
 20
120.9319633793
 30
0.0
 40
6.990118823779611
100
AcDbArc
 50
299.1064251821
 51
359.6294205561
  0
LINE
  5
298
330
1F
100
AcDbEntity
  8
0
  6
CONTINUOUS
 62
     7
100
AcDbLine
 10
220.3166768811
 20
215.1132472157
 30
0.0
 11
220.3166768811
 21
120.8867527843
 31
0.0
  0
ARC
  5
299
330
1F
100
AcDbEntity
  8
0
  6
CONTINUOUS
 62
     7
100
AcDbCircle
 10
213.3621005162
 20
215.0889966617
 30
0.0
 40
6.954618645429075
100
AcDbArc
 50
0.1997891305
 51
61.0643651313
  0
LWPOLYLINE
  5
29A
330
1F
100
AcDbEntity
  8
0
  6
CONTINUOUS
 62
     7
100
AcDbPolyline
 90
        4
 70
   128
 43
0.0
 10
209.1714241466
 20
225.4285462499
 10
211.6722860298
 20
224.0207702219
 10
214.1916588804
 20
222.6025745571
 10
216.7269312701
 20
221.1754270196
  0
LINE
  5
29B
330
1F
100
AcDbEntity
  8
0
  6
CONTINUOUS
 62
     7
100
AcDbLine
 10
209.1714241466
 20
232.376167953
 30
0.0
 11
209.1714241466
 21
225.4285462499
 31
0.0
  0
ELLIPSE
  5
29C
330
1F
100
AcDbEntity
  8
0
  6
CONTINUOUS
 62
     7
100
AcDbEllipse
 10
229.5348423601
 20
236.1452337765
 30
0.0
 11
79.99998875319146
 21
-0.8249834931315549
 31
0.0
210
0.0
220
0.0
230
1.0
 40
0.0514196797
 41
4.455544406569109
 42
4.706776887389928
  0
LINE
  5
29D
330
1F
100
AcDbEntity
  8
0
  6
CONTINUOUS
 62
     7
100
AcDbLine
 10
229.0434562526
 20
103.9636455774
 30
0.0
 11
229.0434562526
 21
232.0363544226
 31
0.0
  0
ELLIPSE
  5
29E
330
1F
100
AcDbEntity
  8
0
  6
CONTINUOUS
 62
     7
100
AcDbEllipse
 10
229.0557422399
 20
103.9374741799
 30
0.0
 11
1.999999998820925
 21
0.005241677710444037
 31
0.0
210
0.0
220
0.0
230
1.0
 40
0.0131018548
 41
0.2727446698547646
 42
1.576904336801796
  0
ELLIPSE
  5
29F
330
1F
100
AcDbEntity
  8
0
  6
CONTINUOUS
 62
     7
100
AcDbEllipse
 10
229.0557422399
 20
232.0625258201
 30
0.0
 11
1.999999998820897
 21
-0.005241677710472459
 31
0.0
210
0.0
220
0.0
230
1.0
 40
0.0131018548
 41
4.706280970377766
 42
6.010440637327235
  0
LINE
  5
2A0
330
1F
100
AcDbEntity
  8
0
  6
CONTINUOUS
 62
     7
100
AcDbLine
 10
230.9817955754
 20
232.0504211187
 30
0.0
 11
230.9817955754
 21
103.9495788813
 31
0.0
  0
ELLIPSE
  5
2A1
330
1F
100
AcDbEntity
  8
0
  6
CONTINUOUS
 62
     7
100
AcDbEllipse
 10
229.0714421667
 20
233.56038807
 30
0.0
 11
0.499999924163916
 21
-0.005255209371910041
 31
0.0
210
0.0
220
0.0
230
1.0
 40
0.0524020064
 41
4.706797399585492
 42
6.010957066533682
  0
ARC
  5
2A2
330
1F
100
AcDbEntity
  8
0
  6
CONTINUOUS
 62
     7
100
AcDbCircle
 10
229.4855483917
 20
232.0535471383
 30
0.0
 40
1.49625044911244
100
AcDbArc
 50
359.8802955361
 51
87.4178637926
  0
ARC
  5
2A3
330
1F
100
AcDbEntity
  8
0
  6
CONTINUOUS
 62
     7
100
AcDbCircle
 10
297.7189390093
 20
231.6431799552
 30
0.0
 40
68.67660823044547
100
AcDbArc
 50
178.4221372661
 51
179.6719791319
  0
ELLIPSE
  5
2A4
330
1F
100
AcDbEntity
  8
0
  6
CONTINUOUS
 62
     7
100
AcDbEllipse
 10
229.0714421667
 20
102.43961193
 30
0.0
 11
0.499999924163916
 21
0.00525520937189583
 31
0.0
210
0.0
220
0.0
230
1.0
 40
0.0524020064
 41
0.2722282406462793
 42
1.576387907594041
  0
ARC
  5
2A5
330
1F
100
AcDbEntity
  8
0
  6
CONTINUOUS
 62
     7
100
AcDbCircle
 10
297.7189390093
 20
104.3568200448
 30
0.0
 40
68.67660823044547
100
AcDbArc
 50
180.3280208681
 51
181.5778627339
  0
ARC
  5
2A6
330
1F
100
AcDbEntity
  8
0
  6
CONTINUOUS
 62
     7
100
AcDbCircle
 10
229.4855483917
 20
103.9464528617
 30
0.0
 40
1.496250449112439
100
AcDbArc
 50
272.5821362074
 51
0.1197044639
  0
ELLIPSE
  5
2A7
330
1F
100
AcDbEntity
  8
0
  6
CONTINUOUS
 62
     7
100
AcDbEllipse
 10
229.550542287
 20
237.6430960264
 30
0.0
 11
78.49998809373453
 21
-0.8250678713883418
 31
0.0
210
0.0
220
0.0
230
1.0
 40
0.0524020064
 41
4.455564918764694
 42
4.706797399585517
  0
ARC
  5
2A8
330
1F
100
AcDbEntity
  8
0
  6
CONTINUOUS
 62
     7
100
AcDbCircle
 10
211.1285271031
 20
232.6584573766
 30
0.0
 40
1.97735664479017
100
AcDbArc
 50
142.0664154942
 51
188.207645415
  0
ELLIPSE
  5
2A9
330
1F
100
AcDbEntity
  8
0
  6
CONTINUOUS
 62
     7
100
AcDbEllipse
 10
229.550542287
 20
98.3569039736
 30
0.0
 11
78.4999880937344
 21
0.8250678713883417
 31
0.0
210
0.0
220
0.0
230
1.0
 40
0.0524020064
 41
1.576387907594071
 42
1.82762038841491
  0
ARC
  5
2AA
330
1F
100
AcDbEntity
  8
0
  6
CONTINUOUS
 62
     7
100
AcDbCircle
 10
211.1285271031
 20
103.3415426234
 30
0.0
 40
1.977356644790179
100
AcDbArc
 50
171.792354585
 51
217.9335845058
  0
ARC
  5
2AB
330
1F
100
AcDbEntity
  8
0
  6
CONTINUOUS
 62
     7
100
AcDbCircle
 10
213.547156859
 20
215.1132630944
 30
0.0
 40
4.999973602695778
100
AcDbArc
 50
359.9998180435
 51
60.0001923897
  0
ARC
  5
2AC
330
1F
100
AcDbEntity
  8
0
  6
CONTINUOUS
 62
     7
100
AcDbCircle
 10
219.4816213384
 20
219.0948243616
 30
0.0
 40
3.452133368330683
100
AcDbArc
 50
142.9364443308
 51
174.2051470645
  0
LINE
  5
2AD
330
1F
100
AcDbEntity
  8
0
  6
CONTINUOUS
 62
     7
100
AcDbLine
 10
218.5471304617
 20
215.1132472157
 30
0.0
 11
220.3166768811
 21
215.1132472157
 31
0.0
  0
ARC
  5
2AE
330
1F
100
AcDbEntity
  8
0
  6
CONTINUOUS
 62
     7
100
AcDbCircle
 10
213.5471402657
 20
120.8867464858
 30
0.0
 40
4.999990195994112
100
AcDbArc
 50
299.9999173917
 51
0.0000721752
  0
LINE
  5
2AF
330
1F
100
AcDbEntity
  8
0
  6
CONTINUOUS
 62
     7
100
AcDbLine
 10
218.5471304617
 20
120.8867527843
 30
0.0
 11
220.3166768811
 21
120.8867527843
 31
0.0
  0
ARC
  5
2B0
330
1F
100
AcDbEntity
  8
0
  6
CONTINUOUS
 62
     7
100
AcDbCircle
 10
219.4816213384
 20
116.9051756384
 30
0.0
 40
3.452133368330684
100
AcDbArc
 50
185.7948529355
 51
217.0635556692
  0
LINE
  5
2B1
330
1F
100
AcDbEntity
  8
0
  6
CONTINUOUS
 62
     7
100
AcDbLine
 10
218.5471304617
 20
120.8867527843
 30
0.0
 11
218.5471304617
 21
215.1132472157
 31
0.0
  0
ARC
  5
2B2
330
1F
100
AcDbEntity
  8
0
  6
CONTINUOUS
 62
     7
100
AcDbCircle
 10
212.4984902947
 20
219.30802171
 30
0.0
 40
6.966361302489632
100
AcDbArc
 50
118.5281345396
 51
132.5766958294
  0
LWPOLYLINE
  5
2B3
330
1F
100
AcDbEntity
  8
0
  6
CONTINUOUS
 62
     7
100
AcDbPolyline
 90
        3
 70
   128
 43
0.0
 10
216.0471291206
 20
219.4433756471
 10
213.2256166003
 20
221.0723780394
 10
210.9572016558
 20
222.3820485473
  0
LWPOLYLINE
  5
2B4
330
1F
100
AcDbEntity
  8
0
  6
CONTINUOUS
 62
     7
100
AcDbPolyline
 90
        3
 70
   128
 43
0.0
 10
210.9572016558
 20
113.6179514527
 10
213.2256166003
 20
114.9276219606
 10
216.0471291206
 20
116.5566243529
  0
ARC
  5
2B5
330
1F
100
AcDbEntity
  8
0
  6
CONTINUOUS
 62
     7
100
AcDbCircle
 10
213.0035313326
 20
117.3986513637
 30
0.0
 40
7.829155301801747
100
AcDbArc
 50
228.2006745631
 51
240.694495068
  0
ELLIPSE
  5
2B6
330
1F
100
AcDbEntity
  8
0
  6
CONTINUOUS
 62
     7
100
AcDbEllipse
 10
209.6962093694
 20
233.8980396515
 30
0.0
 11
0.499999924163916
 21
-0.005255209371910041
 31
0.0
210
0.0
220
0.0
230
1.0
 40
0.0524020064
 41
3.229409883247877
 42
4.455564918764182
  0
LINE
  5
2B7
330
1F
100
AcDbEntity
  8
0
  6
CONTINUOUS
 62
     7
100
AcDbLine
 10
209.0357602498
 20
233.9999325871
 30
0.0
 11
209.1981121263
 21
233.9009739757
 31
0.0
  0
ELLIPSE
  5
2B8
330
1F
100
AcDbEntity
  8
0
  6
CONTINUOUS
 62
     7
100
AcDbEllipse
 10
207.8035224737
 20
233.2489295995
 30
0.0
 11
1.974410236301878
 21
0.5161316025807706
 31
0.0
210
0.0
220
0.0
230
1.0
 40
0.2763521849
 41
0.8131758870568842
 42
0.8267698045833772
  0
LINE
  5
2B9
330
1F
100
AcDbEntity
  8
0
  6
CONTINUOUS
 62
     7
100
AcDbLine
 10
231.0432144365
 20
233.9999996424
 30
0.0
 11
209.0567075572
 21
233.9999996424
 31
0.0
  0
LINE
  5
2BA
330
1F
100
AcDbEntity
  8
0
  6
CONTINUOUS
 62
     7
100
AcDbLine
 10
231.0481057427
 20
233.9999996424
 30
0.0
 11
231.0432144365
 21
233.9999996424
 31
0.0
  0
ELLIPSE
  5
2BB
330
1F
100
AcDbEntity
  8
0
  6
CONTINUOUS
 62
     7
100
AcDbEllipse
 10
188.6574098186
 20
234.5765081152
 30
0.0
 11
42.46566780789806
 21
-0.446332018592301
 31
0.0
210
0.0
220
0.0
230
1.0
 40
0.0524020064
 41
6.010957066533489
 42
6.224303284683565
  0
ELLIPSE
  5
2BC
330
1F
100
AcDbEntity
  8
0
  6
CONTINUOUS
 62
     7
100
AcDbEllipse
 10
207.8035224737
 20
102.7510704005
 30
0.0
 11
1.974410236301906
 21
-0.5161316025807565
 31
0.0
210
0.0
220
0.0
230
1.0
 40
0.2763521849
 41
5.456415502596056
 42
5.470009420122595
  0
LINE
  5
2BD
330
1F
100
AcDbEntity
  8
0
  6
CONTINUOUS
 62
     7
100
AcDbLine
 10
209.1981121263
 20
102.0990260243
 30
0.0
 11
209.0357602498
 21
102.0000674129
 31
0.0
  0
ELLIPSE
  5
2BE
330
1F
100
AcDbEntity
  8
0
  6
CONTINUOUS
 62
     7
100
AcDbEllipse
 10
209.6962093694
 20
102.1019603485
 30
0.0
 11
0.499999924163916
 21
0.005255209371910041
 31
0.0
210
0.0
220
0.0
230
1.0
 40
0.0524020064
 41
1.82762038841502
 42
3.05377542393188
  0
ELLIPSE
  5
2BF
330
1F
100
AcDbEntity
  8
0
  6
CONTINUOUS
 62
     7
100
AcDbEllipse
 10
188.6574098186
 20
101.4234918848
 30
0.0
 11
42.46566780789809
 21
0.446332018592301
 31
0.0
210
0.0
220
0.0
230
1.0
 40
0.0524020064
 41
0.0588820224962847
 42
0.2722282406463236
  0
LINE
  5
2C0
330
1F
100
AcDbEntity
  8
0
  6
CONTINUOUS
 62
     7
100
AcDbLine
 10
231.0432144365
 20
102.0000003576
 30
0.0
 11
231.0481057427
 21
102.0000003576
 31
0.0
  0
LINE
  5
2C1
330
1F
100
AcDbEntity
  8
0
  6
CONTINUOUS
 62
     7
100
AcDbLine
 10
231.0432144365
 20
102.0000003576
 30
0.0
 11
209.0567075572
 21
102.0000003576
 31
0.0
  0
ARC
  5
2C2
330
1F
100
AcDbEntity
  8
0
  6
CONTINUOUS
 62
     7
100
AcDbCircle
 10
231.0462808637
 20
232.4992505334
 30
0.0
 40
1.500750218447031
100
AcDbArc
 50
0.6958178338
 51
89.9303295844
  0
ELLIPSE
  5
2C3
330
1F
100
AcDbEntity
  8
0
  6
CONTINUOUS
 62
     7
100
AcDbEllipse
 10
188.6417098918
 20
233.0786458653
 30
0.0
 11
43.96566844695801
 21
-0.4462496124049835
 31
0.0
210
0.0
220
0.0
230
1.0
 40
0.0506145545
 41
6.010920034945656
 42
6.231248238660827
  0
ELLIPSE
  5
2C4
330
1F
100
AcDbEntity
  8
0
  6
CONTINUOUS
 62
     7
100
AcDbEllipse
 10
188.6417098918
 20
102.9213541347
 30
0.0
 11
43.96566844695801
 21
0.4462496124049977
 31
0.0
210
0.0
220
0.0
230
1.0
 40
0.0506145545
 41
0.0519370685190269
 42
0.2722652722341904
  0
ARC
  5
2C5
330
1F
100
AcDbEntity
  8
0
  6
CONTINUOUS
 62
     7
100
AcDbCircle
 10
231.0462808637
 20
103.5007494666
 30
0.0
 40
1.500750218447002
100
AcDbArc
 50
270.0696704156
 51
359.3041821662
  0
LINE
  5
2C6
330
1F
100
AcDbEntity
  8
0
  6
CONTINUOUS
 62
     7
100
AcDbLine
 10
232.5469204149
 20
103.4825243354
 30
0.0
 11
232.5471290312
 21
103.5151131749
 31
0.0
  0
LINE
  5
2C7
330
1F
100
AcDbEntity
  8
0
  6
CONTINUOUS
 62
     7
100
AcDbLine
 10
232.5471290312
 20
232.4848868251
 30
0.0
 11
232.5469204149
 21
232.5174756646
 31
0.0
  0
LINE
  5
2C8
330
1F
100
AcDbEntity
  8
0
  6
CONTINUOUS
 62
     7
100
AcDbLine
 10
232.5471290312
 20
103.5151131749
 30
0.0
 11
232.5471290312
 21
232.4848868251
 31
0.0
  0
ELLIPSE
  5
2C9
330
1F
100
AcDbEntity
  8
0
  6
CONTINUOUS
 62
     7
100
AcDbEllipse
 10
209.6805094426
 20
232.4001774016
 30
0.0
 11
1.999999998820925
 21
-0.005241677710472459
 31
0.0
210
0.0
220
0.0
230
1.0
 40
0.0131018548
 41
3.228893454041409
 42
4.455048489556884
  0
ELLIPSE
  5
2CA
330
1F
100
AcDbEntity
  8
0
  6
CONTINUOUS
 62
     7
100
AcDbEllipse
 10
209.6805094426
 20
103.5998225984
 30
0.0
 11
1.999999998820925
 21
0.005241677710444037
 31
0.0
210
0.0
220
0.0
230
1.0
 40
0.0131018548
 41
1.828136817622709
 42
3.054291853140803
  0
ARC
  5
2CB
330
1F
100
AcDbEntity
  8
0
  6
CONTINUOUS
 62
     7
100
AcDbCircle
 10
209.192295493
 20
232.3967980407
 30
0.0
 40
1.504187181304227
100
AcDbArc
 50
89.7784388967
 51
179.7593160275
  0
ARC
  5
2CC
330
1F
100
AcDbEntity
  8
0
  6
CONTINUOUS
 62
     7
100
AcDbCircle
 10
209.192295493
 20
103.6032019593
 30
0.0
 40
1.504187181304229
100
AcDbArc
 50
180.2406839725
 51
270.2215611033
  0
ARC
  5
2CD
330
1F
100
AcDbEntity
  8
0
  6
CONTINUOUS
 62
     7
100
AcDbCircle
 10
209.0431805629
 20
232.5039722797
 30
0.0
 40
1.49597871054018
100
AcDbArc
 50
90.2841981393
 51
179.3755159094
  0
LINE
  5
2CE
330
1F
100
AcDbEntity
  8
0
  6
CONTINUOUS
 62
     7
100
AcDbLine
 10
207.6881215832
 20
232.403116703
 30
0.0
 11
207.5471305213
 21
232.4890516996
 31
0.0
  0
ELLIPSE
  5
2CF
330
1F
100
AcDbEntity
  8
0
  6
CONTINUOUS
 62
     7
100
AcDbEllipse
 10
208.2999955902
 20
232.9409518771
 30
0.0
 11
0.2724260954348381
 21
1.563847164383845
 31
0.0
210
0.0
220
0.0
230
1.0
 40
0.4487952885
 41
1.920323261210551
 42
1.941050696246211
  0
ELLIPSE
  5
2D0
330
1F
100
AcDbEntity
  8
0
  6
CONTINUOUS
 62
     7
100
AcDbEllipse
 10
208.2999955902
 20
103.0590481229
 30
0.0
 11
-0.2724260954348949
 21
1.563847164383859
 31
0.0
210
0.0
220
0.0
230
1.0
 40
0.4487952885
 41
1.200541957343659
 42
1.221269392379302
  0
LINE
  5
2D1
330
1F
100
AcDbEntity
  8
0
  6
CONTINUOUS
 62
     7
100
AcDbLine
 10
207.5471305213
 20
103.5109483004
 30
0.0
 11
207.6881215832
 21
103.596883297
 31
0.0
  0
ARC
  5
2D2
330
1F
100
AcDbEntity
  8
0
  6
CONTINUOUS
 62
     7
100
AcDbCircle
 10
209.0431805629
 20
103.4960277203
 30
0.0
 40
1.49597871054018
100
AcDbArc
 50
180.6244840906
 51
269.7158018607
  0
LINE
  5
2D3
330
1F
100
AcDbEntity
  8
0
  6
CONTINUOUS
 62
     7
100
AcDbLine
 10
207.5471305213
 20
230.5466406345
 30
0.0
 11
207.5471305213
 21
232.4890516996
 31
0.0
  0
LINE
  5
2D4
330
1F
100
AcDbEntity
  8
0
  6
CONTINUOUS
 62
     7
100
AcDbLine
 10
207.5471305213
 20
103.5109483004
 30
0.0
 11
207.5471305213
 21
105.4533593655
 31
0.0
  0
LINE
  5
2D5
330
1F
100
AcDbEntity
  8
0
  6
CONTINUOUS
 62
     7
100
AcDbLine
 10
218.5471304617
 20
163.0000001118
 30
0.0
 11
218.3471308014
 21
163.0000001118
 31
0.0
  0
LINE
  5
2D6
330
1F
100
AcDbEntity
  8
0
  6
CONTINUOUS
 62
     7
100
AcDbLine
 10
218.3471308014
 20
172.9999998882
 30
0.0
 11
218.5471304617
 21
172.9999998882
 31
0.0
  0
LINE
  5
2D7
330
1F
100
AcDbEntity
  8
0
  6
CONTINUOUS
 62
     7
100
AcDbLine
 10
207.5471305213
 20
231.0000010133
 30
0.0
 11
137.1471309027
 21
231.0000010133
 31
0.0
  0
LINE
  5
2D8
330
1F
100
AcDbEntity
  8
0
  6
CONTINUOUS
 62
     7
100
AcDbLine
 10
137.1471309027
 20
227.2000000179
 30
0.0
 11
207.5471305213
 21
227.2000000179
 31
0.0
  0
LINE
  5
2D9
330
1F
100
AcDbEntity
  8
0
  6
CONTINUOUS
 62
     7
100
AcDbLine
 10
137.1471309027
 20
230.5466406345
 30
0.0
 11
137.1471309027
 21
227.2000000179
 31
0.0
  0
LINE
  5
2DA
330
1F
100
AcDbEntity
  8
0
  6
CONTINUOUS
 62
     7
100
AcDbLine
 10
207.5471305213
 20
227.2000000179
 30
0.0
 11
207.5471305213
 21
230.5466406345
 31
0.0
  0
LINE
  5
2DB
330
1F
100
AcDbEntity
  8
0
  6
CONTINUOUS
 62
     7
100
AcDbLine
 10
207.5471305213
 20
224.6999986768
 30
0.0
 11
207.5471305213
 21
227.2000000179
 31
0.0
  0
LINE
  5
2DC
330
1F
100
AcDbEntity
  8
0
  6
CONTINUOUS
 62
     7
100
AcDbLine
 10
207.7613272629
 20
224.57633394
 30
0.0
 11
207.5471305213
 21
224.6999986768
 31
0.0
  0
LWPOLYLINE
  5
2DD
330
1F
100
AcDbEntity
  8
0
  6
CONTINUOUS
 62
     7
100
AcDbPolyline
 90
        3
 70
   128
 43
0.0
 10
218.3471308014
 20
216.1552146375
 10
218.3129102847
 20
216.6773215234
 10
218.277739819
 20
216.8970540464
  0
LINE
  5
2DE
330
1F
100
AcDbEntity
  8
0
  6
CONTINUOUS
 62
     7
100
AcDbLine
 10
218.3471308014
 20
216.1552146375
 30
0.0
 11
218.3471308014
 21
119.8447853625
 31
0.0
  0
LINE
  5
2DF
330
1F
100
AcDbEntity
  8
0
  6
CONTINUOUS
 62
     7
100
AcDbLine
 10
218.3414571843
 20
119.6318291426
 30
0.0
 11
218.3471308014
 21
119.8447853625
 31
0.0
  0
LINE
  5
2E0
330
1F
100
AcDbEntity
  8
0
  6
CONTINUOUS
 62
     7
100
AcDbLine
 10
207.7613272629
 20
111.42366606
 30
0.0
 11
207.5471305213
 21
111.3000013232
 31
0.0
  0
LINE
  5
2E1
330
1F
100
AcDbEntity
  8
0
  6
CONTINUOUS
 62
     7
100
AcDbLine
 10
207.5471305213
 20
111.3000013232
 30
0.0
 11
207.5471305213
 21
108.7999999821
 31
0.0
  0
LINE
  5
2E2
330
1F
100
AcDbEntity
  8
0
  6
CONTINUOUS
 62
     7
100
AcDbLine
 10
207.5471305213
 20
108.7999999821
 30
0.0
 11
137.1471309027
 21
108.7999999821
 31
0.0
  0
LINE
  5
2E3
330
1F
100
AcDbEntity
  8
0
  6
CONTINUOUS
 62
     7
100
AcDbLine
 10
137.1471309027
 20
111.3000013232
 30
0.0
 11
137.1471309027
 21
108.7999999821
 31
0.0
  0
LINE
  5
2E4
330
1F
100
AcDbEntity
  8
0
  6
CONTINUOUS
 62
     7
100
AcDbLine
 10
137.1471309027
 20
111.3000013232
 30
0.0
 11
136.9329341612
 21
111.42366606
 31
0.0
  0
LWPOLYLINE
  5
2E5
330
1F
100
AcDbEntity
  8
0
  6
CONTINUOUS
 62
     7
100
AcDbPolyline
 90
        3
 70
   128
 43
0.0
 10
126.3471306226
 20
119.8447853625
 10
126.3813511393
 20
119.3226784766
 10
126.416521605
 20
119.1029459536
  0
LINE
  5
2E6
330
1F
100
AcDbEntity
  8
0
  6
CONTINUOUS
 62
     7
100
AcDbLine
 10
126.3471306226
 20
119.8447853625
 30
0.0
 11
126.3471306226
 21
216.1552146375
 31
0.0
  0
LINE
  5
2E7
330
1F
100
AcDbEntity
  8
0
  6
CONTINUOUS
 62
     7
100
AcDbLine
 10
126.3528042397
 20
216.3681708574
 30
0.0
 11
126.3471306226
 21
216.1552146375
 31
0.0
  0
LINE
  5
2E8
330
1F
100
AcDbEntity
  8
0
  6
CONTINUOUS
 62
     7
100
AcDbLine
 10
137.1471309027
 20
224.6999986768
 30
0.0
 11
136.9329341612
 21
224.57633394
 31
0.0
  0
LINE
  5
2E9
330
1F
100
AcDbEntity
  8
0
  6
CONTINUOUS
 62
     7
100
AcDbLine
 10
137.1471309027
 20
224.6999986768
 30
0.0
 11
137.1471309027
 21
227.2000000179
 31
0.0
  0
LINE
  5
2EA
330
1F
100
AcDbEntity
  8
0
  6
CONTINUOUS
 62
     7
100
AcDbLine
 10
198.8266673795
 20
155.7171618864
 30
0.0
 11
205.6982838473
 21
167.5062208618
 31
0.0
  0
ARC
  5
2EB
330
1F
100
AcDbEntity
  8
0
  6
CONTINUOUS
 62
     7
100
AcDbCircle
 10
199.347050712
 20
171.4940074071
 30
0.0
 40
7.499374549999914
100
AcDbArc
 50
327.8762814006
 51
0.0
  0
LINE
  5
2EC
330
1F
100
AcDbEntity
  8
0
  6
CONTINUOUS
 62
     7
100
AcDbLine
 10
206.8464257679
 20
171.4940075129
 30
0.0
 11
206.8464257679
 21
206.4592264891
 31
0.0
  0
ARC
  5
2ED
330
1F
100
AcDbEntity
  8
0
  6
CONTINUOUS
 62
     7
100
AcDbCircle
 10
201.846425262
 20
206.4592274071
 30
0.0
 40
5.0
100
AcDbArc
 50
0.0
 51
90.0
  0
LINE
  5
2EE
330
1F
100
AcDbEntity
  8
0
  6
CONTINUOUS
 62
     7
100
AcDbLine
 10
201.8464249483
 20
211.4592291713
 30
0.0
 11
142.8478364757
 21
211.4592291713
 31
0.0
  0
ARC
  5
2EF
330
1F
100
AcDbEntity
  8
0
  6
CONTINUOUS
 62
     7
100
AcDbCircle
 10
142.847836162
 20
206.4592274071
 30
0.0
 40
5.0
100
AcDbArc
 50
90.0
 51
180.0
  0
LINE
  5
2F0
330
1F
100
AcDbEntity
  8
0
  6
CONTINUOUS
 62
     7
100
AcDbLine
 10
137.8478356561
 20
206.4592264891
 30
0.0
 11
137.8478356561
 21
171.4940075129
 31
0.0
  0
ARC
  5
2F1
330
1F
100
AcDbEntity
  8
0
  6
CONTINUOUS
 62
     7
100
AcDbCircle
 10
145.347210712
 20
171.4940074071
 30
0.0
 40
7.499374549999942
100
AcDbArc
 50
180.0
 51
212.1237185994
  0
LINE
  5
2F2
330
1F
100
AcDbEntity
  8
0
  6
CONTINUOUS
 62
     7
100
AcDbLine
 10
138.9959775767
 20
167.5062208618
 30
0.0
 11
145.8675940445
 21
155.7171618864
 31
0.0
  0
ARC
  5
2F3
330
1F
100
AcDbEntity
  8
0
  6
CONTINUOUS
 62
     7
100
AcDbCircle
 10
152.347210712
 20
159.4940074071
 30
0.0
 40
7.500000000000005
100
AcDbArc
 50
210.23709177
 51
270.0
  0
LINE
  5
2F4
330
1F
100
AcDbEntity
  8
0
  6
CONTINUOUS
 62
     7
100
AcDbLine
 10
152.3472112528
 20
151.9940071106
 30
0.0
 11
192.3470501712
 21
151.9940071106
 31
0.0
  0
ARC
  5
2F5
330
1F
100
AcDbEntity
  8
0
  6
CONTINUOUS
 62
     7
100
AcDbCircle
 10
192.347050712
 20
159.4940074071
 30
0.0
 40
7.499999999999991
100
AcDbArc
 50
270.0
 51
329.76290823
  0
CIRCLE
  5
2F6
330
1F
100
AcDbEntity
  8
0
  6
CONTINUOUS
 62
     7
100
AcDbCircle
 10
154.567130712
 20
128.9725
 30
0.0
 40
10.00000000000001
  0
CIRCLE
  5
2F7
330
1F
100
AcDbEntity
  8
0
  6
CONTINUOUS
 62
     7
100
AcDbCircle
 10
190.127130712
 20
128.9725
 30
0.0
 40
9.999999999999972
  0
CIRCLE
  5
2F8
330
1F
100
AcDbEntity
  8
0
  6
CONTINUOUS
 62
     7
100
AcDbCircle
 10
172.347130712
 20
122.7529774071
 30
0.0
 40
2.0
  0
CIRCLE
  5
2F9
330
1F
100
AcDbEntity
  8
0
  6
CONTINUOUS
 62
     7
100
AcDbCircle
 10
197.347130712
 20
220.0342274071
 30
0.0
 40
2.0
  0
CIRCLE
  5
2FA
330
1F
100
AcDbEntity
  8
0
  6
CONTINUOUS
 62
     7
100
AcDbCircle
 10
147.347130712
 20
220.0342274071
 30
0.0
 40
2.000000000000028
  0
LINE
  5
2FB
330
1F
100
AcDbEntity
  8
0
  6
CONTINUOUS
 62
     7
100
AcDbLine
 10
137.1471309027
 20
104.9999989867
 30
0.0
 11
207.5471305213
 21
104.9999989867
 31
0.0
  0
LINE
  5
2FC
330
1F
100
AcDbEntity
  8
0
  6
CONTINUOUS
 62
     7
100
AcDbLine
 10
207.5471305213
 20
105.4533593655
 30
0.0
 11
207.5471305213
 21
108.7999999821
 31
0.0
  0
LINE
  5
2FD
330
1F
100
AcDbEntity
  8
0
  6
CONTINUOUS
 62
     7
100
AcDbLine
 10
137.1471309027
 20
108.7999999821
 30
0.0
 11
137.1471309027
 21
105.4533593655
 31
0.0
  0
LINE
  5
2FE
330
1F
100
AcDbEntity
  8
0
  6
CONTINUOUS
 62
     8
100
AcDbLine
 10
137.0061398408
 20
232.403116703
 30
0.0
 11
137.0061398408
 21
224.6186010838
 31
0.0
  0
LINE
  5
2FF
330
1F
100
AcDbEntity
  8
0
  6
CONTINUOUS
 62
     8
100
AcDbLine
 10
137.0061398408
 20
111.3813989162
 30
0.0
 11
137.0061398408
 21
103.596883297
 31
0.0
  0
LINE
  5
300
330
1F
100
AcDbEntity
  8
0
  6
CONTINUOUS
 62
     8
100
AcDbLine
 10
207.6881215832
 20
224.6186010838
 30
0.0
 11
207.6881215832
 21
232.403116703
 31
0.0
  0
LINE
  5
301
330
1F
100
AcDbEntity
  8
0
  6
CONTINUOUS
 62
     8
100
AcDbLine
 10
207.6881215832
 20
103.596883297
 30
0.0
 11
207.6881215832
 21
111.3813989162
 31
0.0
  0
DIMENSION
  5
302
330
1F
100
AcDbEntity
  8
0
  6
CONTINUOUS
 62
     7
100
AcDbDimension
  2
_D_1
 10
252.633222707
 20
102.0
 30
0.0
 11
252.633222707
 21
168.0
 31
0.0
 70
   160
  1
<>
  3
SLDDIMSTYLE1
100
AcDbAlignedDimension
 13
231.0432128594
 23
234.0
 33
0.0
 14
231.0432128594
 24
102.0
 34
0.0
 50
90.0
100
AcDbRotatedDimension
  0
DIMENSION
  5
30D
330
1F
100
AcDbEntity
  8
0
  6
CONTINUOUS
 62
     7
100
AcDbDimension
  2
_D_2
 10
112.147130712
 20
254.0876234928
 30
0.0
 11
172.347130712
 21
254.0876234928
 31
0.0
 70
   160
  1
<>
  3
SLDDIMSTYLE0
100
AcDbAlignedDimension
 13
232.547130712
 23
232.4848899504
 33
0.0
 14
112.147130712
 24
232.4848899504
 34
0.0
 50
0.0
100
AcDbRotatedDimension
  0
LINE
  5
317
330
1F
100
AcDbEntity
  8
0
  6
CONTINUOUS
 62
     7
100
AcDbLine
 10
438.7334740656
 20
311.7467958096
 30
0.0
 11
438.7334740656
 21
311.4967990282
 31
0.0
  0
LINE
  5
318
330
1F
100
AcDbEntity
  8
0
  6
CONTINUOUS
 62
     7
100
AcDbLine
 10
462.3334749537
 20
311.4967990282
 30
0.0
 11
462.3334749537
 21
311.7467958096
 31
0.0
  0
ARC
  5
319
330
1F
100
AcDbEntity
  8
0
  6
CONTINUOUS
 62
     7
100
AcDbCircle
 10
462.0834731773
 20
311.4967975977
 30
0.0
 40
0.2500000000000568
100
AcDbArc
 50
270.0
 51
0.0
  0
ARC
  5
31A
330
1F
100
AcDbEntity
  8
0
  6
CONTINUOUS
 62
     7
100
AcDbCircle
 10
438.9834731773
 20
311.4967975977
 30
0.0
 40
0.25
100
AcDbArc
 50
180.0
 51
270.0
  0
ARC
  5
31B
330
1F
100
AcDbEntity
  8
0
  6
CONTINUOUS
 62
     7
100
AcDbCircle
 10
341.2963508795
 20
340.5118790536
 30
0.0
 40
1.500000000000046
100
AcDbArc
 50
183.0785483472
 51
270.0
  0
LINE
  5
31C
330
1F
100
AcDbEntity
  8
0
  6
CONTINUOUS
 62
     7
100
AcDbLine
 10
341.2963493663
 20
339.0118788544
 30
0.0
 11
469.2765518027
 21
339.0118788544
 31
0.0
  0
ARC
  5
31D
330
1F
100
AcDbEntity
  8
0
  6
CONTINUOUS
 62
     7
100
AcDbCircle
 10
469.2765502895
 20
340.5118790536
 30
0.0
 40
1.500000000000046
100
AcDbArc
 50
270.0
 51
356.9214516528
  0
LINE
  5
31E
330
1F
100
AcDbEntity
  8
0
  6
CONTINUOUS
 62
     7
100
AcDbLine
 10
340.8464758592
 20
360.6868564698
 30
0.0
 11
340.5087112385
 21
360.5556941207
 31
0.0
  0
LINE
  5
31F
330
1F
100
AcDbEntity
  8
0
  6
CONTINUOUS
 62
     7
100
AcDbLine
 10
470.0641899305
 20
360.5556941207
 30
0.0
 11
469.7264104086
 21
360.6868592638
 31
0.0
  0
ARC
  5
320
330
1F
100
AcDbEntity
  8
0
  6
CONTINUOUS
 62
     7
100
AcDbCircle
 10
341.5432499954
 20
359.0115133977
 30
0.0
 40
1.868765105560483
100
AcDbArc
 50
134.1804103248
 51
176.2607124543
  0
ARC
  5
321
330
1F
100
AcDbEntity
  8
0
  6
CONTINUOUS
 62
     7
100
AcDbCircle
 10
468.8660530976
 20
358.8652597093
 30
0.0
 40
2.085986252343075
100
AcDbArc
 50
356.9983032676
 51
45.0485895396
  0
LWPOLYLINE
  5
322
330
1F
100
AcDbEntity
  8
0
  6
CONTINUOUS
 62
     7
100
AcDbPolyline
 90
        3
 70
   128
 43
0.0
 10
339.6515144902
 20
358.9497135568
 10
339.6191938716
 20
358.7294227059
 10
339.6189107495
 20
358.7270340964
  0
LINE
  5
323
330
1F
100
AcDbEntity
  8
0
  6
CONTINUOUS
 62
     7
100
AcDbLine
 10
344.4864495593
 20
336.3630577538
 30
0.0
 11
344.4864495593
 21
333.6987059179
 31
0.0
  0
LINE
  5
324
330
1F
100
AcDbEntity
  8
0
  6
CONTINUOUS
 62
     7
100
AcDbLine
 10
466.0864516097
 20
336.3630577538
 30
0.0
 11
344.4864495593
 21
336.3630577538
 31
0.0
  0
LINE
  5
325
330
1F
100
AcDbEntity
  8
0
  6
CONTINUOUS
 62
     7
100
AcDbLine
 10
466.0864516097
 20
333.6987059179
 30
0.0
 11
466.0864516097
 21
336.3630577538
 31
0.0
  0
LINE
  5
326
330
1F
100
AcDbEntity
  8
0
  6
CONTINUOUS
 62
     7
100
AcDbLine
 10
466.0864516097
 20
333.6987059179
 30
0.0
 11
344.4864495593
 21
333.6987059179
 31
0.0
  0
LINE
  5
327
330
1F
100
AcDbEntity
  8
0
  6
CONTINUOUS
 62
     7
100
AcDbLine
 10
344.4864495593
 20
336.3630577538
 30
0.0
 11
344.4864495593
 21
339.0118788544
 31
0.0
  0
LINE
  5
328
330
1F
100
AcDbEntity
  8
0
  6
CONTINUOUS
 62
     7
100
AcDbLine
 10
466.0864516097
 20
339.0118788544
 30
0.0
 11
466.0864516097
 21
336.3630577538
 31
0.0
  0
LINE
  5
329
330
1F
100
AcDbEntity
  8
0
  6
CONTINUOUS
 62
     7
100
AcDbLine
 10
347.9864492017
 20
331.7037496331
 30
0.0
 11
347.9864492017
 21
314.6987977985
 31
0.0
  0
LINE
  5
32A
330
1F
100
AcDbEntity
  8
0
  6
CONTINUOUS
 62
     7
100
AcDbLine
 10
344.4864495593
 20
331.7037496331
 30
0.0
 11
347.9864492017
 21
331.7037496331
 31
0.0
  0
LINE
  5
32B
330
1F
100
AcDbEntity
  8
0
  6
CONTINUOUS
 62
     7
100
AcDbLine
 10
344.4864495593
 20
331.7037496331
 30
0.0
 11
344.4864495593
 21
333.6987059179
 31
0.0
  0
LINE
  5
32C
330
1F
100
AcDbEntity
  8
0
  6
CONTINUOUS
 62
     7
100
AcDbLine
 10
466.0864516097
 20
331.7037496331
 30
0.0
 11
466.0864516097
 21
333.6987059179
 31
0.0
  0
LINE
  5
32D
330
1F
100
AcDbEntity
  8
0
  6
CONTINUOUS
 62
     7
100
AcDbLine
 10
466.0864516097
 20
331.7037496331
 30
0.0
 11
462.5864519673
 21
331.7037496331
 31
0.0
  0
LINE
  5
32E
330
1F
100
AcDbEntity
  8
0
  6
CONTINUOUS
 62
     7
100
AcDbLine
 10
462.5864519673
 20
314.6987977985
 30
0.0
 11
462.5864519673
 21
331.7037496331
 31
0.0
  0
LINE
  5
32F
330
1F
100
AcDbEntity
  8
0
  6
CONTINUOUS
 62
     7
100
AcDbLine
 10
466.0864516097
 20
314.6987977985
 30
0.0
 11
462.5864519673
 21
314.6987977985
 31
0.0
  0
LINE
  5
330
330
1F
100
AcDbEntity
  8
0
  6
CONTINUOUS
 62
     7
100
AcDbLine
 10
466.0864516097
 20
312.5824454788
 30
0.0
 11
466.0864516097
 21
314.6987977985
 31
0.0
  0
LINE
  5
331
330
1F
100
AcDbEntity
  8
0
  6
CONTINUOUS
 62
     7
100
AcDbLine
 10
466.0864516097
 20
312.5824454788
 30
0.0
 11
344.4864495593
 21
312.5824454788
 31
0.0
  0
LINE
  5
332
330
1F
100
AcDbEntity
  8
0
  6
CONTINUOUS
 62
     7
100
AcDbLine
 10
344.4864495593
 20
314.6987977985
 30
0.0
 11
344.4864495593
 21
312.5824454788
 31
0.0
  0
LINE
  5
333
330
1F
100
AcDbEntity
  8
0
  6
CONTINUOUS
 62
     7
100
AcDbLine
 10
344.4864495593
 20
314.6987977985
 30
0.0
 11
347.9864492017
 21
314.6987977985
 31
0.0
  0
LINE
  5
334
330
1F
100
AcDbEntity
  8
0
  6
CONTINUOUS
 62
     7
100
AcDbLine
 10
344.4864495593
 20
331.7037496331
 30
0.0
 11
344.4864495593
 21
317.363151497
 31
0.0
  0
ARC
  5
335
330
1F
100
AcDbEntity
  8
0
  6
CONTINUOUS
 62
     7
100
AcDbCircle
 10
347.875419917
 20
318.6029541772
 30
0.0
 40
3.90573482605312
100
AcDbArc
 50
225.0107887673
 51
271.6289806676
  0
ARC
  5
336
330
1F
100
AcDbEntity
  8
0
  6
CONTINUOUS
 62
     7
100
AcDbCircle
 10
346.7448143183
 20
317.4036223766
 30
0.0
 40
2.258727357752082
100
AcDbArc
 50
181.0266554205
 51
223.7858399033
  0
LINE
  5
337
330
1F
100
AcDbEntity
  8
0
  6
CONTINUOUS
 62
     7
100
AcDbLine
 10
466.0864516097
 20
331.7037496331
 30
0.0
 11
466.0864516097
 21
317.363151497
 31
0.0
  0
ARC
  5
338
330
1F
100
AcDbEntity
  8
0
  6
CONTINUOUS
 62
     7
100
AcDbCircle
 10
463.8280868507
 20
317.4036223766
 30
0.0
 40
2.258727357752133
100
AcDbArc
 50
316.2141600967
 51
358.9733445795
  0
ARC
  5
339
330
1F
100
AcDbEntity
  8
0
  6
CONTINUOUS
 62
     7
100
AcDbCircle
 10
462.697481252
 20
318.6029541772
 30
0.0
 40
3.905734826053171
100
AcDbArc
 50
268.3710193324
 51
314.9892112327
  0
LINE
  5
33A
330
1F
100
AcDbEntity
  8
0
  6
CONTINUOUS
 62
     7
100
AcDbLine
 10
344.4864495593
 20
315.8406626049
 30
0.0
 11
344.4864495593
 21
314.6987977985
 31
0.0
  0
LINE
  5
33B
330
1F
100
AcDbEntity
  8
0
  6
CONTINUOUS
 62
     7
100
AcDbLine
 10
344.4864495593
 20
315.8406626049
 30
0.0
 11
345.1141684252
 21
315.8406626049
 31
0.0
  0
LINE
  5
33C
330
1F
100
AcDbEntity
  8
0
  6
CONTINUOUS
 62
     7
100
AcDbLine
 10
466.0864516097
 20
315.8406626049
 30
0.0
 11
466.0864516097
 21
314.6987977985
 31
0.0
  0
LINE
  5
33D
330
1F
100
AcDbEntity
  8
0
  6
CONTINUOUS
 62
     7
100
AcDbLine
 10
465.4587327438
 20
315.8406626049
 30
0.0
 11
466.0864516097
 21
315.8406626049
 31
0.0
  0
LINE
  5
33E
330
1F
100
AcDbEntity
  8
0
  6
CONTINUOUS
 62
     7
100
AcDbLine
 10
344.4864495593
 20
312.5824454788
 30
0.0
 11
344.4864495593
 21
311.7467958096
 31
0.0
  0
LINE
  5
33F
330
1F
100
AcDbEntity
  8
0
  6
CONTINUOUS
 62
     7
100
AcDbLine
 10
466.0864516097
 20
311.7467958096
 30
0.0
 11
466.0864516097
 21
312.5824454788
 31
0.0
  0
LINE
  5
340
330
1F
100
AcDbEntity
  8
0
  6
CONTINUOUS
 62
     7
100
AcDbLine
 10
466.0864516097
 20
311.7467958096
 30
0.0
 11
344.4864495593
 21
311.7467958096
 31
0.0
  0
LINE
  5
341
330
1F
100
AcDbEntity
  8
0
  6
CONTINUOUS
 62
     7
100
AcDbLine
 10
344.286449899
 20
316.7467984918
 30
0.0
 11
344.5364504057
 21
316.7467984918
 31
0.0
  0
ARC
  5
342
330
1F
100
AcDbEntity
  8
0
  6
CONTINUOUS
 62
     7
100
AcDbCircle
 10
344.5364505845
 20
314.9967975977
 30
0.0
 40
0.2500000000000568
100
AcDbArc
 50
180.0
 51
258.4630409672
  0
LINE
  5
343
330
1F
100
AcDbEntity
  8
0
  6
CONTINUOUS
 62
     7
100
AcDbLine
 10
462.0834744471
 20
311.2467985216
 30
0.0
 11
438.9834745723
 21
311.2467985216
 31
0.0
  0
ELLIPSE
  5
344
330
1F
100
AcDbEntity
  8
0
  6
CONTINUOUS
 62
     7
100
AcDbEllipse
 10
338.7099424693
 20
347.5243116282
 30
0.0
 11
2.225775209641312
 21
42.46566787547192
 31
0.0
210
0.0
220
0.0
230
1.0
 40
0.0104528432
 41
4.772369640208711
 42
4.985715858358854
  0
ARC
  5
345
330
1F
100
AcDbEntity
  8
0
  6
CONTINUOUS
 62
     7
100
AcDbCircle
 10
340.8185115157
 20
357.603216485
 30
0.0
 40
1.738220532354718
100
AcDbArc
 50
76.1017442055
 51
128.4272390083
  0
ELLIPSE
  5
346
330
1F
100
AcDbEntity
  8
0
  6
CONTINUOUS
 62
     7
100
AcDbEllipse
 10
340.2078047192
 20
347.445811994
 30
0.0
 11
2.225758937009402
 21
43.96566850376462
 31
0.0
210
0.0
220
0.0
230
1.0
 40
0.0100980736
 41
4.765350998607563
 42
4.9856792023228
  0
ARC
  5
347
330
1F
100
AcDbEntity
  8
0
  6
CONTINUOUS
 62
     7
100
AcDbCircle
 10
342.5851491785
 20
362.7125038712
 30
0.0
 40
13.08833512761186
100
AcDbArc
 50
255.4021261251
 51
262.0237378421
  0
ELLIPSE
  5
348
330
1F
100
AcDbEntity
  8
0
  6
CONTINUOUS
 62
     7
100
AcDbEllipse
 10
340.1476247023
 20
353.1270824923
 30
0.0
 11
-5.115926019913445
 21
97.60698847577687
 31
0.0
210
0.0
220
0.0
230
1.0
 40
0.0104528432
 41
1.601803696877705
 42
1.700666958299858
  0
LINE
  5
349
330
1F
100
AcDbEntity
  8
0
  6
CONTINUOUS
 62
     7
100
AcDbLine
 10
339.2864509421
 20
350.0475810456
 30
0.0
 11
339.2864509421
 21
350.0466795254
 31
0.0
  0
LINE
  5
34A
330
1F
100
AcDbEntity
  8
0
  6
CONTINUOUS
 62
     7
100
AcDbLine
 10
340.7689749199
 20
349.7507899615
 30
0.0
 11
340.8015637594
 21
349.7467973817
 31
0.0
  0
ELLIPSE
  5
34B
330
1F
100
AcDbEntity
  8
0
  6
CONTINUOUS
 62
     7
100
AcDbEllipse
 10
341.6454869522
 20
353.2055821265
 30
0.0
 11
-5.115909269744634
 21
99.10698912869098
 31
0.0
210
0.0
220
0.0
230
1.0
 40
0.0102954851
 41
1.605171458268948
 42
1.700683375003778
  0
ARC
  5
34C
330
1F
100
AcDbEntity
  8
0
  6
CONTINUOUS
 62
     7
100
AcDbCircle
 10
340.769619988
 20
343.2301350344
 30
0.0
 40
2.960563212058767
100
AcDbArc
 50
250.851277554
 51
280.2483531742
  0
ELLIPSE
  5
34D
330
1F
100
AcDbEntity
  8
0
  6
CONTINUOUS
 62
     7
100
AcDbEllipse
 10
471.8629586997
 20
347.5243116282
 30
0.0
 11
-2.22577520964137
 21
42.4656678754721
 31
0.0
210
0.0
220
0.0
230
1.0
 40
0.0104528432
 41
1.297469448820826
 42
1.510815666970879
  0
ARC
  5
34E
330
1F
100
AcDbEntity
  8
0
  6
CONTINUOUS
 62
     7
100
AcDbCircle
 10
467.9877519904
 20
362.7125038712
 30
0.0
 40
13.08833512761186
100
AcDbArc
 50
277.9762621579
 51
284.5978738749
  0
ELLIPSE
  5
34F
330
1F
100
AcDbEntity
  8
0
  6
CONTINUOUS
 62
     7
100
AcDbEllipse
 10
470.3650964498
 20
347.445811994
 30
0.0
 11
-2.225758937009402
 21
43.96566850376468
 31
0.0
210
0.0
220
0.0
230
1.0
 40
0.0100980736
 41
1.297506104856924
 42
1.517834308572041
  0
ARC
  5
350
330
1F
100
AcDbEntity
  8
0
  6
CONTINUOUS
 62
     7
100
AcDbCircle
 10
469.7543896533
 20
357.603216485
 30
0.0
 40
1.738220532354712
100
AcDbArc
 50
51.5727609917
 51
103.8982557945
  0
LINE
  5
351
330
1F
100
AcDbEntity
  8
0
  6
CONTINUOUS
 62
     7
100
AcDbLine
 10
471.2864502269
 20
350.0466795254
 30
0.0
 11
471.2864502269
 21
350.0475810456
 31
0.0
  0
ELLIPSE
  5
352
330
1F
100
AcDbEntity
  8
0
  6
CONTINUOUS
 62
     7
100
AcDbEllipse
 10
470.4252764667
 20
353.1270824923
 30
0.0
 11
5.11592601991356
 21
97.60698847577687
 31
0.0
210
0.0
220
0.0
230
1.0
 40
0.0104528432
 41
4.582518348879883
 42
4.681381610301885
  0
ARC
  5
353
330
1F
100
AcDbEntity
  8
0
  6
CONTINUOUS
 62
     7
100
AcDbCircle
 10
469.803281181
 20
343.2301350344
 30
0.0
 40
2.960563212058788
100
AcDbArc
 50
259.7516468258
 51
289.148722446
  0
ELLIPSE
  5
354
330
1F
100
AcDbEntity
  8
0
  6
CONTINUOUS
 62
     7
100
AcDbEllipse
 10
468.9274142167
 20
353.2055821265
 30
0.0
 11
5.115909269744634
 21
99.10698912869123
 31
0.0
210
0.0
220
0.0
230
1.0
 40
0.0102954851
 41
4.582501932175962
 42
4.678013848910638
  0
LINE
  5
355
330
1F
100
AcDbEntity
  8
0
  6
CONTINUOUS
 62
     7
100
AcDbLine
 10
469.7713374096
 20
349.7467973817
 30
0.0
 11
469.8039262491
 21
349.7507899615
 31
0.0
  0
LINE
  5
356
330
1F
100
AcDbEntity
  8
0
  6
CONTINUOUS
 62
     7
100
AcDbLine
 10
469.3368717032
 20
359.2905485153
 30
0.0
 11
341.2360294657
 21
359.2905485153
 31
0.0
  0
LINE
  5
357
330
1F
100
AcDbEntity
  8
0
  6
CONTINUOUS
 62
     7
100
AcDbLine
 10
340.8015637594
 20
349.7467973817
 30
0.0
 11
469.7713374096
 21
349.7467973817
 31
0.0
  0
LINE
  5
358
330
1F
100
AcDbEntity
  8
0
  6
CONTINUOUS
 62
     7
100
AcDbLine
 10
341.2963493663
 20
340.3168052051
 30
0.0
 11
469.2765518027
 21
340.3168052051
 31
0.0
  0
ELLIPSE
  5
359
330
1F
100
AcDbEntity
  8
0
  6
CONTINUOUS
 62
     7
100
AcDbEllipse
 10
340.037520985
 20
369.0267962202
 30
0.0
 11
0.7509054447400557
 21
14.58513413639986
 31
0.0
210
0.0
220
0.0
230
1.0
 40
0.0010792072
 41
3.107039935819279
 42
3.12063385334719
  0
LINE
  5
35A
330
1F
100
AcDbEntity
  8
0
  6
CONTINUOUS
 62
     7
100
AcDbLine
 10
339.3854766088
 20
356.3060790789
 30
0.0
 11
339.2865179973
 21
354.4503957115
 31
0.0
  0
ELLIPSE
  5
35B
330
1F
100
AcDbEntity
  8
0
  6
CONTINUOUS
 62
     7
100
AcDbEllipse
 10
339.388410933
 20
356.2625012129
 30
0.0
 11
0.02620675697505703
 21
0.4999999249595248
 31
0.0
210
0.0
220
0.0
230
1.0
 40
0.0104528432
 41
0.2579226989437987
 42
1.484077734465272
  0
ELLIPSE
  5
35C
330
1F
100
AcDbEntity
  8
0
  6
CONTINUOUS
 62
     7
100
AcDbEllipse
 10
335.6433545581
 20
280.8317020365
 30
0.0
 11
4.114460845089582
 21
78.49998821864824
 31
0.0
210
0.0
220
0.0
230
1.0
 40
0.0104528432
 41
0.0954781906470042
 42
0.2579226989477416
  0
ELLIPSE
  5
35D
330
1F
100
AcDbEntity
  8
0
  6
CONTINUOUS
 62
     7
100
AcDbEllipse
 10
339.7260625145
 20
358.830230632
 30
0.0
 11
0.02620675697505703
 21
0.4999999249595248
 31
0.0
210
0.0
220
0.0
230
1.0
 40
0.0104528432
 41
4.985715858364086
 42
6.289875525305965
  0
LINE
  5
35E
330
1F
100
AcDbEntity
  8
0
  6
CONTINUOUS
 62
     7
100
AcDbLine
 10
339.2864509421
 20
350.0475810456
 30
0.0
 11
339.2864509421
 21
354.4448822818
 31
0.0
  0
ELLIPSE
  5
35F
330
1F
100
AcDbEntity
  8
0
  6
CONTINUOUS
 62
     7
100
AcDbEllipse
 10
470.8468386545
 20
358.830230632
 30
0.0
 11
-0.02620675697511388
 21
0.4999999249595817
 31
0.0
210
0.0
220
0.0
230
1.0
 40
0.0104528432
 41
6.276495089043567
 42
7.580654755997429
  0
ELLIPSE
  5
360
330
1F
100
AcDbEntity
  8
0
  6
CONTINUOUS
 62
     7
100
AcDbEllipse
 10
474.9295466109
 20
280.8317020365
 30
0.0
 11
-4.114460845089469
 21
78.4999882186483
 31
0.0
210
0.0
220
0.0
230
1.0
 40
0.0104528432
 41
6.025262608233159
 42
6.150535169746069
  0
ELLIPSE
  5
361
330
1F
100
AcDbEntity
  8
0
  6
CONTINUOUS
 62
     7
100
AcDbEllipse
 10
471.184490236
 20
356.2625012129
 30
0.0
 11
-0.02620675697505704
 21
0.4999999249595817
 31
0.0
210
0.0
220
0.0
230
1.0
 40
0.0104528432
 41
4.799107572712389
 42
6.025262608234711
  0
LINE
  5
362
330
1F
100
AcDbEntity
  8
0
  6
CONTINUOUS
 62
     7
100
AcDbLine
 10
471.2863831716
 20
354.4503957115
 30
0.0
 11
471.1874245601
 21
356.3060790789
 31
0.0
  0
ELLIPSE
  5
363
330
1F
100
AcDbEntity
  8
0
  6
CONTINUOUS
 62
     7
100
AcDbEllipse
 10
470.5353801839
 20
369.0267962202
 30
0.0
 11
-0.7509054447402832
 21
14.58513413640389
 31
0.0
210
0.0
220
0.0
230
1.0
 40
0.0010792072
 41
3.162551453844099
 42
3.176145371368304
  0
LINE
  5
364
330
1F
100
AcDbEntity
  8
0
  6
CONTINUOUS
 62
     7
100
AcDbLine
 10
471.2864502269
 20
350.0475810456
 30
0.0
 11
471.2864502269
 21
354.4448822818
 31
0.0
  0
ARC
  5
365
330
1F
100
AcDbEntity
  8
0
  6
CONTINUOUS
 62
     7
100
AcDbCircle
 10
341.2500060825
 20
359.2518707371
 30
0.0
 40
1.499822550464466
100
AcDbArc
 50
89.9965588128
 51
177.005514599
  0
ELLIPSE
  5
366
330
1F
100
AcDbEntity
  8
0
  6
CONTINUOUS
 62
     7
100
AcDbEllipse
 10
341.2239247644
 20
358.7517309979
 30
0.0
 11
0.02620406952382836
 21
1.999999998821636
 31
0.0
210
0.0
220
0.0
230
1.0
 40
0.0026199392
 41
4.985202314621208
 42
6.289361981566621
  0
LINE
  5
367
330
1F
100
AcDbEntity
  8
0
  6
CONTINUOUS
 62
     7
100
AcDbLine
 10
341.2500961619
 20
360.7516932848
 30
0.0
 11
469.3228050071
 21
360.7516932848
 31
0.0
  0
ELLIPSE
  5
368
330
1F
100
AcDbEntity
  8
0
  6
CONTINUOUS
 62
     7
100
AcDbEllipse
 10
469.3489764046
 20
358.7517309979
 30
0.0
 11
-0.02620406952382837
 21
1.999999998821693
 31
0.0
210
0.0
220
0.0
230
1.0
 40
0.0026199392
 41
6.277008632786873
 42
7.581168299738188
  0
ARC
  5
369
330
1F
100
AcDbEntity
  8
0
  6
CONTINUOUS
 62
     7
100
AcDbCircle
 10
469.3229148757
 20
359.2519318803
 30
0.0
 40
1.499761408514891
100
AcDbArc
 50
60.2979963027
 51
90.0041973398
  0
LINE
  5
36A
330
1F
100
AcDbEntity
  8
0
  6
CONTINUOUS
 62
     7
100
AcDbLine
 10
339.4124179083
 20
356.7460319769
 30
0.0
 11
339.4235118228
 21
356.8656862576
 31
0.0
  0
LINE
  5
36B
330
1F
100
AcDbEntity
  8
0
  6
CONTINUOUS
 62
     7
100
AcDbLine
 10
471.1604832607
 20
356.7460319769
 30
0.0
 11
471.1493893462
 21
356.8656862504
 31
0.0
  0
LINE
  5
36C
330
1F
100
AcDbEntity
  8
0
  6
CONTINUOUS
 62
     7
100
AcDbLine
 10
344.286449899
 20
339.0118788544
 30
0.0
 11
344.286449899
 21
334.7467977169
 31
0.0
  0
LINE
  5
36D
330
1F
100
AcDbEntity
  8
0
  6
CONTINUOUS
 62
     7
100
AcDbLine
 10
344.286449899
 20
334.7467977169
 30
0.0
 11
342.2864495712
 21
334.7467977169
 31
0.0
  0
LINE
  5
36E
330
1F
100
AcDbEntity
  8
0
  6
CONTINUOUS
 62
     7
100
AcDbLine
 10
342.2864495712
 20
334.7467977169
 30
0.0
 11
342.2864495712
 21
339.0118788544
 31
0.0
  0
LINE
  5
36F
330
1F
100
AcDbEntity
  8
0
  6
CONTINUOUS
 62
     7
100
AcDbLine
 10
344.286449899
 20
334.7467977169
 30
0.0
 11
344.286449899
 21
311.7467958096
 31
0.0
  0
LINE
  5
370
330
1F
100
AcDbEntity
  8
0
  6
CONTINUOUS
 62
     7
100
AcDbLine
 10
344.286449899
 20
311.7467958096
 30
0.0
 11
342.2864495712
 21
311.7467958096
 31
0.0
  0
LINE
  5
371
330
1F
100
AcDbEntity
  8
0
  6
CONTINUOUS
 62
     7
100
AcDbLine
 10
342.2864495712
 20
334.7467977169
 30
0.0
 11
342.2864495712
 21
311.7467958096
 31
0.0
  0
LINE
  5
372
330
1F
100
AcDbEntity
  8
0
  6
CONTINUOUS
 62
     7
100
AcDbLine
 10
468.2864515978
 20
334.7467977169
 30
0.0
 11
468.2864515978
 21
339.0118788544
 31
0.0
  0
LINE
  5
373
330
1F
100
AcDbEntity
  8
0
  6
CONTINUOUS
 62
     7
100
AcDbLine
 10
466.2864512699
 20
334.7467977169
 30
0.0
 11
468.2864515978
 21
334.7467977169
 31
0.0
  0
LINE
  5
374
330
1F
100
AcDbEntity
  8
0
  6
CONTINUOUS
 62
     7
100
AcDbLine
 10
466.2864512699
 20
339.0118788544
 30
0.0
 11
466.2864512699
 21
334.7467977169
 31
0.0
  0
LINE
  5
375
330
1F
100
AcDbEntity
  8
0
  6
CONTINUOUS
 62
     7
100
AcDbLine
 10
468.2864515978
 20
334.7467977169
 30
0.0
 11
468.2864515978
 21
311.7467958096
 31
0.0
  0
LINE
  5
376
330
1F
100
AcDbEntity
  8
0
  6
CONTINUOUS
 62
     7
100
AcDbLine
 10
466.2864512699
 20
311.7467958096
 30
0.0
 11
468.2864515978
 21
311.7467958096
 31
0.0
  0
LINE
  5
377
330
1F
100
AcDbEntity
  8
0
  6
CONTINUOUS
 62
     7
100
AcDbLine
 10
466.2864512699
 20
334.7467977169
 30
0.0
 11
466.2864512699
 21
311.7467958096
 31
0.0
  0
LINE
  5
378
330
1F
100
AcDbEntity
  8
0
  6
CONTINUOUS
 62
     8
100
AcDbLine
 10
344.5364504057
 20
316.7467984918
 30
0.0
 11
344.5364504057
 21
315.8406626049
 31
0.0
  0
LINE
  5
379
330
1F
100
AcDbEntity
  8
0
  6
CONTINUOUS
 62
     8
100
AcDbLine
 10
344.5813885825
 20
316.7467984918
 30
0.0
 11
344.5364504057
 21
316.7467984918
 31
0.0
  0
LINE
  5
37A
330
1F
100
AcDbEntity
  8
0
  6
CONTINUOUS
 62
     8
100
AcDbLine
 10
344.4864495593
 20
338.7467983726
 30
0.0
 11
344.286449899
 21
338.7467983726
 31
0.0
  0
LINE
  5
37B
330
1F
100
AcDbEntity
  8
0
  6
CONTINUOUS
 62
     8
100
AcDbLine
 10
344.5364504057
 20
316.9144030276
 30
0.0
 11
344.5364504057
 21
316.7467984918
 31
0.0
  0
LINE
  5
37C
330
1F
100
AcDbEntity
  8
0
  6
CONTINUOUS
 62
     8
100
AcDbLine
 10
438.7334740656
 20
311.4967990282
 30
0.0
 11
462.3334749537
 21
311.4967990282
 31
0.0
  0
LINE
  5
37D
330
1F
100
AcDbEntity
  8
0
  6
CONTINUOUS
 62
     8
100
AcDbLine
 10
341.2963493663
 20
340.3168052051
 30
0.0
 11
341.2963493663
 21
339.0118788544
 31
0.0
  0
LINE
  5
37E
330
1F
100
AcDbEntity
  8
0
  6
CONTINUOUS
 62
     8
100
AcDbLine
 10
469.2765518027
 20
339.0118788544
 30
0.0
 11
469.2765518027
 21
340.3168052051
 31
0.0
  0
ELLIPSE
  5
37F
330
1F
100
AcDbEntity
  8
0
  6
CONTINUOUS
 62
     8
100
AcDbEllipse
 10
335.6433545581
 20
280.8317020365
 30
0.0
 11
4.114460845089582
 21
78.49998821864824
 31
0.0
210
0.0
220
0.0
230
1.0
 40
0.0104528432
 41
0.0066902181269057
 42
0.0954781906470042
  0
ELLIPSE
  5
380
330
1F
100
AcDbEntity
  8
0
  6
CONTINUOUS
 62
     8
100
AcDbEllipse
 10
474.9295466109
 20
280.8317020365
 30
0.0
 11
-4.114460845089469
 21
78.4999882186483
 31
0.0
210
0.0
220
0.0
230
1.0
 40
0.0104528432
 41
6.150535169746069
 42
6.276495089054013
  0
ARC
  5
381
330
1F
100
AcDbEntity
  8
0
  6
CONTINUOUS
 62
     8
100
AcDbCircle
 10
469.3228880497
 20
359.2518685724
 30
0.0
 40
1.499829690663729
100
AcDbArc
 50
2.994553939
 51
60.2983044746
  0
ENDSEC
  0
SECTION
  2
OBJECTS
  0
DICTIONARY
  5
C
330
0
100
AcDbDictionary
  3
ACAD_GROUP
350
D
  3
ACAD_MLINESTYLE
350
17
  0
DICTIONARY
  5
D
102
{ACAD_REACTORS
330
C
102
}
330
C
100
AcDbDictionary
  0
DICTIONARY
  5
17
102
{ACAD_REACTORS
330
C
102
}
330
C
100
AcDbDictionary
  3
STANDARD
350
18
  0
MLINESTYLE
  5
18
102
{ACAD_REACTORS
330
17
102
}
330
17
100
AcDbMlineStyle
  2
Standard
 70
     0
  3

 62
   256
 51
90.0
 52
90.0
 71
     2
 49
0.5
 62
   256
  6
BYLAYER
 49
-0.5
 62
   256
  6
BYLAYER
  0
ENDSEC
  0
EOF
