  0
SECTION
  2
HEADER
  9
$ACADVER
  1
AC1015
  9
$ACADMAINTVER
 70
     6
  9
$DWGCODEPAGE
  3
ANSI_1252
  9
$INSBASE
 10
0.0
 20
0.0
 30
0.0
  9
$EXTMIN
 10
0.0
 20
0.0
 30
0.0
  9
$EXTMAX
 10
297.0
 20
210.0
 30
0.0
  9
$LIMMIN
 10
0.0
 20
0.0
  9
$LIMMAX
 10
297.0
 20
210.0
  9
$ORTHOMODE
 70
     0
  9
$REGENMODE
 70
     1
  9
$FILLMODE
 70
     1
  9
$QTEXTMODE
 70
     0
  9
$MIRRTEXT
 70
     1
  9
$LTSCALE
 40
1.0
  9
$ATTMODE
 70
     1
  9
$TEXTSIZE
 40
4.2333333333
  9
$TRACEWID
 40
1.0
  9
$TEXTSTYLE
  7
Standard
  9
$CLAYER
  8
0
  9
$CELTYPE
  6
ByLayer
  9
$CECOLOR
 62
   256
  9
$CELTSCALE
 40
1.0
  9
$DISPSILH
 70
     0
  9
$DIMSCALE
 40
1.0
  9
$DIMASZ
 40
3.0
  9
$DIMEXO
 40
1.0
  9
$DIMDLI
 40
3.75
  9
$DIMRND
 40
0.0
  9
$DIMDLE
 40
0.0
  9
$DIMEXE
 40
1.0
  9
$DIMTP
 40
0.0
  9
$DIMTM
 40
0.0
  9
$DIMTXT
 40
4.2333333333
  9
$DIMCEN
 40
2.5
  9
$DIMTSZ
 40
0.0
  9
$DIMTOL
 70
     0
  9
$DIMLIM
 70
     0
  9
$DIMTIH
 70
     1
  9
$DIMTOH
 70
     1
  9
$DIMSE1
 70
     0
  9
$DIMSE2
 70
     0
  9
$DIMTAD
 70
     1
  9
$DIMZIN
 70
     0
  9
$DIMBLK
  1

  9
$DIMASO
 70
     1
  9
$DIMSHO
 70
     1
  9
$DIMPOST
  1

  9
$DIMAPOST
  1

  9
$DIMALT
 70
     0
  9
$DIMALTD
 70
     3
  9
$DIMALTF
 40
0.0393700787
  9
$DIMLFAC
 40
1.0
  9
$DIMTOFL
 70
     1
  9
$DIMTVP
 40
0.0
  9
$DIMTIX
 70
     0
  9
$DIMSOXD
 70
     0
  9
$DIMSAH
 70
     0
  9
$DIMBLK1
  1

  9
$DIMBLK2
  1

  9
$DIMSTYLE
  2
ISO-25
  9
$DIMCLRD
 70
     0
  9
$DIMCLRE
 70
     0
  9
$DIMCLRT
 70
     0
  9
$DIMTFAC
 40
1.0
  9
$DIMGAP
 40
1.5
  9
$DIMJUST
 70
     0
  9
$DIMSD1
 70
     0
  9
$DIMSD2
 70
     0
  9
$DIMTOLJ
 70
     0
  9
$DIMTZIN
 70
     0
  9
$DIMALTZ
 70
     0
  9
$DIMALTTZ
 70
     0
  9
$DIMUPT
 70
     0
  9
$DIMDEC
 70
     2
  9
$DIMTDEC
 70
     2
  9
$DIMALTU
 70
     2
  9
$DIMALTTD
 70
     3
  9
$DIMTXSTY
  7
Standard
  9
$DIMAUNIT
 70
     0
  9
$DIMADEC
 70
     2
  9
$DIMALTRND
 40
0.0
  9
$DIMAZIN
 70
     0
  9
$DIMDSEP
 70
    44
  9
$DIMATFIT
 70
     3
  9
$DIMFRAC
 70
     0
  9
$DIMLDRBLK
  1

  9
$DIMLUNIT
 70
     2
  9
$DIMLWD
 70
    -2
  9
$DIMLWE
 70
    -2
  9
$DIMTMOVE
 70
     0
  9
$LUNITS
 70
     2
  9
$LUPREC
 70
     2
  9
$SKETCHINC
 40
1.0
  9
$FILLETRAD
 40
10.0
  9
$AUNITS
 70
     0
  9
$AUPREC
 70
     2
  9
$MENU
  1
.
  9
$ELEVATION
 40
0.0
  9
$PELEVATION
 40
0.0
  9
$THICKNESS
 40
0.0
  9
$LIMCHECK
 70
     0
  9
$CHAMFERA
 40
10.0
  9
$CHAMFERB
 40
10.0
  9
$CHAMFERC
 40
20.0
  9
$CHAMFERD
 40
0.0
  9
$SKPOLY
 70
     0
  9
$TDCREATE
 40
2456311.558357512
  9
$TDUCREATE
 40
2456311.516690845
  9
$TDUPDATE
 40
2456311.558358785
  9
$TDUUPDATE
 40
2456311.516692118
  9
$TDINDWG
 40
0.0000000116
  9
$TDUSRTIMER
 40
0.0000000116
  9
$USRTIMER
 70
     1
  9
$ANGBASE
 50
0.0
  9
$ANGDIR
 70
     0
  9
$PDMODE
 70
     0
  9
$PDSIZE
 40
-1.0
  9
$PLINEWID
 40
0.0
  9
$SPLFRAME
 70
     0
  9
$SPLINETYPE
 70
     6
  9
$SPLINESEGS
 70
     8
  9
$HANDSEED
  5
1D0
  9
$SURFTAB1
 70
     6
  9
$SURFTAB2
 70
     6
  9
$SURFTYPE
 70
     6
  9
$SURFU
 70
     6
  9
$SURFV
 70
     6
  9
$UCSBASE
  2

  9
$UCSNAME
  2

  9
$UCSORG
 10
0.0
 20
0.0
 30
0.0
  9
$UCSXDIR
 10
1.0
 20
0.0
 30
0.0
  9
$UCSYDIR
 10
0.0
 20
1.0
 30
0.0
  9
$UCSORTHOREF
  2

  9
$UCSORTHOVIEW
 70
     0
  9
$UCSORGTOP
 10
0.0
 20
0.0
 30
0.0
  9
$UCSORGBOTTOM
 10
0.0
 20
0.0
 30
0.0
  9
$UCSORGLEFT
 10
0.0
 20
0.0
 30
0.0
  9
$UCSORGRIGHT
 10
0.0
 20
0.0
 30
0.0
  9
$UCSORGFRONT
 10
0.0
 20
0.0
 30
0.0
  9
$UCSORGBACK
 10
0.0
 20
0.0
 30
0.0
  9
$PUCSBASE
  2

  9
$PUCSNAME
  2

  9
$PUCSORG
 10
0.0
 20
0.0
 30
0.0
  9
$PUCSXDIR
 10
1.0
 20
0.0
 30
0.0
  9
$PUCSYDIR
 10
0.0
 20
1.0
 30
0.0
  9
$PUCSORTHOREF
  2

  9
$PUCSORTHOVIEW
 70
     0
  9
$PUCSORGTOP
 10
0.0
 20
0.0
 30
0.0
  9
$PUCSORGBOTTOM
 10
0.0
 20
0.0
 30
0.0
  9
$PUCSORGLEFT
 10
0.0
 20
0.0
 30
0.0
  9
$PUCSORGRIGHT
 10
0.0
 20
0.0
 30
0.0
  9
$PUCSORGFRONT
 10
0.0
 20
0.0
 30
0.0
  9
$PUCSORGBACK
 10
0.0
 20
0.0
 30
0.0
  9
$USERI1
 70
     0
  9
$USERI2
 70
     0
  9
$USERI3
 70
     0
  9
$USERI4
 70
     0
  9
$USERI5
 70
     0
  9
$USERR1
 40
0.0
  9
$USERR2
 40
0.0
  9
$USERR3
 40
0.0
  9
$USERR4
 40
0.0
  9
$USERR5
 40
0.0
  9
$WORLDVIEW
 70
     1
  9
$SHADEDGE
 70
     3
  9
$SHADEDIF
 70
    70
  9
$TILEMODE
 70
     1
  9
$MAXACTVP
 70
    64
  9
$PINSBASE
 10
0.0
 20
0.0
 30
0.0
  9
$PLIMCHECK
 70
     0
  9
$PEXTMIN
 10
1.0000000000E+20
 20
1.0000000000E+20
 30
1.0000000000E+20
  9
$PEXTMAX
 10
-1.0000000000E+20
 20
-1.0000000000E+20
 30
-1.0000000000E+20
  9
$PLIMMIN
 10
0.0
 20
0.0
  9
$PLIMMAX
 10
420.0
 20
297.0
  9
$UNITMODE
 70
     0
  9
$VISRETAIN
 70
     1
  9
$PLINEGEN
 70
     0
  9
$PSLTSCALE
 70
     1
  9
$TREEDEPTH
 70
  3020
  9
$CMLSTYLE
  2
Standard
  9
$CMLJUST
 70
     0
  9
$CMLSCALE
 40
20.0
  9
$PROXYGRAPHICS
 70
     1
  9
$MEASUREMENT
 70
     1
  9
$CELWEIGHT
370
    -1
  9
$ENDCAPS
280
     0
  9
$JOINSTYLE
280
     0
  9
$LWDISPLAY
290
     1
  9
$INSUNITS
 70
     4
  9
$HYPERLINKBASE
  1

  9
$STYLESHEET
  1

  9
$XEDIT
290
     1
  9
$CEPSNTYPE
380
     0
  9
$PSTYLEMODE
290
     1
  9
$FINGERPRINTGUID
  2
{7FD4E3F2-AD1C-481E-818A-BD39F6E2276A}
  9
$VERSIONGUID
  2
{FAEB1C32-E019-11D5-929B-00C0DF256EC4}
  9
$EXTNAMES
290
     1
  9
$PSVPSCALE
 40
0.0
  9
$OLESTARTUP
290
     0
  0
ENDSEC
  0
SECTION
  2
CLASSES
  0
CLASS
  1
ACDBDICTIONARYWDFLT
  2
AcDbDictionaryWithDefault
  3
ObjectDBX Classes
 90
        0
280
     0
281
     0
  0
CLASS
  1
VISUALSTYLE
  2
AcDbVisualStyle
  3
ObjectDBX Classes
 90
     4095
280
     0
281
     0
  0
CLASS
  1
MATERIAL
  2
AcDbMaterial
  3
ObjectDBX Classes
 90
     1153
280
     0
281
     0
  0
CLASS
  1
ACDBPLACEHOLDER
  2
AcDbPlaceHolder
  3
ObjectDBX Classes
 90
        0
280
     0
281
     0
  0
CLASS
  1
LAYOUT
  2
AcDbLayout
  3
ObjectDBX Classes
 90
        0
280
     0
281
     0
  0
ENDSEC
  0
SECTION
  2
TABLES
  0
TABLE
  2
VPORT
  5
8
330
0
100
AcDbSymbolTable
 70
     1
  0
VPORT
  5
29
330
8
100
AcDbSymbolTableRecord
100
AcDbViewportTableRecord
  2
*Active
 70
     0
 10
0.0
 20
0.0
 11
1.0
 21
1.0
 12
148.5
 22
105.0
 13
0.0
 23
0.0
 14
10.0
 24
10.0
 15
10.0
 25
10.0
 16
0.0
 26
0.0
 36
1.0
 17
0.0
 27
0.0
 37
0.0
 40
210.0
 41
1.4142857143
 42
50.0
 43
0.0
 44
0.0
 50
0.0
 51
0.0
 71
     0
 72
  2000
 73
     1
 74
     3
 75
     0
 76
     0
 77
     0
 78
     0
281
     0
 65
     1
110
0.0
120
0.0
130
0.0
111
1.0
121
0.0
131
0.0
112
0.0
122
1.0
132
0.0
 79
     0
146
0.0
  0
ENDTAB
  0
TABLE
  2
LTYPE
  5
5
330
0
100
AcDbSymbolTable
 70
     6
  0
LTYPE
  5
14
330
5
100
AcDbSymbolTableRecord
100
AcDbLinetypeTableRecord
  2
ByBlock
 70
     0
  3

 72
    65
 73
     0
 40
0.0
  0
LTYPE
  5
15
330
5
100
AcDbSymbolTableRecord
100
AcDbLinetypeTableRecord
  2
ByLayer
 70
     0
  3

 72
    65
 73
     0
 40
0.0
  0
LTYPE
  5
16
330
5
100
AcDbSymbolTableRecord
100
AcDbLinetypeTableRecord
  2
Continuous
 70
     0
  3
Solid line
 72
    65
 73
     0
 40
0.0
  0
LTYPE
  5
3F
330
5
100
AcDbSymbolTableRecord
100
AcDbLinetypeTableRecord
  2
HIDDEN
 70
     0
  3
Hidden __ __ __ __ __ __ __ __ __ __ __ __ __ __
 72
    65
 73
     2
 40
1.905
 49
1.27
 74
     0
 49
-0.635
 74
     0
  0
LTYPE
  5
40
330
5
100
AcDbSymbolTableRecord
100
AcDbLinetypeTableRecord
  2
PHANTOM
 70
     0
  3
Phantom ______  __  __  ______  __  __  ______
 72
    65
 73
     6
 40
12.7
 49
6.35
 74
     0
 49
-1.27
 74
     0
 49
1.27
 74
     0
 49
-1.27
 74
     0
 49
1.27
 74
     0
 49
-1.27
 74
     0
  0
LTYPE
  5
41
330
5
100
AcDbSymbolTableRecord
100
AcDbLinetypeTableRecord
  2
CENTER
 70
     0
  3
Center ____ _ ____ _ ____ _ ____ _ ____ _ ____
 72
    65
 73
     4
 40
10.16
 49
6.35
 74
     0
 49
-1.27
 74
     0
 49
1.27
 74
     0
 49
-1.27
 74
     0
  0
LTYPE
  5
42
330
5
100
AcDbSymbolTableRecord
100
AcDbLinetypeTableRecord
  2
CENTERX2
 70
     0
  3
Center (2x) ________  __  ________  __  _____
 72
    65
 73
     4
 40
20.32
 49
12.7
 74
     0
 49
-2.54
 74
     0
 49
2.54
 74
     0
 49
-2.54
 74
     0
  0
LTYPE
  5
43
330
5
100
AcDbSymbolTableRecord
100
AcDbLinetypeTableRecord
  2
DOT2
 70
     0
  3
Dot (.5x) ........................................
 72
    65
 73
     2
 40
0.635
 49
0.0
 74
     0
 49
-0.635
 74
     0
  0
ENDTAB
  0
TABLE
  2
LAYER
  5
2
330
0
100
AcDbSymbolTable
 70
     2
  0
LAYER
  5
10
330
2
100
AcDbSymbolTableRecord
100
AcDbLayerTableRecord
  2
0
 70
     0
 62
     7
  6
Continuous
370
    -3
390
F
  0
LAYER
  5
44
330
2
100
AcDbSymbolTableRecord
100
AcDbLayerTableRecord
  2
FORMAT
 70
     0
 62
     7
  6
Continuous
370
    -3
390
F
  0
ENDTAB
  0
TABLE
  2
STYLE
  5
3
330
0
100
AcDbSymbolTable
 70
     3
  0
STYLE
  5
11
330
3
100
AcDbSymbolTableRecord
100
AcDbTextStyleTableRecord
  2
Standard
 70
     0
 40
0.0
 41
1.0
 50
0.0
 71
     0
 42
4.2333333333
  3
txt
  4

  0
STYLE
  5
86
330
3
100
AcDbSymbolTableRecord
100
AcDbTextStyleTableRecord
  2
SLDTEXTSTYLE0
 70
     0
 40
0.0
 41
0.605
 50
0.0
 71
     0
 42
0.2
  3
TXT
  4

  0
STYLE
  5
9F
330
3
100
AcDbSymbolTableRecord
100
AcDbTextStyleTableRecord
  2
SLDTEXTSTYLE1
 70
     0
 40
0.0
 41
0.605
 50
0.0
 71
     0
 42
0.2
  3
TXT
  4
bigfont
  0
ENDTAB
  0
TABLE
  2
VIEW
  5
6
330
0
100
AcDbSymbolTable
 70
     0
  0
ENDTAB
  0
TABLE
  2
UCS
  5
7
330
0
100
AcDbSymbolTable
 70
     0
  0
ENDTAB
  0
TABLE
  2
APPID
  5
9
330
0
100
AcDbSymbolTable
 70
     1
  0
APPID
  5
12
330
9
100
AcDbSymbolTableRecord
100
AcDbRegAppTableRecord
  2
ACAD
 70
     0
  0
ENDTAB
  0
TABLE
  2
DIMSTYLE
  5
A
330
0
100
AcDbSymbolTable
 70
     3
100
AcDbDimStyleTable
  0
DIMSTYLE
105
27
330
A
100
AcDbSymbolTableRecord
100
AcDbDimStyleTableRecord
  2
ISO-25
 70
     0
 41
2.5
 42
0.625
 43
3.75
 44
1.25
 73
     0
 74
     0
 77
     1
 78
     8
140
2.5
141
2.5
143
0.0393700787
147
0.625
171
     3
172
     1
178
     0
271
     2
272
     2
274
     3
278
    44
283
     0
284
     8
340
11
  0
DIMSTYLE
105
D7
102
{ACAD_REACTORS
330
D6
330
11E
102
}
330
A
100
AcDbSymbolTableRecord
100
AcDbDimStyleTableRecord
  2
SLDDIMSTYLE0
 70
     0
 41
3.0
 44
0.0
 45
0.000000001
 73
     0
 74
     0
 77
     1
 78
    12
 79
     3
140
3.0819824219
147
0.7704956055
173
     1
178
     0
271
     2
272
     2
276
     2
284
    12
340
86
  0
DIMSTYLE
105
E2
102
{ACAD_REACTORS
330
E1
102
}
330
A
100
AcDbSymbolTableRecord
100
AcDbDimStyleTableRecord
  2
SLDDIMSTYLE1
 70
     0
 41
3.0
 44
0.0
 45
0.000000001
 73
     0
 74
     0
 77
     1
 78
    12
 79
     3
140
3.0819824219
147
0.7704956055
172
     1
173
     1
178
     0
271
     2
272
     2
276
     2
284
    12
289
     0
340
86
  0
ENDTAB
  0
TABLE
  2
BLOCK_RECORD
  5
1
330
0
100
AcDbSymbolTable
 70
     5
  0
BLOCK_RECORD
  5
1F
330
1
100
AcDbSymbolTableRecord
100
AcDbBlockTableRecord
  2
*Model_Space
340
22
  0
BLOCK_RECORD
  5
1B
330
1
100
AcDbSymbolTableRecord
100
AcDbBlockTableRecord
  2
*Paper_Space
340
1E
  0
BLOCK_RECORD
  5
23
330
1
100
AcDbSymbolTableRecord
100
AcDbBlockTableRecord
  2
*Paper_Space0
340
26
  0
BLOCK_RECORD
  5
45
330
1
100
AcDbSymbolTableRecord
100
AcDbBlockTableRecord
  2
Block1
340
0
102
{BLKREFS
331
85
102
}
  0
BLOCK_RECORD
  5
D8
330
1
100
AcDbSymbolTableRecord
100
AcDbBlockTableRecord
  2
_D
340
0
  0
BLOCK_RECORD
  5
E3
330
1
100
AcDbSymbolTableRecord
100
AcDbBlockTableRecord
  2
_D_1
340
0
  0
BLOCK_RECORD
  5
11F
330
1
100
AcDbSymbolTableRecord
100
AcDbBlockTableRecord
  2
_D_2
340
0
  0
ENDTAB
  0
ENDSEC
  0
SECTION
  2
BLOCKS
  0
BLOCK
  5
20
330
1F
100
AcDbEntity
  8
0
100
AcDbBlockBegin
  2
*Model_Space
 70
     0
 10
0.0
 20
0.0
 30
0.0
  3
*Model_Space
  1

  0
ENDBLK
  5
21
330
1F
100
AcDbEntity
  8
0
100
AcDbBlockEnd
  0
BLOCK
  5
1C
330
1B
100
AcDbEntity
 67
     1
  8
0
100
AcDbBlockBegin
  2
*Paper_Space
 70
     0
 10
0.0
 20
0.0
 30
0.0
  3
*Paper_Space
  1

  0
ENDBLK
  5
1D
330
1B
100
AcDbEntity
 67
     1
  8
0
100
AcDbBlockEnd
  0
BLOCK
  5
24
330
23
100
AcDbEntity
  8
0
100
AcDbBlockBegin
  2
*Paper_Space0
 70
     0
 10
0.0
 20
0.0
 30
0.0
  3
*Paper_Space0
  1

  0
ENDBLK
  5
25
330
23
100
AcDbEntity
  8
0
100
AcDbBlockEnd
  0
BLOCK
  5
46
330
45
100
AcDbEntity
  8
0
100
AcDbBlockBegin
  2
Block1
 70
     0
 10
0.0
 20
0.0
 30
0.0
  3
Block1
  1

  0
CIRCLE
  5
48
330
45
100
AcDbEntity
  8
0
  6
Continuous
 62
     7
370
     0
100
AcDbCircle
 10
-20.4405662332
 20
-0.0558296852
 30
0.0
 40
4.999999999999999
  0
CIRCLE
  5
49
330
45
100
AcDbEntity
  8
0
  6
Continuous
 62
     7
370
     0
100
AcDbCircle
 10
-20.4405662332
 20
-0.0558296852
 30
0.0
 40
10.0
  0
LINE
  5
4A
330
45
100
AcDbEntity
  8
0
  6
CENTERX2
 62
     7
370
     0
100
AcDbLine
 10
-61.5596150618
 20
-0.0558296852
 30
0.0
 11
-8.8109362615
 21
-0.0558296852
 31
0.0
  0
LINE
  5
4B
330
45
100
AcDbEntity
  8
0
  6
CENTERX2
 62
     7
370
     0
100
AcDbLine
 10
-20.4405662332
 20
11.5738002865
 30
0.0
 11
-20.4405662332
 21
-11.685459657
 31
0.0
  0
LINE
  5
4C
330
45
100
AcDbEntity
  8
0
  6
Continuous
 62
     7
370
     0
100
AcDbLine
 10
-58.8598795327
 20
4.7884163419
 30
0.0
 11
-34.3545878066
 21
9.7884163419
 31
0.0
  0
LINE
  5
4D
330
45
100
AcDbEntity
  8
0
  6
Continuous
 62
     7
370
     0
100
AcDbLine
 10
-58.8598795327
 20
-5.2115836581
 30
0.0
 11
-58.8598795327
 21
4.7884163419
 31
0.0
  0
LINE
  5
4E
330
45
100
AcDbEntity
  8
0
  6
Continuous
 62
     7
370
     0
100
AcDbLine
 10
-34.3545878066
 20
-10.2115836581
 30
0.0
 11
-58.8598795327
 21
-5.2115836581
 31
0.0
  0
LINE
  5
4F
330
45
100
AcDbEntity
  8
0
  6
Continuous
 62
     7
370
     0
100
AcDbLine
 10
-34.3545878066
 20
9.7884163419
 30
0.0
 11
-34.3545878066
 21
-10.2115836581
 31
0.0
  0
ENDBLK
  5
47
330
45
100
AcDbEntity
  8
0
100
AcDbBlockEnd
  0
BLOCK
  5
D9
330
D8
100
AcDbEntity
  8
0
100
AcDbBlockBegin
  2
_D
 70
     0
 10
0.0
 20
0.0
 30
0.0
  3
_D
  1

  0
SOLID
  5
DB
330
D8
100
AcDbEntity
  8
0
  6
Continuous
 62
     7
370
     0
100
AcDbTrace
 10
44.1347065358
 20
150.6654127847
 30
0.0
 11
47.1347065358
 21
149.9154127847
 31
0.0
 12
47.1347065358
 22
151.4154127847
 32
0.0
 13
47.1347065358
 23
151.4154127847
 33
0.0
  0
SOLID
  5
DC
330
D8
100
AcDbEntity
  8
0
  6
Continuous
 62
     7
370
     0
100
AcDbTrace
 10
95.5347065358
 20
150.6654127847
 30
0.0
 11
92.5347065358
 21
151.4154127847
 31
0.0
 12
92.5347065358
 22
149.9154127847
 32
0.0
 13
92.5347065358
 23
149.9154127847
 33
0.0
  0
LINE
  5
DD
330
D8
100
AcDbEntity
  8
0
  6
Continuous
 62
     7
370
     0
100
AcDbLine
 10
44.1347065358
 20
162.1654127847
 30
0.0
 11
44.1347065358
 21
149.6654127847
 31
0.0
  0
LINE
  5
DE
330
D8
100
AcDbEntity
  8
0
  6
Continuous
 62
     7
370
     0
100
AcDbLine
 10
95.5347065358
 20
162.1654127847
 30
0.0
 11
95.5347065358
 21
149.6654127847
 31
0.0
  0
LINE
  5
DF
330
D8
100
AcDbEntity
  8
0
  6
Continuous
 62
     7
370
     0
100
AcDbLine
 10
44.1347065358
 20
150.6654127847
 30
0.0
 11
95.5347065358
 21
150.6654127847
 31
0.0
  0
MTEXT
  5
E0
330
D8
100
AcDbEntity
  8
0
  6
Continuous
 62
     7
370
     0
100
AcDbMText
 10
63.1319286062
 20
154.7582028585
 30
0.0
 40
3.175
 41
0.0
 71
     1
 72
     1
  1
51,40
  7
SLDTEXTSTYLE0
 73
     1
 44
1.0
  0
ENDBLK
  5
DA
330
D8
100
AcDbEntity
  8
0
100
AcDbBlockEnd
  0
BLOCK
  5
E4
330
E3
100
AcDbEntity
  8
0
100
AcDbBlockBegin
  2
_D_1
 70
     0
 10
0.0
 20
0.0
 30
0.0
  3
_D_1
  1

  0
SOLID
  5
E6
330
E3
100
AcDbEntity
  8
0
  6
Continuous
 62
     7
370
     0
100
AcDbTrace
 10
32.1347065358
 20
162.6654127847
 30
0.0
 11
31.3847065358
 21
159.6654127847
 31
0.0
 12
32.8847065358
 22
159.6654127847
 32
0.0
 13
32.8847065358
 23
159.6654127847
 33
0.0
  0
SOLID
  5
E7
330
E3
100
AcDbEntity
  8
0
  6
Continuous
 62
     7
370
     0
100
AcDbTrace
 10
32.1347065358
 20
171.8654127847
 30
0.0
 11
32.8847065358
 21
174.8654127847
 31
0.0
 12
31.3847065358
 22
174.8654127847
 32
0.0
 13
31.3847065358
 23
174.8654127847
 33
0.0
  0
LINE
  5
E8
330
E3
100
AcDbEntity
  8
0
  6
Continuous
 62
     7
370
     0
100
AcDbLine
 10
43.6347065358
 20
162.6654127847
 30
0.0
 11
31.1347065358
 21
162.6654127847
 31
0.0
  0
LINE
  5
E9
330
E3
100
AcDbEntity
  8
0
  6
Continuous
 62
     7
370
     0
100
AcDbLine
 10
48.8347065358
 20
171.8654127847
 30
0.0
 11
31.1347065358
 21
171.8654127847
 31
0.0
  0
LINE
  5
EA
330
E3
100
AcDbEntity
  8
0
  6
Continuous
 62
     7
370
     0
100
AcDbLine
 10
32.1347065358
 20
162.6654127847
 30
0.0
 11
32.1347065358
 21
156.6654127847
 31
0.0
  0
LINE
  5
EB
330
E3
100
AcDbEntity
  8
0
  6
Continuous
 62
     7
370
     0
100
AcDbLine
 10
32.1347065358
 20
162.6654127847
 30
0.0
 11
32.1347065358
 21
171.8654127847
 31
0.0
  0
LINE
  5
EC
330
E3
100
AcDbEntity
  8
0
  6
Continuous
 62
     7
370
     0
100
AcDbLine
 10
32.1347065358
 20
171.8654127847
 30
0.0
 11
32.1347065358
 21
177.8654127847
 31
0.0
  0
MTEXT
  5
ED
330
E3
100
AcDbEntity
  8
0
  6
Continuous
 62
     7
370
     0
100
AcDbMText
 10
28.041916462
 20
161.738560922
 30
0.0
 40
3.175
 41
0.0
 71
     1
 72
     1
  1
9,20
  7
SLDTEXTSTYLE0
 11
6.123233995736766E-17
 21
1.0
 31
0.0
 73
     1
 44
1.0
  0
ENDBLK
  5
E5
330
E3
100
AcDbEntity
  8
0
100
AcDbBlockEnd
  0
BLOCK
  5
120
330
11F
100
AcDbEntity
  8
0
100
AcDbBlockBegin
  2
_D_2
 70
     0
 10
0.0
 20
0.0
 30
0.0
  3
_D_2
  1

  0
SOLID
  5
122
330
11F
100
AcDbEntity
  8
0
  6
Continuous
 62
     7
370
     0
100
AcDbTrace
 10
32.1347065358
 20
74.6574780059
 30
0.0
 11
32.8847065358
 21
77.6574780059
 31
0.0
 12
31.3847065358
 22
77.6574780059
 32
0.0
 13
31.3847065358
 23
77.6574780059
 33
0.0
  0
SOLID
  5
123
330
11F
100
AcDbEntity
  8
0
  6
Continuous
 62
     7
370
     0
100
AcDbTrace
 10
32.1347065358
 20
120.0574780059
 30
0.0
 11
31.3847065358
 21
117.0574780059
 31
0.0
 12
32.8847065358
 22
117.0574780059
 32
0.0
 13
32.8847065358
 23
117.0574780059
 33
0.0
  0
LINE
  5
124
330
11F
100
AcDbEntity
  8
0
  6
Continuous
 62
     7
370
     0
100
AcDbLine
 10
49.3347065358
 20
74.6574780059
 30
0.0
 11
31.1347065358
 21
74.6574780059
 31
0.0
  0
LINE
  5
125
330
11F
100
AcDbEntity
  8
0
  6
Continuous
 62
     7
370
     0
100
AcDbLine
 10
49.3347065358
 20
120.0574780059
 30
0.0
 11
31.1347065358
 21
120.0574780059
 31
0.0
  0
LINE
  5
126
330
11F
100
AcDbEntity
  8
0
  6
Continuous
 62
     7
370
     0
100
AcDbLine
 10
32.1347065358
 20
74.6574780059
 30
0.0
 11
32.1347065358
 21
120.0574780059
 31
0.0
  0
MTEXT
  5
127
330
11F
100
AcDbEntity
  8
0
  6
Continuous
 62
     7
370
     0
100
AcDbMText
 10
28.041916462
 20
90.6547000763
 30
4.1010896493
 40
3.175
 41
0.0
 71
     1
 72
     1
  1
45,40
  7
SLDTEXTSTYLE0
 11
6.123233995736766E-17
 21
1.0
 31
0.0
 73
     1
 44
1.0
  0
ENDBLK
  5
121
330
11F
100
AcDbEntity
  8
0
100
AcDbBlockEnd
  0
ENDSEC
  0
SECTION
  2
ENTITIES
  0
LINE
  5
50
330
1F
100
AcDbEntity
  8
0
  6
Continuous
 62
     7
370
     0
100
AcDbLine
 10
292.0
 20
16.0
 30
0.0
 11
158.0
 21
16.0
 31
0.0
  0
LINE
  5
51
330
1F
100
AcDbEntity
  8
0
  6
Continuous
 62
     7
370
     0
100
AcDbLine
 10
292.0
 20
5.0
 30
0.0
 11
5.0
 21
5.0
 31
0.0
  0
LINE
  5
52
330
1F
100
AcDbEntity
  8
0
  6
Continuous
 62
     7
370
     0
100
AcDbLine
 10
292.0
 20
5.0
 30
0.0
 11
292.0
 21
205.0
 31
0.0
  0
LINE
  5
53
330
1F
100
AcDbEntity
  8
0
  6
Continuous
 62
     7
370
     0
100
AcDbLine
 10
292.0
 20
205.0
 30
0.0
 11
5.0
 21
205.0
 31
0.0
  0
LINE
  5
54
330
1F
100
AcDbEntity
  8
0
  6
Continuous
 62
     7
370
     0
100
AcDbLine
 10
5.0
 20
5.0
 30
0.0
 11
5.0
 21
205.0
 31
0.0
  0
LINE
  5
55
330
1F
100
AcDbEntity
  8
0
  6
Continuous
 62
     7
370
     0
100
AcDbLine
 10
259.0
 20
16.0
 30
0.0
 11
259.0
 21
5.0
 31
0.0
  0
LINE
  5
56
330
1F
100
AcDbEntity
  8
0
  6
Continuous
 62
     7
370
     0
100
AcDbLine
 10
292.0
 20
52.0
 30
0.0
 11
158.0
 21
52.0
 31
0.0
  0
LINE
  5
57
330
1F
100
AcDbEntity
  8
0
  6
Continuous
 62
     7
370
     0
100
AcDbLine
 10
158.0
 20
16.0
 30
0.0
 11
158.0
 21
5.0
 31
0.0
  0
LINE
  5
58
330
1F
100
AcDbEntity
  8
0
  6
Continuous
 62
     7
370
     0
100
AcDbLine
 10
158.0
 20
52.0
 30
0.0
 11
158.0
 21
56.0
 31
0.0
  0
LINE
  5
59
330
1F
100
AcDbEntity
  8
0
  6
Continuous
 62
     7
370
     0
100
AcDbLine
 10
158.0
 20
56.0
 30
0.0
 11
292.0
 21
56.0
 31
0.0
  0
LINE
  5
5A
330
1F
100
AcDbEntity
  8
0
  6
Continuous
 62
     7
370
     0
100
AcDbLine
 10
158.0
 20
56.0
 30
0.0
 11
158.0
 21
60.0
 31
0.0
  0
LINE
  5
5B
330
1F
100
AcDbEntity
  8
0
  6
Continuous
 62
     7
370
     0
100
AcDbLine
 10
158.0
 20
60.0
 30
0.0
 11
292.0
 21
60.0
 31
0.0
  0
LINE
  5
5C
330
1F
100
AcDbEntity
  8
0
  6
Continuous
 62
     7
370
     0
100
AcDbLine
 10
158.0
 20
60.0
 30
0.0
 11
158.0
 21
64.0
 31
0.0
  0
LINE
  5
5D
330
1F
100
AcDbEntity
  8
0
  6
Continuous
 62
     7
370
     0
100
AcDbLine
 10
158.0
 20
64.0
 30
0.0
 11
292.0
 21
64.0
 31
0.0
  0
LINE
  5
5E
330
1F
100
AcDbEntity
  8
0
  6
Continuous
 62
     7
370
     0
100
AcDbLine
 10
158.0
 20
64.0
 30
0.0
 11
158.0
 21
68.0
 31
0.0
  0
LINE
  5
5F
330
1F
100
AcDbEntity
  8
0
  6
Continuous
 62
     7
370
     0
100
AcDbLine
 10
158.0
 20
68.0
 30
0.0
 11
292.0
 21
68.0
 31
0.0
  0
LINE
  5
60
330
1F
100
AcDbEntity
  8
0
  6
Continuous
 62
     7
370
     0
100
AcDbLine
 10
158.0
 20
68.0
 30
0.0
 11
158.0
 21
72.0
 31
0.0
  0
LINE
  5
61
330
1F
100
AcDbEntity
  8
0
  6
Continuous
 62
     7
370
     0
100
AcDbLine
 10
158.0
 20
72.0
 30
0.0
 11
292.0
 21
72.0
 31
0.0
  0
LINE
  5
62
330
1F
100
AcDbEntity
  8
0
  6
Continuous
 62
     7
370
     0
100
AcDbLine
 10
158.0
 20
72.0
 30
0.0
 11
158.0
 21
76.0
 31
0.0
  0
LINE
  5
63
330
1F
100
AcDbEntity
  8
0
  6
Continuous
 62
     7
370
     0
100
AcDbLine
 10
158.0
 20
76.0
 30
0.0
 11
292.0
 21
76.0
 31
0.0
  0
LINE
  5
64
330
1F
100
AcDbEntity
  8
0
  6
Continuous
 62
     7
370
     0
100
AcDbLine
 10
158.0
 20
76.0
 30
0.0
 11
158.0
 21
80.0
 31
0.0
  0
LINE
  5
65
330
1F
100
AcDbEntity
  8
0
  6
Continuous
 62
     7
370
     0
100
AcDbLine
 10
158.0
 20
80.0
 30
0.0
 11
292.0
 21
80.0
 31
0.0
  0
LINE
  5
66
330
1F
100
AcDbEntity
  8
0
  6
Continuous
 62
     7
370
     0
100
AcDbLine
 10
158.0
 20
80.0
 30
0.0
 11
158.0
 21
84.0
 31
0.0
  0
LINE
  5
67
330
1F
100
AcDbEntity
  8
0
  6
Continuous
 62
     7
370
     0
100
AcDbLine
 10
158.0
 20
84.0
 30
0.0
 11
292.0
 21
84.0
 31
0.0
  0
LINE
  5
68
330
1F
100
AcDbEntity
  8
0
  6
Continuous
 62
     7
370
     0
100
AcDbLine
 10
158.0
 20
84.0
 30
0.0
 11
158.0
 21
88.0
 31
0.0
  0
LINE
  5
69
330
1F
100
AcDbEntity
  8
0
  6
Continuous
 62
     7
370
     0
100
AcDbLine
 10
158.0
 20
88.0
 30
0.0
 11
292.0
 21
88.0
 31
0.0
  0
LINE
  5
6A
330
1F
100
AcDbEntity
  8
0
  6
Continuous
 62
     7
370
     0
100
AcDbLine
 10
158.0
 20
88.0
 30
0.0
 11
158.0
 21
92.0
 31
0.0
  0
LINE
  5
6B
330
1F
100
AcDbEntity
  8
0
  6
Continuous
 62
     7
370
     0
100
AcDbLine
 10
158.0
 20
92.0
 30
0.0
 11
292.0
 21
92.0
 31
0.0
  0
LINE
  5
6C
330
1F
100
AcDbEntity
  8
0
  6
Continuous
 62
     7
370
     0
100
AcDbLine
 10
165.0
 20
48.0
 30
0.0
 11
165.0
 21
92.0
 31
0.0
  0
LINE
  5
6D
330
1F
100
AcDbEntity
  8
0
  6
Continuous
 62
     7
370
     0
100
AcDbLine
 10
181.0
 20
92.0
 30
0.0
 11
181.0
 21
48.0
 31
0.0
  0
LINE
  5
6E
330
1F
100
AcDbEntity
  8
0
  6
Continuous
 62
     7
370
     0
100
AcDbLine
 10
196.0
 20
92.0
 30
0.0
 11
196.0
 21
48.0
 31
0.0
  0
LINE
  5
6F
330
1F
100
AcDbEntity
  8
0
  6
Continuous
 62
     7
370
     0
100
AcDbLine
 10
158.0
 20
52.0
 30
0.0
 11
158.0
 21
48.0
 31
0.0
  0
LINE
  5
70
330
1F
100
AcDbEntity
  8
0
  6
Continuous
 62
     7
370
     0
100
AcDbLine
 10
158.0
 20
48.0
 30
0.0
 11
292.0
 21
48.0
 31
0.0
  0
LINE
  5
71
330
1F
100
AcDbEntity
  8
0
  6
Continuous
 62
     7
370
     0
100
AcDbLine
 10
292.0
 20
24.0
 30
0.0
 11
158.0
 21
24.0
 31
0.0
  0
LINE
  5
72
330
1F
100
AcDbEntity
  8
0
  6
Continuous
 62
     7
370
     0
100
AcDbLine
 10
158.0
 20
24.0
 30
0.0
 11
158.0
 21
16.0
 31
0.0
  0
LINE
  5
73
330
1F
100
AcDbEntity
  8
0
  6
Continuous
 62
     7
370
     0
100
AcDbLine
 10
284.0
 20
24.0
 30
0.0
 11
284.0
 21
16.0
 31
0.0
  0
LINE
  5
74
330
1F
100
AcDbEntity
  8
0
  6
Continuous
 62
     7
370
     0
100
AcDbLine
 10
292.0
 20
32.0
 30
0.0
 11
158.0
 21
32.0
 31
0.0
  0
LINE
  5
75
330
1F
100
AcDbEntity
  8
0
  6
Continuous
 62
     7
370
     0
100
AcDbLine
 10
275.0
 20
24.0
 30
0.0
 11
275.0
 21
16.0
 31
0.0
  0
LINE
  5
76
330
1F
100
AcDbEntity
  8
0
  6
Continuous
 62
     7
370
     0
100
AcDbLine
 10
158.0
 20
32.0
 30
0.0
 11
158.0
 21
24.0
 31
0.0
  0
LINE
  5
77
330
1F
100
AcDbEntity
  8
0
  6
Continuous
 62
     7
370
     0
100
AcDbLine
 10
264.0
 20
24.0
 30
0.0
 11
264.0
 21
16.0
 31
0.0
  0
LINE
  5
78
330
1F
100
AcDbEntity
  8
0
  6
Continuous
 62
     7
370
     0
100
AcDbLine
 10
158.0
 20
40.0
 30
0.0
 11
158.0
 21
48.0
 31
0.0
  0
LINE
  5
79
330
1F
100
AcDbEntity
  8
0
  6
Continuous
 62
     7
370
     0
100
AcDbLine
 10
292.0
 20
40.0
 30
0.0
 11
158.0
 21
40.0
 31
0.0
  0
LINE
  5
7A
330
1F
100
AcDbEntity
  8
0
  6
Continuous
 62
     7
370
     0
100
AcDbLine
 10
158.0
 20
40.0
 30
0.0
 11
158.0
 21
32.0
 31
0.0
  0
LINE
  5
7B
330
1F
100
AcDbEntity
  8
0
  6
Continuous
 62
     7
370
     0
100
AcDbLine
 10
45.0
 20
9.0
 30
0.0
 11
45.0
 21
5.0
 31
0.0
  0
LINE
  5
7C
330
1F
100
AcDbEntity
  8
0
  6
Continuous
 62
     7
370
     0
100
AcDbLine
 10
226.0
 20
24.0
 30
0.0
 11
226.0
 21
32.0
 31
0.0
  0
LINE
  5
7D
330
1F
100
AcDbEntity
  8
0
  6
Continuous
 62
     7
370
     0
100
AcDbLine
 10
226.0
 20
32.0
 30
0.0
 11
226.0
 21
40.0
 31
0.0
  0
LINE
  5
7E
330
1F
100
AcDbEntity
  8
0
  6
Continuous
 62
     7
370
     0
100
AcDbLine
 10
181.0
 20
48.0
 30
0.0
 11
181.0
 21
40.0
 31
0.0
  0
LINE
  5
7F
330
1F
100
AcDbEntity
  8
0
  6
Continuous
 62
     7
370
     0
100
AcDbLine
 10
226.0
 20
40.0
 30
0.0
 11
226.0
 21
48.0
 31
0.0
  0
LINE
  5
80
330
1F
100
AcDbEntity
  8
0
  6
Continuous
 62
     7
370
     0
100
AcDbLine
 10
5.0
 20
9.0
 30
0.0
 11
137.0
 21
9.0
 31
0.0
  0
LINE
  5
81
330
1F
100
AcDbEntity
  8
0
  6
Continuous
 62
     7
370
     0
100
AcDbLine
 10
218.0
 20
24.0
 30
0.0
 11
218.0
 21
16.0
 31
0.0
  0
LINE
  5
82
330
1F
100
AcDbEntity
  8
0
  6
Continuous
 62
     7
370
     0
100
AcDbLine
 10
62.0
 20
9.0
 30
0.0
 11
62.0
 21
5.0
 31
0.0
  0
LINE
  5
83
330
1F
100
AcDbEntity
  8
0
  6
Continuous
 62
     7
370
     0
100
AcDbLine
 10
158.0
 20
16.0
 30
0.0
 11
137.0
 21
16.0
 31
0.0
  0
LINE
  5
84
330
1F
100
AcDbEntity
  8
0
  6
Continuous
 62
     7
370
     0
100
AcDbLine
 10
137.0
 20
16.0
 30
0.0
 11
137.0
 21
5.0
 31
0.0
  0
INSERT
  5
85
330
1F
100
AcDbEntity
  8
0
  6
Continuous
 62
     7
100
AcDbBlockReference
  2
Block1
 10
158.1680972023
 20
10.5167489056
 30
0.0
 41
0.3
 42
0.3
 43
0.3
  0
MTEXT
  5
87
330
1F
100
AcDbEntity
  8
0
  6
Continuous
 62
     7
370
     0
100
AcDbMText
 10
159.0397128965
 20
10.7867115744
 30
0.0
 40
3.7041666667
 41
0.0
 71
     1
 72
     1
  1
VC-Dot 9 Clip
  7
SLDTEXTSTYLE0
 73
     1
 44
1.0
  0
MTEXT
  5
88
330
1F
100
AcDbEntity
  8
0
  6
Continuous
 62
     7
370
     0
100
AcDbMText
 10
174.0045043812
 20
14.8636152349
 30
0.0
 40
2.1166666667
 41
0.0
 71
     1
 72
     1
  1
( Model in view  VC-Dot 9 Clip )
  7
SLDTEXTSTYLE0
 73
     1
 44
1.0
  0
MTEXT
  5
89
330
1F
100
AcDbEntity
  8
0
  6
Continuous
 62
     7
370
     0
100
AcDbMText
 10
166.0148453596
 20
54.8970280469
 30
0.0
 40
2.1166666667
 41
0.0
 71
     1
 72
     1
  1
17.01.2013
  7
SLDTEXTSTYLE0
 73
     1
 44
1.0
  0
MTEXT
  5
8A
330
1F
100
AcDbEntity
  8
0
  6
Continuous
 62
     7
370
     0
100
AcDbMText
 10
164.0693384113
 20
54.8650350643
 30
0.0
 40
2.1166666667
 41
0.0
 71
     3
 72
     1
  1
A
  7
SLDTEXTSTYLE0
 73
     1
 44
1.0
  0
MTEXT
  5
8B
330
1F
100
AcDbEntity
  8
0
  6
Continuous
 62
     7
370
     0
100
AcDbMText
 10
182.0155508143
 20
54.89166144
 30
0.0
 40
2.1166666667
 41
0.0
 71
     1
 72
     1
  1
rd_lto
  7
SLDTEXTSTYLE0
 73
     1
 44
1.0
  0
MTEXT
  5
8C
330
1F
100
AcDbEntity
  8
0
  6
Continuous
 62
     7
370
     0
100
AcDbMText
 10
197.0263582806
 20
54.8991784774
 30
0.0
 40
2.1166666667
 41
0.0
 71
     1
 72
     1
  1
DWG with dimensions
  7
SLDTEXTSTYLE0
 73
     1
 44
1.0
  0
MTEXT
  5
8D
330
1F
100
AcDbEntity
  8
0
  6
Continuous
 62
     7
370
     0
100
AcDbMText
 10
260.0195528939
 20
14.875506494
 30
0.0
 40
2.1166666667
 41
0.0
 71
     1
 72
     1
  1
Item no.-Rev.
  7
SLDTEXTSTYLE0
 73
     1
 44
1.0
  0
MTEXT
  5
8E
330
1F
100
AcDbEntity
  8
0
  6
Continuous
 62
     7
370
     0
100
AcDbMText
 10
159.0497256728
 20
14.8616067797
 30
0.0
 40
2.1166666667
 41
0.0
 71
     1
 72
     1
  1
Description
  7
SLDTEXTSTYLE0
 73
     1
 44
1.0
  0
MTEXT
  5
8F
330
1F
100
AcDbEntity
  8
0
  6
Continuous
 62
     7
370
     0
100
AcDbMText
 10
159.0507266084
 20
50.8655186508
 30
0.0
 40
2.1166666667
 41
0.0
 71
     1
 72
     1
  1
Rev.
  7
SLDTEXTSTYLE0
 73
     1
 44
1.0
  0
MTEXT
  5
90
330
1F
100
AcDbEntity
  8
0
  6
Continuous
 62
     7
370
     0
100
AcDbMText
 10
166.0464130368
 20
50.8605682737
 30
0.0
 40
2.1166666667
 41
0.0
 71
     1
 72
     1
  1
Date
  7
SLDTEXTSTYLE0
 73
     1
 44
1.0
  0
MTEXT
  5
91
330
1F
100
AcDbEntity
  8
0
  6
Continuous
 62
     7
370
     0
100
AcDbMText
 10
182.0003502122
 20
50.8722486765
 30
0.0
 40
2.1166666667
 41
0.0
 71
     1
 72
     1
  1
Resp.
  7
SLDTEXTSTYLE0
 73
     1
 44
1.0
  0
MTEXT
  5
92
330
1F
100
AcDbEntity
  8
0
  6
Continuous
 62
     7
370
     0
100
AcDbMText
 10
197.0044931273
 20
50.8975576356
 30
0.0
 40
2.1166666667
 41
0.0
 71
     1
 72
     1
  1
CO no. / Comment
  7
SLDTEXTSTYLE0
 73
     1
 44
1.0
  0
MTEXT
  5
93
330
1F
100
AcDbEntity
  8
0
  6
Continuous
 62
     7
370
     0
100
AcDbMText
 10
227.0465620163
 20
27.8356211999
 30
0.0
 40
2.6458333333
 41
0.0
 71
     1
 72
     1
  1
General angular tolerance
  7
SLDTEXTSTYLE0
 73
     1
 44
1.0
  0
MTEXT
  5
94
330
1F
100
AcDbEntity
  8
0
  6
Continuous
 62
     7
370
     0
100
AcDbMText
 10
227.0722373349
 20
35.8416631901
 30
0.0
 40
2.6458333333
 41
0.0
 71
     1
 72
     1
  1
General linear tolerance
  7
SLDTEXTSTYLE0
 73
     1
 44
1.0
  0
MTEXT
  5
95
330
1F
100
AcDbEntity
  8
0
  6
Continuous
 62
     7
370
     0
100
AcDbMText
 10
285.0128347624
 20
19.8819295313
 30
0.0
 40
2.6458333333
 41
0.0
 71
     1
 72
     1
  1
mm
  7
SLDTEXTSTYLE0
 73
     1
 44
1.0
  0
MTEXT
  5
96
330
1F
100
AcDbEntity
  8
0
  6
Continuous
 62
     7
370
     0
100
AcDbMText
 10
285.0005344945
 20
22.9061668721
 30
0.0
 40
2.1166666667
 41
0.0
 71
     1
 72
     1
  1
Unit
  7
SLDTEXTSTYLE0
 73
     1
 44
1.0
  0
MTEXT
  5
97
330
1F
100
AcDbEntity
  8
0
  6
Continuous
 62
     7
370
     0
100
AcDbMText
 10
276.0068093485
 20
22.8951776109
 30
0.0
 40
2.1166666667
 41
0.0
 71
     1
 72
     1
  1
Scale
  7
SLDTEXTSTYLE0
 73
     1
 44
1.0
  0
MTEXT
  5
98
330
1F
100
AcDbEntity
  8
0
  6
Continuous
 62
     7
370
     0
100
AcDbMText
 10
265.0537188451
 20
22.9019648142
 30
0.0
 40
2.1166666667
 41
0.0
 71
     1
 72
     1
  1
Format
  7
SLDTEXTSTYLE0
 73
     1
 44
1.0
  0
MTEXT
  5
99
330
1F
100
AcDbEntity
  8
0
  6
Continuous
 62
     7
370
     0
100
AcDbMText
 10
265.00761574
 20
19.8532430107
 30
0.0
 40
2.6458333333
 41
0.0
 71
     1
 72
     1
  1
A4
  7
SLDTEXTSTYLE0
 73
     1
 44
1.0
  0
MTEXT
  5
9A
330
1F
100
AcDbEntity
  8
0
  6
Continuous
 62
     7
370
     0
100
AcDbMText
 10
276.0303918319
 20
19.878576914
 30
0.0
 40
2.6458333333
 41
0.0
 71
     1
 72
     1
  1
1:1
  7
SLDTEXTSTYLE0
 73
     1
 44
1.0
  0
MTEXT
  5
9B
330
1F
100
AcDbEntity
  8
0
  6
Continuous
 62
     7
370
     0
100
AcDbMText
 10
219.0413099722
 20
22.8669444657
 30
0.0
 40
2.1166666667
 41
0.0
 71
     1
 72
     1
  1
Color
  7
SLDTEXTSTYLE0
 73
     1
 44
1.0
  0
MTEXT
  5
9C
330
1F
100
AcDbEntity
  8
0
  6
Continuous
 62
     7
370
     0
100
AcDbMText
 10
159.0186073411
 20
38.8697590328
 30
0.0
 40
2.1166666667
 41
0.0
 71
     1
 72
     1
  1
Item to be
  7
SLDTEXTSTYLE0
 73
     1
 44
1.0
  0
MTEXT
  5
9D
330
1F
100
AcDbEntity
  8
0
  6
Continuous
 62
     7
370
     0
100
AcDbMText
 10
159.0556880974
 20
22.8843659268
 30
0.0
 40
2.1166666667
 41
0.0
 71
     1
 72
     1
  1
Item to be
  7
SLDTEXTSTYLE0
 73
     1
 44
1.0
  0
MTEXT
  5
9E
330
1F
100
AcDbEntity
  8
0
  6
Continuous
 62
     7
370
     0
100
AcDbMText
 10
159.053662918
 20
30.882367682
 30
0.0
 40
2.1166666667
 41
0.0
 71
     1
 72
     1
  1
Item to be
  7
SLDTEXTSTYLE0
 73
     1
 44
1.0
  0
MTEXT
  5
A0
330
1F
100
AcDbEntity
  8
0
  6
Continuous
 62
     7
370
     0
100
AcDbMText
 10
159.0186073411
 20
46.0208132974
 30
0.0
 40
4.2333333333
 41
0.0
 71
     1
 72
     1
  1
Martin™
  7
SLDTEXTSTYLE1
 73
     1
 44
1.0
  0
MTEXT
  5
A1
330
1F
100
AcDbEntity
  8
0
  6
Continuous
 62
     7
370
     0
100
AcDbMText
 10
182.0140847938
 20
46.881235963
 30
0.0
 40
2.1166666667
 41
0.0
 71
     1
 72
     1
  1
First used in
  7
SLDTEXTSTYLE0
 73
     1
 44
1.0
  0
MTEXT
  5
A2
330
1F
100
AcDbEntity
  8
0
  6
Continuous
 62
     7
370
     0
100
AcDbMText
 10
227.0259354311
 20
46.90038463
 30
0.0
 40
2.1166666667
 41
0.0
 71
     1
 72
     1
  1
Material
  7
SLDTEXTSTYLE0
 73
     1
 44
1.0
  0
MTEXT
  5
A3
330
1F
100
AcDbEntity
  8
0
  6
Continuous
 62
     7
370
     0
100
AcDbMText
 10
5.6845616295
 20
8.3299587299
 30
0.0
 40
2.1166666667
 41
0.0
 71
     1
 72
     1
  1
© 2012 Martin Professional A/S
  7
SLDTEXTSTYLE0
 73
     1
 44
1.0
  0
MTEXT
  5
A4
330
1F
100
AcDbEntity
  8
0
  6
Continuous
 62
     7
370
     0
100
AcDbMText
 10
62.9170559469
 20
8.2691953536
 30
0.0
 40
2.1166666667
 41
0.0
 71
     1
 72
     1
  1
Martin™ General Technical Specification apply to this item
  7
SLDTEXTSTYLE1
 73
     1
 44
1.0
  0
MTEXT
  5
A5
330
1F
100
AcDbEntity
  8
0
  6
Continuous
 62
     7
370
     0
100
AcDbMText
 10
45.9312004564
 20
8.3299587299
 30
0.0
 40
2.1166666667
 41
0.0
 71
     1
 72
     1
  1
Confidential
  7
SLDTEXTSTYLE0
 73
     1
 44
1.0
  0
LINE
  5
A6
330
1F
100
AcDbEntity
  8
0
  6
Continuous
 62
     7
370
    15
100
AcDbLine
 10
89.3347072585
 20
162.6654130057
 30
0.0
 11
50.3347064538
 21
162.6654130057
 31
0.0
  0
LINE
  5
A7
330
1F
100
AcDbEntity
  8
0
  6
Continuous
 62
     7
370
    15
100
AcDbLine
 10
50.3347064538
 20
162.6654130057
 30
0.0
 11
50.3347064538
 21
163.1654130877
 31
0.0
  0
LINE
  5
A8
330
1F
100
AcDbEntity
  8
0
  6
Continuous
 62
     7
370
    15
100
AcDbLine
 10
50.3347064538
 20
163.1654130877
 30
0.0
 11
89.3347072585
 21
163.1654130877
 31
0.0
  0
LINE
  5
A9
330
1F
100
AcDbEntity
  8
0
  6
Continuous
 62
     7
370
    15
100
AcDbLine
 10
89.3347072585
 20
162.6654130057
 30
0.0
 11
89.3347072585
 21
163.1654130877
 31
0.0
  0
LINE
  5
AA
330
1F
100
AcDbEntity
  8
0
  6
Continuous
 62
     7
370
    15
100
AcDbLine
 10
50.3347064538
 20
171.3654127787
 30
0.0
 11
50.3347064538
 21
163.1654130877
 31
0.0
  0
LINE
  5
AB
330
1F
100
AcDbEntity
  8
0
  6
Continuous
 62
     7
370
    15
100
AcDbLine
 10
49.8347073032
 20
163.1654130877
 30
0.0
 11
50.3347064538
 21
163.1654130877
 31
0.0
  0
LINE
  5
AC
330
1F
100
AcDbEntity
  8
0
  6
Continuous
 62
     7
370
    15
100
AcDbLine
 10
49.8347073032
 20
163.1654130877
 30
0.0
 11
49.8347073032
 21
171.8654127442
 31
0.0
  0
LWPOLYLINE
  5
AD
330
1F
100
AcDbEntity
  8
0
  6
Continuous
 62
     7
370
    15
100
AcDbPolyline
 90
        9
 70
   128
 43
0.0
 10
50.3347064538
 20
171.3654127787
 10
50.23716159
 20
171.4629579917
 10
50.1433643682
 20
171.556754515
 10
50.0569208695
 20
171.6431978973
 10
49.9811540528
 20
171.7189662275
 10
49.9189715071
 20
171.781147609
 10
49.8727667315
 20
171.827352501
 10
49.8443148269
 20
171.8558054534
 10
49.8347073032
 20
171.8654127442
  0
LINE
  5
AE
330
1F
100
AcDbEntity
  8
0
  6
Continuous
 62
     7
370
    15
100
AcDbLine
 10
89.3347072585
 20
163.1654130877
 30
0.0
 11
89.3347072585
 21
171.3654127787
 31
0.0
  0
LINE
  5
AF
330
1F
100
AcDbEntity
  8
0
  6
Continuous
 62
     7
370
    15
100
AcDbLine
 10
89.3347072585
 20
171.3654127787
 30
0.0
 11
50.3347064538
 21
171.3654127787
 31
0.0
  0
LWPOLYLINE
  5
B0
330
1F
100
AcDbEntity
  8
0
  6
Continuous
 62
     7
370
    15
100
AcDbPolyline
 90
        9
 70
   128
 43
0.0
 10
89.3347072585
 20
171.3654127787
 10
89.4322521223
 20
171.4629579917
 10
89.5260474814
 20
171.556754515
 10
89.6124909802
 20
171.6431978973
 10
89.6882596595
 20
171.7189662275
 10
89.7504422052
 20
171.781147609
 10
89.7966469808
 20
171.827352501
 10
89.8250988854
 20
171.8558054534
 10
89.8347064091
 20
171.8654127442
  0
LINE
  5
B1
330
1F
100
AcDbEntity
  8
0
  6
Continuous
 62
     7
370
    15
100
AcDbLine
 10
89.8347064091
 20
171.8654127442
 30
0.0
 11
89.8347064091
 21
163.1654130877
 31
0.0
  0
LINE
  5
B2
330
1F
100
AcDbEntity
  8
0
  6
Continuous
 62
     7
370
    15
100
AcDbLine
 10
89.3347072585
 20
163.1654130877
 30
0.0
 11
89.8347064091
 21
163.1654130877
 31
0.0
  0
LINE
  5
B3
330
1F
100
AcDbEntity
  8
0
  6
Continuous
 62
     7
370
    15
100
AcDbLine
 10
49.8347073032
 20
171.8654127442
 30
0.0
 11
89.8347064091
 21
171.8654127442
 31
0.0
  0
ARC
  5
B4
330
1F
100
AcDbEntity
  8
0
  6
Continuous
 62
     7
370
    15
100
AcDbCircle
 10
50.3347065358
 20
163.1654127847
 30
0.0
 40
0.5
100
AcDbArc
 50
180.0
 51
270.0
  0
ARC
  5
B5
330
1F
100
AcDbEntity
  8
0
  6
Continuous
 62
     7
370
    15
100
AcDbCircle
 10
89.3347065358
 20
163.1654127847
 30
0.0
 40
0.5
100
AcDbArc
 50
270.0
 51
0.0
  0
LINE
  5
B6
330
1F
100
AcDbEntity
  8
0
  6
Continuous
 62
     7
370
    15
100
AcDbLine
 10
89.3347072585
 20
162.6654130057
 30
0.0
 11
90.3347074224
 21
162.6654130057
 31
0.0
  0
LINE
  5
B7
330
1F
100
AcDbEntity
  8
0
  6
Continuous
 62
     7
370
    15
100
AcDbLine
 10
95.0347068889
 20
162.6654130057
 30
0.0
 11
90.3347074224
 21
162.6654130057
 31
0.0
  0
LINE
  5
B8
330
1F
100
AcDbEntity
  8
0
  6
Continuous
 62
     7
370
    15
100
AcDbLine
 10
49.3347062899
 20
162.6654130057
 30
0.0
 11
44.6347068234
 21
162.6654130057
 31
0.0
  0
LINE
  5
B9
330
1F
100
AcDbEntity
  8
0
  6
Continuous
 62
     7
370
    15
100
AcDbLine
 10
49.3347062899
 20
162.6654130057
 30
0.0
 11
50.3347064538
 21
162.6654130057
 31
0.0
  0
LINE
  5
BA
330
1F
100
AcDbEntity
  8
0
  6
Continuous
 62
     7
370
    15
100
AcDbLine
 10
94.034706725
 20
165.6654125661
 30
0.0
 11
90.3347074224
 21
165.6654125661
 31
0.0
  0
LINE
  5
BB
330
1F
100
AcDbEntity
  8
0
  6
Continuous
 62
     7
370
    15
100
AcDbLine
 10
89.8347064091
 20
165.6654125661
 30
0.0
 11
90.3347074224
 21
165.6654125661
 31
0.0
  0
LINE
  5
BC
330
1F
100
AcDbEntity
  8
0
  6
Continuous
 62
     7
370
    15
100
AcDbLine
 10
49.3347062899
 20
165.6654125661
 30
0.0
 11
49.8347073032
 21
165.6654125661
 31
0.0
  0
LINE
  5
BD
330
1F
100
AcDbEntity
  8
0
  6
Continuous
 62
     7
370
    15
100
AcDbLine
 10
49.3347062899
 20
165.6654125661
 30
0.0
 11
45.6347069873
 21
165.6654125661
 31
0.0
  0
LINE
  5
BE
330
1F
100
AcDbEntity
  8
0
  6
Continuous
 62
     7
370
    15
100
AcDbLine
 10
49.8347073032
 20
163.1654130877
 30
0.0
 11
49.3347062899
 21
163.1654130877
 31
0.0
  0
LINE
  5
BF
330
1F
100
AcDbEntity
  8
0
  6
Continuous
 62
     7
370
    15
100
AcDbLine
 10
49.3347062899
 20
163.1654130877
 30
0.0
 11
49.3347062899
 21
162.6654130057
 31
0.0
  0
LINE
  5
C0
330
1F
100
AcDbEntity
  8
0
  6
Continuous
 62
     7
370
    15
100
AcDbLine
 10
90.3347074224
 20
165.6654125661
 30
0.0
 11
90.3347074224
 21
163.1654130877
 31
0.0
  0
LINE
  5
C1
330
1F
100
AcDbEntity
  8
0
  6
Continuous
 62
     7
370
    15
100
AcDbLine
 10
90.3347074224
 20
163.1654130877
 30
0.0
 11
89.8347064091
 21
163.1654130877
 31
0.0
  0
LINE
  5
C2
330
1F
100
AcDbEntity
  8
0
  6
Continuous
 62
     7
370
    15
100
AcDbLine
 10
90.3347074224
 20
162.6654130057
 30
0.0
 11
90.3347074224
 21
163.1654130877
 31
0.0
  0
LINE
  5
C3
330
1F
100
AcDbEntity
  8
0
  6
Continuous
 62
     7
370
    15
100
AcDbLine
 10
49.3347062899
 20
163.1654130877
 30
0.0
 11
49.3347062899
 21
165.6654125661
 31
0.0
  0
LINE
  5
C4
330
1F
100
AcDbEntity
  8
0
  6
Continuous
 62
     7
370
    15
100
AcDbLine
 10
44.6347068234
 20
163.1654130877
 30
0.0
 11
44.6347068234
 21
162.6654130057
 31
0.0
  0
ARC
  5
C5
330
1F
100
AcDbEntity
  8
0
  6
Continuous
 62
     7
370
    15
100
AcDbCircle
 10
44.6347065358
 20
163.1654127847
 30
0.0
 40
0.5
100
AcDbArc
 50
180.0
 51
270.0
  0
LINE
  5
C6
330
1F
100
AcDbEntity
  8
0
  6
Continuous
 62
     7
370
    15
100
AcDbLine
 10
44.6347068234
 20
163.1654130877
 30
0.0
 11
44.1347058101
 21
163.1654130877
 31
0.0
  0
LINE
  5
C7
330
1F
100
AcDbEntity
  8
0
  6
Continuous
 62
     7
370
    15
100
AcDbLine
 10
90.3347074224
 20
163.1654130877
 30
0.0
 11
95.0347068889
 21
163.1654130877
 31
0.0
  0
LINE
  5
C8
330
1F
100
AcDbEntity
  8
0
  6
Continuous
 62
     7
370
    15
100
AcDbLine
 10
95.0347068889
 20
162.6654130057
 30
0.0
 11
95.0347068889
 21
163.1654130877
 31
0.0
  0
LINE
  5
C9
330
1F
100
AcDbEntity
  8
0
  6
Continuous
 62
     7
370
    15
100
AcDbLine
 10
44.6347068234
 20
163.1654130877
 30
0.0
 11
49.3347062899
 21
163.1654130877
 31
0.0
  0
LINE
  5
CA
330
1F
100
AcDbEntity
  8
0
  6
Continuous
 62
     7
370
    15
100
AcDbLine
 10
44.6347068234
 20
166.6654127301
 30
0.0
 11
44.6347068234
 21
163.1654130877
 31
0.0
  0
LINE
  5
CB
330
1F
100
AcDbEntity
  8
0
  6
Continuous
 62
     7
370
    15
100
AcDbLine
 10
45.6347069873
 20
166.6654127301
 30
0.0
 11
44.6347068234
 21
166.6654127301
 31
0.0
  0
LINE
  5
CC
330
1F
100
AcDbEntity
  8
0
  6
Continuous
 62
     7
370
    15
100
AcDbLine
 10
45.6347069873
 20
165.6654125661
 30
0.0
 11
45.6347069873
 21
166.6654127301
 31
0.0
  0
LINE
  5
CD
330
1F
100
AcDbEntity
  8
0
  6
Continuous
 62
     7
370
    15
100
AcDbLine
 10
44.1347058101
 20
163.1654130877
 30
0.0
 11
44.1347058101
 21
166.1654126481
 31
0.0
  0
ARC
  5
CE
330
1F
100
AcDbEntity
  8
0
  6
Continuous
 62
     7
370
    15
100
AcDbCircle
 10
44.6347065358
 20
166.1654127847
 30
0.0
 40
0.5
100
AcDbArc
 50
90.0
 51
180.0
  0
LINE
  5
CF
330
1F
100
AcDbEntity
  8
0
  6
Continuous
 62
     7
370
    15
100
AcDbLine
 10
95.0347068889
 20
166.6654127301
 30
0.0
 11
94.034706725
 21
166.6654127301
 31
0.0
  0
LINE
  5
D0
330
1F
100
AcDbEntity
  8
0
  6
Continuous
 62
     7
370
    15
100
AcDbLine
 10
94.034706725
 20
166.6654127301
 30
0.0
 11
94.034706725
 21
165.6654125661
 31
0.0
  0
LINE
  5
D1
330
1F
100
AcDbEntity
  8
0
  6
Continuous
 62
     7
370
    15
100
AcDbLine
 10
95.0347068889
 20
163.1654130877
 30
0.0
 11
95.0347068889
 21
166.6654127301
 31
0.0
  0
LINE
  5
D2
330
1F
100
AcDbEntity
  8
0
  6
Continuous
 62
     7
370
    15
100
AcDbLine
 10
95.5347060396
 20
166.1654126481
 30
0.0
 11
95.5347060396
 21
163.1654130877
 31
0.0
  0
LINE
  5
D3
330
1F
100
AcDbEntity
  8
0
  6
Continuous
 62
     7
370
    15
100
AcDbLine
 10
95.5347060396
 20
163.1654130877
 30
0.0
 11
95.0347068889
 21
163.1654130877
 31
0.0
  0
ARC
  5
D4
330
1F
100
AcDbEntity
  8
0
  6
Continuous
 62
     7
370
    15
100
AcDbCircle
 10
95.0347065358
 20
166.1654127847
 30
0.0
 40
0.5
100
AcDbArc
 50
0.0
 51
90.0
  0
ARC
  5
D5
330
1F
100
AcDbEntity
  8
0
  6
Continuous
 62
     7
370
    15
100
AcDbCircle
 10
95.0347065358
 20
163.1654127847
 30
0.0
 40
0.5
100
AcDbArc
 50
270.0
 51
0.0
  0
DIMENSION
  5
D6
330
1F
100
AcDbEntity
  8
0
  6
Continuous
 62
     7
370
     0
100
AcDbDimension
  2
_D
 10
95.5347065358
 20
150.6654127847
 30
0.0
 11
69.8347065358
 21
150.6654127847
 31
0.0
 70
   160
  1
<>
 71
     2
 42
-1.0
  3
SLDDIMSTYLE0
100
AcDbAlignedDimension
 13
44.1347065358
 23
163.1654127847
 33
0.0
 14
95.5347065358
 24
163.1654127847
 34
0.0
100
AcDbRotatedDimension
  0
DIMENSION
  5
E1
330
1F
100
AcDbEntity
  8
0
  6
Continuous
 62
     7
370
     0
100
AcDbDimension
  2
_D_1
 10
32.1347065358
 20
171.8654127847
 30
0.0
 11
32.1347065358
 21
167.2654127847
 31
0.0
 70
   160
  1
<>
 71
     2
 42
-1.0
  3
SLDDIMSTYLE1
100
AcDbAlignedDimension
 13
44.6347065358
 23
162.6654127847
 33
0.0
 14
49.8347065358
 24
171.8654127847
 34
0.0
 50
90.0
100
AcDbRotatedDimension
  0
ARC
  5
EE
330
1F
100
AcDbEntity
  8
0
  6
Continuous
 62
     7
370
    15
100
AcDbCircle
 10
89.3347065358
 20
119.5574780059
 30
0.0
 40
0.5
100
AcDbArc
 50
0.0
 51
90.0
  0
LINE
  5
EF
330
1F
100
AcDbEntity
  8
0
  6
Continuous
 62
     7
370
    15
100
AcDbLine
 10
89.8347064091
 20
119.5574775469
 30
0.0
 11
49.8347073032
 21
119.5574775469
 31
0.0
  0
ARC
  5
F0
330
1F
100
AcDbEntity
  8
0
  6
Continuous
 62
     7
370
    15
100
AcDbCircle
 10
50.3347065358
 20
119.5574780059
 30
0.0
 40
0.5
100
AcDbArc
 50
90.0
 51
180.0
  0
LINE
  5
F1
330
1F
100
AcDbEntity
  8
0
  6
Continuous
 62
     7
370
    15
100
AcDbLine
 10
50.3347064538
 20
120.0574785602
 30
0.0
 11
89.3347072585
 21
120.0574785602
 31
0.0
  0
LINE
  5
F2
330
1F
100
AcDbEntity
  8
0
  6
Continuous
 62
     7
370
    15
100
AcDbLine
 10
49.8347073032
 20
119.5574775469
 30
0.0
 11
49.8347073032
 21
118.4574775529
 31
0.0
  0
LINE
  5
F3
330
1F
100
AcDbEntity
  8
0
  6
Continuous
 62
     7
370
    15
100
AcDbLine
 10
49.8347073032
 20
118.4574775529
 30
0.0
 11
49.8347073032
 21
117.6574789119
 31
0.0
  0
LINE
  5
F4
330
1F
100
AcDbEntity
  8
0
  6
Continuous
 62
     7
370
    15
100
AcDbLine
 10
49.8347073032
 20
117.6574789119
 30
0.0
 11
49.8347073032
 21
103.85747814
 31
0.0
  0
LINE
  5
F5
330
1F
100
AcDbEntity
  8
0
  6
Continuous
 62
     7
370
    15
100
AcDbLine
 10
89.8347064091
 20
118.4574775529
 30
0.0
 11
89.8347064091
 21
117.6574789119
 31
0.0
  0
LINE
  5
F6
330
1F
100
AcDbEntity
  8
0
  6
Continuous
 62
     7
370
    15
100
AcDbLine
 10
89.8347064091
 20
119.5574775469
 30
0.0
 11
89.8347064091
 21
118.4574775529
 31
0.0
  0
LINE
  5
F7
330
1F
100
AcDbEntity
  8
0
  6
Continuous
 62
     7
370
    15
100
AcDbLine
 10
89.8347064091
 20
117.6574789119
 30
0.0
 11
89.8347064091
 21
103.85747814
 31
0.0
  0
LINE
  5
F8
330
1F
100
AcDbEntity
  8
0
  6
Continuous
 62
     7
370
    15
100
AcDbLine
 10
89.8347064091
 20
118.4574775529
 30
0.0
 11
49.8347073032
 21
118.4574775529
 31
0.0
  0
LINE
  5
F9
330
1F
100
AcDbEntity
  8
0
  6
Continuous
 62
     7
370
    15
100
AcDbLine
 10
89.8347064091
 20
117.6574789119
 30
0.0
 11
49.8347073032
 21
117.6574789119
 31
0.0
  0
LINE
  5
FA
330
1F
100
AcDbEntity
  8
0
  6
Continuous
 62
     7
370
    15
100
AcDbLine
 10
49.8347073032
 20
90.8574778718
 30
0.0
 11
49.8347073032
 21
77.0574770999
 31
0.0
  0
LINE
  5
FB
330
1F
100
AcDbEntity
  8
0
  6
Continuous
 62
     7
370
    15
100
AcDbLine
 10
49.8347073032
 20
77.0574770999
 30
0.0
 11
49.8347073032
 21
76.2574784589
 31
0.0
  0
LINE
  5
FC
330
1F
100
AcDbEntity
  8
0
  6
Continuous
 62
     7
370
    15
100
AcDbLine
 10
49.8347073032
 20
76.2574784589
 30
0.0
 11
49.8347073032
 21
75.1574784648
 31
0.0
  0
LINE
  5
FD
330
1F
100
AcDbEntity
  8
0
  6
Continuous
 62
     7
370
    15
100
AcDbLine
 10
89.8347064091
 20
76.2574784589
 30
0.0
 11
89.8347064091
 21
75.1574784648
 31
0.0
  0
LINE
  5
FE
330
1F
100
AcDbEntity
  8
0
  6
Continuous
 62
     7
370
    15
100
AcDbLine
 10
89.8347064091
 20
77.0574770999
 30
0.0
 11
89.8347064091
 21
76.2574784589
 31
0.0
  0
LINE
  5
FF
330
1F
100
AcDbEntity
  8
0
  6
Continuous
 62
     7
370
    15
100
AcDbLine
 10
89.8347064091
 20
90.8574778718
 30
0.0
 11
89.8347064091
 21
77.0574770999
 31
0.0
  0
LINE
  5
100
330
1F
100
AcDbEntity
  8
0
  6
Continuous
 62
     7
370
    15
100
AcDbLine
 10
89.8347064091
 20
77.0574770999
 30
0.0
 11
49.8347073032
 21
77.0574770999
 31
0.0
  0
LINE
  5
101
330
1F
100
AcDbEntity
  8
0
  6
Continuous
 62
     7
370
    15
100
AcDbLine
 10
89.8347064091
 20
76.2574784589
 30
0.0
 11
49.8347073032
 21
76.2574784589
 31
0.0
  0
LINE
  5
102
330
1F
100
AcDbEntity
  8
0
  6
Continuous
 62
     7
370
    15
100
AcDbLine
 10
49.8347073032
 20
75.1574784648
 30
0.0
 11
89.8347064091
 21
75.1574784648
 31
0.0
  0
LINE
  5
103
330
1F
100
AcDbEntity
  8
0
  6
Continuous
 62
     7
370
    15
100
AcDbLine
 10
89.3347072585
 20
74.6574774515
 30
0.0
 11
50.3347064538
 21
74.6574774515
 31
0.0
  0
ARC
  5
104
330
1F
100
AcDbEntity
  8
0
  6
Continuous
 62
     7
370
    15
100
AcDbCircle
 10
50.3347065358
 20
75.1574780059
 30
0.0
 40
0.5
100
AcDbArc
 50
180.0
 51
270.0
  0
ARC
  5
105
330
1F
100
AcDbEntity
  8
0
  6
Continuous
 62
     7
370
    15
100
AcDbCircle
 10
89.3347065358
 20
75.1574780059
 30
0.0
 40
0.5
100
AcDbArc
 50
270.0
 51
0.0
  0
LINE
  5
106
330
1F
100
AcDbEntity
  8
0
  6
Continuous
 62
     7
370
    15
100
AcDbLine
 10
94.034706725
 20
91.3574779537
 30
0.0
 11
94.034706725
 21
103.357478058
 31
0.0
  0
LINE
  5
107
330
1F
100
AcDbEntity
  8
0
  6
Continuous
 62
     7
370
    15
100
AcDbLine
 10
95.0347068889
 20
103.357478058
 30
0.0
 11
94.034706725
 21
103.357478058
 31
0.0
  0
LINE
  5
108
330
1F
100
AcDbEntity
  8
0
  6
Continuous
 62
     7
370
    15
100
AcDbLine
 10
94.034706725
 20
103.357478058
 30
0.0
 11
90.3347074224
 21
103.357478058
 31
0.0
  0
LINE
  5
109
330
1F
100
AcDbEntity
  8
0
  6
Continuous
 62
     7
370
    15
100
AcDbLine
 10
95.0347068889
 20
91.3574779537
 30
0.0
 11
95.0347068889
 21
103.357478058
 31
0.0
  0
LINE
  5
10A
330
1F
100
AcDbEntity
  8
0
  6
Continuous
 62
     7
370
    15
100
AcDbLine
 10
95.0347068889
 20
91.3574779537
 30
0.0
 11
94.034706725
 21
91.3574779537
 31
0.0
  0
LINE
  5
10B
330
1F
100
AcDbEntity
  8
0
  6
Continuous
 62
     7
370
    15
100
AcDbLine
 10
95.5347060396
 20
102.8574779761
 30
0.0
 11
95.5347060396
 21
91.8574780357
 31
0.0
  0
ARC
  5
10C
330
1F
100
AcDbEntity
  8
0
  6
Continuous
 62
     7
370
    15
100
AcDbCircle
 10
95.0347065358
 20
91.8574780059
 30
0.0
 40
0.5
100
AcDbArc
 50
270.0
 51
0.0
  0
ARC
  5
10D
330
1F
100
AcDbEntity
  8
0
  6
Continuous
 62
     7
370
    15
100
AcDbCircle
 10
95.0347065358
 20
102.8574780059
 30
0.0
 40
0.5
100
AcDbArc
 50
0.0
 51
90.0
  0
LINE
  5
10E
330
1F
100
AcDbEntity
  8
0
  6
Continuous
 62
     7
370
    15
100
AcDbLine
 10
49.3347062899
 20
103.357478058
 30
0.0
 11
45.6347069873
 21
103.357478058
 31
0.0
  0
LINE
  5
10F
330
1F
100
AcDbEntity
  8
0
  6
Continuous
 62
     7
370
    15
100
AcDbLine
 10
45.6347069873
 20
103.357478058
 30
0.0
 11
44.6347068234
 21
103.357478058
 31
0.0
  0
LINE
  5
110
330
1F
100
AcDbEntity
  8
0
  6
Continuous
 62
     7
370
    15
100
AcDbLine
 10
45.6347069873
 20
91.3574779537
 30
0.0
 11
45.6347069873
 21
103.357478058
 31
0.0
  0
LINE
  5
111
330
1F
100
AcDbEntity
  8
0
  6
Continuous
 62
     7
370
    15
100
AcDbLine
 10
45.6347069873
 20
91.3574779537
 30
0.0
 11
44.6347068234
 21
91.3574779537
 31
0.0
  0
LINE
  5
112
330
1F
100
AcDbEntity
  8
0
  6
Continuous
 62
     7
370
    15
100
AcDbLine
 10
44.6347068234
 20
103.357478058
 30
0.0
 11
44.6347068234
 21
91.3574779537
 31
0.0
  0
ARC
  5
113
330
1F
100
AcDbEntity
  8
0
  6
Continuous
 62
     7
370
    15
100
AcDbCircle
 10
44.6347065358
 20
102.8574780059
 30
0.0
 40
0.5
100
AcDbArc
 50
90.0
 51
180.0
  0
ARC
  5
114
330
1F
100
AcDbEntity
  8
0
  6
Continuous
 62
     7
370
    15
100
AcDbCircle
 10
44.6347065358
 20
91.8574780059
 30
0.0
 40
0.5
100
AcDbArc
 50
180.0
 51
270.0
  0
LINE
  5
115
330
1F
100
AcDbEntity
  8
0
  6
Continuous
 62
     7
370
    15
100
AcDbLine
 10
44.1347058101
 20
91.8574780357
 30
0.0
 11
44.1347058101
 21
102.8574779761
 31
0.0
  0
LINE
  5
116
330
1F
100
AcDbEntity
  8
0
  6
Continuous
 62
     7
370
    15
100
AcDbLine
 10
94.034706725
 20
91.3574779537
 30
0.0
 11
90.3347074224
 21
91.3574779537
 31
0.0
  0
LINE
  5
117
330
1F
100
AcDbEntity
  8
0
  6
Continuous
 62
     7
370
    15
100
AcDbLine
 10
49.3347062899
 20
91.3574779537
 30
0.0
 11
45.6347069873
 21
91.3574779537
 31
0.0
  0
ARC
  5
118
330
1F
100
AcDbEntity
  8
0
  6
Continuous
 62
     7
370
    15
100
AcDbCircle
 10
90.3347065358
 20
103.8574780059
 30
0.0
 40
0.5
100
AcDbArc
 50
180.0
 51
270.0
  0
ARC
  5
119
330
1F
100
AcDbEntity
  8
0
  6
Continuous
 62
     7
370
    15
100
AcDbCircle
 10
90.3347065358
 20
90.8574780059
 30
0.0
 40
0.5
100
AcDbArc
 50
90.0
 51
180.0
  0
ARC
  5
11A
330
1F
100
AcDbEntity
  8
0
  6
Continuous
 62
     7
370
    15
100
AcDbCircle
 10
49.3347065358
 20
90.8574780059
 30
0.0
 40
0.5
100
AcDbArc
 50
0.0
 51
90.0
  0
ARC
  5
11B
330
1F
100
AcDbEntity
  8
0
  6
Continuous
 62
     7
370
    15
100
AcDbCircle
 10
49.3347065358
 20
103.8574780059
 30
0.0
 40
0.5
100
AcDbArc
 50
270.0
 51
0.0
  0
CIRCLE
  5
11C
330
1F
100
AcDbEntity
  8
0
  6
Continuous
 62
     7
370
    15
100
AcDbCircle
 10
69.8347065358
 20
97.3574780059
 30
0.0
 40
4.100000000000023
  0
CIRCLE
  5
11D
330
1F
100
AcDbEntity
  8
0
  6
Continuous
 62
     7
370
    15
100
AcDbCircle
 10
69.8347065358
 20
97.3574780059
 30
0.0
 40
2.099999999999994
  0
DIMENSION
  5
11E
330
1F
100
AcDbEntity
  8
0
  6
Continuous
 62
     7
370
     0
100
AcDbDimension
  2
_D_2
 10
32.1347065358
 20
120.0574780059
 30
0.0
 11
32.1347065358
 21
97.3574780059
 31
0.0
 70
   160
  1
<>
 71
     2
 42
-1.0
  3
SLDDIMSTYLE0
100
AcDbAlignedDimension
 13
50.3347065358
 23
74.6574780059
 33
0.0
 14
50.3347065358
 24
120.0574780059
 34
0.0
 50
90.0
100
AcDbRotatedDimension
  0
LINE
  5
128
330
1F
100
AcDbEntity
  8
0
  6
Continuous
 62
     7
370
    15
100
AcDbLine
 10
144.6750733436
 20
166.1654126481
 30
0.0
 11
144.6750733436
 21
163.1654130877
 31
0.0
  0
LINE
  5
129
330
1F
100
AcDbEntity
  8
0
  6
Continuous
 62
     7
370
    15
100
AcDbLine
 10
155.675073284
 20
166.1654126481
 30
0.0
 11
144.6750733436
 21
166.1654126481
 31
0.0
  0
LINE
  5
12A
330
1F
100
AcDbEntity
  8
0
  6
Continuous
 62
     7
370
    15
100
AcDbLine
 10
155.675073284
 20
163.1654130877
 30
0.0
 11
155.675073284
 21
166.1654126481
 31
0.0
  0
LINE
  5
12B
330
1F
100
AcDbEntity
  8
0
  6
Continuous
 62
     7
370
    15
100
AcDbLine
 10
144.6750733436
 20
163.1654130877
 30
0.0
 11
155.675073284
 21
163.1654130877
 31
0.0
  0
LINE
  5
12C
330
1F
100
AcDbEntity
  8
0
  6
Continuous
 62
     7
370
    15
100
AcDbLine
 10
144.1750732616
 20
166.6654127301
 30
0.0
 11
156.1750733659
 21
166.6654127301
 31
0.0
  0
LWPOLYLINE
  5
12D
330
1F
100
AcDbEntity
  8
0
  6
Continuous
 62
     7
370
    15
100
AcDbPolyline
 90
       10
 70
   128
 43
0.0
 10
156.1750733659
 20
166.6654127301
 10
156.1674770334
 20
166.6578168631
 10
156.1449194693
 20
166.6352592991
 10
156.1080861271
 20
166.5984254912
 10
156.0580955253
 20
166.5484348894
 10
155.9964671165
 20
166.4868064807
 10
155.925073325
 20
166.4154126891
 10
155.8460832008
 20
166.3364230306
 10
155.761897228
 20
166.2522370578
 10
155.675073284
 20
166.1654126481
  0
LWPOLYLINE
  5
12E
330
1F
100
AcDbEntity
  8
0
  6
Continuous
 62
     7
370
    15
100
AcDbPolyline
 90
        9
 70
   128
 43
0.0
 10
144.1750732616
 20
166.6654127301
 10
144.1846807853
 20
166.6558052064
 10
144.2131336213
 20
166.6273523704
 10
144.2593383969
 20
166.5811475948
 10
144.3215200112
 20
166.5189659805
 10
144.3972882249
 20
166.4431977668
 10
144.4837317236
 20
166.3567547337
 10
144.5775280141
 20
166.2629579776
 10
144.6750733436
 20
166.1654126481
  0
LINE
  5
12F
330
1F
100
AcDbEntity
  8
0
  6
Continuous
 62
     7
370
    15
100
AcDbLine
 10
144.6750733436
 20
163.1654130877
 30
0.0
 11
144.1750732616
 21
163.1654130877
 31
0.0
  0
LINE
  5
130
330
1F
100
AcDbEntity
  8
0
  6
Continuous
 62
     7
370
    15
100
AcDbLine
 10
144.1750732616
 20
163.1654130877
 30
0.0
 11
144.1750732616
 21
166.6654127301
 31
0.0
  0
LINE
  5
131
330
1F
100
AcDbEntity
  8
0
  6
Continuous
 62
     7
370
    15
100
AcDbLine
 10
144.6750733436
 20
163.1654130877
 30
0.0
 11
144.6750733436
 21
162.6654130057
 31
0.0
  0
ARC
  5
132
330
1F
100
AcDbEntity
  8
0
  6
Continuous
 62
     7
370
    15
100
AcDbCircle
 10
144.6750733138
 20
163.1654127847
 30
0.0
 40
0.5
100
AcDbArc
 50
180.0
 51
270.0
  0
LINE
  5
133
330
1F
100
AcDbEntity
  8
0
  6
Continuous
 62
     7
370
    15
100
AcDbLine
 10
155.675073284
 20
163.1654130877
 30
0.0
 11
155.675073284
 21
162.6654130057
 31
0.0
  0
LINE
  5
134
330
1F
100
AcDbEntity
  8
0
  6
Continuous
 62
     7
370
    15
100
AcDbLine
 10
155.675073284
 20
162.6654130057
 30
0.0
 11
144.6750733436
 21
162.6654130057
 31
0.0
  0
ARC
  5
135
330
1F
100
AcDbEntity
  8
0
  6
Continuous
 62
     7
370
    15
100
AcDbCircle
 10
155.6750733138
 20
163.1654127847
 30
0.0
 40
0.5
100
AcDbArc
 50
270.0
 51
0.0
  0
LINE
  5
136
330
1F
100
AcDbEntity
  8
0
  6
Continuous
 62
     7
370
    15
100
AcDbLine
 10
156.1750733659
 20
163.1654130877
 30
0.0
 11
155.675073284
 21
163.1654130877
 31
0.0
  0
LINE
  5
137
330
1F
100
AcDbEntity
  8
0
  6
Continuous
 62
     7
370
    15
100
AcDbLine
 10
156.1750733659
 20
166.6654127301
 30
0.0
 11
156.1750733659
 21
163.1654130877
 31
0.0
  0
LINE
  5
138
330
1F
100
AcDbEntity
  8
0
  6
Continuous
 62
     7
370
    15
100
AcDbLine
 10
143.6750731797
 20
162.6654130057
 30
0.0
 11
127.9750737727
 21
162.6654130057
 31
0.0
  0
LINE
  5
139
330
1F
100
AcDbEntity
  8
0
  6
Continuous
 62
     7
370
    15
100
AcDbLine
 10
143.6750731797
 20
162.6654130057
 30
0.0
 11
144.6750733436
 21
162.6654130057
 31
0.0
  0
LINE
  5
13A
330
1F
100
AcDbEntity
  8
0
  6
Continuous
 62
     7
370
    15
100
AcDbLine
 10
155.675073284
 20
162.6654130057
 30
0.0
 11
156.6750734479
 21
162.6654130057
 31
0.0
  0
LINE
  5
13B
330
1F
100
AcDbEntity
  8
0
  6
Continuous
 62
     7
370
    15
100
AcDbLine
 10
172.3750728548
 20
162.6654130057
 30
0.0
 11
156.6750734479
 21
162.6654130057
 31
0.0
  0
LINE
  5
13C
330
1F
100
AcDbEntity
  8
0
  6
Continuous
 62
     7
370
    15
100
AcDbLine
 10
156.6750734479
 20
165.6654125661
 30
0.0
 11
171.475072521
 21
165.6654125661
 31
0.0
  0
LINE
  5
13D
330
1F
100
AcDbEntity
  8
0
  6
Continuous
 62
     7
370
    15
100
AcDbLine
 10
156.1750733659
 20
165.6654125661
 30
0.0
 11
156.6750734479
 21
165.6654125661
 31
0.0
  0
LINE
  5
13E
330
1F
100
AcDbEntity
  8
0
  6
Continuous
 62
     7
370
    15
100
AcDbLine
 10
143.6750731797
 20
165.6654125661
 30
0.0
 11
144.1750732616
 21
165.6654125661
 31
0.0
  0
LINE
  5
13F
330
1F
100
AcDbEntity
  8
0
  6
Continuous
 62
     7
370
    15
100
AcDbLine
 10
128.8750741065
 20
165.6654125661
 30
0.0
 11
143.6750731797
 21
165.6654125661
 31
0.0
  0
LINE
  5
140
330
1F
100
AcDbEntity
  8
0
  6
Continuous
 62
     7
370
    15
100
AcDbLine
 10
144.1750732616
 20
163.1654130877
 30
0.0
 11
143.6750731797
 21
163.1654130877
 31
0.0
  0
LINE
  5
141
330
1F
100
AcDbEntity
  8
0
  6
Continuous
 62
     7
370
    15
100
AcDbLine
 10
143.6750731797
 20
163.1654130877
 30
0.0
 11
143.6750731797
 21
162.6654130057
 31
0.0
  0
LINE
  5
142
330
1F
100
AcDbEntity
  8
0
  6
Continuous
 62
     7
370
    15
100
AcDbLine
 10
143.6750731797
 20
163.1654130877
 30
0.0
 11
143.6750731797
 21
165.6654125661
 31
0.0
  0
LINE
  5
143
330
1F
100
AcDbEntity
  8
0
  6
Continuous
 62
     7
370
    15
100
AcDbLine
 10
156.6750734479
 20
165.6654125661
 30
0.0
 11
156.6750734479
 21
163.1654130877
 31
0.0
  0
LINE
  5
144
330
1F
100
AcDbEntity
  8
0
  6
Continuous
 62
     7
370
    15
100
AcDbLine
 10
156.6750734479
 20
163.1654130877
 30
0.0
 11
156.1750733659
 21
163.1654130877
 31
0.0
  0
LINE
  5
145
330
1F
100
AcDbEntity
  8
0
  6
Continuous
 62
     7
370
    15
100
AcDbLine
 10
156.6750734479
 20
163.1654130877
 30
0.0
 11
156.6750734479
 21
162.6654130057
 31
0.0
  0
LINE
  5
146
330
1F
100
AcDbEntity
  8
0
  6
Continuous
 62
     7
370
    15
100
AcDbLine
 10
127.9750737727
 20
171.8654127442
 30
0.0
 11
127.9750737727
 21
163.1654130877
 31
0.0
  0
LINE
  5
147
330
1F
100
AcDbEntity
  8
0
  6
Continuous
 62
     7
370
    15
100
AcDbLine
 10
127.9750737727
 20
163.1654130877
 30
0.0
 11
127.4750727595
 21
163.1654130877
 31
0.0
  0
LINE
  5
148
330
1F
100
AcDbEntity
  8
0
  6
Continuous
 62
     7
370
    15
100
AcDbLine
 10
127.4750727595
 20
163.1654130877
 30
0.0
 11
127.4750727595
 21
171.3654127787
 31
0.0
  0
ARC
  5
149
330
1F
100
AcDbEntity
  8
0
  6
Continuous
 62
     7
370
    15
100
AcDbCircle
 10
127.9750733138
 20
171.3654127847
 30
0.0
 40
0.5
100
AcDbArc
 50
90.0
 51
180.0
  0
LINE
  5
14A
330
1F
100
AcDbEntity
  8
0
  6
Continuous
 62
     7
370
    15
100
AcDbLine
 10
127.9750737727
 20
163.1654130877
 30
0.0
 11
127.9750737727
 21
162.6654130057
 31
0.0
  0
ARC
  5
14B
330
1F
100
AcDbEntity
  8
0
  6
Continuous
 62
     7
370
    15
100
AcDbCircle
 10
127.9750733138
 20
163.1654127847
 30
0.0
 40
0.5
100
AcDbArc
 50
180.0
 51
270.0
  0
LINE
  5
14C
330
1F
100
AcDbEntity
  8
0
  6
Continuous
 62
     7
370
    15
100
AcDbLine
 10
127.9750737727
 20
171.8654127442
 30
0.0
 11
129.0750737668
 21
171.8654127442
 31
0.0
  0
LINE
  5
14D
330
1F
100
AcDbEntity
  8
0
  6
Continuous
 62
     7
370
    15
100
AcDbLine
 10
129.0750737668
 20
171.8654127442
 30
0.0
 11
129.8750724078
 21
170.9654128761
 31
0.0
  0
LINE
  5
14E
330
1F
100
AcDbEntity
  8
0
  6
Continuous
 62
     7
370
    15
100
AcDbLine
 10
129.8750724078
 20
170.9654128761
 30
0.0
 11
129.8750724078
 21
170.4654127941
 31
0.0
  0
LINE
  5
14F
330
1F
100
AcDbEntity
  8
0
  6
Continuous
 62
     7
370
    15
100
AcDbLine
 10
129.8750724078
 20
170.4654127941
 30
0.0
 11
128.8750741065
 21
170.4654127941
 31
0.0
  0
LINE
  5
150
330
1F
100
AcDbEntity
  8
0
  6
Continuous
 62
     7
370
    15
100
AcDbLine
 10
128.8750741065
 20
170.4654127941
 30
0.0
 11
128.8750741065
 21
165.6654125661
 31
0.0
  0
LINE
  5
151
330
1F
100
AcDbEntity
  8
0
  6
Continuous
 62
     7
370
    15
100
AcDbLine
 10
127.9750737727
 20
163.1654130877
 30
0.0
 11
143.6750731797
 21
163.1654130877
 31
0.0
  0
LINE
  5
152
330
1F
100
AcDbEntity
  8
0
  6
Continuous
 62
     7
370
    15
100
AcDbLine
 10
156.6750734479
 20
163.1654130877
 30
0.0
 11
172.3750728548
 21
163.1654130877
 31
0.0
  0
LINE
  5
153
330
1F
100
AcDbEntity
  8
0
  6
Continuous
 62
     7
370
    15
100
AcDbLine
 10
172.3750728548
 20
163.1654130877
 30
0.0
 11
172.3750728548
 21
162.6654130057
 31
0.0
  0
LINE
  5
154
330
1F
100
AcDbEntity
  8
0
  6
Continuous
 62
     7
370
    15
100
AcDbLine
 10
171.475072521
 20
165.6654125661
 30
0.0
 11
171.475072521
 21
170.4654127941
 31
0.0
  0
LINE
  5
155
330
1F
100
AcDbEntity
  8
0
  6
Continuous
 62
     7
370
    15
100
AcDbLine
 10
171.475072521
 20
170.4654127941
 30
0.0
 11
170.4750742198
 21
170.4654127941
 31
0.0
  0
LINE
  5
156
330
1F
100
AcDbEntity
  8
0
  6
Continuous
 62
     7
370
    15
100
AcDbLine
 10
170.4750742198
 20
170.4654127941
 30
0.0
 11
170.4750742198
 21
170.9654128761
 31
0.0
  0
LINE
  5
157
330
1F
100
AcDbEntity
  8
0
  6
Continuous
 62
     7
370
    15
100
AcDbLine
 10
170.4750742198
 20
170.9654128761
 30
0.0
 11
171.2750728608
 21
171.8654127442
 31
0.0
  0
LINE
  5
158
330
1F
100
AcDbEntity
  8
0
  6
Continuous
 62
     7
370
    15
100
AcDbLine
 10
171.2750728608
 20
171.8654127442
 30
0.0
 11
172.3750728548
 21
171.8654127442
 31
0.0
  0
LINE
  5
159
330
1F
100
AcDbEntity
  8
0
  6
Continuous
 62
     7
370
    15
100
AcDbLine
 10
172.3750728548
 20
163.1654130877
 30
0.0
 11
172.3750728548
 21
171.8654127442
 31
0.0
  0
LINE
  5
15A
330
1F
100
AcDbEntity
  8
0
  6
Continuous
 62
     7
370
    15
100
AcDbLine
 10
172.8750738681
 20
171.3654127787
 30
0.0
 11
172.8750738681
 21
163.1654130877
 31
0.0
  0
LINE
  5
15B
330
1F
100
AcDbEntity
  8
0
  6
Continuous
 62
     7
370
    15
100
AcDbLine
 10
172.3750728548
 20
163.1654130877
 30
0.0
 11
172.8750738681
 21
163.1654130877
 31
0.0
  0
ARC
  5
15C
330
1F
100
AcDbEntity
  8
0
  6
Continuous
 62
     7
370
    15
100
AcDbCircle
 10
172.3750733138
 20
171.3654127847
 30
0.0
 40
0.5
100
AcDbArc
 50
0.0
 51
90.0
  0
ARC
  5
15D
330
1F
100
AcDbEntity
  8
0
  6
Continuous
 62
     7
370
    15
100
AcDbCircle
 10
172.3750733138
 20
163.1654127847
 30
0.0
 40
0.5
100
AcDbArc
 50
270.0
 51
0.0
  0
ARC
  5
15E
330
1F
100
AcDbEntity
  8
0
  6
Continuous
 62
     7
370
    15
100
AcDbCircle
 10
245.4395875217
 20
107.5063134965
 30
0.0
 40
0.5000000000000177
100
AcDbArc
 50
240.0026882663
 51
299.9973117337
  0
LINE
  5
15F
330
1F
100
AcDbEntity
  8
0
  6
Continuous
 62
     7
370
    15
100
AcDbLine
 10
234.08803155
 20
113.4820929151
 30
0.0
 11
245.1896075953
 21
107.0732894793
 31
0.0
  0
LINE
  5
160
330
1F
100
AcDbEntity
  8
0
  6
Continuous
 62
     7
370
    15
100
AcDbLine
 10
245.6895666832
 20
107.0732894793
 30
0.0
 11
273.2667317184
 21
122.9932479883
 31
0.0
  0
ARC
  5
161
330
1F
100
AcDbEntity
  8
0
  6
Continuous
 62
     7
370
    15
100
AcDbCircle
 10
229.6003956231
 20
111.9965581115
 30
0.0
 40
0.4999999999999912
100
AcDbArc
 50
240.0026882664
 51
299.9973117337
  0
LINE
  5
162
330
1F
100
AcDbEntity
  8
0
  6
Continuous
 62
     7
370
    15
100
AcDbLine
 10
221.5722417105
 20
116.0537786607
 30
0.0
 11
229.3504162615
 21
111.56353407
 31
0.0
  0
LINE
  5
163
330
1F
100
AcDbEntity
  8
0
  6
Continuous
 62
     7
370
    15
100
AcDbLine
 10
229.8503753494
 20
111.56353407
 30
0.0
 11
233.1737768437
 21
113.4820929151
 31
0.0
  0
SPLINE
  5
164
330
1F
100
AcDbEntity
  8
0
  6
Continuous
 62
     7
370
    15
100
AcDbSpline
210
0.0
220
0.0
230
1.0
 70
     8
 71
     3
 72
    14
 73
    10
 74
     0
 42
0.00000001
 43
0.00000001
 12
1.0
 22
0.0
 32
0.0
 13
1.0
 23
0.0
 33
0.0
 40
0.0
 40
0.0
 40
0.0
 40
0.0
 40
0.0821138025935865
 40
0.2361089287459332
 40
0.3968852857576055
 40
0.5634176618334312
 40
0.7316038264768374
 40
0.8960947698310636
 40
1.0
 40
1.0
 40
1.0
 40
1.0
 10
233.1737768437421
 20
113.4820929150506
 30
0.0
 10
233.1897461753815
 20
113.4906532106359
 30
0.0
 10
233.235664177801
 20
113.5152673699679
 30
0.0
 10
233.3508518078467
 20
113.5549068164815
 30
0.0
 10
233.5176517366341
 20
113.5834622450289
 30
0.0
 10
233.7027194373135
 20
113.5867925630328
 30
0.0
 10
233.8802965886141
 20
113.5626746785445
 30
0.0
 10
234.0137579124617
 20
113.5211703276156
 30
0.0
 10
234.0673025940296
 20
113.4929989914358
 30
0.0
 10
234.0880315499965
 20
113.4820929150506
 30
0.0
  0
LINE
  5
165
330
1F
100
AcDbEntity
  8
0
  6
Continuous
 62
     7
370
    15
100
AcDbLine
 10
221.3222206783
 20
119.2251155008
 30
0.0
 11
221.3222206783
 21
116.486802699
 31
0.0
  0
ARC
  5
166
330
1F
100
AcDbEntity
  8
0
  6
Continuous
 62
     7
370
    15
100
AcDbCircle
 10
221.8222210301
 20
116.4868027265
 30
0.0
 40
0.5000000000000034
100
AcDbArc
 50
180.0
 51
240.0026882664
  0
LINE
  5
167
330
1F
100
AcDbEntity
  8
0
  6
Continuous
 62
     7
370
    15
100
AcDbLine
 10
213.7940671596
 20
125.1975491871
 30
0.0
 11
223.2310817404
 21
119.7496766309
 31
0.0
  0
LINE
  5
168
330
1F
100
AcDbEntity
  8
0
  6
Continuous
 62
     7
370
    15
100
AcDbLine
 10
273.5167520922
 20
123.4262716464
 30
0.0
 11
273.5167520922
 21
130.4105968717
 31
0.0
  0
LINE
  5
169
330
1F
100
AcDbEntity
  8
0
  6
Continuous
 62
     7
370
    15
100
AcDbLine
 10
241.6212525686
 20
148.8235245326
 30
0.0
 11
213.5440467859
 21
132.6148986445
 31
0.0
  0
LINE
  5
16A
330
1F
100
AcDbEntity
  8
0
  6
Continuous
 62
     7
370
    15
100
AcDbLine
 10
213.5440467859
 20
132.6148995911
 30
0.0
 11
213.5440467859
 21
125.6305743659
 31
0.0
  0
ARC
  5
16B
330
1F
100
AcDbEntity
  8
0
  6
Continuous
 62
     7
370
    15
100
AcDbCircle
 10
273.016751988
 20
123.426271677
 30
0.0
 40
0.5
100
AcDbArc
 50
299.9973117336
 51
0.0
  0
ARC
  5
16C
330
1F
100
AcDbEntity
  8
0
  6
Continuous
 62
     7
370
    15
100
AcDbCircle
 10
214.044046437
 20
125.6305735789
 30
0.0
 40
0.5000000000000284
100
AcDbArc
 50
180.0
 51
240.0026882663
  0
LINE
  5
16D
330
1F
100
AcDbEntity
  8
0
  6
Continuous
 62
     7
370
    15
100
AcDbLine
 10
263.8297164792
 20
131.179390169
 30
0.0
 11
265.4885571675
 21
132.1370185147
 31
0.0
  0
LINE
  5
16E
330
1F
100
AcDbEntity
  8
0
  6
Continuous
 62
     7
370
    15
100
AcDbLine
 10
265.7385768827
 20
132.570042553
 30
0.0
 11
265.7385768827
 21
135.3083553548
 31
0.0
  0
LINE
  5
16F
330
1F
100
AcDbEntity
  8
0
  6
Continuous
 62
     7
370
    15
100
AcDbLine
 10
265.7385775413
 20
135.3083557388
 30
0.0
 11
257.4603622429
 21
140.0872677085
 31
0.0
  0
ARC
  5
170
330
1F
100
AcDbEntity
  8
0
  6
Continuous
 62
     7
370
    15
100
AcDbCircle
 10
265.2385773949
 20
132.5700425294
 30
0.0
 40
0.5
100
AcDbArc
 50
299.9973117337
 51
0.0
  0
LINE
  5
171
330
1F
100
AcDbEntity
  8
0
  6
Continuous
 62
     7
370
    15
100
AcDbLine
 10
273.3703062816
 20
129.9178043703
 30
0.0
 11
245.7931412463
 21
113.9978458613
 31
0.0
  0
ELLIPSE
  5
172
330
1F
100
AcDbEntity
  8
0
  6
Continuous
 62
     7
370
    15
100
AcDbEllipse
 10
245.4395875217
 20
114.2019481539
 30
0.0
 11
0.5000000026095961
 21
-0.2886907760130413
 31
0.0
210
0.0
220
0.0
230
1.0
 40
0.0000703729
 41
0.7854387982701048
 42
2.356235119275171
  0
LINE
  5
173
330
1F
100
AcDbEntity
  8
0
  6
Continuous
 62
     7
370
    15
100
AcDbLine
 10
245.0860343492
 20
114.4061169995
 30
0.0
 11
273.3703049645
 21
130.734278871
 31
0.0
  0
ELLIPSE
  5
174
330
1F
100
AcDbEntity
  8
0
  6
Continuous
 62
     7
370
    15
100
AcDbEllipse
 10
273.016751988
 20
130.1219063345
 30
0.0
 11
0.3535677558937208
 21
0.6123641403131046
 31
0.0
210
0.0
220
0.0
230
1.0
 40
0.5773346305
 41
4.712429612415677
 42
6.283225939210663
  0
LINE
  5
175
330
1F
100
AcDbEntity
  8
0
  6
Continuous
 62
     7
370
    15
100
AcDbLine
 10
245.7931412463
 20
113.9978458613
 30
0.0
 11
245.7931412463
 21
107.3022114562
 31
0.0
  0
ARC
  5
176
330
1F
100
AcDbEntity
  8
0
  6
Continuous
 62
     7
370
    15
100
AcDbCircle
 10
245.4395885315
 20
107.9845677422
 30
0.0
 40
0.7685113032333049
100
AcDbArc
 50
242.6096192537
 51
297.390257528
  0
LINE
  5
177
330
1F
100
AcDbEntity
  8
0
  6
Continuous
 62
     7
370
    15
100
AcDbLine
 10
245.0860343492
 20
107.3022122165
 30
0.0
 11
245.0860343492
 21
114.4061169995
 31
0.0
  0
LINE
  5
178
330
1F
100
AcDbEntity
  8
0
  6
Continuous
 62
     7
370
    15
100
AcDbLine
 10
233.984458304
 20
115.7523672561
 30
0.0
 11
233.984458304
 21
113.7110156522
 31
0.0
  0
LINE
  5
179
330
1F
100
AcDbEntity
  8
0
  6
Continuous
 62
     7
370
    15
100
AcDbLine
 10
233.984458304
 20
115.7523672561
 30
0.0
 11
244.4496380101
 21
109.7109476069
 31
0.0
  0
LINE
  5
17A
330
1F
100
AcDbEntity
  8
0
  6
Continuous
 62
     7
370
    15
100
AcDbLine
 10
244.4496380101
 20
109.7109476069
 30
0.0
 11
244.4496380101
 21
113.6303436902
 31
0.0
  0
LINE
  5
17B
330
1F
100
AcDbEntity
  8
0
  6
Continuous
 62
     7
370
    15
100
AcDbLine
 10
244.4496380101
 20
113.6303436902
 30
0.0
 11
243.7425324301
 21
114.0385470526
 31
0.0
  0
LINE
  5
17C
330
1F
100
AcDbEntity
  8
0
  6
Continuous
 62
     7
370
    15
100
AcDbLine
 10
243.7425324301
 20
114.0385470526
 30
0.0
 11
243.7425324301
 21
114.4468175255
 31
0.0
  0
LINE
  5
17D
330
1F
100
AcDbEntity
  8
0
  6
Continuous
 62
     7
370
    15
100
AcDbLine
 10
243.7425324301
 20
114.4468175255
 30
0.0
 11
244.3082168941
 21
114.8551414585
 31
0.0
  0
LINE
  5
17E
330
1F
100
AcDbEntity
  8
0
  6
Continuous
 62
     7
370
    15
100
AcDbLine
 10
244.3082168941
 20
114.8551414585
 30
0.0
 11
245.0860343492
 21
114.4061169995
 31
0.0
  0
LINE
  5
17F
330
1F
100
AcDbEntity
  8
0
  6
Continuous
 62
     7
370
    15
100
AcDbLine
 10
233.984458304
 20
113.7110156522
 30
0.0
 11
245.0860343492
 21
107.3022122165
 31
0.0
  0
LINE
  5
180
330
1F
100
AcDbEntity
  8
0
  6
Continuous
 62
     7
370
    15
100
AcDbLine
 10
272.5924875094
 20
131.18330333
 30
0.0
 11
244.3082168941
 21
114.8551414585
 31
0.0
  0
LINE
  5
181
330
1F
100
AcDbEntity
  8
0
  6
Continuous
 62
     7
370
    15
100
AcDbLine
 10
272.5924875094
 20
131.18330333
 30
0.0
 11
273.3703049645
 21
130.734278871
 31
0.0
  0
LINE
  5
182
330
1F
100
AcDbEntity
  8
0
  6
Continuous
 62
     7
370
    15
100
AcDbLine
 10
273.3703062816
 20
123.2221699652
 30
0.0
 11
273.3703062816
 21
129.9178043703
 31
0.0
  0
LINE
  5
183
330
1F
100
AcDbEntity
  8
0
  6
Continuous
 62
     7
370
    15
100
AcDbLine
 10
245.7931412463
 20
107.3022114562
 30
0.0
 11
273.3703062816
 21
123.2221699652
 31
0.0
  0
LINE
  5
184
330
1F
100
AcDbEntity
  8
0
  6
Continuous
 62
     7
370
    15
100
AcDbLine
 10
242.611160868
 20
143.4286016131
 30
0.0
 11
214.3268902527
 21
127.1004397416
 31
0.0
  0
LINE
  5
185
330
1F
100
AcDbEntity
  8
0
  6
Continuous
 62
     7
370
    15
100
AcDbLine
 10
242.611160868
 20
143.4286016131
 30
0.0
 11
253.0763405741
 21
137.3871819639
 31
0.0
  0
ARC
  5
186
330
1F
100
AcDbEntity
  8
0
  6
Continuous
 62
     7
370
    15
100
AcDbCircle
 10
253.4298939851
 20
138.0695410786
 30
0.0
 40
0.7685141350755168
100
AcDbArc
 50
242.6097934109
 51
297.3902681982
  0
LINE
  5
187
330
1F
100
AcDbEntity
  8
0
  6
Continuous
 62
     7
370
    15
100
AcDbLine
 10
256.399742727
 20
138.8975370663
 30
0.0
 11
253.7834481298
 21
137.3871823441
 31
0.0
  0
LINE
  5
188
330
1F
100
AcDbEntity
  8
0
  6
Continuous
 62
     7
370
    15
100
AcDbLine
 10
264.885024175
 20
133.9990883528
 30
0.0
 11
256.399742727
 21
138.8975370663
 31
0.0
  0
LINE
  5
189
330
1F
100
AcDbEntity
  8
0
  6
Continuous
 62
     7
370
    15
100
AcDbLine
 10
264.885024175
 20
133.9990883528
 30
0.0
 11
262.2687295778
 21
132.4887336306
 31
0.0
  0
ARC
  5
18A
330
1F
100
AcDbEntity
  8
0
  6
Continuous
 62
     7
370
    15
100
AcDbCircle
 10
262.3461934799
 20
132.2846312541
 30
0.0
 40
0.2183081221879367
100
AcDbArc
 50
110.78348373
 51
249.2163314028
  0
LINE
  5
18B
330
1F
100
AcDbEntity
  8
0
  6
Continuous
 62
     7
370
    15
100
AcDbLine
 10
262.2687289192
 20
132.0805291276
 30
0.0
 11
268.2077131242
 21
128.6520265238
 31
0.0
  0
ARC
  5
18C
330
1F
100
AcDbEntity
  8
0
  6
Continuous
 62
     7
370
    15
100
AcDbCircle
 10
233.630904893
 20
115.0700081414
 30
0.0
 40
0.7685141350753644
100
AcDbArc
 50
62.6097934108
 51
117.3902681982
  0
LINE
  5
18D
330
1F
100
AcDbEntity
  8
0
  6
Continuous
 62
     7
370
    15
100
AcDbLine
 10
233.2773507483
 20
115.7523668759
 30
0.0
 11
230.6610561511
 21
114.2420121537
 31
0.0
  0
LINE
  5
18E
330
1F
100
AcDbEntity
  8
0
  6
Continuous
 62
     7
370
    15
100
AcDbLine
 10
224.7920693003
 20
120.6508155894
 30
0.0
 11
222.8829961869
 21
119.5487311396
 31
0.0
  0
ARC
  5
18F
330
1F
100
AcDbEntity
  8
0
  6
Continuous
 62
     7
370
    15
100
AcDbCircle
 10
224.7146053982
 20
120.8549179659
 30
0.0
 40
0.2183081221879702
100
AcDbArc
 50
290.78348373
 51
69.2163314028
  0
LINE
  5
190
330
1F
100
AcDbEntity
  8
0
  6
Continuous
 62
     7
370
    15
100
AcDbLine
 10
214.3268902527
 20
127.1004397416
 30
0.0
 11
224.7920699589
 21
121.0590200924
 31
0.0
  0
LWPOLYLINE
  5
191
330
1F
100
AcDbEntity
  8
0
  6
Continuous
 62
     7
370
    15
100
AcDbPolyline
 90
       49
 70
   128
 43
0.0
 10
240.6312614573
 20
128.2434111524
 10
241.0344772289
 20
128.4475463836
 10
241.480399118
 20
128.6195524321
 10
241.9613970632
 20
128.7564861193
 10
242.4692411514
 20
128.8560046023
 10
242.995241888
 20
128.9164051013
 10
243.5303992333
 20
128.9366541013
 10
244.0655565579
 20
128.916405137
 10
244.5915572906
 20
128.8560046357
 10
245.0994013004
 20
128.7564861074
 10
245.5803991839
 20
128.6195523845
 10
246.0263210729
 20
128.4475463361
 10
246.4295370092
 20
128.2434111049
 10
246.7831479157
 20
128.0106394996
 10
247.0811034149
 20
127.7532142725
 10
247.3183052815
 20
127.4755401048
 10
247.4906951077
 20
127.1823679983
 10
247.5953231813
 20
126.8787142387
 10
247.6303992168
 20
126.5697744912
 10
247.5953231195
 20
126.2608347318
 10
247.4906950498
 20
125.95718097
 10
247.3183053021
 20
125.6640088182
 10
247.0811034972
 20
125.3863346149
 10
246.7831479981
 20
125.1289093878
 10
246.4295370915
 20
124.8961378775
 10
246.0263213199
 20
124.6920026463
 10
245.5803994308
 20
124.5199965979
 10
245.099401321
 20
124.3830628156
 10
244.5915573151
 20
124.2835443801
 10
244.0655565785
 20
124.2231438811
 10
243.5303991098
 20
124.2028948099
 10
242.9952419703
 20
124.2231438811
 10
242.4692410691
 20
124.283544285
 10
241.9613971455
 20
124.3830628631
 10
241.4803993649
 20
124.5199966454
 10
241.0344774759
 20
124.6920026938
 10
240.6312612927
 20
124.8961377825
 10
240.2776506331
 20
125.1289095304
 10
239.9796951339
 20
125.3863347575
 10
239.7424931644
 20
125.6640088657
 10
239.570103252
 20
125.9571809225
 10
239.465475347
 20
126.2608347793
 10
239.4303991262
 20
126.5697744199
 10
239.465475347
 20
126.8787142506
 10
239.5701034167
 20
127.1823680124
 10
239.7424930821
 20
127.4755401167
 10
239.9796950516
 20
127.753214415
 10
240.2776505508
 20
128.0106396421
 10
240.6312614573
 20
128.2434111524
  0
ARC
  5
192
330
1F
100
AcDbEntity
  8
0
  6
Continuous
 62
     7
370
    15
100
AcDbCircle
 10
243.5303991824
 20
122.7111219401
 30
0.0
 40
2.685594869224329
100
AcDbArc
 50
42.58511049
 51
137.4148901984
  0
LINE
  5
193
330
1F
100
AcDbEntity
  8
0
  6
Continuous
 62
     7
370
    15
100
AcDbLine
 10
229.953949254
 20
114.6503489766
 30
0.0
 11
229.953949254
 21
111.792456427
 31
0.0
  0
ARC
  5
194
330
1F
100
AcDbEntity
  8
0
  6
Continuous
 62
     7
370
    15
100
AcDbCircle
 10
229.6003951093
 20
112.4748151616
 30
0.0
 40
0.7685141350753754
100
AcDbArc
 50
242.6097934108
 51
297.3902681982
  0
LINE
  5
195
330
1F
100
AcDbEntity
  8
0
  6
Continuous
 62
     7
370
    15
100
AcDbLine
 10
229.2468416983
 20
111.7924560469
 30
0.0
 11
229.2468416983
 21
114.2420781236
 31
0.0
  0
ELLIPSE
  5
196
330
1F
100
AcDbEntity
  8
0
  6
Continuous
 62
     7
370
    15
100
AcDbEllipse
 10
229.6003956231
 20
114.4461805472
 30
0.0
 11
0.5000000008656684
 21
0.2886907750061312
 31
0.0
210
0.0
220
0.0
230
1.0
 40
0.0000703729
 41
0.7853575325947453
 42
2.35615385675947
  0
LINE
  5
197
330
1F
100
AcDbEntity
  8
0
  6
Continuous
 62
     7
370
    15
100
AcDbLine
 10
221.468667806
 20
119.5487976901
 30
0.0
 11
229.953949254
 21
114.6503489766
 31
0.0
  0
LINE
  5
198
330
1F
100
AcDbEntity
  8
0
  6
Continuous
 62
     7
370
    15
100
AcDbLine
 10
229.2468416983
 20
114.2420781236
 30
0.0
 11
221.4686671474
 21
118.7323227143
 31
0.0
  0
ELLIPSE
  5
199
330
1F
100
AcDbEntity
  8
0
  6
Continuous
 62
     7
370
    15
100
AcDbEllipse
 10
221.8222210301
 20
118.9364251622
 30
0.0
 11
-0.3535677558937493
 21
0.6123641403131188
 31
0.0
210
0.0
220
0.0
230
1.0
 40
0.5773346305
 41
6.28314467514855
 42
7.853941001943451
  0
LINE
  5
19A
330
1F
100
AcDbEntity
  8
0
  6
Continuous
 62
     7
370
    15
100
AcDbLine
 10
230.6610561511
 20
115.0585530994
 30
0.0
 11
229.953949254
 21
114.6503489766
 31
0.0
  0
LINE
  5
19B
330
1F
100
AcDbEntity
  8
0
  6
Continuous
 62
     7
370
    15
100
AcDbLine
 10
230.6610561511
 20
114.2420121537
 30
0.0
 11
230.6610561511
 21
115.0585530994
 31
0.0
  0
LINE
  5
19C
330
1F
100
AcDbEntity
  8
0
  6
Continuous
 62
     7
370
    15
100
AcDbLine
 10
233.2773507483
 20
113.7110152721
 30
0.0
 11
233.2773507483
 21
115.7523668759
 31
0.0
  0
LINE
  5
19D
330
1F
100
AcDbEntity
  8
0
  6
Continuous
 62
     7
370
    15
100
AcDbLine
 10
229.953949254
 20
111.792456427
 30
0.0
 11
233.2773507483
 21
113.7110152721
 31
0.0
  0
LINE
  5
19E
330
1F
100
AcDbEntity
  8
0
  6
Continuous
 62
     7
370
    15
100
AcDbLine
 10
230.6610561511
 20
115.0585530994
 30
0.0
 11
222.1757747031
 21
119.957001813
 31
0.0
  0
LINE
  5
19F
330
1F
100
AcDbEntity
  8
0
  6
Continuous
 62
     7
370
    15
100
AcDbLine
 10
222.1757747031
 20
119.957001813
 30
0.0
 11
221.468667806
 21
119.5487976901
 31
0.0
  0
LINE
  5
1A0
330
1F
100
AcDbEntity
  8
0
  6
Continuous
 62
     7
370
    15
100
AcDbLine
 10
221.4686671474
 20
118.7323227143
 30
0.0
 11
221.4686671474
 21
116.2827006376
 31
0.0
  0
LINE
  5
1A1
330
1F
100
AcDbEntity
  8
0
  6
Continuous
 62
     7
370
    15
100
AcDbLine
 10
221.4686671474
 20
116.2827006376
 30
0.0
 11
229.2468416983
 21
111.7924560469
 31
0.0
  0
ARC
  5
1A2
330
1F
100
AcDbEntity
  8
0
  6
Continuous
 62
     7
370
    15
100
AcDbCircle
 10
233.630904893
 20
113.0286565375
 30
0.0
 40
0.7685141350752377
100
AcDbArc
 50
62.6097934108
 51
117.3902681982
  0
LINE
  5
1A3
330
1F
100
AcDbEntity
  8
0
  6
Continuous
 62
     7
370
    15
100
AcDbLine
 10
213.6904939136
 20
132.5303767072
 30
0.0
 11
213.6904939136
 21
125.4264719243
 31
0.0
  0
LINE
  5
1A4
330
1F
100
AcDbEntity
  8
0
  6
Continuous
 62
     7
370
    15
100
AcDbLine
 10
213.6904939136
 20
132.5303767072
 30
0.0
 11
214.4683113687
 21
132.0813522482
 31
0.0
  0
LINE
  5
1A5
330
1F
100
AcDbEntity
  8
0
  6
Continuous
 62
     7
370
    15
100
AcDbLine
 10
214.4683113687
 20
132.0813522482
 30
0.0
 11
215.0339958327
 21
131.0199029352
 31
0.0
  0
LINE
  5
1A6
330
1F
100
AcDbEntity
  8
0
  6
Continuous
 62
     7
370
    15
100
AcDbLine
 10
215.0339958327
 20
131.0199029352
 30
0.0
 11
215.0339958327
 21
130.6116324623
 31
0.0
  0
LINE
  5
1A7
330
1F
100
AcDbEntity
  8
0
  6
Continuous
 62
     7
370
    15
100
AcDbLine
 10
215.0339958327
 20
130.6116324623
 30
0.0
 11
214.3268902527
 21
131.0198358248
 31
0.0
  0
LINE
  5
1A8
330
1F
100
AcDbEntity
  8
0
  6
Continuous
 62
     7
370
    15
100
AcDbLine
 10
214.3268902527
 20
131.0198358248
 30
0.0
 11
214.3268902527
 21
127.1004397416
 31
0.0
  0
LWPOLYLINE
  5
1A9
330
1F
100
AcDbEntity
  8
0
  6
Continuous
 62
     7
370
    15
100
AcDbPolyline
 90
        8
 70
   128
 43
0.0
 10
242.0454750869
 20
125.7939218708
 10
241.7979044987
 20
125.6218105154
 10
241.6093320898
 20
125.4263684335
 10
241.4861793278
 20
125.2142510653
 10
241.4326401532
 20
124.992681824
 10
241.4505374996
 20
124.7692058895
 10
241.5392617194
 20
124.5514334026
 10
241.5795247191
 20
124.4880072759
  0
LWPOLYLINE
  5
1AA
330
1F
100
AcDbEntity
  8
0
  6
Continuous
 62
     7
370
    15
100
AcDbPolyline
 90
       16
 70
   128
 43
0.0
 10
245.4812738298
 20
124.4880072759
 10
245.5746190564
 20
124.6591356076
 10
245.6281583956
 20
124.8807049439
 10
245.6102610492
 20
125.1041808785
 10
245.5215365824
 20
125.3219532228
 10
245.3650062328
 20
125.5266060075
 10
245.1460005272
 20
125.7111699981
 10
244.8719774821
 20
125.8693601348
 10
244.552268632
 20
125.9957894376
 10
244.1977611994
 20
126.086152485
 10
243.8205275605
 20
126.1373720294
 10
243.433413943
 20
126.1477039476
 10
243.0496030085
 20
126.1167963449
 10
242.6821651368
 20
126.0457017687
 10
242.3436128382
 20
125.9368412342
 10
242.0454750869
 20
125.7939218708
  0
LINE
  5
1AB
330
1F
100
AcDbEntity
  8
0
  6
Continuous
 62
     7
370
    15
100
AcDbLine
 10
242.752581984
 20
148.4095141197
 30
0.0
 11
214.4683113687
 21
132.0813522482
 31
0.0
  0
LINE
  5
1AC
330
1F
100
AcDbEntity
  8
0
  6
Continuous
 62
     7
370
    15
100
AcDbLine
 10
242.752581984
 20
148.4095141197
 30
0.0
 11
243.318266448
 21
147.3480648067
 31
0.0
  0
LINE
  5
1AD
330
1F
100
AcDbEntity
  8
0
  6
Continuous
 62
     7
370
    15
100
AcDbLine
 10
243.318266448
 20
147.3480648067
 30
0.0
 11
215.0339958327
 21
131.0199029352
 31
0.0
  0
LINE
  5
1AE
330
1F
100
AcDbEntity
  8
0
  6
Continuous
 62
     7
370
    15
100
AcDbLine
 10
241.9747645289
 20
148.8585385787
 30
0.0
 11
213.6904939136
 21
132.5303767072
 31
0.0
  0
LINE
  5
1AF
330
1F
100
AcDbEntity
  8
0
  6
Continuous
 62
     7
370
    15
100
AcDbLine
 10
241.9747645289
 20
148.8585385787
 30
0.0
 11
242.752581984
 21
148.4095141197
 31
0.0
  0
LINE
  5
1B0
330
1F
100
AcDbEntity
  8
0
  6
Continuous
 62
     7
370
    15
100
AcDbLine
 10
243.318266448
 20
147.3480648067
 30
0.0
 11
243.318266448
 21
146.9397943338
 31
0.0
  0
LINE
  5
1B1
330
1F
100
AcDbEntity
  8
0
  6
Continuous
 62
     7
370
    15
100
AcDbLine
 10
243.318266448
 20
146.9397943338
 30
0.0
 11
215.0339958327
 21
130.6116324623
 31
0.0
  0
ELLIPSE
  5
1B2
330
1F
100
AcDbEntity
  8
0
  6
Continuous
 62
     7
370
    15
100
AcDbEllipse
 10
214.044046437
 20
132.3262082364
 30
0.0
 11
0.5000000026095677
 21
-0.2886907760130271
 31
0.0
210
0.0
220
0.0
230
1.0
 40
0.0000703729
 41
2.356235119331997
 42
3.141552021375408
  0
ELLIPSE
  5
1B3
330
1F
100
AcDbEntity
  8
0
  6
Continuous
 62
     7
370
    15
100
AcDbEllipse
 10
241.6212109033
 20
148.2461664169
 30
0.0
 11
0.3535677558937777
 21
0.612364140313133
 31
0.0
210
0.0
220
0.0
230
1.0
 40
0.5773346305
 41
0.0000406320310172
 42
0.7853575313663894
  0
LINE
  5
1B4
330
1F
100
AcDbEntity
  8
0
  6
Continuous
 62
     7
370
    15
100
AcDbLine
 10
242.611160868
 20
146.5315896414
 30
0.0
 11
242.611160868
 21
143.4286016131
 31
0.0
  0
LINE
  5
1B5
330
1F
100
AcDbEntity
  8
0
  6
Continuous
 62
     7
370
    15
100
AcDbLine
 10
264.885024175
 20
134.8156292985
 30
0.0
 11
264.885024175
 21
133.9990883528
 31
0.0
  0
LINE
  5
1B6
330
1F
100
AcDbEntity
  8
0
  6
Continuous
 62
     7
370
    15
100
AcDbLine
 10
265.5921310721
 20
135.2238334213
 30
0.0
 11
264.885024175
 21
134.8156292985
 31
0.0
  0
LINE
  5
1B7
330
1F
100
AcDbEntity
  8
0
  6
Continuous
 62
     7
370
    15
100
AcDbLine
 10
265.5921310721
 20
132.3659408717
 30
0.0
 11
265.5921310721
 21
135.2238334213
 31
0.0
  0
LINE
  5
1B8
330
1F
100
AcDbEntity
  8
0
  6
Continuous
 62
     7
370
    15
100
AcDbLine
 10
264.885024175
 20
134.8156292985
 30
0.0
 11
256.399742727
 21
139.714078012
 31
0.0
  0
LINE
  5
1B9
330
1F
100
AcDbEntity
  8
0
  6
Continuous
 62
     7
370
    15
100
AcDbLine
 10
257.1068496241
 20
140.1222821348
 30
0.0
 11
256.399742727
 21
139.714078012
 31
0.0
  0
LINE
  5
1BA
330
1F
100
AcDbEntity
  8
0
  6
Continuous
 62
     7
370
    15
100
AcDbLine
 10
265.5921310721
 20
135.2238334213
 30
0.0
 11
257.1068496241
 21
140.1222821348
 31
0.0
  0
LINE
  5
1BB
330
1F
100
AcDbEntity
  8
0
  6
Continuous
 62
     7
370
    15
100
AcDbLine
 10
256.399742727
 20
139.714078012
 30
0.0
 11
256.399742727
 21
138.8975370663
 31
0.0
  0
LINE
  5
1BC
330
1F
100
AcDbEntity
  8
0
  6
Continuous
 62
     7
370
    15
100
AcDbLine
 10
265.7385768827
 20
135.3083553548
 30
0.0
 11
265.5921310721
 21
135.2238334213
 31
0.0
  0
ELLIPSE
  5
1BD
330
1F
100
AcDbEntity
  8
0
  6
Continuous
 62
     7
370
    15
100
AcDbEllipse
 10
257.4604028019
 20
139.5099095801
 30
0.0
 11
-0.3535677558937776
 21
0.6123641403131046
 31
0.0
210
0.0
220
0.0
230
1.0
 40
0.5773346305
 41
5.49782777581316
 42
6.283144675148533
  0
ARC
  5
1BE
330
1F
100
AcDbEntity
  8
0
  6
Continuous
 62
     8
370
    15
100
AcDbCircle
 10
245.5511060118
 20
107.273827169
 30
0.0
 40
0.2436939115464254
100
AcDbArc
 50
304.6230273954
 51
6.6887172876
  0
ARC
  5
1BF
330
1F
100
AcDbEntity
  8
0
  6
Continuous
 62
     8
370
    15
100
AcDbCircle
 10
245.3272038726
 20
107.2734347864
 30
0.0
 40
0.242880381054662
100
AcDbArc
 50
173.19538415
 51
235.4921809595
  0
ARC
  5
1C0
330
1F
100
AcDbEntity
  8
0
  6
Continuous
 62
     8
370
    15
100
AcDbCircle
 10
234.2256278273
 20
113.6822382221
 30
0.0
 40
0.2428803810088155
100
AcDbArc
 50
173.1953841435
 51
235.492180966
  0
ARC
  5
1C1
330
1F
100
AcDbEntity
  8
0
  6
Continuous
 62
     8
370
    15
100
AcDbCircle
 10
273.128271047
 20
123.1937856781
 30
0.0
 40
0.2436939116016051
100
AcDbArc
 50
304.6230274032
 51
6.6887172798
  0
ARC
  5
1C2
330
1F
100
AcDbEntity
  8
0
  6
Continuous
 62
     8
370
    15
100
AcDbCircle
 10
229.7160998306
 20
111.7621775751
 30
0.0
 40
0.2397689660162083
100
AcDbArc
 50
304.0572104307
 51
7.2548793562
  0
ARC
  5
1C3
330
1F
100
AcDbEntity
  8
0
  6
Continuous
 62
     8
370
    15
100
AcDbCircle
 10
229.4817175798
 20
111.7608325475
 30
0.0
 40
0.2369952012282625
100
AcDbArc
 50
172.3318558426
 51
236.3563994743
  0
ARC
  5
1C4
330
1F
100
AcDbEntity
  8
0
  6
Continuous
 62
     8
370
    15
100
AcDbCircle
 10
221.7035430289
 20
116.2510771382
 30
0.0
 40
0.236995201283151
100
AcDbArc
 50
172.3318558509
 51
236.356399466
  0
ARC
  5
1C5
330
1F
100
AcDbEntity
  8
0
  6
Continuous
 62
     8
370
    15
100
AcDbCircle
 10
233.0395013251
 20
113.6807364201
 30
0.0
 40
0.2397689658981014
100
AcDbArc
 50
304.0572104133
 51
7.2548793735
  0
ARC
  5
1C6
330
1F
100
AcDbEntity
  8
0
  6
Continuous
 62
     8
370
    15
100
AcDbCircle
 10
221.5724524196
 20
116.5117580818
 30
0.0
 40
0.2514730512253161
100
AcDbArc
 50
185.6952241835
 51
245.6248558904
  0
LINE
  5
1C7
330
1F
100
AcDbEntity
  8
0
  6
Continuous
 62
     8
370
    15
100
AcDbLine
 10
224.7920699589
 20
120.6508165403
 30
0.0
 11
224.7920699589
 21
121.0590200924
 31
0.0
  0
LINE
  5
1C8
330
1F
100
AcDbEntity
  8
0
  6
Continuous
 62
     8
370
    15
100
AcDbLine
 10
213.6904939136
 20
125.4264719243
 30
0.0
 11
223.3775690393
 21
119.8342424882
 31
0.0
  0
ARC
  5
1C9
330
1F
100
AcDbEntity
  8
0
  6
Continuous
 62
     8
370
    15
100
AcDbCircle
 10
213.9316634371
 20
125.3976944942
 30
0.0
 40
0.2428803811282543
100
AcDbArc
 50
173.1953841605
 51
235.492180949
  0
ARC
  5
1CA
330
1F
100
AcDbEntity
  8
0
  6
Continuous
 62
     8
370
    15
100
AcDbCircle
 10
273.2665198559
 20
123.4512274762
 30
0.0
 40
0.2514735881087767
100
AcDbArc
 50
294.3753772226
 51
354.304685681
  0
ARC
  5
1CB
330
1F
100
AcDbEntity
  8
0
  6
Continuous
 62
     8
370
    15
100
AcDbCircle
 10
213.794273791
 20
125.6555262586
 30
0.0
 40
0.2514679920816298
100
AcDbArc
 50
185.6945399968
 51
245.6256830538
  0
LINE
  5
1CC
330
1F
100
AcDbEntity
  8
0
  6
Continuous
 62
     8
370
    15
100
AcDbLine
 10
262.2687295778
 20
132.4887336306
 30
0.0
 11
262.2687295778
 21
132.0805300784
 31
0.0
  0
LINE
  5
1CD
330
1F
100
AcDbEntity
  8
0
  6
Continuous
 62
     8
370
    15
100
AcDbLine
 10
263.6832304973
 20
131.2639560263
 30
0.0
 11
265.5921310721
 21
132.3659408717
 31
0.0
  0
ARC
  5
1CE
330
1F
100
AcDbEntity
  8
0
  6
Continuous
 62
     8
370
    15
100
AcDbCircle
 10
265.3471225711
 20
132.3389010815
 30
0.0
 40
0.246496076725826
100
AcDbArc
 50
305.0142615578
 51
6.2978282291
  0
ARC
  5
1CF
330
1F
100
AcDbEntity
  8
0
  6
Continuous
 62
     8
370
    15
100
AcDbCircle
 10
265.4883520346
 20
132.5949930817
 30
0.0
 40
0.251465710391626
100
AcDbArc
 50
294.3743423975
 51
354.305720506
  0
ENDSEC
  0
SECTION
  2
OBJECTS
  0
DICTIONARY
  5
C
330
0
100
AcDbDictionary
281
     1
  3
ACAD_GROUP
350
D
  3
ACAD_LAYOUT
350
1A
  3
ACAD_MLINESTYLE
350
17
  3
ACAD_PLOTSETTINGS
350
19
  3
ACAD_PLOTSTYLENAME
350
E
  0
DICTIONARY
  5
D
102
{ACAD_REACTORS
330
C
102
}
330
C
100
AcDbDictionary
281
     1
  0
DICTIONARY
  5
1A
102
{ACAD_REACTORS
330
C
102
}
330
C
100
AcDbDictionary
281
     1
  3
Layout1
350
1E
  3
Layout2
350
26
  3
Model
350
22
  0
DICTIONARY
  5
17
102
{ACAD_REACTORS
330
C
102
}
330
C
100
AcDbDictionary
281
     1
  3
Standard
350
18
  0
DICTIONARY
  5
19
102
{ACAD_REACTORS
330
C
102
}
330
C
100
AcDbDictionary
281
     1
  0
ACDBDICTIONARYWDFLT
  5
E
102
{ACAD_REACTORS
330
C
102
}
330
C
100
AcDbDictionary
281
     1
  3
Normal
350
F
100
AcDbDictionaryWithDefault
340
F
  0
LAYOUT
  5
1E
102
{ACAD_REACTORS
330
1A
102
}
330
1A
100
AcDbPlotSettings
  1

  2
none_device
  4

  6

 40
0.0
 41
0.0
 42
0.0
 43
0.0
 44
0.0
 45
0.0
 46
0.0
 47
0.0
 48
0.0
 49
0.0
140
0.0
141
0.0
142
1.0
143
1.0
 70
   688
 72
     0
 73
     0
 74
     5
  7

 75
    16
147
1.0
148
0.0
149
0.0
100
AcDbLayout
  1
Layout1
 70
     1
 71
     1
 10
0.0
 20
0.0
 11
420.0
 21
297.0
 12
0.0
 22
0.0
 32
0.0
 14
1.0000000000E+20
 24
1.0000000000E+20
 34
1.0000000000E+20
 15
-1.0000000000E+20
 25
-1.0000000000E+20
 35
-1.0000000000E+20
146
0.0
 13
0.0
 23
0.0
 33
0.0
 16
1.0
 26
0.0
 36
0.0
 17
0.0
 27
1.0
 37
0.0
 76
     0
330
1B
  0
LAYOUT
  5
26
102
{ACAD_REACTORS
330
1A
102
}
330
1A
100
AcDbPlotSettings
  1

  2
none_device
  4

  6

 40
0.0
 41
0.0
 42
0.0
 43
0.0
 44
0.0
 45
0.0
 46
0.0
 47
0.0
 48
0.0
 49
0.0
140
0.0
141
0.0
142
1.0
143
1.0
 70
   688
 72
     0
 73
     0
 74
     5
  7

 75
    16
147
1.0
148
0.0
149
0.0
100
AcDbLayout
  1
Layout2
 70
     1
 71
     2
 10
0.0
 20
0.0
 11
0.0
 21
0.0
 12
0.0
 22
0.0
 32
0.0
 14
0.0
 24
0.0
 34
0.0
 15
0.0
 25
0.0
 35
0.0
146
0.0
 13
0.0
 23
0.0
 33
0.0
 16
1.0
 26
0.0
 36
0.0
 17
0.0
 27
1.0
 37
0.0
 76
     0
330
23
  0
LAYOUT
  5
22
102
{ACAD_REACTORS
330
1A
102
}
330
1A
100
AcDbPlotSettings
  1

  2
none_device
  4

  6

 40
0.0
 41
0.0
 42
0.0
 43
0.0
 44
0.0
 45
0.0
 46
0.0
 47
0.0
 48
0.0
 49
0.0
140
0.0
141
0.0
142
1.0
143
1.0
 70
  1712
 72
     0
 73
     0
 74
     0
  7

 75
     0
147
1.0
148
0.0
149
0.0
100
AcDbLayout
  1
Model
 70
     1
 71
     0
 10
0.0
 20
0.0
 11
297.0
 21
210.0
 12
0.0
 22
0.0
 32
0.0
 14
0.0
 24
0.0
 34
0.0
 15
297.0
 25
210.0
 35
0.0
146
0.0
 13
0.0
 23
0.0
 33
0.0
 16
1.0
 26
0.0
 36
0.0
 17
0.0
 27
1.0
 37
0.0
 76
     0
330
1F
331
29
  0
MLINESTYLE
  5
18
102
{ACAD_REACTORS
330
17
102
}
330
17
100
AcDbMlineStyle
  2
Standard
 70
     0
  3

 62
   256
 51
90.0
 52
90.0
 71
     2
 49
0.5
 62
   256
  6
BYLAYER
 49
-0.5
 62
   256
  6
BYLAYER
  0
ACDBPLACEHOLDER
  5
F
102
{ACAD_REACTORS
330
E
102
}
330
E
  0
ENDSEC
  0
EOF
