  0
SECTION
  2
HEADER
  9
$ACADVER
  1
AC1014
  9
$ACADMAINTVER
 70
     9
  9
$DWGCODEPAGE
  3
ANSI_1252
  9
$INSBASE
 10
0.0
 20
0.0
 30
0.0
  9
$EXTMIN
 10
0.0
 20
0.0
 30
0.0
  9
$EXTMAX
 10
594.0
 20
420.0
 30
0.0
  9
$LIMMIN
 10
0.0
 20
0.0
  9
$LIMMAX
 10
594.0
 20
420.0
  9
$ORTHOMODE
 70
     0
  9
$REGENMODE
 70
     1
  9
$FILLMODE
 70
     1
  9
$QTEXTMODE
 70
     0
  9
$MIRRTEXT
 70
     1
  9
$DRAGMODE
 70
     2
  9
$LTSCALE
 40
2.0
  9
$OSMODE
 70
    37
  9
$ATTMODE
 70
     1
  9
$TEXTSIZE
 40
8.4666666667
  9
$TRACEWID
 40
1.0
  9
$TEXTSTYLE
  7
STANDARD
  9
$CLAYER
  8
0
  9
$CELTYPE
  6
BYLAYER
  9
$CECOLOR
 62
   256
  9
$CELTSCALE
 40
1.0
  9
$DELOBJ
 70
     1
  9
$DISPSILH
 70
     0
  9
$DIMSCALE
 40
1.0
  9
$DIMASZ
 40
6.0
  9
$DIMEXO
 40
2.0
  9
$DIMDLI
 40
3.75
  9
$DIMRND
 40
0.0
  9
$DIMDLE
 40
0.0
  9
$DIMEXE
 40
2.0
  9
$DIMTP
 40
0.0
  9
$DIMTM
 40
0.0
  9
$DIMTXT
 40
8.4666666667
  9
$DIMCEN
 40
2.5
  9
$DIMTSZ
 40
0.0
  9
$DIMTOL
 70
     0
  9
$DIMLIM
 70
     0
  9
$DIMTIH
 70
     1
  9
$DIMTOH
 70
     1
  9
$DIMSE1
 70
     0
  9
$DIMSE2
 70
     0
  9
$DIMTAD
 70
     1
  9
$DIMZIN
 70
     0
  9
$DIMBLK
  1

  9
$DIMASO
 70
     1
  9
$DIMSHO
 70
     1
  9
$DIMPOST
  1

  9
$DIMAPOST
  1

  9
$DIMALT
 70
     0
  9
$DIMALTD
 70
     3
  9
$DIMALTF
 40
0.0393700787
  9
$DIMLFAC
 40
1.0
  9
$DIMTOFL
 70
     1
  9
$DIMTVP
 40
0.0
  9
$DIMTIX
 70
     0
  9
$DIMSOXD
 70
     0
  9
$DIMSAH
 70
     0
  9
$DIMBLK1
  1

  9
$DIMBLK2
  1

  9
$DIMSTYLE
  2
ISO-25
  9
$DIMCLRD
 70
     0
  9
$DIMCLRE
 70
     0
  9
$DIMCLRT
 70
     0
  9
$DIMTFAC
 40
1.0
  9
$DIMGAP
 40
3.0
  9
$DIMJUST
 70
     0
  9
$DIMSD1
 70
     0
  9
$DIMSD2
 70
     0
  9
$DIMTOLJ
 70
     0
  9
$DIMTZIN
 70
     0
  9
$DIMALTZ
 70
     0
  9
$DIMALTTZ
 70
     0
  9
$DIMFIT
 70
     3
  9
$DIMUPT
 70
     0
  9
$DIMUNIT
 70
     2
  9
$DIMDEC
 70
     2
  9
$DIMTDEC
 70
     2
  9
$DIMALTU
 70
     2
  9
$DIMALTTD
 70
     3
  9
$DIMTXSTY
  7
STANDARD
  9
$DIMAUNIT
 70
     0
  9
$LUNITS
 70
     2
  9
$LUPREC
 70
     2
  9
$SKETCHINC
 40
1.0
  9
$FILLETRAD
 40
10.0
  9
$AUNITS
 70
     0
  9
$AUPREC
 70
     2
  9
$MENU
  1
.
  9
$ELEVATION
 40
0.0
  9
$PELEVATION
 40
0.0
  9
$THICKNESS
 40
0.0
  9
$LIMCHECK
 70
     0
  9
$CHAMFERA
 40
10.0
  9
$CHAMFERB
 40
10.0
  9
$CHAMFERC
 40
20.0
  9
$CHAMFERD
 40
0.0
  9
$SKPOLY
 70
     0
  9
$TDCREATE
 40
2456127.44431809
  9
$TDUPDATE
 40
2456127.444318102
  9
$TDINDWG
 40
0.0000000116
  9
$TDUSRTIMER
 40
0.0000000116
  9
$USRTIMER
 70
     1
  9
$ANGBASE
 50
0.0
  9
$ANGDIR
 70
     0
  9
$PDMODE
 70
     0
  9
$PDSIZE
 40
-1.0
  9
$PLINEWID
 40
0.0
  9
$COORDS
 70
     1
  9
$SPLFRAME
 70
     0
  9
$SPLINETYPE
 70
     6
  9
$SPLINESEGS
 70
     8
  9
$ATTDIA
 70
     0
  9
$ATTREQ
 70
     1
  9
$HANDLING
 70
     1
  9
$HANDSEED
  5
324
  9
$SURFTAB1
 70
     6
  9
$SURFTAB2
 70
     6
  9
$SURFTYPE
 70
     6
  9
$SURFU
 70
     6
  9
$SURFV
 70
     6
  9
$UCSNAME
  2

  9
$UCSORG
 10
0.0
 20
0.0
 30
0.0
  9
$UCSXDIR
 10
1.0
 20
0.0
 30
0.0
  9
$UCSYDIR
 10
0.0
 20
1.0
 30
0.0
  9
$PUCSNAME
  2

  9
$PUCSORG
 10
0.0
 20
0.0
 30
0.0
  9
$PUCSXDIR
 10
1.0
 20
0.0
 30
0.0
  9
$PUCSYDIR
 10
0.0
 20
1.0
 30
0.0
  9
$USERI1
 70
     0
  9
$USERI2
 70
     0
  9
$USERI3
 70
     0
  9
$USERI4
 70
     0
  9
$USERI5
 70
     0
  9
$USERR1
 40
0.0
  9
$USERR2
 40
0.0
  9
$USERR3
 40
0.0
  9
$USERR4
 40
0.0
  9
$USERR5
 40
0.0
  9
$WORLDVIEW
 70
     1
  9
$SHADEDGE
 70
     3
  9
$SHADEDIF
 70
    70
  9
$TILEMODE
 70
     1
  9
$MAXACTVP
 70
    64
  9
$PINSBASE
 10
0.0
 20
0.0
 30
0.0
  9
$PLIMCHECK
 70
     0
  9
$PEXTMIN
 10
1.0000000000E+20
 20
1.0000000000E+20
 30
1.0000000000E+20
  9
$PEXTMAX
 10
-1.0000000000E+20
 20
-1.0000000000E+20
 30
-1.0000000000E+20
  9
$PLIMMIN
 10
0.0
 20
0.0
  9
$PLIMMAX
 10
420.0
 20
297.0
  9
$UNITMODE
 70
     0
  9
$VISRETAIN
 70
     1
  9
$PLINEGEN
 70
     0
  9
$PSLTSCALE
 70
     1
  9
$TREEDEPTH
 70
  3020
  9
$PICKSTYLE
 70
     1
  9
$CMLSTYLE
  2
STANDARD
  9
$CMLJUST
 70
     0
  9
$CMLSCALE
 40
20.0
  9
$PROXYGRAPHICS
 70
     1
  9
$MEASUREMENT
 70
     1
  0
ENDSEC
  0
SECTION
  2
CLASSES
  0
CLASS
  1
ACDBDICTIONARYWDFLT
  2
AcDbDictionaryWithDefault
  3
ObjectDBX Classes
 90
        0
280
     0
281
     0
  0
CLASS
  1
VISUALSTYLE
  2
AcDbVisualStyle
  3
ObjectDBX Classes
 90
     4095
280
     0
281
     0
  0
CLASS
  1
MATERIAL
  2
AcDbMaterial
  3
ObjectDBX Classes
 90
     1153
280
     0
281
     0
  0
CLASS
  1
XRECORD
  2
AcDbXrecord
  3
AutoCAD 2000
 90
        0
280
     0
281
     0
  0
CLASS
  1
LWPOLYLINE
  2
AcDbPolyline
  3
AutoCAD 2000
 90
        0
280
     0
281
     1
  0
CLASS
  1
HATCH
  2
AcDbHatch
  3
AutoCAD 2000
 90
        0
280
     0
281
     1
  0
ENDSEC
  0
SECTION
  2
TABLES
  0
TABLE
  2
VPORT
  5
8
330
0
100
AcDbSymbolTable
 70
     1
  0
VPORT
  5
29
330
8
100
AcDbSymbolTableRecord
100
AcDbViewportTableRecord
  2
*ACTIVE
 70
     0
 10
0.0
 20
0.0
 11
1.0
 21
1.0
 12
297.0
 22
210.0
 13
0.0
 23
0.0
 14
10.0
 24
10.0
 15
10.0
 25
10.0
 16
0.0
 26
0.0
 36
1.0
 17
0.0
 27
0.0
 37
0.0
 40
420.0
 41
1.4142857143
 42
50.0
 43
0.0
 44
0.0
 50
0.0
 51
0.0
 71
     0
 72
  2000
 73
     1
 74
     3
 75
     0
 76
     0
 77
     0
 78
     0
  0
ENDTAB
  0
TABLE
  2
LTYPE
  5
5
330
0
100
AcDbSymbolTable
 70
     6
  0
LTYPE
  5
14
330
5
100
AcDbSymbolTableRecord
100
AcDbLinetypeTableRecord
  2
BYBLOCK
 70
     0
  3

 72
    65
 73
     0
 40
0.0
  0
LTYPE
  5
15
330
5
100
AcDbSymbolTableRecord
100
AcDbLinetypeTableRecord
  2
BYLAYER
 70
     0
  3

 72
    65
 73
     0
 40
0.0
  0
LTYPE
  5
16
330
5
100
AcDbSymbolTableRecord
100
AcDbLinetypeTableRecord
  2
CONTINUOUS
 70
     0
  3
Solid line
 72
    65
 73
     0
 40
0.0
  0
LTYPE
  5
3F
330
5
100
AcDbSymbolTableRecord
100
AcDbLinetypeTableRecord
  2
HIDDEN
 70
     0
  3
Hidden __ __ __ __ __ __ __ __ __ __ __ __ __ __
 72
    65
 73
     2
 40
1.905
 49
1.27
 74
     0
 49
-0.635
 74
     0
  0
LTYPE
  5
40
330
5
100
AcDbSymbolTableRecord
100
AcDbLinetypeTableRecord
  2
PHANTOM
 70
     0
  3
Phantom ______  __  __  ______  __  __  ______
 72
    65
 73
     6
 40
12.7
 49
6.35
 74
     0
 49
-1.27
 74
     0
 49
1.27
 74
     0
 49
-1.27
 74
     0
 49
1.27
 74
     0
 49
-1.27
 74
     0
  0
LTYPE
  5
41
330
5
100
AcDbSymbolTableRecord
100
AcDbLinetypeTableRecord
  2
CENTER
 70
     0
  3
Center ____ _ ____ _ ____ _ ____ _ ____ _ ____
 72
    65
 73
     4
 40
10.16
 49
6.35
 74
     0
 49
-1.27
 74
     0
 49
1.27
 74
     0
 49
-1.27
 74
     0
  0
LTYPE
  5
42
330
5
100
AcDbSymbolTableRecord
100
AcDbLinetypeTableRecord
  2
CENTERX2
 70
     0
  3
Center (2x) ________  __  ________  __  _____
 72
    65
 73
     4
 40
20.32
 49
12.7
 74
     0
 49
-2.54
 74
     0
 49
2.54
 74
     0
 49
-2.54
 74
     0
  0
LTYPE
  5
43
330
5
100
AcDbSymbolTableRecord
100
AcDbLinetypeTableRecord
  2
DOT2
 70
     0
  3
Dot (.5x) ........................................
 72
    65
 73
     2
 40
0.635
 49
0.0
 74
     0
 49
-0.635
 74
     0
  0
ENDTAB
  0
TABLE
  2
LAYER
  5
2
330
0
100
AcDbSymbolTable
 70
     2
  0
LAYER
  5
10
330
2
100
AcDbSymbolTableRecord
100
AcDbLayerTableRecord
  2
0
 70
     0
 62
     7
  6
CONTINUOUS
  0
LAYER
  5
44
330
2
100
AcDbSymbolTableRecord
100
AcDbLayerTableRecord
  2
FORMAT
 70
     0
 62
     7
  6
CONTINUOUS
  0
ENDTAB
  0
TABLE
  2
STYLE
  5
3
330
0
100
AcDbSymbolTable
 70
     3
  0
STYLE
  5
11
330
3
100
AcDbSymbolTableRecord
100
AcDbTextStyleTableRecord
  2
STANDARD
 70
     0
 40
0.0
 41
1.0
 50
0.0
 71
     0
 42
2.5
  3
txt
  4

  0
STYLE
  5
7D
330
3
100
AcDbSymbolTableRecord
100
AcDbTextStyleTableRecord
  2
SLDTEXTSTYLE0
 70
     0
 40
0.0
 41
0.605
 50
0.0
 71
     0
 42
0.2
  3
TXT
  4

  0
STYLE
  5
9C
330
3
100
AcDbSymbolTableRecord
100
AcDbTextStyleTableRecord
  2
SLDTEXTSTYLE1
 70
     0
 40
0.0
 41
0.605
 50
0.0
 71
     0
 42
0.2
  3
TXT
  4
bigfont
  0
ENDTAB
  0
TABLE
  2
VIEW
  5
6
330
0
100
AcDbSymbolTable
 70
     0
  0
ENDTAB
  0
TABLE
  2
UCS
  5
7
330
0
100
AcDbSymbolTable
 70
     0
  0
ENDTAB
  0
TABLE
  2
APPID
  5
9
330
0
100
AcDbSymbolTable
 70
     1
  0
APPID
  5
12
330
9
100
AcDbSymbolTableRecord
100
AcDbRegAppTableRecord
  2
ACAD
 70
     0
  0
ENDTAB
  0
TABLE
  2
DIMSTYLE
  5
A
330
0
100
AcDbSymbolTable
 70
     2
  0
DIMSTYLE
105
27
330
A
100
AcDbSymbolTableRecord
100
AcDbDimStyleTableRecord
  2
ISO-25
 70
     0
  3

  4

  5

  6

  7

 40
1.0
 41
2.5
 42
0.625
 43
3.75
 44
1.25
 45
0.0
 46
0.0
 47
0.0
 48
0.0
140
2.5
141
2.5
142
0.0
143
0.0393700787
144
1.0
145
0.0
146
1.0
147
0.625
 71
     0
 72
     0
 73
     0
 74
     0
 75
     0
 76
     0
 77
     1
 78
     8
170
     0
171
     3
172
     1
173
     0
174
     0
175
     0
176
     0
177
     0
178
     0
270
     2
271
     2
272
     2
273
     2
274
     3
340
11
275
     0
280
     0
281
     0
282
     0
283
     0
284
     8
285
     0
286
     0
287
     3
288
     0
  0
DIMSTYLE
105
E6
102
{ACAD_REACTORS
330
E5
330
F0
330
20F
102
}
330
A
100
AcDbSymbolTableRecord
100
AcDbDimStyleTableRecord
  2
SLDDIMSTYLE0
 70
     0
  3

  4

  5

  6

  7

 40
1.0
 41
6.0
 42
0.0625
 43
0.38
 44
0.0
 45
0.000000001
 46
0.0
 47
0.0
 48
0.0
140
6.1639648437
141
0.09
142
0.0
143
25.4
144
1.0
145
0.0
146
1.0
147
1.5409912109
 71
     0
 72
     0
 73
     0
 74
     0
 75
     0
 76
     0
 77
     1
 78
    12
170
     0
171
     2
172
     0
173
     1
174
     0
175
     0
176
     0
177
     0
178
     0
270
     2
271
     0
272
     2
273
     2
274
     2
340
7D
275
     0
280
     0
281
     0
282
     0
283
     1
284
    12
285
     0
286
     0
287
     3
288
     0
  0
ENDTAB
  0
TABLE
  2
BLOCK_RECORD
  5
1
330
0
100
AcDbSymbolTable
 70
     5
  0
BLOCK_RECORD
  5
1F
330
1
100
AcDbSymbolTableRecord
100
AcDbBlockTableRecord
  2
*MODEL_SPACE
  0
BLOCK_RECORD
  5
1B
330
1
100
AcDbSymbolTableRecord
100
AcDbBlockTableRecord
  2
*PAPER_SPACE
  0
BLOCK_RECORD
  5
23
330
1
100
AcDbSymbolTableRecord
100
AcDbBlockTableRecord
  2
*PAPER_SPACE0
  0
BLOCK_RECORD
  5
45
330
1
100
AcDbSymbolTableRecord
100
AcDbBlockTableRecord
  2
BLOCK1
  0
BLOCK_RECORD
  5
E7
330
1
100
AcDbSymbolTableRecord
100
AcDbBlockTableRecord
  2
*D2
  0
BLOCK_RECORD
  5
F1
330
1
100
AcDbSymbolTableRecord
100
AcDbBlockTableRecord
  2
*D3
  0
BLOCK_RECORD
  5
210
330
1
100
AcDbSymbolTableRecord
100
AcDbBlockTableRecord
  2
*D4
  0
ENDTAB
  0
ENDSEC
  0
SECTION
  2
BLOCKS
  0
BLOCK
  5
20
330
1F
100
AcDbEntity
  8
0
100
AcDbBlockBegin
  2
*MODEL_SPACE
 70
     0
 10
0.0
 20
0.0
 30
0.0
  3
*MODEL_SPACE
  1

  0
ENDBLK
  5
21
330
1F
100
AcDbEntity
  8
0
100
AcDbBlockEnd
  0
BLOCK
  5
1C
330
1B
100
AcDbEntity
 67
     1
  8
0
100
AcDbBlockBegin
  2
*PAPER_SPACE
 70
     0
 10
0.0
 20
0.0
 30
0.0
  3
*PAPER_SPACE
  1

  0
ENDBLK
  5
1D
330
1B
100
AcDbEntity
 67
     1
  8
0
100
AcDbBlockEnd
  0
BLOCK
  5
24
330
23
100
AcDbEntity
  8
0
100
AcDbBlockBegin
  2
*PAPER_SPACE0
 70
     0
 10
0.0
 20
0.0
 30
0.0
  3
*PAPER_SPACE0
  1

  0
ENDBLK
  5
25
330
23
100
AcDbEntity
  8
0
100
AcDbBlockEnd
  0
BLOCK
  5
46
330
45
100
AcDbEntity
  8
0
100
AcDbBlockBegin
  2
BLOCK1
 70
     0
 10
0.0
 20
0.0
 30
0.0
  3
BLOCK1
  1

  0
CIRCLE
  5
48
330
45
100
AcDbEntity
  8
0
  6
CONTINUOUS
 62
     7
100
AcDbCircle
 10
-40.8811324665
 20
-0.1116593705
 30
0.0
 40
9.999999999999998
  0
CIRCLE
  5
49
330
45
100
AcDbEntity
  8
0
  6
CONTINUOUS
 62
     7
100
AcDbCircle
 10
-40.8811324665
 20
-0.1116593705
 30
0.0
 40
20.0
  0
LINE
  5
4A
330
45
100
AcDbEntity
  8
0
  6
CENTERX2
 62
     7
100
AcDbLine
 10
-123.1192301237
 20
-0.1116593705
 30
0.0
 11
-17.621872523
 21
-0.1116593705
 31
0.0
  0
LINE
  5
4B
330
45
100
AcDbEntity
  8
0
  6
CENTERX2
 62
     7
100
AcDbLine
 10
-40.8811324665
 20
23.147600573
 30
0.0
 11
-40.8811324665
 21
-23.3709193139
 31
0.0
  0
LINE
  5
4C
330
45
100
AcDbEntity
  8
0
  6
CONTINUOUS
 62
     7
100
AcDbLine
 10
-117.7197590654
 20
9.5768326838
 30
0.0
 11
-68.7091756131
 21
19.5768326838
 31
0.0
  0
LINE
  5
4D
330
45
100
AcDbEntity
  8
0
  6
CONTINUOUS
 62
     7
100
AcDbLine
 10
-117.7197590654
 20
-10.4231673162
 30
0.0
 11
-117.7197590654
 21
9.5768326838
 31
0.0
  0
LINE
  5
4E
330
45
100
AcDbEntity
  8
0
  6
CONTINUOUS
 62
     7
100
AcDbLine
 10
-68.7091756131
 20
-20.4231673162
 30
0.0
 11
-117.7197590654
 21
-10.4231673162
 31
0.0
  0
LINE
  5
4F
330
45
100
AcDbEntity
  8
0
  6
CONTINUOUS
 62
     7
100
AcDbLine
 10
-68.7091756131
 20
19.5768326838
 30
0.0
 11
-68.7091756131
 21
-20.4231673162
 31
0.0
  0
ENDBLK
  5
47
330
45
100
AcDbEntity
  8
0
100
AcDbBlockEnd
  0
BLOCK
  5
E8
330
E7
100
AcDbEntity
  8
0
100
AcDbBlockBegin
  2
*D2
 70
     1
 10
0.0
 20
0.0
 30
0.0
  3
*D2
  1

  0
SOLID
  5
EA
330
E7
100
AcDbEntity
  8
0
  6
CONTINUOUS
 62
     7
100
AcDbTrace
 10
54.1889156568
 20
366.2519432139
 30
0.0
 11
60.1889156568
 21
364.7519432139
 31
0.0
 12
60.1889156568
 22
367.7519432139
 32
0.0
 13
60.1889156568
 23
367.7519432139
 33
0.0
  0
SOLID
  5
EB
330
E7
100
AcDbEntity
  8
0
  6
CONTINUOUS
 62
     7
100
AcDbTrace
 10
213.1110843432
 20
366.2519432139
 30
0.0
 11
207.1110843432
 21
367.7519432139
 31
0.0
 12
207.1110843432
 22
364.7519432139
 32
0.0
 13
207.1110843432
 23
364.7519432139
 33
0.0
  0
LINE
  5
EC
330
E7
100
AcDbEntity
  8
0
  6
CONTINUOUS
 62
     7
100
AcDbLine
 10
54.1889156568
 20
348.2519432139
 30
0.0
 11
54.1889156568
 21
368.2519432139
 31
0.0
  0
LINE
  5
ED
330
E7
100
AcDbEntity
  8
0
  6
CONTINUOUS
 62
     7
100
AcDbLine
 10
213.1110843432
 20
339.4298614261
 30
0.0
 11
213.1110843432
 21
368.2519432139
 31
0.0
  0
LINE
  5
EE
330
E7
100
AcDbEntity
  8
0
  6
CONTINUOUS
 62
     7
100
AcDbLine
 10
54.1889156568
 20
366.2519432139
 30
0.0
 11
213.1110843432
 21
366.2519432139
 31
0.0
  0
MTEXT
  5
EF
330
E7
100
AcDbEntity
  8
0
  6
CONTINUOUS
 62
     7
100
AcDbMText
 10
123.7722223416
 20
374.4375233614
 30
0.0
 40
6.35
 41
0.0
 71
     1
 72
     1
  1
159
  7
SLDTEXTSTYLE0
  0
ENDBLK
  5
E9
330
E7
100
AcDbEntity
  8
0
100
AcDbBlockEnd
  0
BLOCK
  5
F2
330
F1
100
AcDbEntity
  8
0
100
AcDbBlockBegin
  2
*D3
 70
     1
 10
0.0
 20
0.0
 30
0.0
  3
*D3
  1

  0
SOLID
  5
F4
330
F1
100
AcDbEntity
  8
0
  6
CONTINUOUS
 62
     7
100
AcDbTrace
 10
34.1889156568
 20
346.2519432139
 30
0.0
 11
32.6889156568
 21
340.2519432139
 31
0.0
 12
35.6889156568
 22
340.2519432139
 32
0.0
 13
35.6889156568
 23
340.2519432139
 33
0.0
  0
SOLID
  5
F5
330
F1
100
AcDbEntity
  8
0
  6
CONTINUOUS
 62
     7
100
AcDbTrace
 10
34.1889156568
 20
232.1069896288
 30
0.0
 11
35.6889156568
 21
238.1069896288
 31
0.0
 12
32.6889156568
 22
238.1069896288
 32
0.0
 13
32.6889156568
 23
238.1069896288
 33
0.0
  0
LINE
  5
F6
330
F1
100
AcDbEntity
  8
0
  6
CONTINUOUS
 62
     7
100
AcDbLine
 10
52.1889156568
 20
346.2519432139
 30
0.0
 11
32.1889156568
 21
346.2519432139
 31
0.0
  0
LINE
  5
F7
330
F1
100
AcDbEntity
  8
0
  6
CONTINUOUS
 62
     7
100
AcDbLine
 10
67.3889156568
 20
232.1069896288
 30
0.0
 11
32.1889156568
 21
232.1069896288
 31
0.0
  0
LINE
  5
F8
330
F1
100
AcDbEntity
  8
0
  6
CONTINUOUS
 62
     7
100
AcDbLine
 10
34.1889156568
 20
346.2519432139
 30
0.0
 11
34.1889156568
 21
232.1069896288
 31
0.0
  0
MTEXT
  5
F9
330
F1
100
AcDbEntity
  8
0
  6
CONTINUOUS
 62
     7
100
AcDbMText
 10
26.0033355093
 20
279.3016887629
 30
0.0
 40
6.35
 41
0.0
 71
     1
 72
     1
  1
114
  7
SLDTEXTSTYLE0
 11
-4.379659758543259E-15
 21
1.0
 31
0.0
  0
ENDBLK
  5
F3
330
F1
100
AcDbEntity
  8
0
100
AcDbBlockEnd
  0
BLOCK
  5
211
330
210
100
AcDbEntity
  8
0
100
AcDbBlockBegin
  2
*D4
 70
     1
 10
0.0
 20
0.0
 30
0.0
  3
*D4
  1

  0
SOLID
  5
213
330
210
100
AcDbEntity
  8
0
  6
CONTINUOUS
 62
     7
100
AcDbTrace
 10
292.1931554739
 20
366.2519432138
 30
0.0
 11
298.1931554739
 21
364.7519432138
 31
0.0
 12
298.1931554739
 22
367.7519432138
 32
0.0
 13
298.1931554739
 23
367.7519432138
 33
0.0
  0
SOLID
  5
214
330
210
100
AcDbEntity
  8
0
  6
CONTINUOUS
 62
     7
100
AcDbTrace
 10
359.6931554737
 20
366.2519432139
 30
0.0
 11
353.6931554737
 21
367.7519432139
 31
0.0
 12
353.6931554737
 22
364.7519432139
 32
0.0
 13
353.6931554737
 23
364.7519432139
 33
0.0
  0
LINE
  5
215
330
210
100
AcDbEntity
  8
0
  6
CONTINUOUS
 62
     7
100
AcDbLine
 10
292.1931554739
 20
331.0519432139
 30
0.0
 11
292.1931554739
 21
368.2519432138
 31
0.0
  0
LINE
  5
216
330
210
100
AcDbEntity
  8
0
  6
CONTINUOUS
 62
     7
100
AcDbLine
 10
359.6931554737
 20
331.0519432139
 30
0.0
 11
359.6931554737
 21
368.2519432139
 31
0.0
  0
LINE
  5
217
330
210
100
AcDbEntity
  8
0
  6
CONTINUOUS
 62
     7
100
AcDbLine
 10
292.1931554739
 20
366.2519432138
 30
0.0
 11
359.6931554737
 21
366.2519432139
 31
0.0
  0
MTEXT
  5
218
330
210
100
AcDbEntity
  8
0
  6
CONTINUOUS
 62
     7
100
AcDbMText
 10
318.4172294837
 20
374.4375233614
 30
-91.316417158
 40
6.35
 41
0.0
 71
     1
 72
     1
  1
68
  7
SLDTEXTSTYLE0
  0
ENDBLK
  5
212
330
210
100
AcDbEntity
  8
0
100
AcDbBlockEnd
  0
ENDSEC
  0
SECTION
  2
ENTITIES
  0
LINE
  5
50
330
1F
100
AcDbEntity
  8
0
  6
CONTINUOUS
 62
     7
100
AcDbLine
 10
584.0
 20
32.0
 30
0.0
 11
316.0
 21
32.0
 31
0.0
  0
LINE
  5
51
330
1F
100
AcDbEntity
  8
0
  6
CONTINUOUS
 62
     7
100
AcDbLine
 10
584.0
 20
10.0
 30
0.0
 11
10.0
 21
10.0
 31
0.0
  0
LINE
  5
52
330
1F
100
AcDbEntity
  8
0
  6
CONTINUOUS
 62
     7
100
AcDbLine
 10
584.0
 20
10.0
 30
0.0
 11
584.0
 21
410.0
 31
0.0
  0
LINE
  5
53
330
1F
100
AcDbEntity
  8
0
  6
CONTINUOUS
 62
     7
100
AcDbLine
 10
584.0
 20
410.0
 30
0.0
 11
10.0
 21
410.0
 31
0.0
  0
LINE
  5
54
330
1F
100
AcDbEntity
  8
0
  6
CONTINUOUS
 62
     7
100
AcDbLine
 10
10.0
 20
10.0
 30
0.0
 11
10.0
 21
410.0
 31
0.0
  0
LINE
  5
55
330
1F
100
AcDbEntity
  8
0
  6
CONTINUOUS
 62
     7
100
AcDbLine
 10
518.0
 20
32.0
 30
0.0
 11
518.0
 21
10.0
 31
0.0
  0
LINE
  5
56
330
1F
100
AcDbEntity
  8
0
  6
CONTINUOUS
 62
     7
100
AcDbLine
 10
584.0
 20
104.0
 30
0.0
 11
316.0
 21
104.0
 31
0.0
  0
LINE
  5
57
330
1F
100
AcDbEntity
  8
0
  6
CONTINUOUS
 62
     7
100
AcDbLine
 10
316.0
 20
32.0
 30
0.0
 11
316.0
 21
10.0
 31
0.0
  0
LINE
  5
58
330
1F
100
AcDbEntity
  8
0
  6
CONTINUOUS
 62
     7
100
AcDbLine
 10
316.0
 20
104.0
 30
0.0
 11
316.0
 21
112.0
 31
0.0
  0
LINE
  5
59
330
1F
100
AcDbEntity
  8
0
  6
CONTINUOUS
 62
     7
100
AcDbLine
 10
316.0
 20
112.0
 30
0.0
 11
584.0
 21
112.0
 31
0.0
  0
LINE
  5
5A
330
1F
100
AcDbEntity
  8
0
  6
CONTINUOUS
 62
     7
100
AcDbLine
 10
316.0
 20
112.0
 30
0.0
 11
316.0
 21
120.0
 31
0.0
  0
LINE
  5
5B
330
1F
100
AcDbEntity
  8
0
  6
CONTINUOUS
 62
     7
100
AcDbLine
 10
316.0
 20
120.0
 30
0.0
 11
584.0
 21
120.0
 31
0.0
  0
LINE
  5
5C
330
1F
100
AcDbEntity
  8
0
  6
CONTINUOUS
 62
     7
100
AcDbLine
 10
316.0
 20
120.0
 30
0.0
 11
316.0
 21
128.0
 31
0.0
  0
LINE
  5
5D
330
1F
100
AcDbEntity
  8
0
  6
CONTINUOUS
 62
     7
100
AcDbLine
 10
316.0
 20
128.0
 30
0.0
 11
584.0
 21
128.0
 31
0.0
  0
LINE
  5
5E
330
1F
100
AcDbEntity
  8
0
  6
CONTINUOUS
 62
     7
100
AcDbLine
 10
316.0
 20
128.0
 30
0.0
 11
316.0
 21
136.0
 31
0.0
  0
LINE
  5
5F
330
1F
100
AcDbEntity
  8
0
  6
CONTINUOUS
 62
     7
100
AcDbLine
 10
316.0
 20
136.0
 30
0.0
 11
584.0
 21
136.0
 31
0.0
  0
LINE
  5
60
330
1F
100
AcDbEntity
  8
0
  6
CONTINUOUS
 62
     7
100
AcDbLine
 10
584.0
 20
144.0
 30
0.0
 11
518.0
 21
144.0
 31
0.0
  0
LINE
  5
61
330
1F
100
AcDbEntity
  8
0
  6
CONTINUOUS
 62
     7
100
AcDbLine
 10
518.0
 20
144.0
 30
0.0
 11
518.0
 21
136.0
 31
0.0
  0
LINE
  5
62
330
1F
100
AcDbEntity
  8
0
  6
CONTINUOUS
 62
     7
100
AcDbLine
 10
564.0
 20
144.0
 30
0.0
 11
564.0
 21
136.0
 31
0.0
  0
LINE
  5
63
330
1F
100
AcDbEntity
  8
0
  6
CONTINUOUS
 62
     7
100
AcDbLine
 10
330.0
 20
96.0
 30
0.0
 11
330.0
 21
136.0
 31
0.0
  0
LINE
  5
64
330
1F
100
AcDbEntity
  8
0
  6
CONTINUOUS
 62
     7
100
AcDbLine
 10
362.0
 20
136.0
 30
0.0
 11
362.0
 21
96.0
 31
0.0
  0
LINE
  5
65
330
1F
100
AcDbEntity
  8
0
  6
CONTINUOUS
 62
     7
100
AcDbLine
 10
392.0
 20
136.0
 30
0.0
 11
392.0
 21
96.0
 31
0.0
  0
LINE
  5
66
330
1F
100
AcDbEntity
  8
0
  6
CONTINUOUS
 62
     7
100
AcDbLine
 10
316.0
 20
104.0
 30
0.0
 11
316.0
 21
96.0
 31
0.0
  0
LINE
  5
67
330
1F
100
AcDbEntity
  8
0
  6
CONTINUOUS
 62
     7
100
AcDbLine
 10
316.0
 20
96.0
 30
0.0
 11
584.0
 21
96.0
 31
0.0
  0
LINE
  5
68
330
1F
100
AcDbEntity
  8
0
  6
CONTINUOUS
 62
     7
100
AcDbLine
 10
584.0
 20
48.0
 30
0.0
 11
316.0
 21
48.0
 31
0.0
  0
LINE
  5
69
330
1F
100
AcDbEntity
  8
0
  6
CONTINUOUS
 62
     7
100
AcDbLine
 10
316.0
 20
48.0
 30
0.0
 11
316.0
 21
32.0
 31
0.0
  0
LINE
  5
6A
330
1F
100
AcDbEntity
  8
0
  6
CONTINUOUS
 62
     7
100
AcDbLine
 10
568.0
 20
48.0
 30
0.0
 11
568.0
 21
32.0
 31
0.0
  0
LINE
  5
6B
330
1F
100
AcDbEntity
  8
0
  6
CONTINUOUS
 62
     7
100
AcDbLine
 10
584.0
 20
64.0
 30
0.0
 11
316.0
 21
64.0
 31
0.0
  0
LINE
  5
6C
330
1F
100
AcDbEntity
  8
0
  6
CONTINUOUS
 62
     7
100
AcDbLine
 10
550.0
 20
48.0
 30
0.0
 11
550.0
 21
32.0
 31
0.0
  0
LINE
  5
6D
330
1F
100
AcDbEntity
  8
0
  6
CONTINUOUS
 62
     7
100
AcDbLine
 10
316.0
 20
64.0
 30
0.0
 11
316.0
 21
48.0
 31
0.0
  0
LINE
  5
6E
330
1F
100
AcDbEntity
  8
0
  6
CONTINUOUS
 62
     7
100
AcDbLine
 10
528.0
 20
48.0
 30
0.0
 11
528.0
 21
32.0
 31
0.0
  0
LINE
  5
6F
330
1F
100
AcDbEntity
  8
0
  6
CONTINUOUS
 62
     7
100
AcDbLine
 10
316.0
 20
80.0
 30
0.0
 11
316.0
 21
96.0
 31
0.0
  0
LINE
  5
70
330
1F
100
AcDbEntity
  8
0
  6
CONTINUOUS
 62
     7
100
AcDbLine
 10
584.0
 20
80.0
 30
0.0
 11
316.0
 21
80.0
 31
0.0
  0
LINE
  5
71
330
1F
100
AcDbEntity
  8
0
  6
CONTINUOUS
 62
     7
100
AcDbLine
 10
316.0
 20
80.0
 30
0.0
 11
316.0
 21
64.0
 31
0.0
  0
LINE
  5
72
330
1F
100
AcDbEntity
  8
0
  6
CONTINUOUS
 62
     7
100
AcDbLine
 10
90.0
 20
18.0
 30
0.0
 11
90.0
 21
10.0
 31
0.0
  0
LINE
  5
73
330
1F
100
AcDbEntity
  8
0
  6
CONTINUOUS
 62
     7
100
AcDbLine
 10
452.0
 20
48.0
 30
0.0
 11
452.0
 21
64.0
 31
0.0
  0
LINE
  5
74
330
1F
100
AcDbEntity
  8
0
  6
CONTINUOUS
 62
     7
100
AcDbLine
 10
452.0
 20
64.0
 30
0.0
 11
452.0
 21
80.0
 31
0.0
  0
LINE
  5
75
330
1F
100
AcDbEntity
  8
0
  6
CONTINUOUS
 62
     7
100
AcDbLine
 10
362.0
 20
96.0
 30
0.0
 11
362.0
 21
80.0
 31
0.0
  0
LINE
  5
76
330
1F
100
AcDbEntity
  8
0
  6
CONTINUOUS
 62
     7
100
AcDbLine
 10
452.0
 20
80.0
 30
0.0
 11
452.0
 21
96.0
 31
0.0
  0
LINE
  5
77
330
1F
100
AcDbEntity
  8
0
  6
CONTINUOUS
 62
     7
100
AcDbLine
 10
10.0
 20
18.0
 30
0.0
 11
274.0
 21
18.0
 31
0.0
  0
LINE
  5
78
330
1F
100
AcDbEntity
  8
0
  6
CONTINUOUS
 62
     7
100
AcDbLine
 10
436.0
 20
48.0
 30
0.0
 11
436.0
 21
32.0
 31
0.0
  0
LINE
  5
79
330
1F
100
AcDbEntity
  8
0
  6
CONTINUOUS
 62
     7
100
AcDbLine
 10
124.0
 20
18.0
 30
0.0
 11
124.0
 21
10.0
 31
0.0
  0
LINE
  5
7A
330
1F
100
AcDbEntity
  8
0
  6
CONTINUOUS
 62
     7
100
AcDbLine
 10
316.0
 20
32.0
 30
0.0
 11
274.0
 21
32.0
 31
0.0
  0
LINE
  5
7B
330
1F
100
AcDbEntity
  8
0
  6
CONTINUOUS
 62
     7
100
AcDbLine
 10
274.0
 20
32.0
 30
0.0
 11
274.0
 21
10.0
 31
0.0
  0
INSERT
  5
7C
330
1F
100
AcDbEntity
  8
0
  6
CONTINUOUS
 62
     7
100
AcDbBlockReference
  2
BLOCK1
 10
316.3361944045
 20
21.0334978111
 30
0.0
 41
0.3
 42
0.3
 43
0.3
  0
MTEXT
  5
7E
330
1F
100
AcDbEntity
  8
0
  6
CONTINUOUS
 62
     7
100
AcDbMText
 10
583.576329633
 20
22.8589084986
 30
0.0
 40
8.4666666667
 41
0.0
 71
     3
 72
     1
  1
26569045
  7
SLDTEXTSTYLE0
  0
MTEXT
  5
7F
330
1F
100
AcDbEntity
  8
0
  6
CONTINUOUS
 62
     7
100
AcDbMText
 10
454.0289086677
 20
87.6870010387
 30
0.0
 40
5.2916666667
 41
0.0
 71
     1
 72
     1
  1
-
  7
SLDTEXTSTYLE0
  0
MTEXT
  5
80
330
1F
100
AcDbEntity
  8
0
  6
CONTINUOUS
 62
     7
100
AcDbMText
 10
318.0794257929
 20
21.5734231489
 30
0.0
 40
7.4083333333
 41
0.0
 71
     1
 72
     1
  1
Air Diverter
  7
SLDTEXTSTYLE0
  0
MTEXT
  5
81
330
1F
100
AcDbEntity
  8
0
  6
CONTINUOUS
 62
     7
100
AcDbMText
 10
348.0090087623
 20
29.7272304698
 30
0.0
 40
4.2333333333
 41
0.0
 71
     1
 72
     1
  1
( Model in view  26569045 - Air diverter, Compact Hazer.SLDPRT )
  7
SLDTEXTSTYLE0
  0
MTEXT
  5
82
330
1F
100
AcDbEntity
  8
0
  6
CONTINUOUS
 62
     7
100
AcDbMText
 10
538.0002209264
 20
71.6833264966
 30
0.0
 40
5.2916666667
 41
0.0
 71
     1
 72
     1
  1
ISO 2768
  7
SLDTEXTSTYLE0
  0
MTEXT
  5
83
330
1F
100
AcDbEntity
  8
0
  6
CONTINUOUS
 62
     7
100
AcDbMText
 10
538.0002209264
 20
55.7405913532
 30
0.0
 40
5.2916666667
 41
0.0
 71
     1
 72
     1
  1
ISO 2768
  7
SLDTEXTSTYLE0
  0
MTEXT
  5
84
330
1F
100
AcDbEntity
  8
0
  6
CONTINUOUS
 62
     7
100
AcDbMText
 10
438.0083561308
 20
39.7174125924
 30
0.0
 40
5.2916666667
 41
0.0
 71
     1
 72
     1
  1
Black Ral# 9005
  7
SLDTEXTSTYLE0
  0
MTEXT
  5
85
330
1F
100
AcDbEntity
  8
0
  6
CONTINUOUS
 62
     7
100
AcDbMText
 10
332.0296907192
 20
109.7940560938
 30
0.0
 40
4.2333333333
 41
0.0
 71
     1
 72
     1
  1
21/05/2012
  7
SLDTEXTSTYLE0
  0
MTEXT
  5
86
330
1F
100
AcDbEntity
  8
0
  6
CONTINUOUS
 62
     7
100
AcDbMText
 10
328.1386768226
 20
109.7300701286
 30
0.0
 40
4.2333333333
 41
0.0
 71
     3
 72
     1
  1
A
  7
SLDTEXTSTYLE0
  0
MTEXT
  5
87
330
1F
100
AcDbEntity
  8
0
  6
CONTINUOUS
 62
     7
100
AcDbMText
 10
364.0311016286
 20
109.78332288
 30
0.0
 40
4.2333333333
 41
0.0
 71
     1
 72
     1
  1
M.D
  7
SLDTEXTSTYLE0
  0
MTEXT
  5
88
330
1F
100
AcDbEntity
  8
0
  6
CONTINUOUS
 62
     7
100
AcDbMText
 10
394.0527165611
 20
109.7983569547
 30
0.0
 40
4.2333333333
 41
0.0
 71
     1
 72
     1
  1
First Release
  7
SLDTEXTSTYLE0
  0
MTEXT
  5
89
330
1F
100
AcDbEntity
  8
0
  6
CONTINUOUS
 62
     7
100
AcDbMText
 10
520.0391057878
 20
29.7510129879
 30
0.0
 40
4.2333333333
 41
0.0
 71
     1
 72
     1
  1
Item no.-Rev.
  7
SLDTEXTSTYLE0
  0
MTEXT
  5
8A
330
1F
100
AcDbEntity
  8
0
  6
CONTINUOUS
 62
     7
100
AcDbMText
 10
364.0944935123
 20
87.7371706486
 30
0.0
 40
5.2916666667
 41
0.0
 71
     1
 72
     1
  1
Compact Hazer
  7
SLDTEXTSTYLE0
  0
MTEXT
  5
8B
330
1F
100
AcDbEntity
  8
0
  6
CONTINUOUS
 62
     7
100
AcDbMText
 10
318.0994513455
 20
29.7232135593
 30
0.0
 40
4.2333333333
 41
0.0
 71
     1
 72
     1
  1
Description
  7
SLDTEXTSTYLE0
  0
MTEXT
  5
8C
330
1F
100
AcDbEntity
  8
0
  6
CONTINUOUS
 62
     7
100
AcDbMText
 10
318.1014532167
 20
101.7310373015
 30
0.0
 40
4.2333333333
 41
0.0
 71
     1
 72
     1
  1
Rev.
  7
SLDTEXTSTYLE0
  0
MTEXT
  5
8D
330
1F
100
AcDbEntity
  8
0
  6
CONTINUOUS
 62
     7
100
AcDbMText
 10
332.0928260735
 20
101.7211365474
 30
0.0
 40
4.2333333333
 41
0.0
 71
     1
 72
     1
  1
Date
  7
SLDTEXTSTYLE0
  0
MTEXT
  5
8E
330
1F
100
AcDbEntity
  8
0
  6
CONTINUOUS
 62
     7
100
AcDbMText
 10
364.0007004244
 20
101.744497353
 30
0.0
 40
4.2333333333
 41
0.0
 71
     1
 72
     1
  1
Resp.
  7
SLDTEXTSTYLE0
  0
MTEXT
  5
8F
330
1F
100
AcDbEntity
  8
0
  6
CONTINUOUS
 62
     7
100
AcDbMText
 10
394.0089862545
 20
101.7951152712
 30
0.0
 40
4.2333333333
 41
0.0
 71
     1
 72
     1
  1
CO no. / Comment
  7
SLDTEXTSTYLE0
  0
MTEXT
  5
90
330
1F
100
AcDbEntity
  8
0
  6
CONTINUOUS
 62
     7
100
AcDbMText
 10
454.0931240327
 20
55.6712423998
 30
0.0
 40
5.2916666667
 41
0.0
 71
     1
 72
     1
  1
General angular tolerance
  7
SLDTEXTSTYLE0
  0
MTEXT
  5
91
330
1F
100
AcDbEntity
  8
0
  6
CONTINUOUS
 62
     7
100
AcDbMText
 10
454.1444746698
 20
71.6833263802
 30
0.0
 40
5.2916666667
 41
0.0
 71
     1
 72
     1
  1
General linear tolerance
  7
SLDTEXTSTYLE0
  0
MTEXT
  5
92
330
1F
100
AcDbEntity
  8
0
  6
CONTINUOUS
 62
     7
100
AcDbMText
 10
570.0256695248
 20
39.7638590627
 30
0.0
 40
5.2916666667
 41
0.0
 71
     1
 72
     1
  1
mm
  7
SLDTEXTSTYLE0
  0
MTEXT
  5
93
330
1F
100
AcDbEntity
  8
0
  6
CONTINUOUS
 62
     7
100
AcDbMText
 10
570.0010689891
 20
45.8123337442
 30
0.0
 40
4.2333333333
 41
0.0
 71
     1
 72
     1
  1
Unit
  7
SLDTEXTSTYLE0
  0
MTEXT
  5
94
330
1F
100
AcDbEntity
  8
0
  6
CONTINUOUS
 62
     7
100
AcDbMText
 10
552.0136186971
 20
45.7903552218
 30
0.0
 40
4.2333333333
 41
0.0
 71
     1
 72
     1
  1
Scale
  7
SLDTEXTSTYLE0
  0
MTEXT
  5
95
330
1F
100
AcDbEntity
  8
0
  6
CONTINUOUS
 62
     7
100
AcDbMText
 10
530.1074376901
 20
45.8039296283
 30
0.0
 40
4.2333333333
 41
0.0
 71
     1
 72
     1
  1
Format
  7
SLDTEXTSTYLE0
  0
MTEXT
  5
96
330
1F
100
AcDbEntity
  8
0
  6
CONTINUOUS
 62
     7
100
AcDbMText
 10
530.0152314801
 20
39.7064860214
 30
0.0
 40
5.2916666667
 41
0.0
 71
     1
 72
     1
  1
A4
  7
SLDTEXTSTYLE0
  0
MTEXT
  5
97
330
1F
100
AcDbEntity
  8
0
  6
CONTINUOUS
 62
     7
100
AcDbMText
 10
552.0607836638
 20
39.7571538281
 30
0.0
 40
5.2916666667
 41
0.0
 71
     1
 72
     1
  1
1:2
  7
SLDTEXTSTYLE0
  0
MTEXT
  5
98
330
1F
100
AcDbEntity
  8
0
  6
CONTINUOUS
 62
     7
100
AcDbMText
 10
438.0826199445
 20
45.7338889315
 30
0.0
 40
4.2333333333
 41
0.0
 71
     1
 72
     1
  1
Color
  7
SLDTEXTSTYLE0
  0
MTEXT
  5
99
330
1F
100
AcDbEntity
  8
0
  6
CONTINUOUS
 62
     7
100
AcDbMText
 10
318.0372146823
 20
77.7395180656
 30
0.0
 40
4.2333333333
 41
0.0
 71
     1
 72
     1
  1
Item to be
  7
SLDTEXTSTYLE0
  0
MTEXT
  5
9A
330
1F
100
AcDbEntity
  8
0
  6
CONTINUOUS
 62
     7
100
AcDbMText
 10
318.1113761949
 20
45.7687318535
 30
0.0
 40
4.2333333333
 41
0.0
 71
     1
 72
     1
  1
Item to be
  7
SLDTEXTSTYLE0
  0
MTEXT
  5
9B
330
1F
100
AcDbEntity
  8
0
  6
CONTINUOUS
 62
     7
100
AcDbMText
 10
318.1073258361
 20
61.764735364
 30
0.0
 40
4.2333333333
 41
0.0
 71
     1
 72
     1
  1
Item to be
  7
SLDTEXTSTYLE0
  0
MTEXT
  5
9D
330
1F
100
AcDbEntity
  8
0
  6
CONTINUOUS
 62
     7
100
AcDbMText
 10
318.0372146823
 20
92.0416265948
 30
0.0
 40
8.4666666667
 41
0.0
 71
     1
 72
     1
  1
Martin™
  7
SLDTEXTSTYLE1
  0
MTEXT
  5
9E
330
1F
100
AcDbEntity
  8
0
  6
CONTINUOUS
 62
     7
100
AcDbMText
 10
364.0281695876
 20
93.7624719261
 30
0.0
 40
4.2333333333
 41
0.0
 71
     1
 72
     1
  1
First used in
  7
SLDTEXTSTYLE0
  0
MTEXT
  5
9F
330
1F
100
AcDbEntity
  8
0
  6
CONTINUOUS
 62
     7
100
AcDbMText
 10
454.0518708622
 20
93.80076926
 30
0.0
 40
4.2333333333
 41
0.0
 71
     1
 72
     1
  1
Material
  7
SLDTEXTSTYLE0
  0
MTEXT
  5
A0
330
1F
100
AcDbEntity
  8
0
  6
CONTINUOUS
 62
     7
100
AcDbMText
 10
318.1079281909
 20
71.6410841217
 30
0.0
 40
5.2916666667
 41
0.0
 71
     1
 72
     1
  1
Powder Coated - Fine Texture
  7
SLDTEXTSTYLE0
  0
MTEXT
  5
A1
330
1F
100
AcDbEntity
  8
0
  6
CONTINUOUS
 62
     7
100
AcDbMText
 10
318.0158241824
 20
55.6983006088
 30
0.0
 40
5.2916666667
 41
0.0
 71
     1
 72
     1
  1
-
  7
SLDTEXTSTYLE0
  0
MTEXT
  5
A2
330
1F
100
AcDbEntity
  8
0
  6
CONTINUOUS
 62
     7
100
AcDbMText
 10
318.0248549179
 20
39.7628616794
 30
0.0
 40
5.2916666667
 41
0.0
 71
     1
 72
     1
  1
-
  7
SLDTEXTSTYLE0
  0
MTEXT
  5
A3
330
1F
100
AcDbEntity
  8
0
  6
CONTINUOUS
 62
     7
100
AcDbMText
 10
11.369123259
 20
16.6599174599
 30
0.0
 40
4.2333333333
 41
0.0
 71
     1
 72
     1
  1
© 2009 Martin Professional A/S
  7
SLDTEXTSTYLE0
  0
MTEXT
  5
A4
330
1F
100
AcDbEntity
  8
0
  6
CONTINUOUS
 62
     7
100
AcDbMText
 10
125.8341118938
 20
16.5383907071
 30
0.0
 40
4.2333333333
 41
0.0
 71
     1
 72
     1
  1
Martin™ General Technical Specification apply to this item
  7
SLDTEXTSTYLE1
  0
MTEXT
  5
A5
330
1F
100
AcDbEntity
  8
0
  6
CONTINUOUS
 62
     7
100
AcDbMText
 10
91.8624009128
 20
16.6599174599
 30
0.0
 40
4.2333333333
 41
0.0
 71
     1
 72
     1
  1
Confidential
  7
SLDTEXTSTYLE0
  0
MTEXT
  5
A6
330
1F
100
AcDbEntity
  8
0
  6
CONTINUOUS
 62
     7
100
AcDbMText
 10
520.0391057878
 20
141.9002560826
 30
0.0
 40
4.2333333333
 41
0.0
 71
     1
 72
     1
  1
Approved by
  7
SLDTEXTSTYLE0
  0
LINE
  5
A7
330
1F
100
AcDbEntity
  8
0
  6
CONTINUOUS
 62
     7
100
AcDbLine
 10
69.3889214638
 20
329.0519530364
 30
0.0
 11
69.3889214638
 21
331.2519306727
 31
0.0
  0
LINE
  5
A8
330
1F
100
AcDbEntity
  8
0
  6
CONTINUOUS
 62
     7
100
AcDbLine
 10
69.3889214638
 20
331.2519306727
 30
0.0
 11
94.3889125231
 21
331.2519306727
 31
0.0
  0
LINE
  5
A9
330
1F
100
AcDbEntity
  8
0
  6
CONTINUOUS
 62
     7
100
AcDbLine
 10
94.3889125231
 20
331.2519306727
 30
0.0
 11
94.3889125231
 21
329.0519530364
 31
0.0
  0
LINE
  5
AA
330
1F
100
AcDbEntity
  8
0
  6
CONTINUOUS
 62
     7
100
AcDbLine
 10
54.1889174822
 20
346.2519461699
 30
0.0
 11
55.3889228943
 21
346.2519461699
 31
0.0
  0
LINE
  5
AB
330
1F
100
AcDbEntity
  8
0
  6
CONTINUOUS
 62
     7
100
AcDbLine
 10
55.3889228943
 20
346.2519461699
 30
0.0
 11
55.3889228943
 21
340.2519340106
 31
0.0
  0
LINE
  5
AC
330
1F
100
AcDbEntity
  8
0
  6
CONTINUOUS
 62
     7
100
AcDbLine
 10
55.3889228943
 20
340.2519340106
 30
0.0
 11
54.1889174822
 21
340.2519340106
 31
0.0
  0
LINE
  5
AD
330
1F
100
AcDbEntity
  8
0
  6
CONTINUOUS
 62
     7
100
AcDbLine
 10
54.1889174822
 20
340.2519340106
 30
0.0
 11
54.1889174822
 21
346.2519461699
 31
0.0
  0
LINE
  5
AE
330
1F
100
AcDbEntity
  8
0
  6
CONTINUOUS
 62
     7
100
AcDbLine
 10
55.3889228943
 20
332.2519476004
 30
0.0
 11
54.1889174822
 21
332.2519476004
 31
0.0
  0
LINE
  5
AF
330
1F
100
AcDbEntity
  8
0
  6
CONTINUOUS
 62
     7
100
AcDbLine
 10
55.3889228943
 20
332.2519476004
 30
0.0
 11
55.3889228943
 21
340.2519340106
 31
0.0
  0
LINE
  5
B0
330
1F
100
AcDbEntity
  8
0
  6
CONTINUOUS
 62
     7
100
AcDbLine
 10
54.1889174822
 20
332.2519476004
 30
0.0
 11
54.1889174822
 21
340.2519340106
 31
0.0
  0
LINE
  5
B1
330
1F
100
AcDbEntity
  8
0
  6
CONTINUOUS
 62
     7
100
AcDbLine
 10
56.3889100197
 20
331.2519306727
 30
0.0
 11
56.3889100197
 21
330.0519401618
 31
0.0
  0
LINE
  5
B2
330
1F
100
AcDbEntity
  8
0
  6
CONTINUOUS
 62
     7
100
AcDbLine
 10
56.3889100197
 20
331.2519306727
 30
0.0
 11
69.3889214638
 21
331.2519306727
 31
0.0
  0
LINE
  5
B3
330
1F
100
AcDbEntity
  8
0
  6
CONTINUOUS
 62
     7
100
AcDbLine
 10
56.3889100197
 20
330.0519401618
 30
0.0
 11
69.3889214638
 21
330.0519401618
 31
0.0
  0
ARC
  5
B4
330
1F
100
AcDbEntity
  8
0
  6
CONTINUOUS
 62
     7
100
AcDbCircle
 10
56.3889156568
 20
332.2519432139
 30
0.0
 40
0.9999999999999716
100
AcDbArc
 50
180.0
 51
270.0
  0
ARC
  5
B5
330
1F
100
AcDbEntity
  8
0
  6
CONTINUOUS
 62
     7
100
AcDbCircle
 10
56.3889156568
 20
332.2519432139
 30
0.0
 40
2.199999999999989
100
AcDbArc
 50
180.0
 51
270.0
  0
CIRCLE
  5
B6
330
1F
100
AcDbEntity
  8
0
  6
CONTINUOUS
 62
     7
100
AcDbCircle
 10
171.5472632256
 20
301.7790456966
 30
0.0
 40
1.349999999999994
  0
CIRCLE
  5
B7
330
1F
100
AcDbEntity
  8
0
  6
CONTINUOUS
 62
     7
100
AcDbCircle
 10
129.1208563544
 20
259.3526388254
 30
0.0
 40
1.349999999999994
  0
LINE
  5
B8
330
1F
100
AcDbEntity
  8
0
  6
CONTINUOUS
 62
     7
100
AcDbLine
 10
200.5844890121
 20
327.6031429358
 30
0.0
 11
202.5783668253
 21
326.6733700819
 31
0.0
  0
LINE
  5
B9
330
1F
100
AcDbEntity
  8
0
  6
CONTINUOUS
 62
     7
100
AcDbLine
 10
194.742352793
 20
315.0746340342
 30
0.0
 11
200.5844890121
 21
327.6031429358
 31
0.0
  0
LINE
  5
BA
330
1F
100
AcDbEntity
  8
0
  6
CONTINUOUS
 62
     7
100
AcDbLine
 10
113.9747007731
 20
234.3070025034
 30
0.0
 11
194.742352793
 21
315.0746340342
 31
0.0
  0
LINE
  5
BB
330
1F
100
AcDbEntity
  8
0
  6
CONTINUOUS
 62
     7
100
AcDbLine
 10
69.3889214638
 20
234.3070025034
 30
0.0
 11
113.9747007731
 21
234.3070025034
 31
0.0
  0
LINE
  5
BC
330
1F
100
AcDbEntity
  8
0
  6
CONTINUOUS
 62
     7
100
AcDbLine
 10
69.3889214638
 20
329.0519530364
 30
0.0
 11
69.3889214638
 21
234.3070025034
 31
0.0
  0
LINE
  5
BD
330
1F
100
AcDbEntity
  8
0
  6
CONTINUOUS
 62
     7
100
AcDbLine
 10
69.3889214638
 20
329.0519530364
 30
0.0
 11
103.82598182
 21
329.0519530364
 31
0.0
  0
CIRCLE
  5
BE
330
1F
100
AcDbEntity
  8
0
  6
CONTINUOUS
 62
     7
100
AcDbCircle
 10
73.8889156568
 20
319.0519432139
 30
0.0
 40
1.349999999999966
  0
CIRCLE
  5
BF
330
1F
100
AcDbEntity
  8
0
  6
CONTINUOUS
 62
     7
100
AcDbCircle
 10
89.8889156568
 20
319.0519432139
 30
0.0
 40
1.349999999999966
  0
LINE
  5
C0
330
1F
100
AcDbEntity
  8
0
  6
CONTINUOUS
 62
     7
100
AcDbLine
 10
205.1796923373
 20
332.2519476004
 30
0.0
 11
135.5515672806
 21
332.2519476004
 31
0.0
  0
ARC
  5
C1
330
1F
100
AcDbEntity
  8
0
  6
CONTINUOUS
 62
     7
100
AcDbCircle
 10
98.5193813946
 20
326.2519432139
 30
0.0
 40
6.000000000000002
100
AcDbArc
 50
22.5079097392
 51
27.8181392847
  0
LINE
  5
C2
330
1F
100
AcDbEntity
  8
0
  6
CONTINUOUS
 62
     7
100
AcDbLine
 10
135.5515672806
 20
332.2519476004
 30
0.0
 11
126.9951864127
 21
324.5792800971
 31
0.0
  0
ARC
  5
C3
330
1F
100
AcDbEntity
  8
0
  6
CONTINUOUS
 62
     7
100
AcDbCircle
 10
106.8338216395
 20
329.6972419547
 30
0.0
 40
3.000000000012243
100
AcDbArc
 50
202.5079097392
 51
251.4858397102
  0
ARC
  5
C4
330
1F
100
AcDbEntity
  8
0
  6
CONTINUOUS
 62
     7
100
AcDbCircle
 10
169.7065473835
 20
517.4497928225
 30
0.0
 40
200.9999999996231
100
AcDbArc
 50
251.4858397102
 51
256.6543165423
  0
ARC
  5
C5
330
1F
100
AcDbEntity
  8
0
  6
CONTINUOUS
 62
     7
100
AcDbCircle
 10
124.0030774888
 20
324.7967553706
 30
0.0
 40
2.999999999986389
100
AcDbArc
 50
256.6543165423
 51
355.8430733844
  0
CIRCLE
  5
C6
330
1F
100
AcDbEntity
  8
0
  6
CONTINUOUS
 62
     7
100
AcDbCircle
 10
84.3889156568
 20
241.3069896288
 30
0.0
 40
1.349999999999952
  0
CIRCLE
  5
C7
330
1F
100
AcDbEntity
  8
0
  6
CONTINUOUS
 62
     7
100
AcDbCircle
 10
190.4367700949
 20
322.4047000836
 30
0.0
 40
1.349999999999994
  0
LINE
  5
C8
330
1F
100
AcDbEntity
  8
0
  6
CONTINUOUS
 62
     7
100
AcDbLine
 10
202.5783668253
 20
326.6733700819
 30
0.0
 11
205.1796923373
 21
332.2519476004
 31
0.0
  0
ELLIPSE
  5
C9
330
1F
100
AcDbEntity
  8
0
  6
CONTINUOUS
 62
     7
100
AcDbEllipse
 10
113.9747020944
 20
234.3069896288
 30
0.0
 11
-1.555634918614388
 21
1.555634918614373
 31
0.0
210
0.0
220
0.0
230
1.0
 40
0.0024599823
 41
3.141592657570689
 42
4.712388980385781
  0
ELLIPSE
  5
CA
330
1F
100
AcDbEntity
  8
0
  6
CONTINUOUS
 62
     7
100
AcDbEllipse
 10
194.7423522976
 20
315.074639832
 30
0.0
 11
1.55563491861605
 21
-1.555634918616022
 31
0.0
210
0.0
220
0.0
230
1.0
 40
0.0023077878
 41
4.712388980383428
 42
6.283185307179586
  0
LINE
  5
CB
330
1F
100
AcDbEntity
  8
0
  6
CONTINUOUS
 62
     7
100
AcDbLine
 10
115.5303372983
 20
232.7513510771
 30
0.0
 11
196.2979874555
 21
313.5190124102
 31
0.0
  0
LINE
  5
CC
330
1F
100
AcDbEntity
  8
0
  6
CONTINUOUS
 62
     7
100
AcDbLine
 10
196.2979874555
 20
313.5190124102
 30
0.0
 11
195.4494594577
 21
314.3675441332
 31
0.0
  0
LINE
  5
CD
330
1F
100
AcDbEntity
  8
0
  6
CONTINUOUS
 62
     7
100
AcDbLine
 10
115.5303372983
 20
232.7513510771
 30
0.0
 11
114.6818055752
 21
233.5998828001
 31
0.0
  0
ELLIPSE
  5
CE
330
1F
100
AcDbEntity
  8
0
  6
CONTINUOUS
 62
     7
100
AcDbEllipse
 10
194.7423522975
 20
315.0746398319
 30
0.0
 11
1.993877131475159
 21
-0.9297601758266296
 31
0.0
210
0.0
220
0.0
230
1.0
 40
0.0023077878
 41
0.0
 42
1.570796326796003
  0
LINE
  5
CF
330
1F
100
AcDbEntity
  8
0
  6
CONTINUOUS
 62
     7
100
AcDbLine
 10
196.7362287435
 20
314.1448909827
 30
0.0
 11
195.6486600432
 21
314.6520073004
 31
0.0
  0
LINE
  5
D0
330
1F
100
AcDbEntity
  8
0
  6
CONTINUOUS
 62
     7
100
AcDbLine
 10
196.7362287435
 20
314.1448909827
 30
0.0
 11
202.5783668253
 21
326.6733700819
 31
0.0
  0
LINE
  5
D1
330
1F
100
AcDbEntity
  8
0
  6
CONTINUOUS
 62
     7
100
AcDbLine
 10
113.9747007731
 20
232.1069950648
 30
0.0
 11
113.9747007731
 21
233.3069855757
 31
0.0
  0
ELLIPSE
  5
D2
330
1F
100
AcDbEntity
  8
0
  6
CONTINUOUS
 62
     7
100
AcDbEllipse
 10
113.9747020944
 20
234.3069896288
 30
0.0
 11
0.0
 21
2.199999999999989
 31
0.0
210
0.0
220
0.0
230
1.0
 40
0.0024599823
 41
1.570796326793786
 42
3.141592653616461
  0
LINE
  5
D3
330
1F
100
AcDbEntity
  8
0
  6
CONTINUOUS
 62
     7
100
AcDbLine
 10
69.3889214638
 20
234.3070025034
 30
0.0
 11
69.3889214638
 21
232.1069950648
 31
0.0
  0
LINE
  5
D4
330
1F
100
AcDbEntity
  8
0
  6
CONTINUOUS
 62
     7
100
AcDbLine
 10
69.3889214638
 20
232.1069950648
 30
0.0
 11
113.9747007731
 21
232.1069950648
 31
0.0
  0
LINE
  5
D5
330
1F
100
AcDbEntity
  8
0
  6
CONTINUOUS
 62
     7
100
AcDbLine
 10
206.1395972017
 20
337.1498996802
 30
0.0
 11
203.8556384835
 21
332.2519476004
 31
0.0
  0
LINE
  5
D6
330
1F
100
AcDbEntity
  8
0
  6
CONTINUOUS
 62
     7
100
AcDbLine
 10
206.1395972017
 20
337.1498996802
 30
0.0
 11
207.2271677646
 21
336.6427535601
 31
0.0
  0
LINE
  5
D7
330
1F
100
AcDbEntity
  8
0
  6
CONTINUOUS
 62
     7
100
AcDbLine
 10
207.2271677646
 20
336.6427535601
 30
0.0
 11
205.1796923373
 21
332.2519476004
 31
0.0
  0
ARC
  5
D8
330
1F
100
AcDbEntity
  8
0
  6
CONTINUOUS
 62
     7
100
AcDbCircle
 10
194.7423522975
 20
315.0746398319
 30
0.0
 40
1.000000000000012
100
AcDbArc
 50
315.0000000024
 51
335.0000000001
  0
ARC
  5
D9
330
1F
100
AcDbEntity
  8
0
  6
CONTINUOUS
 62
     7
100
AcDbCircle
 10
194.7423522975
 20
315.0746398319
 30
0.0
 40
2.200000000000011
100
AcDbArc
 50
315.0000000011
 51
335.0000000001
  0
ARC
  5
DA
330
1F
100
AcDbEntity
  8
0
  6
CONTINUOUS
 62
     7
100
AcDbCircle
 10
113.9747020944
 20
234.3069896288
 30
0.0
 40
1.000000000000008
100
AcDbArc
 50
270.0
 51
315.0000000001
  0
ARC
  5
DB
330
1F
100
AcDbEntity
  8
0
  6
CONTINUOUS
 62
     7
100
AcDbCircle
 10
113.9747020944
 20
234.3069896288
 30
0.0
 40
2.200000000000006
100
AcDbArc
 50
270.0
 51
315.0
  0
LINE
  5
DC
330
1F
100
AcDbEntity
  8
0
  6
CONTINUOUS
 62
     7
100
AcDbLine
 10
212.6039425823
 20
336.3422865458
 30
0.0
 11
208.9787117187
 21
338.0327636786
 31
0.0
  0
LINE
  5
DD
330
1F
100
AcDbEntity
  8
0
  6
CONTINUOUS
 62
     7
100
AcDbLine
 10
208.9787117187
 20
338.0327636786
 30
0.0
 11
209.4858531821
 21
339.1203398295
 31
0.0
  0
LINE
  5
DE
330
1F
100
AcDbEntity
  8
0
  6
CONTINUOUS
 62
     7
100
AcDbLine
 10
213.1110840458
 20
337.4298626967
 30
0.0
 11
209.4858531821
 21
339.1203398295
 31
0.0
  0
LINE
  5
DF
330
1F
100
AcDbEntity
  8
0
  6
CONTINUOUS
 62
     7
100
AcDbLine
 10
213.1110840458
 20
337.4298626967
 30
0.0
 11
212.6039425823
 21
336.3422865458
 31
0.0
  0
LINE
  5
E0
330
1F
100
AcDbEntity
  8
0
  6
CONTINUOUS
 62
     7
100
AcDbLine
 10
207.6497851852
 20
337.5490719862
 30
0.0
 11
206.5622164849
 21
338.0562181063
 31
0.0
  0
ARC
  5
E1
330
1F
100
AcDbEntity
  8
0
  6
CONTINUOUS
 62
     7
100
AcDbCircle
 10
208.5560930192
 20
337.1264573416
 30
0.0
 40
2.199999999999992
100
AcDbArc
 50
65.0
 51
155.0
  0
ARC
  5
E2
330
1F
100
AcDbEntity
  8
0
  6
CONTINUOUS
 62
     7
100
AcDbCircle
 10
208.5560930192
 20
337.1264573416
 30
0.0
 40
0.999999999999967
100
AcDbArc
 50
65.0
 51
155.0
  0
LINE
  5
E3
330
1F
100
AcDbEntity
  8
0
  6
CONTINUOUS
 62
     7
100
AcDbLine
 10
207.6497851852
 20
337.5490719862
 30
0.0
 11
207.2271677646
 21
336.6427535601
 31
0.0
  0
LINE
  5
E4
330
1F
100
AcDbEntity
  8
0
  6
CONTINUOUS
 62
     7
100
AcDbLine
 10
206.5622164849
 20
338.0562181063
 30
0.0
 11
206.1395972017
 21
337.1498996802
 31
0.0
  0
DIMENSION
  5
E5
330
1F
100
AcDbEntity
  8
0
  6
CONTINUOUS
 62
     7
100
AcDbDimension
  2
*D2
 10
213.1110843432
 20
366.2519432139
 30
0.0
 11
133.65
 21
366.2519432139
 31
0.0
 70
   160
  3
SLDDIMSTYLE0
100
AcDbAlignedDimension
 13
54.1889156568
 23
346.2519432139
 33
0.0
 14
213.1110843432
 24
337.4298614261
 34
0.0
 50
0.0
100
AcDbRotatedDimension
  0
DIMENSION
  5
F0
330
1F
100
AcDbEntity
  8
0
  6
CONTINUOUS
 62
     7
100
AcDbDimension
  2
*D3
 10
34.1889156568
 20
232.1069896288
 30
0.0
 11
34.1889156568
 21
289.1794664213
 31
0.0
 70
   160
  3
SLDDIMSTYLE0
100
AcDbAlignedDimension
 13
54.1889156568
 23
346.2519432139
 33
0.0
 14
69.3889156568
 24
232.1069896288
 34
0.0
 50
90.0
100
AcDbRotatedDimension
  0
LINE
  5
FA
330
1F
100
AcDbEntity
  8
0
  6
CONTINUOUS
 62
     7
100
AcDbLine
 10
72.3889126423
 20
153.7294660756
 30
0.0
 11
72.3889126423
 21
153.6794652292
 31
0.0
  0
LINE
  5
FB
330
1F
100
AcDbEntity
  8
0
  6
CONTINUOUS
 62
     7
100
AcDbLine
 10
75.388918722
 20
153.6794652292
 30
0.0
 11
75.388918722
 21
153.7294660756
 31
0.0
  0
LINE
  5
FC
330
1F
100
AcDbEntity
  8
0
  6
CONTINUOUS
 62
     7
100
AcDbLine
 10
88.3889152649
 20
153.7294660756
 30
0.0
 11
88.3889152649
 21
153.6794652292
 31
0.0
  0
LINE
  5
FD
330
1F
100
AcDbEntity
  8
0
  6
CONTINUOUS
 62
     7
100
AcDbLine
 10
91.3889213446
 20
153.6794652292
 30
0.0
 11
91.3889213446
 21
153.7294660756
 31
0.0
  0
LINE
  5
FE
330
1F
100
AcDbEntity
  8
0
  6
CONTINUOUS
 62
     7
100
AcDbLine
 10
75.388918722
 20
88.629466767
 30
0.0
 11
75.388918722
 21
88.6794676134
 31
0.0
  0
LINE
  5
FF
330
1F
100
AcDbEntity
  8
0
  6
CONTINUOUS
 62
     7
100
AcDbLine
 10
72.3889126423
 20
88.6794676134
 30
0.0
 11
72.3889126423
 21
88.629466767
 31
0.0
  0
LINE
  5
100
330
1F
100
AcDbEntity
  8
0
  6
CONTINUOUS
 62
     7
100
AcDbLine
 10
91.3889213446
 20
88.629466767
 30
0.0
 11
91.3889213446
 21
88.6794676134
 31
0.0
  0
LINE
  5
101
330
1F
100
AcDbEntity
  8
0
  6
CONTINUOUS
 62
     7
100
AcDbLine
 10
88.3889152649
 20
88.6794676134
 30
0.0
 11
88.3889152649
 21
88.629466767
 31
0.0
  0
LINE
  5
102
330
1F
100
AcDbEntity
  8
0
  6
CONTINUOUS
 62
     7
100
AcDbLine
 10
55.3889228943
 20
133.1794665256
 30
0.0
 11
54.1889174822
 21
133.1794665256
 31
0.0
  0
LINE
  5
103
330
1F
100
AcDbEntity
  8
0
  6
CONTINUOUS
 62
     7
100
AcDbLine
 10
54.1889174822
 20
120.1794663738
 30
0.0
 11
55.3889228943
 21
120.1794663738
 31
0.0
  0
LINE
  5
104
330
1F
100
AcDbEntity
  8
0
  6
CONTINUOUS
 62
     7
100
AcDbLine
 10
54.1889174822
 20
120.1794663738
 30
0.0
 11
54.1889174822
 21
133.1794665256
 31
0.0
  0
LINE
  5
105
330
1F
100
AcDbEntity
  8
0
  6
CONTINUOUS
 62
     7
100
AcDbLine
 10
55.3889228943
 20
120.1794663738
 30
0.0
 11
55.3889228943
 21
133.1794665256
 31
0.0
  0
LINE
  5
106
330
1F
100
AcDbEntity
  8
0
  6
CONTINUOUS
 62
     7
100
AcDbLine
 10
54.1889174822
 20
139.1794656464
 30
0.0
 11
55.3889228943
 21
139.1794656464
 31
0.0
  0
LINE
  5
107
330
1F
100
AcDbEntity
  8
0
  6
CONTINUOUS
 62
     7
100
AcDbLine
 10
54.1889174822
 20
133.1794665256
 30
0.0
 11
54.1889174822
 21
139.1794656464
 31
0.0
  0
LINE
  5
108
330
1F
100
AcDbEntity
  8
0
  6
CONTINUOUS
 62
     7
100
AcDbLine
 10
55.3889228943
 20
139.1794656464
 30
0.0
 11
55.3889228943
 21
133.1794665256
 31
0.0
  0
LINE
  5
109
330
1F
100
AcDbEntity
  8
0
  6
CONTINUOUS
 62
     7
100
AcDbLine
 10
55.3889228943
 20
114.1794662052
 30
0.0
 11
54.1889174822
 21
114.1794662052
 31
0.0
  0
LINE
  5
10A
330
1F
100
AcDbEntity
  8
0
  6
CONTINUOUS
 62
     7
100
AcDbLine
 10
54.1889174822
 20
114.1794662052
 30
0.0
 11
54.1889174822
 21
120.1794663738
 31
0.0
  0
LINE
  5
10B
330
1F
100
AcDbEntity
  8
0
  6
CONTINUOUS
 62
     7
100
AcDbLine
 10
55.3889228943
 20
120.1794663738
 30
0.0
 11
55.3889228943
 21
114.1794662052
 31
0.0
  0
LINE
  5
10C
330
1F
100
AcDbEntity
  8
0
  6
CONTINUOUS
 62
     7
100
AcDbLine
 10
55.3889228943
 20
114.1794662052
 30
0.0
 11
56.3889100197
 21
114.1794662052
 31
0.0
  0
LINE
  5
10D
330
1F
100
AcDbEntity
  8
0
  6
CONTINUOUS
 62
     7
100
AcDbLine
 10
56.3889100197
 20
139.1794656464
 30
0.0
 11
55.3889228943
 21
139.1794656464
 31
0.0
  0
LINE
  5
10E
330
1F
100
AcDbEntity
  8
0
  6
CONTINUOUS
 62
     7
100
AcDbLine
 10
56.3889100197
 20
114.1794662052
 30
0.0
 11
56.3889100197
 21
139.1794656464
 31
0.0
  0
LINE
  5
10F
330
1F
100
AcDbEntity
  8
0
  6
CONTINUOUS
 62
     7
100
AcDbLine
 10
69.3889214638
 20
139.1794656464
 30
0.0
 11
69.3889214638
 21
151.4794671038
 31
0.0
  0
LINE
  5
110
330
1F
100
AcDbEntity
  8
0
  6
CONTINUOUS
 62
     7
100
AcDbLine
 10
94.3889125231
 20
151.4794671038
 30
0.0
 11
69.3889214638
 21
151.4794671038
 31
0.0
  0
LINE
  5
111
330
1F
100
AcDbEntity
  8
0
  6
CONTINUOUS
 62
     7
100
AcDbLine
 10
94.3889125231
 20
90.8794657388
 30
0.0
 11
94.3889125231
 21
151.4794671038
 31
0.0
  0
LINE
  5
112
330
1F
100
AcDbEntity
  8
0
  6
CONTINUOUS
 62
     7
100
AcDbLine
 10
69.3889214638
 20
90.8794657388
 30
0.0
 11
94.3889125231
 21
90.8794657388
 31
0.0
  0
LINE
  5
113
330
1F
100
AcDbEntity
  8
0
  6
CONTINUOUS
 62
     7
100
AcDbLine
 10
69.3889214638
 20
90.8794657388
 30
0.0
 11
69.3889214638
 21
114.1794662052
 31
0.0
  0
LINE
  5
114
330
1F
100
AcDbEntity
  8
0
  6
CONTINUOUS
 62
     7
100
AcDbLine
 10
56.3889100197
 20
114.1794662052
 30
0.0
 11
69.3889214638
 21
114.1794662052
 31
0.0
  0
LINE
  5
115
330
1F
100
AcDbEntity
  8
0
  6
CONTINUOUS
 62
     7
100
AcDbLine
 10
56.3889100197
 20
139.1794656464
 30
0.0
 11
69.3889214638
 21
139.1794656464
 31
0.0
  0
LINE
  5
116
330
1F
100
AcDbEntity
  8
0
  6
CONTINUOUS
 62
     7
100
AcDbLine
 10
94.3889125231
 20
153.6794652292
 30
0.0
 11
69.3889214638
 21
153.6794652292
 31
0.0
  0
LINE
  5
117
330
1F
100
AcDbEntity
  8
0
  6
CONTINUOUS
 62
     7
100
AcDbLine
 10
94.3889125231
 20
153.6794652292
 30
0.0
 11
94.3889125231
 21
151.4794671038
 31
0.0
  0
LINE
  5
118
330
1F
100
AcDbEntity
  8
0
  6
CONTINUOUS
 62
     7
100
AcDbLine
 10
69.3889214638
 20
151.4794671038
 30
0.0
 11
69.3889214638
 21
153.6794652292
 31
0.0
  0
LINE
  5
119
330
1F
100
AcDbEntity
  8
0
  6
CONTINUOUS
 62
     7
100
AcDbLine
 10
94.3889125231
 20
90.8794657388
 30
0.0
 11
94.3889125231
 21
88.6794676134
 31
0.0
  0
LINE
  5
11A
330
1F
100
AcDbEntity
  8
0
  6
CONTINUOUS
 62
     7
100
AcDbLine
 10
69.3889214638
 20
88.6794676134
 30
0.0
 11
94.3889125231
 21
88.6794676134
 31
0.0
  0
LINE
  5
11B
330
1F
100
AcDbEntity
  8
0
  6
CONTINUOUS
 62
     7
100
AcDbLine
 10
69.3889214638
 20
88.6794676134
 30
0.0
 11
69.3889214638
 21
90.8794657388
 31
0.0
  0
LINE
  5
11C
330
1F
100
AcDbEntity
  8
0
  6
CONTINUOUS
 62
     7
100
AcDbLine
 10
135.5515672806
 20
154.9294677624
 30
0.0
 11
135.5515672806
 21
153.7294660756
 31
0.0
  0
LINE
  5
11D
330
1F
100
AcDbEntity
  8
0
  6
CONTINUOUS
 62
     7
100
AcDbLine
 10
135.5515672806
 20
154.9294677624
 30
0.0
 11
205.1796923373
 21
154.9294677624
 31
0.0
  0
LINE
  5
11E
330
1F
100
AcDbEntity
  8
0
  6
CONTINUOUS
 62
     7
100
AcDbLine
 10
135.5515672806
 20
153.7294660756
 30
0.0
 11
203.8556384835
 21
153.7294660756
 31
0.0
  0
LINE
  5
11F
330
1F
100
AcDbEntity
  8
0
  6
CONTINUOUS
 62
     7
100
AcDbLine
 10
205.1796923373
 20
154.9294677624
 30
0.0
 11
205.1796923373
 21
153.7294660756
 31
0.0
  0
LINE
  5
120
330
1F
100
AcDbEntity
  8
0
  6
CONTINUOUS
 62
     7
100
AcDbLine
 10
126.9951864127
 20
154.9294677624
 30
0.0
 11
126.9951864127
 21
153.7294660756
 31
0.0
  0
LINE
  5
121
330
1F
100
AcDbEntity
  8
0
  6
CONTINUOUS
 62
     7
100
AcDbLine
 10
126.9951864127
 20
153.7294660756
 30
0.0
 11
135.5515672806
 21
153.7294660756
 31
0.0
  0
LINE
  5
122
330
1F
100
AcDbEntity
  8
0
  6
CONTINUOUS
 62
     7
100
AcDbLine
 10
126.9951864127
 20
154.9294677624
 30
0.0
 11
135.5515672806
 21
154.9294677624
 31
0.0
  0
LINE
  5
123
330
1F
100
AcDbEntity
  8
0
  6
CONTINUOUS
 62
     7
100
AcDbLine
 10
103.82598182
 20
154.9294677624
 30
0.0
 11
103.82598182
 21
153.7294660756
 31
0.0
  0
LINE
  5
124
330
1F
100
AcDbEntity
  8
0
  6
CONTINUOUS
 62
     7
100
AcDbLine
 10
69.3889214638
 20
154.9294677624
 30
0.0
 11
69.3889214638
 21
153.7294660756
 31
0.0
  0
LINE
  5
125
330
1F
100
AcDbEntity
  8
0
  6
CONTINUOUS
 62
     7
100
AcDbLine
 10
69.3889214638
 20
153.7294660756
 30
0.0
 11
103.82598182
 21
153.7294660756
 31
0.0
  0
LINE
  5
126
330
1F
100
AcDbEntity
  8
0
  6
CONTINUOUS
 62
     7
100
AcDbLine
 10
69.3889214638
 20
154.9294677624
 30
0.0
 11
103.82598182
 21
154.9294677624
 31
0.0
  0
LINE
  5
127
330
1F
100
AcDbEntity
  8
0
  6
CONTINUOUS
 62
     7
100
AcDbLine
 10
104.0623440388
 20
154.9294677624
 30
0.0
 11
104.0623440388
 21
153.7294660756
 31
0.0
  0
LINE
  5
128
330
1F
100
AcDbEntity
  8
0
  6
CONTINUOUS
 62
     7
100
AcDbLine
 10
103.82598182
 20
153.7294660756
 30
0.0
 11
104.0623440388
 21
153.7294660756
 31
0.0
  0
LINE
  5
129
330
1F
100
AcDbEntity
  8
0
  6
CONTINUOUS
 62
     7
100
AcDbLine
 10
103.82598182
 20
154.9294677624
 30
0.0
 11
104.0623440388
 21
154.9294677624
 31
0.0
  0
LINE
  5
12A
330
1F
100
AcDbEntity
  8
0
  6
CONTINUOUS
 62
     7
100
AcDbLine
 10
105.8812021259
 20
154.9294677624
 30
0.0
 11
105.8812021259
 21
153.7294660756
 31
0.0
  0
LINE
  5
12B
330
1F
100
AcDbEntity
  8
0
  6
CONTINUOUS
 62
     7
100
AcDbLine
 10
104.0623440388
 20
153.7294660756
 30
0.0
 11
105.8812021259
 21
153.7294660756
 31
0.0
  0
LINE
  5
12C
330
1F
100
AcDbEntity
  8
0
  6
CONTINUOUS
 62
     7
100
AcDbLine
 10
104.0623440388
 20
154.9294677624
 30
0.0
 11
105.8812021259
 21
154.9294677624
 31
0.0
  0
LINE
  5
12D
330
1F
100
AcDbEntity
  8
0
  6
CONTINUOUS
 62
     7
100
AcDbLine
 10
123.310598636
 20
154.9294677624
 30
0.0
 11
123.310598636
 21
153.7294660756
 31
0.0
  0
LINE
  5
12E
330
1F
100
AcDbEntity
  8
0
  6
CONTINUOUS
 62
     7
100
AcDbLine
 10
105.8812021259
 20
153.7294660756
 30
0.0
 11
123.310598636
 21
153.7294660756
 31
0.0
  0
LINE
  5
12F
330
1F
100
AcDbEntity
  8
0
  6
CONTINUOUS
 62
     7
100
AcDbLine
 10
105.8812021259
 20
154.9294677624
 30
0.0
 11
123.310598636
 21
154.9294677624
 31
0.0
  0
LINE
  5
130
330
1F
100
AcDbEntity
  8
0
  6
CONTINUOUS
 62
     7
100
AcDbLine
 10
123.310598636
 20
153.7294660756
 30
0.0
 11
126.9951864127
 21
153.7294660756
 31
0.0
  0
LINE
  5
131
330
1F
100
AcDbEntity
  8
0
  6
CONTINUOUS
 62
     7
100
AcDbLine
 10
123.310598636
 20
154.9294677624
 30
0.0
 11
126.9951864127
 21
154.9294677624
 31
0.0
  0
LINE
  5
132
330
1F
100
AcDbEntity
  8
0
  6
CONTINUOUS
 62
     7
100
AcDbLine
 10
135.5515672806
 20
88.629466767
 30
0.0
 11
135.5515672806
 21
87.4294650802
 31
0.0
  0
LINE
  5
133
330
1F
100
AcDbEntity
  8
0
  6
CONTINUOUS
 62
     7
100
AcDbLine
 10
135.5515672806
 20
87.4294650802
 30
0.0
 11
126.9951864127
 21
87.4294650802
 31
0.0
  0
LINE
  5
134
330
1F
100
AcDbEntity
  8
0
  6
CONTINUOUS
 62
     7
100
AcDbLine
 10
126.9951864127
 20
87.4294650802
 30
0.0
 11
126.9951864127
 21
88.629466767
 31
0.0
  0
LINE
  5
135
330
1F
100
AcDbEntity
  8
0
  6
CONTINUOUS
 62
     7
100
AcDbLine
 10
126.9951864127
 20
88.629466767
 30
0.0
 11
135.5515672806
 21
88.629466767
 31
0.0
  0
LINE
  5
136
330
1F
100
AcDbEntity
  8
0
  6
CONTINUOUS
 62
     7
100
AcDbLine
 10
205.1796923373
 20
87.4294650802
 30
0.0
 11
205.1796923373
 21
88.629466767
 31
0.0
  0
LINE
  5
137
330
1F
100
AcDbEntity
  8
0
  6
CONTINUOUS
 62
     7
100
AcDbLine
 10
205.1796923373
 20
87.4294650802
 30
0.0
 11
135.5515672806
 21
87.4294650802
 31
0.0
  0
LINE
  5
138
330
1F
100
AcDbEntity
  8
0
  6
CONTINUOUS
 62
     7
100
AcDbLine
 10
203.8556384835
 20
88.629466767
 30
0.0
 11
135.5515672806
 21
88.629466767
 31
0.0
  0
LINE
  5
139
330
1F
100
AcDbEntity
  8
0
  6
CONTINUOUS
 62
     7
100
AcDbLine
 10
103.82598182
 20
87.4294650802
 30
0.0
 11
103.82598182
 21
88.629466767
 31
0.0
  0
LINE
  5
13A
330
1F
100
AcDbEntity
  8
0
  6
CONTINUOUS
 62
     7
100
AcDbLine
 10
69.3889214638
 20
87.4294650802
 30
0.0
 11
69.3889214638
 21
88.629466767
 31
0.0
  0
LINE
  5
13B
330
1F
100
AcDbEntity
  8
0
  6
CONTINUOUS
 62
     7
100
AcDbLine
 10
69.3889214638
 20
87.4294650802
 30
0.0
 11
103.82598182
 21
87.4294650802
 31
0.0
  0
LINE
  5
13C
330
1F
100
AcDbEntity
  8
0
  6
CONTINUOUS
 62
     7
100
AcDbLine
 10
69.3889214638
 20
88.629466767
 30
0.0
 11
103.82598182
 21
88.629466767
 31
0.0
  0
LINE
  5
13D
330
1F
100
AcDbEntity
  8
0
  6
CONTINUOUS
 62
     7
100
AcDbLine
 10
104.0623440388
 20
88.629466767
 30
0.0
 11
104.0623440388
 21
87.4294650802
 31
0.0
  0
LINE
  5
13E
330
1F
100
AcDbEntity
  8
0
  6
CONTINUOUS
 62
     7
100
AcDbLine
 10
104.0623440388
 20
87.4294650802
 30
0.0
 11
103.82598182
 21
87.4294650802
 31
0.0
  0
LINE
  5
13F
330
1F
100
AcDbEntity
  8
0
  6
CONTINUOUS
 62
     7
100
AcDbLine
 10
103.82598182
 20
88.629466767
 30
0.0
 11
104.0623440388
 21
88.629466767
 31
0.0
  0
LINE
  5
140
330
1F
100
AcDbEntity
  8
0
  6
CONTINUOUS
 62
     7
100
AcDbLine
 10
105.8812021259
 20
88.629466767
 30
0.0
 11
105.8812021259
 21
87.4294650802
 31
0.0
  0
LINE
  5
141
330
1F
100
AcDbEntity
  8
0
  6
CONTINUOUS
 62
     7
100
AcDbLine
 10
105.8812021259
 20
87.4294650802
 30
0.0
 11
104.0623440388
 21
87.4294650802
 31
0.0
  0
LINE
  5
142
330
1F
100
AcDbEntity
  8
0
  6
CONTINUOUS
 62
     7
100
AcDbLine
 10
105.8812021259
 20
88.629466767
 30
0.0
 11
104.0623440388
 21
88.629466767
 31
0.0
  0
LINE
  5
143
330
1F
100
AcDbEntity
  8
0
  6
CONTINUOUS
 62
     7
100
AcDbLine
 10
123.310598636
 20
88.629466767
 30
0.0
 11
123.310598636
 21
87.4294650802
 31
0.0
  0
LINE
  5
144
330
1F
100
AcDbEntity
  8
0
  6
CONTINUOUS
 62
     7
100
AcDbLine
 10
123.310598636
 20
87.4294650802
 30
0.0
 11
105.8812021259
 21
87.4294650802
 31
0.0
  0
LINE
  5
145
330
1F
100
AcDbEntity
  8
0
  6
CONTINUOUS
 62
     7
100
AcDbLine
 10
123.310598636
 20
88.629466767
 30
0.0
 11
105.8812021259
 21
88.629466767
 31
0.0
  0
LINE
  5
146
330
1F
100
AcDbEntity
  8
0
  6
CONTINUOUS
 62
     7
100
AcDbLine
 10
126.9951864127
 20
87.4294650802
 30
0.0
 11
123.310598636
 21
87.4294650802
 31
0.0
  0
LINE
  5
147
330
1F
100
AcDbEntity
  8
0
  6
CONTINUOUS
 62
     7
100
AcDbLine
 10
126.9951864127
 20
88.629466767
 30
0.0
 11
123.310598636
 21
88.629466767
 31
0.0
  0
LINE
  5
148
330
1F
100
AcDbEntity
  8
0
  6
CONTINUOUS
 62
     7
100
AcDbLine
 10
206.5622164849
 20
144.6794656166
 30
0.0
 11
209.4858531821
 21
144.6794656166
 31
0.0
  0
LINE
  5
149
330
1F
100
AcDbEntity
  8
0
  6
CONTINUOUS
 62
     7
100
AcDbLine
 10
209.4858531821
 20
144.6794656166
 30
0.0
 11
209.4858531821
 21
141.6794669876
 31
0.0
  0
LINE
  5
14A
330
1F
100
AcDbEntity
  8
0
  6
CONTINUOUS
 62
     7
100
AcDbLine
 10
209.4858531821
 20
141.6794669876
 30
0.0
 11
206.5622164849
 21
141.6794669876
 31
0.0
  0
LINE
  5
14B
330
1F
100
AcDbEntity
  8
0
  6
CONTINUOUS
 62
     7
100
AcDbLine
 10
206.5622164849
 20
141.6794669876
 30
0.0
 11
206.5622164849
 21
144.6794656166
 31
0.0
  0
LINE
  5
14C
330
1F
100
AcDbEntity
  8
0
  6
CONTINUOUS
 62
     7
100
AcDbLine
 10
206.5622164849
 20
100.6794658551
 30
0.0
 11
209.4858531821
 21
100.6794658551
 31
0.0
  0
LINE
  5
14D
330
1F
100
AcDbEntity
  8
0
  6
CONTINUOUS
 62
     7
100
AcDbLine
 10
209.4858531821
 20
100.6794658551
 30
0.0
 11
209.4858531821
 21
97.679467226
 31
0.0
  0
LINE
  5
14E
330
1F
100
AcDbEntity
  8
0
  6
CONTINUOUS
 62
     7
100
AcDbLine
 10
206.5622164849
 20
97.679467226
 30
0.0
 11
206.5622164849
 21
100.6794658551
 31
0.0
  0
LINE
  5
14F
330
1F
100
AcDbEntity
  8
0
  6
CONTINUOUS
 62
     7
100
AcDbLine
 10
209.4858531821
 20
97.679467226
 30
0.0
 11
206.5622164849
 21
97.679467226
 31
0.0
  0
LINE
  5
150
330
1F
100
AcDbEntity
  8
0
  6
CONTINUOUS
 62
     7
100
AcDbLine
 10
213.1110840458
 20
144.6794656166
 30
0.0
 11
213.1110840458
 21
141.6794669876
 31
0.0
  0
LINE
  5
151
330
1F
100
AcDbEntity
  8
0
  6
CONTINUOUS
 62
     7
100
AcDbLine
 10
213.1110840458
 20
141.6794669876
 30
0.0
 11
209.4858531821
 21
141.6794669876
 31
0.0
  0
LINE
  5
152
330
1F
100
AcDbEntity
  8
0
  6
CONTINUOUS
 62
     7
100
AcDbLine
 10
209.4858531821
 20
144.6794656166
 30
0.0
 11
213.1110840458
 21
144.6794656166
 31
0.0
  0
LINE
  5
153
330
1F
100
AcDbEntity
  8
0
  6
CONTINUOUS
 62
     7
100
AcDbLine
 10
213.1110840458
 20
100.6794658551
 30
0.0
 11
213.1110840458
 21
97.679467226
 31
0.0
  0
LINE
  5
154
330
1F
100
AcDbEntity
  8
0
  6
CONTINUOUS
 62
     7
100
AcDbLine
 10
209.4858531821
 20
100.6794658551
 30
0.0
 11
213.1110840458
 21
100.6794658551
 31
0.0
  0
LINE
  5
155
330
1F
100
AcDbEntity
  8
0
  6
CONTINUOUS
 62
     7
100
AcDbLine
 10
213.1110840458
 20
97.679467226
 30
0.0
 11
209.4858531821
 21
97.679467226
 31
0.0
  0
LINE
  5
156
330
1F
100
AcDbEntity
  8
0
  6
CONTINUOUS
 62
     7
100
AcDbLine
 10
201.4907962624
 20
153.4890581915
 30
0.0
 11
201.4907962624
 21
151.5294660875
 31
0.0
  0
LINE
  5
157
330
1F
100
AcDbEntity
  8
0
  6
CONTINUOUS
 62
     7
100
AcDbLine
 10
201.4907962624
 20
153.7294660756
 30
0.0
 11
201.4907962624
 21
153.4890581915
 31
0.0
  0
LINE
  5
158
330
1F
100
AcDbEntity
  8
0
  6
CONTINUOUS
 62
     7
100
AcDbLine
 10
206.1395972017
 20
153.7294660756
 30
0.0
 11
203.8556384835
 21
153.7294660756
 31
0.0
  0
LINE
  5
159
330
1F
100
AcDbEntity
  8
0
  6
CONTINUOUS
 62
     7
100
AcDbLine
 10
206.1395972017
 20
144.6794656166
 30
0.0
 11
206.1395972017
 21
153.7294660756
 31
0.0
  0
LINE
  5
15A
330
1F
100
AcDbEntity
  8
0
  6
CONTINUOUS
 62
     7
100
AcDbLine
 10
206.5622164849
 20
144.6794656166
 30
0.0
 11
206.1395972017
 21
144.6794656166
 31
0.0
  0
LINE
  5
15B
330
1F
100
AcDbEntity
  8
0
  6
CONTINUOUS
 62
     7
100
AcDbLine
 10
206.5622164849
 20
141.6794669876
 30
0.0
 11
206.1395972017
 21
141.6794669876
 31
0.0
  0
LINE
  5
15C
330
1F
100
AcDbEntity
  8
0
  6
CONTINUOUS
 62
     7
100
AcDbLine
 10
206.1395972017
 20
100.6794658551
 30
0.0
 11
206.1395972017
 21
141.6794669876
 31
0.0
  0
LINE
  5
15D
330
1F
100
AcDbEntity
  8
0
  6
CONTINUOUS
 62
     7
100
AcDbLine
 10
206.5622164849
 20
100.6794658551
 30
0.0
 11
206.1395972017
 21
100.6794658551
 31
0.0
  0
LINE
  5
15E
330
1F
100
AcDbEntity
  8
0
  6
CONTINUOUS
 62
     7
100
AcDbLine
 10
206.5622164849
 20
97.679467226
 30
0.0
 11
206.1395972017
 21
97.679467226
 31
0.0
  0
LINE
  5
15F
330
1F
100
AcDbEntity
  8
0
  6
CONTINUOUS
 62
     7
100
AcDbLine
 10
206.1395972017
 20
88.629466767
 30
0.0
 11
206.1395972017
 21
97.679467226
 31
0.0
  0
LINE
  5
160
330
1F
100
AcDbEntity
  8
0
  6
CONTINUOUS
 62
     7
100
AcDbLine
 10
206.1395972017
 20
88.629466767
 30
0.0
 11
203.8556384835
 21
88.629466767
 31
0.0
  0
LINE
  5
161
330
1F
100
AcDbEntity
  8
0
  6
CONTINUOUS
 62
     7
100
AcDbLine
 10
201.4907962624
 20
88.629466767
 30
0.0
 11
201.4907962624
 21
88.8698746511
 31
0.0
  0
LINE
  5
162
330
1F
100
AcDbEntity
  8
0
  6
CONTINUOUS
 62
     7
100
AcDbLine
 10
201.4907962624
 20
88.8698746511
 30
0.0
 11
201.4907962624
 21
90.8294667551
 31
0.0
  0
LINE
  5
163
330
1F
100
AcDbEntity
  8
0
  6
CONTINUOUS
 62
     7
100
AcDbLine
 10
195.6486600432
 20
90.8294667551
 30
0.0
 11
201.4907962624
 21
90.8294667551
 31
0.0
  0
LINE
  5
164
330
1F
100
AcDbEntity
  8
0
  6
CONTINUOUS
 62
     7
100
AcDbLine
 10
195.6486600432
 20
90.8294667551
 30
0.0
 11
195.6486600432
 21
151.5294660875
 31
0.0
  0
LINE
  5
165
330
1F
100
AcDbEntity
  8
0
  6
CONTINUOUS
 62
     7
100
AcDbLine
 10
195.6486600432
 20
151.5294660875
 30
0.0
 11
201.4907962624
 21
151.5294660875
 31
0.0
  0
LINE
  5
166
330
1F
100
AcDbEntity
  8
0
  6
CONTINUOUS
 62
     7
100
AcDbLine
 10
206.1395972017
 20
153.7294660756
 30
0.0
 11
207.2271677646
 21
153.7294660756
 31
0.0
  0
LINE
  5
167
330
1F
100
AcDbEntity
  8
0
  6
CONTINUOUS
 62
     7
100
AcDbLine
 10
207.2271677646
 20
144.6794656166
 30
0.0
 11
207.2271677646
 21
153.7294660756
 31
0.0
  0
LINE
  5
168
330
1F
100
AcDbEntity
  8
0
  6
CONTINUOUS
 62
     7
100
AcDbLine
 10
207.2271677646
 20
100.6794658551
 30
0.0
 11
207.2271677646
 21
141.6794669876
 31
0.0
  0
LINE
  5
169
330
1F
100
AcDbEntity
  8
0
  6
CONTINUOUS
 62
     7
100
AcDbLine
 10
206.1395972017
 20
88.629466767
 30
0.0
 11
207.2271677646
 21
88.629466767
 31
0.0
  0
LINE
  5
16A
330
1F
100
AcDbEntity
  8
0
  6
CONTINUOUS
 62
     7
100
AcDbLine
 10
207.2271677646
 20
88.629466767
 30
0.0
 11
207.2271677646
 21
97.679467226
 31
0.0
  0
LINE
  5
16B
330
1F
100
AcDbEntity
  8
0
  6
CONTINUOUS
 62
     7
100
AcDbLine
 10
185.5948223713
 20
152.5294681141
 30
0.0
 11
190.6151018086
 21
152.5294681141
 31
0.0
  0
LINE
  5
16C
330
1F
100
AcDbEntity
  8
0
  6
CONTINUOUS
 62
     7
100
AcDbLine
 10
185.5948223713
 20
153.7294660756
 30
0.0
 11
185.5948223713
 21
152.5294681141
 31
0.0
  0
LINE
  5
16D
330
1F
100
AcDbEntity
  8
0
  6
CONTINUOUS
 62
     7
100
AcDbLine
 10
190.6151018086
 20
153.7294660756
 30
0.0
 11
190.6151018086
 21
152.5294681141
 31
0.0
  0
LINE
  5
16E
330
1F
100
AcDbEntity
  8
0
  6
CONTINUOUS
 62
     7
100
AcDbLine
 10
200.5844890121
 20
153.7294660756
 30
0.0
 11
200.5844890121
 21
152.5294681141
 31
0.0
  0
LINE
  5
16F
330
1F
100
AcDbEntity
  8
0
  6
CONTINUOUS
 62
     7
100
AcDbLine
 10
200.5844890121
 20
152.5294681141
 30
0.0
 11
190.6151018086
 21
152.5294681141
 31
0.0
  0
LINE
  5
170
330
1F
100
AcDbEntity
  8
0
  6
CONTINUOUS
 62
     7
100
AcDbLine
 10
190.6151018086
 20
88.629466767
 30
0.0
 11
190.6151018086
 21
89.8294647285
 31
0.0
  0
LINE
  5
171
330
1F
100
AcDbEntity
  8
0
  6
CONTINUOUS
 62
     7
100
AcDbLine
 10
200.5844890121
 20
89.8294647285
 30
0.0
 11
190.6151018086
 21
89.8294647285
 31
0.0
  0
LINE
  5
172
330
1F
100
AcDbEntity
  8
0
  6
CONTINUOUS
 62
     7
100
AcDbLine
 10
200.5844890121
 20
88.629466767
 30
0.0
 11
200.5844890121
 21
89.8294647285
 31
0.0
  0
LINE
  5
173
330
1F
100
AcDbEntity
  8
0
  6
CONTINUOUS
 62
     7
100
AcDbLine
 10
185.5948223713
 20
88.629466767
 30
0.0
 11
185.5948223713
 21
89.8294647285
 31
0.0
  0
LINE
  5
174
330
1F
100
AcDbEntity
  8
0
  6
CONTINUOUS
 62
     7
100
AcDbLine
 10
185.5948223713
 20
89.8294647285
 30
0.0
 11
190.6151018086
 21
89.8294647285
 31
0.0
  0
ARC
  5
175
330
1F
100
AcDbEntity
  8
0
  6
CONTINUOUS
 62
     7
100
AcDbCircle
 10
200.5352168262
 20
151.5741158684
 30
0.0
 40
0.9566220056620547
100
AcDbArc
 50
357.3247805811
 51
87.0475924567
  0
ARC
  5
176
330
1F
100
AcDbEntity
  8
0
  6
CONTINUOUS
 62
     7
100
AcDbCircle
 10
200.5801540629
 20
151.8845881972
 30
0.0
 40
1.844882971393026
100
AcDbArc
 50
60.4222405222
 51
89.8653711227
  0
ARC
  5
177
330
1F
100
AcDbEntity
  8
0
  6
CONTINUOUS
 62
     7
100
AcDbCircle
 10
200.5352168262
 20
90.7848169743
 30
0.0
 40
0.9566220056620561
100
AcDbArc
 50
272.9524075433
 51
2.6752194189
  0
ARC
  5
178
330
1F
100
AcDbEntity
  8
0
  6
CONTINUOUS
 62
     7
100
AcDbCircle
 10
200.5801540629
 20
90.4743446455
 30
0.0
 40
1.844882971393014
100
AcDbArc
 50
270.1346288773
 51
299.5777594778
  0
ELLIPSE
  5
179
330
1F
100
AcDbEntity
  8
0
  6
CONTINUOUS
 62
     7
100
AcDbEllipse
 10
194.7423522975
 20
90.8294664213
 30
0.0
 11
-0.01201138475940411
 21
0.9999407486752858
 31
0.0
210
0.0
220
0.0
230
1.0
 40
0.9062844283
 41
3.130706707616346
 42
4.701503034412352
  0
ELLIPSE
  5
17A
330
1F
100
AcDbEntity
  8
0
  6
CONTINUOUS
 62
     7
100
AcDbEllipse
 10
194.7423522975
 20
151.5294664213
 30
0.0
 11
0.01201138475934727
 21
0.9999407486753
 31
0.0
210
0.0
220
0.0
230
0.9999999999999999
 40
0.9062844283
 41
4.723274926357001
 42
6.29407125316128
  0
LINE
  5
17B
330
1F
100
AcDbEntity
  8
0
  6
CONTINUOUS
 62
     7
100
AcDbLine
 10
185.5948223713
 20
152.5294681141
 30
0.0
 11
185.5890854243
 21
152.5294681141
 31
0.0
  0
LINE
  5
17C
330
1F
100
AcDbEntity
  8
0
  6
CONTINUOUS
 62
     7
100
AcDbLine
 10
185.5890854243
 20
153.7294660756
 30
0.0
 11
185.5890854243
 21
152.5294681141
 31
0.0
  0
LINE
  5
17D
330
1F
100
AcDbEntity
  8
0
  6
CONTINUOUS
 62
     7
100
AcDbLine
 10
109.4221799615
 20
152.5294681141
 30
0.0
 11
185.5890854243
 21
152.5294681141
 31
0.0
  0
LINE
  5
17E
330
1F
100
AcDbEntity
  8
0
  6
CONTINUOUS
 62
     7
100
AcDbLine
 10
109.4221799615
 20
153.7294660756
 30
0.0
 11
109.4221799615
 21
152.5294681141
 31
0.0
  0
LINE
  5
17F
330
1F
100
AcDbEntity
  8
0
  6
CONTINUOUS
 62
     7
100
AcDbLine
 10
185.5890854243
 20
88.629466767
 30
0.0
 11
185.5890854243
 21
89.8294647285
 31
0.0
  0
LINE
  5
180
330
1F
100
AcDbEntity
  8
0
  6
CONTINUOUS
 62
     7
100
AcDbLine
 10
185.5948223713
 20
89.8294647285
 30
0.0
 11
185.5890854243
 21
89.8294647285
 31
0.0
  0
LINE
  5
181
330
1F
100
AcDbEntity
  8
0
  6
CONTINUOUS
 62
     7
100
AcDbLine
 10
109.4221799615
 20
88.629466767
 30
0.0
 11
109.4221799615
 21
89.8294647285
 31
0.0
  0
LINE
  5
182
330
1F
100
AcDbEntity
  8
0
  6
CONTINUOUS
 62
     7
100
AcDbLine
 10
109.4221799615
 20
89.8294647285
 30
0.0
 11
185.5890854243
 21
89.8294647285
 31
0.0
  0
ELLIPSE
  5
183
330
1F
100
AcDbEntity
  8
0
  6
CONTINUOUS
 62
     7
100
AcDbEllipse
 10
194.7423522976
 20
151.5294664213
 30
0.0
 11
-0.007179872848837477
 21
0.9999871129378166
 31
0.0
210
0.0
220
0.0
230
0.9999999999999997
 40
0.7070885548
 41
4.707312152659622
 42
6.278108479476313
  0
ELLIPSE
  5
184
330
1F
100
AcDbEntity
  8
0
  6
CONTINUOUS
 62
     7
100
AcDbEllipse
 10
194.7423522976
 20
90.8294664213
 30
0.0
 11
0.007179872848809056
 21
0.9999871129378166
 31
0.0
210
0.0
220
0.0
230
0.9999999999999998
 40
0.7070885548
 41
3.146669481313765
 42
4.717465808109758
  0
ELLIPSE
  5
185
330
1F
100
AcDbEntity
  8
0
  6
CONTINUOUS
 62
     7
100
AcDbEllipse
 10
113.9747020944
 20
90.8294664213
 30
0.0
 11
-0.007653332422108861
 21
0.9999853573762323
 31
0.0
210
0.0
220
0.0
230
1.0
 40
0.7070860717
 41
3.136181062417429
 42
4.706977389213447
  0
LINE
  5
186
330
1F
100
AcDbEntity
  8
0
  6
CONTINUOUS
 62
     7
100
AcDbLine
 10
114.6818055752
 20
90.8294667551
 30
0.0
 11
195.4494594577
 21
90.8294667551
 31
0.0
  0
ELLIPSE
  5
187
330
1F
100
AcDbEntity
  8
0
  6
CONTINUOUS
 62
     7
100
AcDbEllipse
 10
113.9747020944
 20
151.5294664213
 30
0.0
 11
0.007653332422123071
 21
0.9999853573762607
 31
0.0
210
0.0
220
0.0
230
0.9999999999999997
 40
0.7070860717
 41
4.71780057155596
 42
6.288596898329621
  0
LINE
  5
188
330
1F
100
AcDbEntity
  8
0
  6
CONTINUOUS
 62
     7
100
AcDbLine
 10
114.6818055752
 20
151.5294660875
 30
0.0
 11
195.4494594577
 21
151.5294660875
 31
0.0
  0
LINE
  5
189
330
1F
100
AcDbEntity
  8
0
  6
CONTINUOUS
 62
     7
100
AcDbLine
 10
195.6486600432
 20
90.8294667551
 30
0.0
 11
195.4494594577
 21
90.8294667551
 31
0.0
  0
LINE
  5
18A
330
1F
100
AcDbEntity
  8
0
  6
CONTINUOUS
 62
     7
100
AcDbLine
 10
195.4494594577
 20
90.8294667551
 30
0.0
 11
195.4494594577
 21
151.5294660875
 31
0.0
  0
LINE
  5
18B
330
1F
100
AcDbEntity
  8
0
  6
CONTINUOUS
 62
     7
100
AcDbLine
 10
195.6486600432
 20
151.5294660875
 30
0.0
 11
195.4494594577
 21
151.5294660875
 31
0.0
  0
LINE
  5
18C
330
1F
100
AcDbEntity
  8
0
  6
CONTINUOUS
 62
     7
100
AcDbLine
 10
114.6818055752
 20
90.8294667551
 30
0.0
 11
114.6818055752
 21
151.5294660875
 31
0.0
  0
LINE
  5
18D
330
1F
100
AcDbEntity
  8
0
  6
CONTINUOUS
 62
     7
100
AcDbLine
 10
94.3889125231
 20
152.5294681141
 30
0.0
 11
109.4129412416
 21
152.5294681141
 31
0.0
  0
LINE
  5
18E
330
1F
100
AcDbEntity
  8
0
  6
CONTINUOUS
 62
     7
100
AcDbLine
 10
109.4129412416
 20
153.7294660756
 30
0.0
 11
109.4129412416
 21
152.5294681141
 31
0.0
  0
LINE
  5
18F
330
1F
100
AcDbEntity
  8
0
  6
CONTINUOUS
 62
     7
100
AcDbLine
 10
69.3889214638
 20
153.7294660756
 30
0.0
 11
69.3889214638
 21
153.6794652292
 31
0.0
  0
LINE
  5
190
330
1F
100
AcDbEntity
  8
0
  6
CONTINUOUS
 62
     7
100
AcDbLine
 10
109.4221799615
 20
152.5294681141
 30
0.0
 11
109.4129412416
 21
152.5294681141
 31
0.0
  0
LINE
  5
191
330
1F
100
AcDbEntity
  8
0
  6
CONTINUOUS
 62
     7
100
AcDbLine
 10
94.3889125231
 20
89.8294647285
 30
0.0
 11
109.4129412416
 21
89.8294647285
 31
0.0
  0
LINE
  5
192
330
1F
100
AcDbEntity
  8
0
  6
CONTINUOUS
 62
     7
100
AcDbLine
 10
109.4129412416
 20
88.629466767
 30
0.0
 11
109.4129412416
 21
89.8294647285
 31
0.0
  0
LINE
  5
193
330
1F
100
AcDbEntity
  8
0
  6
CONTINUOUS
 62
     7
100
AcDbLine
 10
69.3889214638
 20
88.629466767
 30
0.0
 11
69.3889214638
 21
88.6794676134
 31
0.0
  0
LINE
  5
194
330
1F
100
AcDbEntity
  8
0
  6
CONTINUOUS
 62
     7
100
AcDbLine
 10
109.4221799615
 20
89.8294647285
 30
0.0
 11
109.4129412416
 21
89.8294647285
 31
0.0
  0
LWPOLYLINE
  5
195
330
1F
100
AcDbEntity
  8
0
  6
CONTINUOUS
 62
     7
100
AcDbPolyline
 90
        4
 70
   128
 43
0.0
 10
113.9747007731
 20
151.5294660875
 10
113.9737619999
 20
151.911492745
 10
113.9728530291
 20
152.2819113979
 10
113.9722420815
 20
152.5294681141
  0
LWPOLYLINE
  5
196
330
1F
100
AcDbEntity
  8
0
  6
CONTINUOUS
 62
     7
100
AcDbPolyline
 90
       10
 70
   128
 43
0.0
 10
113.9747007731
 20
151.5294660875
 10
113.9737619999
 20
151.7031149068
 10
113.9728530291
 20
151.8714868525
 10
113.9719962123
 20
152.0294671008
 10
113.971221352
 20
152.1722537526
 10
113.9705582503
 20
152.2955105701
 10
113.9700143579
 20
152.3954917738
 10
113.9696194771
 20
152.4691593894
 10
113.969373608
 20
152.514272655
 10
113.9692916516
 20
152.5294681141
  0
LWPOLYLINE
  5
197
330
1F
100
AcDbEntity
  8
0
  6
CONTINUOUS
 62
     7
100
AcDbPolyline
 90
        4
 70
   128
 43
0.0
 10
113.9747007731
 20
90.8294667551
 10
113.9737619999
 20
90.4474400976
 10
113.9728530291
 20
90.0770214447
 10
113.9722420815
 20
89.8294647285
  0
LWPOLYLINE
  5
198
330
1F
100
AcDbEntity
  8
0
  6
CONTINUOUS
 62
     7
100
AcDbPolyline
 90
       10
 70
   128
 43
0.0
 10
113.9747007731
 20
90.8294667551
 10
113.9737619999
 20
90.6558179358
 10
113.9728530291
 20
90.4874459901
 10
113.9719962123
 20
90.3294657418
 10
113.971221352
 20
90.18667909
 10
113.9705582503
 20
90.0634222725
 10
113.9700143579
 20
89.9634410688
 10
113.9696194771
 20
89.8897734532
 10
113.969373608
 20
89.8446601877
 10
113.9692916516
 20
89.8294647285
  0
LINE
  5
199
330
1F
100
AcDbEntity
  8
0
  6
CONTINUOUS
 62
     7
100
AcDbLine
 10
114.6818055752
 20
90.8294667551
 30
0.0
 11
113.9747007731
 21
90.8294667551
 31
0.0
  0
LINE
  5
19A
330
1F
100
AcDbEntity
  8
0
  6
CONTINUOUS
 62
     7
100
AcDbLine
 10
113.9747007731
 20
90.8294667551
 30
0.0
 11
113.9747007731
 21
151.5294660875
 31
0.0
  0
LINE
  5
19B
330
1F
100
AcDbEntity
  8
0
  6
CONTINUOUS
 62
     7
100
AcDbLine
 10
114.6818055752
 20
151.5294660875
 30
0.0
 11
113.9747007731
 21
151.5294660875
 31
0.0
  0
LINE
  5
19C
330
1F
100
AcDbEntity
  8
0
  6
CONTINUOUS
 62
     8
100
AcDbLine
 10
94.3889125231
 20
151.5294660875
 30
0.0
 11
113.9747007731
 21
151.5294660875
 31
0.0
  0
LINE
  5
19D
330
1F
100
AcDbEntity
  8
0
  6
CONTINUOUS
 62
     8
100
AcDbLine
 10
94.3889125231
 20
90.8294667551
 30
0.0
 11
113.9747007731
 21
90.8294667551
 31
0.0
  0
LINE
  5
19E
330
1F
100
AcDbEntity
  8
0
  6
CONTINUOUS
 62
     7
100
AcDbLine
 10
293.3931558195
 20
317.5519520827
 30
0.0
 11
293.4431566659
 21
317.5519520827
 31
0.0
  0
LINE
  5
19F
330
1F
100
AcDbEntity
  8
0
  6
CONTINUOUS
 62
     7
100
AcDbLine
 10
293.4431566659
 20
320.5519432612
 30
0.0
 11
293.3931558195
 21
320.5519432612
 31
0.0
  0
LINE
  5
1A0
330
1F
100
AcDbEntity
  8
0
  6
CONTINUOUS
 62
     7
100
AcDbLine
 10
358.4931551281
 20
320.5519432612
 30
0.0
 11
358.4431542817
 21
320.5519432612
 31
0.0
  0
LINE
  5
1A1
330
1F
100
AcDbEntity
  8
0
  6
CONTINUOUS
 62
     7
100
AcDbLine
 10
358.4431542817
 20
317.5519520827
 30
0.0
 11
358.4931551281
 21
317.5519520827
 31
0.0
  0
LINE
  5
1A2
330
1F
100
AcDbEntity
  8
0
  6
CONTINUOUS
 62
     7
100
AcDbLine
 10
305.4431549076
 20
339.3264526911
 30
0.0
 11
302.4431562785
 21
339.3264526911
 31
0.0
  0
LINE
  5
1A3
330
1F
100
AcDbEntity
  8
0
  6
CONTINUOUS
 62
     7
100
AcDbLine
 10
349.4431546692
 20
339.3264526911
 30
0.0
 11
346.4431560401
 21
339.3264526911
 31
0.0
  0
LINE
  5
1A4
330
1F
100
AcDbEntity
  8
0
  6
CONTINUOUS
 62
     7
100
AcDbLine
 10
332.9431556899
 20
332.2519476004
 30
0.0
 11
307.9431562487
 21
332.2519476004
 31
0.0
  0
ARC
  5
1A5
330
1F
100
AcDbEntity
  8
0
  6
CONTINUOUS
 62
     7
100
AcDbCircle
 10
326.9431554738
 20
340.2519432139
 30
0.0
 40
6.0
100
AcDbArc
 50
0.0
 51
90.0
  0
LINE
  5
1A6
330
1F
100
AcDbEntity
  8
0
  6
CONTINUOUS
 62
     7
100
AcDbLine
 10
332.9431556899
 20
332.2519476004
 30
0.0
 11
332.9431556899
 21
340.2519340106
 31
0.0
  0
CIRCLE
  5
1A7
330
1F
100
AcDbEntity
  8
0
  6
CONTINUOUS
 62
     7
100
AcDbCircle
 10
320.4431554738
 20
340.3119432139
 30
0.0
 40
2.25
  0
LINE
  5
1A8
330
1F
100
AcDbEntity
  8
0
  6
CONTINUOUS
 62
     7
100
AcDbLine
 10
307.9431562487
 20
340.2519340106
 30
0.0
 11
307.9431562487
 21
332.2519476004
 31
0.0
  0
LINE
  5
1A9
330
1F
100
AcDbEntity
  8
0
  6
CONTINUOUS
 62
     7
100
AcDbLine
 10
326.9431555213
 20
346.2519461699
 30
0.0
 11
313.9431553695
 21
346.2519461699
 31
0.0
  0
ARC
  5
1AA
330
1F
100
AcDbEntity
  8
0
  6
CONTINUOUS
 62
     7
100
AcDbCircle
 10
313.9431554738
 20
340.2519432139
 30
0.0
 40
6.0
100
AcDbArc
 50
90.0
 51
180.0
  0
LINE
  5
1AB
330
1F
100
AcDbEntity
  8
0
  6
CONTINUOUS
 62
     7
100
AcDbLine
 10
307.9431562487
 20
330.0519401618
 30
0.0
 11
307.9431562487
 21
332.2519476004
 31
0.0
  0
LINE
  5
1AC
330
1F
100
AcDbEntity
  8
0
  6
CONTINUOUS
 62
     7
100
AcDbLine
 10
332.9431556899
 20
332.2519476004
 30
0.0
 11
332.9431556899
 21
330.0519401618
 31
0.0
  0
LINE
  5
1AD
330
1F
100
AcDbEntity
  8
0
  6
CONTINUOUS
 62
     7
100
AcDbLine
 10
332.9431556899
 20
330.0519401618
 30
0.0
 11
307.9431562487
 21
330.0519401618
 31
0.0
  0
LINE
  5
1AE
330
1F
100
AcDbEntity
  8
0
  6
CONTINUOUS
 62
     7
100
AcDbLine
 10
294.6431546274
 20
329.0519530364
 30
0.0
 11
293.4431566659
 21
329.0519530364
 31
0.0
  0
LINE
  5
1AF
330
1F
100
AcDbEntity
  8
0
  6
CONTINUOUS
 62
     7
100
AcDbLine
 10
294.6431546274
 20
329.0519530364
 30
0.0
 11
294.6431546274
 21
315.0519544669
 31
0.0
  0
LINE
  5
1B0
330
1F
100
AcDbEntity
  8
0
  6
CONTINUOUS
 62
     7
100
AcDbLine
 10
293.4431566659
 20
329.0519530364
 30
0.0
 11
293.4431566659
 21
315.0519544669
 31
0.0
  0
LINE
  5
1B1
330
1F
100
AcDbEntity
  8
0
  6
CONTINUOUS
 62
     7
100
AcDbLine
 10
293.4431566659
 20
315.0519544669
 30
0.0
 11
294.6431546274
 21
315.0519544669
 31
0.0
  0
LINE
  5
1B2
330
1F
100
AcDbEntity
  8
0
  6
CONTINUOUS
 62
     7
100
AcDbLine
 10
358.4431542817
 20
329.0519530364
 30
0.0
 11
358.4431542817
 21
315.0519544669
 31
0.0
  0
LINE
  5
1B3
330
1F
100
AcDbEntity
  8
0
  6
CONTINUOUS
 62
     7
100
AcDbLine
 10
358.4431542817
 20
315.0519544669
 30
0.0
 11
357.2431563202
 21
315.0519544669
 31
0.0
  0
LINE
  5
1B4
330
1F
100
AcDbEntity
  8
0
  6
CONTINUOUS
 62
     7
100
AcDbLine
 10
357.2431563202
 20
329.0519530364
 30
0.0
 11
357.2431563202
 21
315.0519544669
 31
0.0
  0
LINE
  5
1B5
330
1F
100
AcDbEntity
  8
0
  6
CONTINUOUS
 62
     7
100
AcDbLine
 10
357.2431563202
 20
329.0519530364
 30
0.0
 11
358.4431542817
 21
329.0519530364
 31
0.0
  0
LINE
  5
1B6
330
1F
100
AcDbEntity
  8
0
  6
CONTINUOUS
 62
     7
100
AcDbLine
 10
295.6431547913
 20
330.0519401618
 30
0.0
 11
295.6431547913
 21
331.2519306727
 31
0.0
  0
LINE
  5
1B7
330
1F
100
AcDbEntity
  8
0
  6
CONTINUOUS
 62
     7
100
AcDbLine
 10
307.9431562487
 20
331.2519306727
 30
0.0
 11
295.6431547913
 21
331.2519306727
 31
0.0
  0
LINE
  5
1B8
330
1F
100
AcDbEntity
  8
0
  6
CONTINUOUS
 62
     7
100
AcDbLine
 10
307.9431562487
 20
330.0519401618
 30
0.0
 11
295.6431547913
 21
330.0519401618
 31
0.0
  0
ARC
  5
1B9
330
1F
100
AcDbEntity
  8
0
  6
CONTINUOUS
 62
     7
100
AcDbCircle
 10
295.6431554738
 20
329.0519432139
 30
0.0
 40
2.200000000000045
100
AcDbArc
 50
90.0
 51
180.0
  0
ARC
  5
1BA
330
1F
100
AcDbEntity
  8
0
  6
CONTINUOUS
 62
     7
100
AcDbCircle
 10
295.6431554738
 20
329.0519432139
 30
0.0
 40
1.0
100
AcDbArc
 50
90.0
 51
180.0
  0
LINE
  5
1BB
330
1F
100
AcDbEntity
  8
0
  6
CONTINUOUS
 62
     7
100
AcDbLine
 10
356.2431561563
 20
330.0519401618
 30
0.0
 11
356.2431561563
 21
331.2519306727
 31
0.0
  0
LINE
  5
1BC
330
1F
100
AcDbEntity
  8
0
  6
CONTINUOUS
 62
     7
100
AcDbLine
 10
356.2431561563
 20
331.2519306727
 30
0.0
 11
332.9431556899
 21
331.2519306727
 31
0.0
  0
LINE
  5
1BD
330
1F
100
AcDbEntity
  8
0
  6
CONTINUOUS
 62
     7
100
AcDbLine
 10
356.2431561563
 20
330.0519401618
 30
0.0
 11
332.9431556899
 21
330.0519401618
 31
0.0
  0
ARC
  5
1BE
330
1F
100
AcDbEntity
  8
0
  6
CONTINUOUS
 62
     7
100
AcDbCircle
 10
356.2431554738
 20
329.0519432139
 30
0.0
 40
2.200000000000045
100
AcDbArc
 50
0.0
 51
90.0
  0
ARC
  5
1BF
330
1F
100
AcDbEntity
  8
0
  6
CONTINUOUS
 62
     7
100
AcDbCircle
 10
356.2431554738
 20
329.0519432139
 30
0.0
 40
1.0
100
AcDbArc
 50
0.0
 51
90.0
  0
LINE
  5
1C0
330
1F
100
AcDbEntity
  8
0
  6
CONTINUOUS
 62
     7
100
AcDbLine
 10
292.1931541327
 20
234.3070025034
 30
0.0
 11
293.3931558195
 21
234.3070025034
 31
0.0
  0
LINE
  5
1C1
330
1F
100
AcDbEntity
  8
0
  6
CONTINUOUS
 62
     7
100
AcDbLine
 10
292.1931541327
 20
234.3070025034
 30
0.0
 11
292.1931541327
 21
329.0519530364
 31
0.0
  0
LINE
  5
1C2
330
1F
100
AcDbEntity
  8
0
  6
CONTINUOUS
 62
     7
100
AcDbLine
 10
293.3931558195
 20
234.3070025034
 30
0.0
 11
293.3931558195
 21
329.0519530364
 31
0.0
  0
LINE
  5
1C3
330
1F
100
AcDbEntity
  8
0
  6
CONTINUOUS
 62
     7
100
AcDbLine
 10
292.1931541327
 20
329.0519530364
 30
0.0
 11
293.3931558195
 21
329.0519530364
 31
0.0
  0
LINE
  5
1C4
330
1F
100
AcDbEntity
  8
0
  6
CONTINUOUS
 62
     7
100
AcDbLine
 10
292.1931541327
 20
332.2519476004
 30
0.0
 11
293.3931558195
 21
332.2519476004
 31
0.0
  0
LINE
  5
1C5
330
1F
100
AcDbEntity
  8
0
  6
CONTINUOUS
 62
     7
100
AcDbLine
 10
293.3931558195
 20
329.0519530364
 30
0.0
 11
293.3931558195
 21
332.2519476004
 31
0.0
  0
LINE
  5
1C6
330
1F
100
AcDbEntity
  8
0
  6
CONTINUOUS
 62
     7
100
AcDbLine
 10
292.1931541327
 20
329.0519530364
 30
0.0
 11
292.1931541327
 21
332.2519476004
 31
0.0
  0
LINE
  5
1C7
330
1F
100
AcDbEntity
  8
0
  6
CONTINUOUS
 62
     7
100
AcDbLine
 10
359.6931568149
 20
234.3070025034
 30
0.0
 11
358.4931551281
 21
234.3070025034
 31
0.0
  0
LINE
  5
1C8
330
1F
100
AcDbEntity
  8
0
  6
CONTINUOUS
 62
     7
100
AcDbLine
 10
358.4931551281
 20
329.0519530364
 30
0.0
 11
358.4931551281
 21
234.3070025034
 31
0.0
  0
LINE
  5
1C9
330
1F
100
AcDbEntity
  8
0
  6
CONTINUOUS
 62
     7
100
AcDbLine
 10
359.6931568149
 20
329.0519530364
 30
0.0
 11
358.4931551281
 21
329.0519530364
 31
0.0
  0
LINE
  5
1CA
330
1F
100
AcDbEntity
  8
0
  6
CONTINUOUS
 62
     7
100
AcDbLine
 10
359.6931568149
 20
329.0519530364
 30
0.0
 11
359.6931568149
 21
234.3070025034
 31
0.0
  0
LINE
  5
1CB
330
1F
100
AcDbEntity
  8
0
  6
CONTINUOUS
 62
     7
100
AcDbLine
 10
358.4931551281
 20
332.2519476004
 30
0.0
 11
359.6931568149
 21
332.2519476004
 31
0.0
  0
LINE
  5
1CC
330
1F
100
AcDbEntity
  8
0
  6
CONTINUOUS
 62
     7
100
AcDbLine
 10
359.6931568149
 20
332.2519476004
 30
0.0
 11
359.6931568149
 21
329.0519530364
 31
0.0
  0
LINE
  5
1CD
330
1F
100
AcDbEntity
  8
0
  6
CONTINUOUS
 62
     7
100
AcDbLine
 10
358.4931551281
 20
329.0519530364
 30
0.0
 11
358.4931551281
 21
332.2519476004
 31
0.0
  0
LINE
  5
1CE
330
1F
100
AcDbEntity
  8
0
  6
CONTINUOUS
 62
     7
100
AcDbLine
 10
356.29315514
 20
232.1069950648
 30
0.0
 11
356.29315514
 21
233.3069855757
 31
0.0
  0
LINE
  5
1CF
330
1F
100
AcDbEntity
  8
0
  6
CONTINUOUS
 62
     7
100
AcDbLine
 10
295.5931558076
 20
232.1069950648
 30
0.0
 11
295.5931558076
 21
233.3069855757
 31
0.0
  0
LINE
  5
1D0
330
1F
100
AcDbEntity
  8
0
  6
CONTINUOUS
 62
     7
100
AcDbLine
 10
356.29315514
 20
233.3069855757
 30
0.0
 11
295.5931558076
 21
233.3069855757
 31
0.0
  0
LINE
  5
1D1
330
1F
100
AcDbEntity
  8
0
  6
CONTINUOUS
 62
     7
100
AcDbLine
 10
356.29315514
 20
232.1069950648
 30
0.0
 11
295.5931558076
 21
232.1069950648
 31
0.0
  0
LINE
  5
1D2
330
1F
100
AcDbEntity
  8
0
  6
CONTINUOUS
 62
     7
100
AcDbLine
 10
294.593153781
 20
245.3069800921
 30
0.0
 11
294.593153781
 21
234.3070025034
 31
0.0
  0
LINE
  5
1D3
330
1F
100
AcDbEntity
  8
0
  6
CONTINUOUS
 62
     7
100
AcDbLine
 10
293.3931558195
 20
234.3070025034
 30
0.0
 11
294.593153781
 21
234.3070025034
 31
0.0
  0
LINE
  5
1D4
330
1F
100
AcDbEntity
  8
0
  6
CONTINUOUS
 62
     7
100
AcDbLine
 10
293.3931558195
 20
245.3069800921
 30
0.0
 11
293.3931558195
 21
234.3070025034
 31
0.0
  0
LINE
  5
1D5
330
1F
100
AcDbEntity
  8
0
  6
CONTINUOUS
 62
     7
100
AcDbLine
 10
293.3931558195
 20
245.3069800921
 30
0.0
 11
294.593153781
 21
245.3069800921
 31
0.0
  0
ARC
  5
1D6
330
1F
100
AcDbEntity
  8
0
  6
CONTINUOUS
 62
     7
100
AcDbCircle
 10
295.5931554738
 20
234.3069896288
 30
0.0
 40
2.199999999999989
100
AcDbArc
 50
179.9999999999
 51
270.0
  0
ARC
  5
1D7
330
1F
100
AcDbEntity
  8
0
  6
CONTINUOUS
 62
     7
100
AcDbCircle
 10
295.5931554738
 20
234.3069896288
 30
0.0
 40
1.0
100
AcDbArc
 50
179.9999999999
 51
270.0
  0
LINE
  5
1D8
330
1F
100
AcDbEntity
  8
0
  6
CONTINUOUS
 62
     7
100
AcDbLine
 10
358.4931551281
 20
245.3069800921
 30
0.0
 11
358.4931551281
 21
234.3070025034
 31
0.0
  0
LINE
  5
1D9
330
1F
100
AcDbEntity
  8
0
  6
CONTINUOUS
 62
     7
100
AcDbLine
 10
358.4931551281
 20
234.3070025034
 30
0.0
 11
357.2931571666
 21
234.3070025034
 31
0.0
  0
LINE
  5
1DA
330
1F
100
AcDbEntity
  8
0
  6
CONTINUOUS
 62
     7
100
AcDbLine
 10
358.4931551281
 20
245.3069800921
 30
0.0
 11
357.2931571666
 21
245.3069800921
 31
0.0
  0
LINE
  5
1DB
330
1F
100
AcDbEntity
  8
0
  6
CONTINUOUS
 62
     7
100
AcDbLine
 10
357.2931571666
 20
245.3069800921
 30
0.0
 11
357.2931571666
 21
234.3070025034
 31
0.0
  0
ARC
  5
1DC
330
1F
100
AcDbEntity
  8
0
  6
CONTINUOUS
 62
     7
100
AcDbCircle
 10
356.2931554738
 20
234.3069896288
 30
0.0
 40
2.200000000000045
100
AcDbArc
 50
270.0
 51
0.0000000001
  0
ARC
  5
1DD
330
1F
100
AcDbEntity
  8
0
  6
CONTINUOUS
 62
     7
100
AcDbCircle
 10
356.2931554738
 20
234.3069896288
 30
0.0
 40
1.0
100
AcDbArc
 50
270.0
 51
0.0000000001
  0
LINE
  5
1DE
330
1F
100
AcDbEntity
  8
0
  6
CONTINUOUS
 62
     7
100
AcDbLine
 10
294.593153781
 20
245.3108245917
 30
0.0
 11
294.593153781
 21
245.3069800921
 31
0.0
  0
LINE
  5
1DF
330
1F
100
AcDbEntity
  8
0
  6
CONTINUOUS
 62
     7
100
AcDbLine
 10
293.3931558195
 20
245.3108245917
 30
0.0
 11
294.593153781
 21
245.3108245917
 31
0.0
  0
LINE
  5
1E0
330
1F
100
AcDbEntity
  8
0
  6
CONTINUOUS
 62
     7
100
AcDbLine
 10
294.593153781
 20
245.3108245917
 30
0.0
 11
294.593153781
 21
315.0519544669
 31
0.0
  0
LINE
  5
1E1
330
1F
100
AcDbEntity
  8
0
  6
CONTINUOUS
 62
     7
100
AcDbLine
 10
293.3931558195
 20
321.4777226038
 30
0.0
 11
293.4431566659
 21
321.4777226038
 31
0.0
  0
LINE
  5
1E2
330
1F
100
AcDbEntity
  8
0
  6
CONTINUOUS
 62
     7
100
AcDbLine
 10
358.4931551281
 20
245.3108245917
 30
0.0
 11
357.2931571666
 21
245.3108245917
 31
0.0
  0
LINE
  5
1E3
330
1F
100
AcDbEntity
  8
0
  6
CONTINUOUS
 62
     7
100
AcDbLine
 10
357.2931571666
 20
245.3108245917
 30
0.0
 11
357.2931571666
 21
315.0519544669
 31
0.0
  0
LINE
  5
1E4
330
1F
100
AcDbEntity
  8
0
  6
CONTINUOUS
 62
     7
100
AcDbLine
 10
358.4931551281
 20
321.4777226038
 30
0.0
 11
358.4431542817
 21
321.4777226038
 31
0.0
  0
LINE
  5
1E5
330
1F
100
AcDbEntity
  8
0
  6
CONTINUOUS
 62
     7
100
AcDbLine
 10
357.2931571666
 20
245.3108245917
 30
0.0
 11
357.2931571666
 21
245.3069800921
 31
0.0
  0
LINE
  5
1E6
330
1F
100
AcDbEntity
  8
0
  6
CONTINUOUS
 62
     7
100
AcDbLine
 10
356.29315514
 20
233.5998828001
 30
0.0
 11
295.5931558076
 21
233.5998828001
 31
0.0
  0
LINE
  5
1E7
330
1F
100
AcDbEntity
  8
0
  6
CONTINUOUS
 62
     7
100
AcDbLine
 10
356.29315514
 20
233.5998828001
 30
0.0
 11
356.29315514
 21
233.3069855757
 31
0.0
  0
LINE
  5
1E8
330
1F
100
AcDbEntity
  8
0
  6
CONTINUOUS
 62
     7
100
AcDbLine
 10
295.5931558076
 20
233.5998828001
 30
0.0
 11
295.5931558076
 21
233.3069855757
 31
0.0
  0
ELLIPSE
  5
1E9
330
1F
100
AcDbEntity
  8
0
  6
CONTINUOUS
 62
     7
100
AcDbEllipse
 10
356.2931554738
 20
234.3069896288
 30
0.0
 11
0.9999853573762039
 21
0.007653332422108861
 31
0.0
210
0.0
220
0.0
230
1.0
 40
0.7070860717
 41
4.706977389213447
 42
6.277773716009413
  0
ELLIPSE
  5
1EA
330
1F
100
AcDbEntity
  8
0
  6
CONTINUOUS
 62
     7
100
AcDbEllipse
 10
356.2931554738
 20
315.074639832
 30
0.0
 11
0.9999871129377882
 21
-0.007179872848837478
 31
0.0
210
0.0
220
0.0
230
0.9999999999999997
 40
0.7070885548
 41
4.717465808109778
 42
6.288262134905748
  0
LINE
  5
1EB
330
1F
100
AcDbEntity
  8
0
  6
CONTINUOUS
 62
     7
100
AcDbLine
 10
356.29315514
 20
233.5998828001
 30
0.0
 11
356.29315514
 21
314.3675441332
 31
0.0
  0
ELLIPSE
  5
1EC
330
1F
100
AcDbEntity
  8
0
  6
CONTINUOUS
 62
     7
100
AcDbEllipse
 10
295.5931554738
 20
234.3069896288
 30
0.0
 11
0.9999853573762607
 21
-0.007653332422108861
 31
0.0
210
0.0
220
0.0
230
1.0
 40
0.7070860717
 41
3.147004244737618
 42
4.717800571555951
  0
ELLIPSE
  5
1ED
330
1F
100
AcDbEntity
  8
0
  6
CONTINUOUS
 62
     7
100
AcDbEllipse
 10
295.5931554738
 20
315.074639832
 30
0.0
 11
0.999987112937845
 21
0.007179872848837477
 31
0.0
210
0.0
220
0.0
230
0.9999999999999997
 40
0.7070885548
 41
3.136515825883567
 42
4.707312152659621
  0
LINE
  5
1EE
330
1F
100
AcDbEntity
  8
0
  6
CONTINUOUS
 62
     7
100
AcDbLine
 10
295.5931558076
 20
233.5998828001
 30
0.0
 11
295.5931558076
 21
314.3675441332
 31
0.0
  0
LINE
  5
1EF
330
1F
100
AcDbEntity
  8
0
  6
CONTINUOUS
 62
     7
100
AcDbLine
 10
356.29315514
 20
314.3675441332
 30
0.0
 11
295.5931558076
 21
314.3675441332
 31
0.0
  0
LINE
  5
1F0
330
1F
100
AcDbEntity
  8
0
  6
CONTINUOUS
 62
     7
100
AcDbLine
 10
293.3931558195
 20
321.4859182425
 30
0.0
 11
293.4431566659
 21
321.4859182425
 31
0.0
  0
LINE
  5
1F1
330
1F
100
AcDbEntity
  8
0
  6
CONTINUOUS
 62
     7
100
AcDbLine
 10
294.593153781
 20
330.9851998873
 30
0.0
 11
294.593153781
 21
332.2519476004
 31
0.0
  0
LINE
  5
1F2
330
1F
100
AcDbEntity
  8
0
  6
CONTINUOUS
 62
     7
100
AcDbLine
 10
293.3931558195
 20
332.2519476004
 30
0.0
 11
294.593153781
 21
332.2519476004
 31
0.0
  0
LINE
  5
1F3
330
1F
100
AcDbEntity
  8
0
  6
CONTINUOUS
 62
     7
100
AcDbLine
 10
358.4931551281
 20
321.4859182425
 30
0.0
 11
358.4431542817
 21
321.4859182425
 31
0.0
  0
LINE
  5
1F4
330
1F
100
AcDbEntity
  8
0
  6
CONTINUOUS
 62
     7
100
AcDbLine
 10
357.2931571666
 20
330.9851998873
 30
0.0
 11
357.2931571666
 21
332.2519476004
 31
0.0
  0
LINE
  5
1F5
330
1F
100
AcDbEntity
  8
0
  6
CONTINUOUS
 62
     7
100
AcDbLine
 10
358.4931551281
 20
332.2519476004
 30
0.0
 11
357.2931571666
 21
332.2519476004
 31
0.0
  0
ELLIPSE
  5
1F6
330
1F
100
AcDbEntity
  8
0
  6
CONTINUOUS
 62
     7
100
AcDbEllipse
 10
356.2931554738
 20
315.0746398319
 30
0.0
 11
0.9999971976453139
 21
0.005601949415051877
 31
0.0
210
0.0
220
0.0
230
1.0
 40
0.4226073681
 41
4.710021553074529
 42
6.280817879870412
  0
ARC
  5
1F7
330
1F
100
AcDbEntity
  8
0
  6
CONTINUOUS
 62
     7
100
AcDbCircle
 10
356.4520549008
 20
328.3589926297
 30
0.0
 40
1.189140792569711
100
AcDbArc
 50
262.3208421993
 51
311.7031536714
  0
LINE
  5
1F8
330
1F
100
AcDbEntity
  8
0
  6
CONTINUOUS
 62
     7
100
AcDbLine
 10
356.29315514
 20
314.6520073004
 30
0.0
 11
356.29315514
 21
327.180516202
 31
0.0
  0
ELLIPSE
  5
1F9
330
1F
100
AcDbEntity
  8
0
  6
CONTINUOUS
 62
     7
100
AcDbEllipse
 10
295.5931554738
 20
315.0746398319
 30
0.0
 11
0.9999971976452571
 21
-0.00560194941510872
 31
0.0
210
0.0
220
0.0
230
0.9999999999999999
 40
0.4226073681
 41
3.1439600809371
 42
4.714756407694887
  0
ARC
  5
1FA
330
1F
100
AcDbEntity
  8
0
  6
CONTINUOUS
 62
     7
100
AcDbCircle
 10
295.4342560468
 20
328.3589926297
 30
0.0
 40
1.189140792569709
100
AcDbArc
 50
228.2968463286
 51
277.6791578007
  0
LINE
  5
1FB
330
1F
100
AcDbEntity
  8
0
  6
CONTINUOUS
 62
     7
100
AcDbLine
 10
295.5931558076
 20
314.6520073004
 30
0.0
 11
295.5931558076
 21
327.180516202
 31
0.0
  0
LINE
  5
1FC
330
1F
100
AcDbEntity
  8
0
  6
CONTINUOUS
 62
     7
100
AcDbLine
 10
356.29315514
 20
314.6520073004
 30
0.0
 11
295.5931558076
 21
314.6520073004
 31
0.0
  0
LINE
  5
1FD
330
1F
100
AcDbEntity
  8
0
  6
CONTINUOUS
 62
     7
100
AcDbLine
 10
356.29315514
 20
314.6520073004
 30
0.0
 11
356.29315514
 21
314.3675441332
 31
0.0
  0
LINE
  5
1FE
330
1F
100
AcDbEntity
  8
0
  6
CONTINUOUS
 62
     7
100
AcDbLine
 10
295.5931558076
 20
314.6520073004
 30
0.0
 11
295.5931558076
 21
314.3675441332
 31
0.0
  0
LINE
  5
1FF
330
1F
100
AcDbEntity
  8
0
  6
CONTINUOUS
 62
     7
100
AcDbLine
 10
293.3931558195
 20
337.1498996802
 30
0.0
 11
293.3931558195
 21
332.2519476004
 31
0.0
  0
LINE
  5
200
330
1F
100
AcDbEntity
  8
0
  6
CONTINUOUS
 62
     7
100
AcDbLine
 10
302.4431562785
 20
337.1498996802
 30
0.0
 11
293.3931558195
 21
337.1498996802
 31
0.0
  0
LINE
  5
201
330
1F
100
AcDbEntity
  8
0
  6
CONTINUOUS
 62
     7
100
AcDbLine
 10
302.4431562785
 20
338.0562181063
 30
0.0
 11
302.4431562785
 21
337.1498996802
 31
0.0
  0
LINE
  5
202
330
1F
100
AcDbEntity
  8
0
  6
CONTINUOUS
 62
     7
100
AcDbLine
 10
305.4431549076
 20
338.0562181063
 30
0.0
 11
302.4431562785
 21
338.0562181063
 31
0.0
  0
LINE
  5
203
330
1F
100
AcDbEntity
  8
0
  6
CONTINUOUS
 62
     7
100
AcDbLine
 10
305.4431549076
 20
338.0562181063
 30
0.0
 11
305.4431549076
 21
337.1498996802
 31
0.0
  0
LINE
  5
204
330
1F
100
AcDbEntity
  8
0
  6
CONTINUOUS
 62
     7
100
AcDbLine
 10
346.4431560401
 20
337.1498996802
 30
0.0
 11
332.9431556899
 21
337.1498996802
 31
0.0
  0
LINE
  5
205
330
1F
100
AcDbEntity
  8
0
  6
CONTINUOUS
 62
     7
100
AcDbLine
 10
307.9431562487
 20
337.1498996802
 30
0.0
 11
305.4431549076
 21
337.1498996802
 31
0.0
  0
LINE
  5
206
330
1F
100
AcDbEntity
  8
0
  6
CONTINUOUS
 62
     7
100
AcDbLine
 10
346.4431560401
 20
338.0562181063
 30
0.0
 11
346.4431560401
 21
337.1498996802
 31
0.0
  0
LINE
  5
207
330
1F
100
AcDbEntity
  8
0
  6
CONTINUOUS
 62
     7
100
AcDbLine
 10
349.4431546692
 20
338.0562181063
 30
0.0
 11
346.4431560401
 21
338.0562181063
 31
0.0
  0
LINE
  5
208
330
1F
100
AcDbEntity
  8
0
  6
CONTINUOUS
 62
     7
100
AcDbLine
 10
349.4431546692
 20
338.0562181063
 30
0.0
 11
349.4431546692
 21
337.1498996802
 31
0.0
  0
LINE
  5
209
330
1F
100
AcDbEntity
  8
0
  6
CONTINUOUS
 62
     7
100
AcDbLine
 10
358.4931551281
 20
337.1498996802
 30
0.0
 11
349.4431546692
 21
337.1498996802
 31
0.0
  0
LINE
  5
20A
330
1F
100
AcDbEntity
  8
0
  6
CONTINUOUS
 62
     7
100
AcDbLine
 10
358.4931551281
 20
337.1498996802
 30
0.0
 11
358.4931551281
 21
332.2519476004
 31
0.0
  0
LINE
  5
20B
330
1F
100
AcDbEntity
  8
0
  6
CONTINUOUS
 62
     7
100
AcDbLine
 10
302.4431562785
 20
338.0562181063
 30
0.0
 11
302.4431562785
 21
339.3264526911
 31
0.0
  0
LINE
  5
20C
330
1F
100
AcDbEntity
  8
0
  6
CONTINUOUS
 62
     7
100
AcDbLine
 10
305.4431549076
 20
339.3264526911
 30
0.0
 11
305.4431549076
 21
338.0562181063
 31
0.0
  0
LINE
  5
20D
330
1F
100
AcDbEntity
  8
0
  6
CONTINUOUS
 62
     7
100
AcDbLine
 10
349.4431546692
 20
339.3264526911
 30
0.0
 11
349.4431546692
 21
338.0562181063
 31
0.0
  0
LINE
  5
20E
330
1F
100
AcDbEntity
  8
0
  6
CONTINUOUS
 62
     7
100
AcDbLine
 10
346.4431560401
 20
338.0562181063
 30
0.0
 11
346.4431560401
 21
339.3264526911
 31
0.0
  0
DIMENSION
  5
20F
330
1F
100
AcDbEntity
  8
0
  6
CONTINUOUS
 62
     7
100
AcDbDimension
  2
*D4
 10
359.6931554737
 20
366.2519432139
 30
0.0
 11
325.9431554739
 21
366.2519432139
 31
0.0
 70
   160
  3
SLDDIMSTYLE0
100
AcDbAlignedDimension
 13
292.1931554739
 23
329.0519432139
 33
0.0
 14
359.6931554737
 24
329.0519432139
 34
0.0
 50
0.0000000001
100
AcDbRotatedDimension
  0
LINE
  5
219
330
1F
100
AcDbEntity
  8
0
  6
CONTINUOUS
 62
     7
100
AcDbLine
 10
530.0359315165
 20
312.9054658686
 30
0.0
 11
518.5083060482
 21
309.1011491166
 31
0.0
  0
LINE
  5
21A
330
1F
100
AcDbEntity
  8
0
  6
CONTINUOUS
 62
     7
100
AcDbLine
 10
539.7127542716
 20
310.1752723027
 30
0.0
 11
539.7340394616
 21
311.2500676183
 31
0.0
  0
LINE
  5
21B
330
1F
100
AcDbEntity
  8
0
  6
CONTINUOUS
 62
     7
100
AcDbLine
 10
534.9661329959
 20
280.5888906594
 30
0.0
 11
535.3441169336
 21
301.8715235366
 31
0.0
  0
LINE
  5
21C
330
1F
100
AcDbEntity
  8
0
  6
CONTINUOUS
 62
     7
100
AcDbLine
 10
527.2380004019
 20
205.5302039422
 30
0.0
 11
527.0294351604
 21
205.4048256034
 31
0.0
  0
LINE
  5
21D
330
1F
100
AcDbEntity
  8
0
  6
CONTINUOUS
 62
     7
100
AcDbLine
 10
528.3246111432
 20
203.2706616116
 30
0.0
 11
528.5325636526
 21
203.3972186253
 31
0.0
  0
LINE
  5
21E
330
1F
100
AcDbEntity
  8
0
  6
CONTINUOUS
 62
     7
100
AcDbLine
 10
512.6215057759
 20
223.2995998606
 30
0.0
 11
512.5968821181
 21
223.2864031296
 31
0.0
  0
LINE
  5
21F
330
1F
100
AcDbEntity
  8
0
  6
CONTINUOUS
 62
     7
100
AcDbLine
 10
513.7722093264
 20
221.1112889706
 30
0.0
 11
513.796767098
 21
221.1246200205
 31
0.0
  0
LINE
  5
220
330
1F
100
AcDbEntity
  8
0
  6
CONTINUOUS
 62
     7
100
AcDbLine
 10
471.3681314011
 20
299.4963731786
 30
0.0
 11
471.1333695298
 21
299.4220133842
 31
0.0
  0
LINE
  5
221
330
1F
100
AcDbEntity
  8
0
  6
CONTINUOUS
 62
     7
100
AcDbLine
 10
471.8824509773
 20
297.0804584062
 30
0.0
 11
472.1167404146
 21
297.156017262
 31
0.0
  0
LINE
  5
222
330
1F
100
AcDbEntity
  8
0
  6
CONTINUOUS
 62
     7
100
AcDbLine
 10
434.6005016558
 20
263.1135556772
 30
0.0
 11
492.8189315305
 21
184.1765341834
 31
0.0
  0
LINE
  5
223
330
1F
100
AcDbEntity
  8
0
  6
CONTINUOUS
 62
     7
100
AcDbLine
 10
493.2020549531
 20
183.7854199902
 30
0.0
 11
502.0176645491
 21
177.003313516
 31
0.0
  0
LINE
  5
224
330
1F
100
AcDbEntity
  8
0
  6
CONTINUOUS
 62
     7
100
AcDbLine
 10
433.0294191104
 20
301.7383380229
 30
0.0
 11
434.2305165581
 21
264.1795162936
 31
0.0
  0
LINE
  5
225
330
1F
100
AcDbEntity
  8
0
  6
CONTINUOUS
 62
     7
100
AcDbLine
 10
529.6921079803
 20
299.7109012287
 30
0.0
 11
535.0938254034
 21
301.6746635251
 31
0.0
  0
LINE
  5
226
330
1F
100
AcDbEntity
  8
0
  6
CONTINUOUS
 62
     7
100
AcDbLine
 10
534.7179038758
 20
280.3641876
 30
0.0
 11
535.0938254034
 21
301.6746635251
 31
0.0
  0
LINE
  5
227
330
1F
100
AcDbEntity
  8
0
  6
CONTINUOUS
 62
     7
100
AcDbLine
 10
506.8375421265
 20
268.6956868186
 30
0.0
 11
534.7179038758
 21
280.3641876
 31
0.0
  0
LINE
  5
228
330
1F
100
AcDbEntity
  8
0
  6
CONTINUOUS
 62
     7
100
AcDbLine
 10
506.927739061
 20
291.4350500722
 30
0.0
 11
506.8375421265
 21
268.6956868186
 31
0.0
  0
LINE
  5
229
330
1F
100
AcDbEntity
  8
0
  6
CONTINUOUS
 62
     7
100
AcDbLine
 10
506.927739061
 20
291.4350500722
 30
0.0
 11
518.2318642509
 21
295.5445976664
 31
0.0
  0
LINE
  5
22A
330
1F
100
AcDbEntity
  8
0
  6
CONTINUOUS
 62
     7
100
AcDbLine
 10
518.3428606581
 20
307.2645483855
 30
0.0
 11
518.2318642509
 21
295.5445976664
 31
0.0
  0
LINE
  5
22B
330
1F
100
AcDbEntity
  8
0
  6
CONTINUOUS
 62
     7
100
AcDbLine
 10
529.8035090986
 20
307.1235905504
 30
0.0
 11
529.6921079803
 21
299.7109012287
 31
0.0
  0
LINE
  5
22C
330
1F
100
AcDbEntity
  8
0
  6
CONTINUOUS
 62
     7
100
AcDbLine
 10
505.9690622024
 20
291.5730724444
 30
0.0
 11
506.927739061
 21
291.4350500722
 31
0.0
  0
ARC
  5
22D
330
1F
100
AcDbEntity
  8
0
  6
CONTINUOUS
 62
     7
100
AcDbCircle
 10
505.147387603
 20
298.2407959589
 30
0.0
 40
7.034758587758152
100
AcDbArc
 50
261.1782925309
 51
284.6598017092
  0
LINE
  5
22E
330
1F
100
AcDbEntity
  8
0
  6
CONTINUOUS
 62
     7
100
AcDbLine
 10
504.6709183502
 20
291.5069541716
 30
0.0
 11
504.0685353923
 21
291.2892561082
 31
0.0
  0
ARC
  5
22F
330
1F
100
AcDbEntity
  8
0
  6
CONTINUOUS
 62
     7
100
AcDbCircle
 10
505.1605997225
 20
294.6694336417
 30
0.0
 40
3.200166284009964
100
AcDbArc
 50
261.1981654935
 51
284.6332795274
  0
ARC
  5
230
330
1F
100
AcDbEntity
  8
0
  6
CONTINUOUS
 62
     7
100
AcDbCircle
 10
505.0815762397
 20
274.5013254245
 30
0.0
 40
6.06538175361339
100
AcDbArc
 50
259.8246077174
 51
286.8283978547
  0
LINE
  5
231
330
1F
100
AcDbEntity
  8
0
  6
CONTINUOUS
 62
     7
100
AcDbLine
 10
504.0685353923
 20
291.2892561082
 30
0.0
 11
504.0100536102
 21
268.5313425877
 31
0.0
  0
LINE
  5
232
330
1F
100
AcDbEntity
  8
0
  6
CONTINUOUS
 62
     7
100
AcDbLine
 10
504.0685353923
 20
291.2892561082
 30
0.0
 11
493.0191276956
 21
292.8862426562
 31
0.0
  0
LINE
  5
233
330
1F
100
AcDbEntity
  8
0
  6
CONTINUOUS
 62
     7
100
AcDbLine
 10
493.0191276956
 20
292.8862426562
 30
0.0
 11
493.6306680471
 21
293.0992410594
 31
0.0
  0
LINE
  5
234
330
1F
100
AcDbEntity
  8
0
  6
CONTINUOUS
 62
     7
100
AcDbLine
 10
504.6709183502
 20
291.5069541716
 30
0.0
 11
493.6306680471
 21
293.0992410594
 31
0.0
  0
LINE
  5
235
330
1F
100
AcDbEntity
  8
0
  6
CONTINUOUS
 62
     7
100
AcDbLine
 10
503.9852178712
 20
268.5354998587
 30
0.0
 11
504.0100536102
 21
268.5313425877
 31
0.0
  0
LINE
  5
236
330
1F
100
AcDbEntity
  8
0
  6
CONTINUOUS
 62
     7
100
AcDbLine
 10
493.0191276956
 20
292.8862426562
 30
0.0
 11
493.0191632361
 21
292.8736716105
 31
0.0
  0
LINE
  5
237
330
1F
100
AcDbEntity
  8
0
  6
CONTINUOUS
 62
     7
100
AcDbLine
 10
517.28885409
 20
295.6750088112
 30
0.0
 11
518.2318642509
 21
295.5445976664
 31
0.0
  0
LINE
  5
238
330
1F
100
AcDbEntity
  8
0
  6
CONTINUOUS
 62
     7
100
AcDbLine
 10
505.9690622024
 20
291.5730724444
 30
0.0
 11
517.28885409
 21
295.6750088112
 31
0.0
  0
LINE
  5
239
330
1F
100
AcDbEntity
  8
0
  6
CONTINUOUS
 62
     7
100
AcDbLine
 10
533.1592023116
 20
308.716160107
 30
0.0
 11
533.140989013
 21
307.6217884264
 31
0.0
  0
ARC
  5
23A
330
1F
100
AcDbEntity
  8
0
  6
CONTINUOUS
 62
     7
100
AcDbCircle
 10
528.4007123423
 20
327.5923286004
 30
0.0
 40
20.52541589731711
100
AcDbArc
 50
261.9480919454
 51
283.3528131918
  0
LINE
  5
23B
330
1F
100
AcDbEntity
  8
0
  6
CONTINUOUS
 62
     7
100
AcDbLine
 10
525.5257133683
 20
307.2692609516
 30
0.0
 11
525.5399208239
 21
308.366082872
 31
0.0
  0
ARC
  5
23C
330
1F
100
AcDbEntity
  8
0
  6
CONTINUOUS
 62
     7
100
AcDbCircle
 10
528.4156221534
 20
328.8679139192
 30
0.0
 40
20.70252966249002
100
AcDbArc
 50
262.0154657572
 51
283.2458837466
  0
LINE
  5
23D
330
1F
100
AcDbEntity
  8
0
  6
CONTINUOUS
 62
     7
100
AcDbLine
 10
519.1543501068
 20
309.1623489962
 30
0.0
 11
530.6713193084
 21
312.9675178855
 31
0.0
  0
LINE
  5
23E
330
1F
100
AcDbEntity
  8
0
  6
CONTINUOUS
 62
     7
100
AcDbLine
 10
536.9428660629
 20
312.2176150044
 30
0.0
 11
530.6713193084
 21
312.9675178855
 31
0.0
  0
LWPOLYLINE
  5
23F
330
1F
100
AcDbEntity
  8
0
  6
CONTINUOUS
 62
     7
100
AcDbPolyline
 90
        9
 70
   128
 43
0.0
 10
539.0420488798
 20
310.7370133571
 10
539.4708695948
 20
310.9270630808
 10
539.6981046571
 20
311.1314153712
 10
539.7158672658
 20
311.3421196657
 10
539.5245354569
 20
311.5510427433
 10
539.1323850148
 20
311.7502103606
 10
538.5553316728
 20
311.9320792928
 10
537.8159725626
 20
312.0898378603
 10
536.9428660629
 20
312.2176150044
  0
LINE
  5
240
330
1F
100
AcDbEntity
  8
0
  6
CONTINUOUS
 62
     7
100
AcDbLine
 10
533.1592023116
 20
308.716160107
 30
0.0
 11
539.0420488798
 21
310.7370133571
 31
0.0
  0
LINE
  5
241
330
1F
100
AcDbEntity
  8
0
  6
CONTINUOUS
 62
     7
100
AcDbLine
 10
519.1543501068
 20
309.1623489962
 30
0.0
 11
525.5399208239
 21
308.366082872
 31
0.0
  0
LWPOLYLINE
  5
242
330
1F
100
AcDbEntity
  8
0
  6
CONTINUOUS
 62
     7
100
AcDbPolyline
 90
       18
 70
   128
 43
0.0
 10
529.5848692852
 20
310.5325475127
 10
529.3334436028
 20
310.3929067222
 10
529.357020096
 20
310.2423276902
 10
529.6533195642
 20
310.1011398634
 10
530.1830333204
 20
309.9885241281
 10
530.8746404614
 20
309.9198784344
 10
531.634253877
 20
309.9046149654
 10
532.3583406555
 20
309.9448405234
 10
532.9483405685
 20
310.0350309826
 10
533.3243173994
 20
310.1628331465
 10
533.4359087427
 20
310.3108209146
 10
533.2689080117
 20
310.4589354512
 10
532.8467073424
 20
310.5872342015
 10
532.2267652156
 20
310.6785441415
 10
531.492480756
 20
310.7207174496
 10
530.7423138621
 20
310.7081512273
 10
530.0766558915
 20
310.6425201304
 10
529.5848692852
 20
310.5325475127
  0
LINE
  5
243
330
1F
100
AcDbEntity
  8
0
  6
CONTINUOUS
 62
     7
100
AcDbLine
 10
519.1436044699
 20
308.0719864746
 30
0.0
 11
519.1543501068
 21
309.1623489962
 31
0.0
  0
LINE
  5
244
330
1F
100
AcDbEntity
  8
0
  6
CONTINUOUS
 62
     7
100
AcDbLine
 10
519.1436044699
 20
308.0719864746
 30
0.0
 11
525.5257133683
 21
307.2692609516
 31
0.0
  0
LINE
  5
245
330
1F
100
AcDbEntity
  8
0
  6
CONTINUOUS
 62
     7
100
AcDbLine
 10
539.0210406679
 20
309.6582262593
 30
0.0
 11
539.0420488798
 21
310.7370133571
 31
0.0
  0
LINE
  5
246
330
1F
100
AcDbEntity
  8
0
  6
CONTINUOUS
 62
     7
100
AcDbLine
 10
533.140989013
 20
307.6217884264
 30
0.0
 11
539.0210406679
 21
309.6582262593
 31
0.0
  0
LWPOLYLINE
  5
247
330
1F
100
AcDbEntity
  8
0
  6
CONTINUOUS
 62
     7
100
AcDbPolyline
 90
        3
 70
   128
 43
0.0
 10
530.0359315165
 20
312.9054658686
 10
530.3364305211
 20
312.9701088075
 10
530.6713193084
 20
312.9675178855
  0
ARC
  5
248
330
1F
100
AcDbEntity
  8
0
  6
CONTINUOUS
 62
     7
100
AcDbCircle
 10
519.0383723151
 20
307.5170989156
 30
0.0
 40
1.649332797234845
100
AcDbArc
 50
85.9677474347
 51
184.6043021481
  0
LINE
  5
249
330
1F
100
AcDbEntity
  8
0
  6
CONTINUOUS
 62
     7
100
AcDbLine
 10
518.3428606581
 20
307.2645483855
 30
0.0
 11
517.3943621559
 21
307.3847007558
 31
0.0
  0
ARC
  5
24A
330
1F
100
AcDbEntity
  8
0
  6
CONTINUOUS
 62
     7
100
AcDbCircle
 10
519.0900034963
 20
307.3243714932
 30
0.0
 40
0.7495340050867786
100
AcDbArc
 50
85.899141058
 51
184.5778592399
  0
LINE
  5
24B
330
1F
100
AcDbEntity
  8
0
  6
CONTINUOUS
 62
     7
100
AcDbLine
 10
517.3943621559
 20
307.3847007558
 30
0.0
 11
517.28885409
 21
295.6750088112
 31
0.0
  0
LWPOLYLINE
  5
24C
330
1F
100
AcDbEntity
  8
0
  6
CONTINUOUS
 62
     7
100
AcDbPolyline
 90
        4
 70
   128
 43
0.0
 10
539.7127542716
 20
310.1752723027
 10
539.6768185732
 20
310.0556920657
 10
539.4496683867
 20
309.8497479611
 10
539.0210406679
 20
309.6582262593
  0
LINE
  5
24D
330
1F
100
AcDbEntity
  8
0
  6
CONTINUOUS
 62
     7
100
AcDbLine
 10
534.1752901856
 20
301.7941218668
 30
0.0
 11
535.0938254034
 21
301.6746635251
 31
0.0
  0
LINE
  5
24E
330
1F
100
AcDbEntity
  8
0
  6
CONTINUOUS
 62
     7
100
AcDbLine
 10
529.6990465636
 20
300.1720720374
 30
0.0
 11
534.1752901856
 21
301.7941218668
 31
0.0
  0
LWPOLYLINE
  5
24F
330
1F
100
AcDbEntity
  8
0
  6
CONTINUOUS
 62
     7
100
AcDbPolyline
 90
        9
 70
   128
 43
0.0
 10
535.0938254034
 20
301.6746635251
 10
535.2472485497
 20
301.7464124388
 10
535.3298899277
 20
301.823742455
 10
535.3387212382
 20
301.9036632334
 10
535.273479715
 20
301.9831049197
 10
535.1368446929
 20
302.0590143694
 10
534.9341261173
 20
302.1284964329
 10
534.6732080154
 20
302.1888982306
 10
534.3641288474
 20
302.2379257834
  0
ARC
  5
250
330
1F
100
AcDbEntity
  8
0
  6
CONTINUOUS
 62
     7
100
AcDbCircle
 10
534.6667944046
 20
280.6701088443
 30
0.0
 40
0.3101612254396147
100
AcDbArc
 50
279.4846613181
 51
344.8196646361
  0
LWPOLYLINE
  5
251
330
1F
100
AcDbEntity
  8
0
  6
CONTINUOUS
 62
     7
100
AcDbPolyline
 90
        9
 70
   128
 43
0.0
 10
534.1752901856
 20
301.7941218668
 10
534.2451892899
 20
301.8266883739
 10
534.2830079719
 20
301.8618054958
 10
534.2872850851
 20
301.8981248903
 10
534.2579012548
 20
301.9342474333
 10
534.1960241774
 20
301.9687838881
 10
534.1040005671
 20
302.000418101
 10
533.9854467652
 20
302.0279294322
 10
533.8448800176
 20
302.0502719609
  0
LINE
  5
252
330
1F
100
AcDbEntity
  8
0
  6
CONTINUOUS
 62
     7
100
AcDbLine
 10
533.8448800176
 20
302.0502719609
 30
0.0
 11
534.3641288474
 21
302.2379257834
 31
0.0
  0
LINE
  5
253
330
1F
100
AcDbEntity
  8
0
  6
CONTINUOUS
 62
     7
100
AcDbLine
 10
533.8448800176
 20
302.0502719609
 30
0.0
 11
529.7352872106
 21
302.5838831273
 31
0.0
  0
LINE
  5
254
330
1F
100
AcDbEntity
  8
0
  6
CONTINUOUS
 62
     7
100
AcDbLine
 10
534.3641288474
 20
302.2379257834
 30
0.0
 11
529.7390989215
 21
302.8373145071
 31
0.0
  0
LINE
  5
255
330
1F
100
AcDbEntity
  8
0
  6
CONTINUOUS
 62
     7
100
AcDbLine
 10
471.723668798
 20
299.5246299235
 30
0.0
 11
471.3681314011
 21
299.4963731786
 31
0.0
  0
LWPOLYLINE
  5
256
330
1F
100
AcDbEntity
  8
0
  6
CONTINUOUS
 62
     7
100
AcDbPolyline
 90
        3
 70
   128
 43
0.0
 10
472.1167404146
 20
297.156017262
 10
472.1375630598
 20
297.1630609017
 10
472.2553228972
 20
297.2161161446
  0
LINE
  5
257
330
1F
100
AcDbEntity
  8
0
  6
CONTINUOUS
 62
     7
100
AcDbLine
 10
472.0551132501
 20
299.4110058633
 30
0.0
 11
471.723668798
 21
299.5246299235
 31
0.0
  0
LINE
  5
258
330
1F
100
AcDbEntity
  8
0
  6
CONTINUOUS
 62
     7
100
AcDbLine
 10
466.8995869897
 20
310.9910198993
 30
0.0
 11
517.3679356589
 21
304.4510089274
 31
0.0
  0
LINE
  5
259
330
1F
100
AcDbEntity
  8
0
  6
CONTINUOUS
 62
     7
100
AcDbLine
 10
529.7392709775
 20
302.8478522786
 30
0.0
 11
534.3857343041
 21
302.2457338829
 31
0.0
  0
LINE
  5
25A
330
1F
100
AcDbEntity
  8
0
  6
CONTINUOUS
 62
     7
100
AcDbLine
 10
534.3857343041
 20
302.2457338829
 30
0.0
 11
534.3855508158
 21
302.2351222079
 31
0.0
  0
LINE
  5
25B
330
1F
100
AcDbEntity
  8
0
  6
CONTINUOUS
 62
     7
100
AcDbLine
 10
534.0021972167
 20
280.0646401373
 30
0.0
 11
533.8820644035
 21
273.11700123
 31
0.0
  0
ARC
  5
25C
330
1F
100
AcDbEntity
  8
0
  6
CONTINUOUS
 62
     7
100
AcDbCircle
 10
532.4385608365
 20
276.5273576586
 30
0.0
 40
3.703273351823842
100
AcDbArc
 50
286.6692802376
 51
292.9415112975
  0
ARC
  5
25D
330
1F
100
AcDbEntity
  8
0
  6
CONTINUOUS
 62
     7
100
AcDbCircle
 10
534.103006253
 20
271.0877653402
 30
0.0
 40
1.985462972022857
100
AcDbArc
 50
107.6553688767
 51
163.0107123969
  0
ARC
  5
25E
330
1F
100
AcDbEntity
  8
0
  6
CONTINUOUS
 62
     7
100
AcDbCircle
 10
684.5807368267
 20
220.7968844045
 30
0.0
 40
160.6439310653571
100
AcDbArc
 50
161.5383758983
 51
166.6378430621
  0
ARC
  5
25F
330
1F
100
AcDbEntity
  8
0
  6
CONTINUOUS
 62
     7
100
AcDbCircle
 10
531.0840231226
 20
257.3026615589
 30
0.0
 40
2.866219412427682
100
AcDbArc
 50
167.5096020855
 51
252.7595586167
  0
LINE
  5
260
330
1F
100
AcDbEntity
  8
0
  6
CONTINUOUS
 62
     7
100
AcDbLine
 10
530.234526577
 20
254.5652230958
 30
0.0
 11
535.8080554376
 21
246.5658282547
 31
0.0
  0
LINE
  5
261
330
1F
100
AcDbEntity
  8
0
  6
CONTINUOUS
 62
     7
100
AcDbLine
 10
535.8080554376
 20
246.5658282547
 30
0.0
 11
534.8078992986
 21
192.4525714772
 31
0.0
  0
LINE
  5
262
330
1F
100
AcDbEntity
  8
0
  6
CONTINUOUS
 62
     7
100
AcDbLine
 10
531.1801071734
 20
195.1364515863
 30
0.0
 11
531.4959378016
 21
195.7632331278
 31
0.0
  0
LINE
  5
263
330
1F
100
AcDbEntity
  8
0
  6
CONTINUOUS
 62
     7
100
AcDbLine
 10
527.3335342236
 20
205.5793483407
 30
0.0
 11
527.2380004019
 21
205.5302039422
 31
0.0
  0
ARC
  5
264
330
1F
100
AcDbEntity
  8
0
  6
CONTINUOUS
 62
     7
100
AcDbCircle
 10
528.0363634208
 20
204.1728552334
 30
0.0
 40
0.9207751179400014
100
AcDbArc
 50
302.6083836898
 51
358.1350452632
  0
LINE
  5
265
330
1F
100
AcDbEntity
  8
0
  6
CONTINUOUS
 62
     7
100
AcDbLine
 10
467.4680773289
 20
311.1548839784
 30
0.0
 11
466.8995869897
 21
310.9910198993
 31
0.0
  0
LINE
  5
266
330
1F
100
AcDbEntity
  8
0
  6
CONTINUOUS
 62
     7
100
AcDbLine
 10
534.9035316795
 20
302.4328631573
 30
0.0
 11
534.3857343041
 21
302.2457338829
 31
0.0
  0
LINE
  5
267
330
1F
100
AcDbEntity
  8
0
  6
CONTINUOUS
 62
     7
100
AcDbLine
 10
467.4680773289
 20
311.1548839784
 30
0.0
 11
517.3701743986
 21
304.7006065682
 31
0.0
  0
LINE
  5
268
330
1F
100
AcDbEntity
  8
0
  6
CONTINUOUS
 62
     7
100
AcDbLine
 10
529.7430471707
 20
303.100314037
 30
0.0
 11
534.9035316795
 21
302.4328631573
 31
0.0
  0
LINE
  5
269
330
1F
100
AcDbEntity
  8
0
  6
CONTINUOUS
 62
     7
100
AcDbLine
 10
534.3932077735
 20
273.3400591844
 30
0.0
 11
533.8820644035
 21
273.11700123
 31
0.0
  0
LINE
  5
26A
330
1F
100
AcDbEntity
  8
0
  6
CONTINUOUS
 62
     7
100
AcDbLine
 10
534.9035316795
 20
302.4328631573
 30
0.0
 11
534.8983634556
 21
302.1382304334
 31
0.0
  0
LINE
  5
26B
330
1F
100
AcDbEntity
  8
0
  6
CONTINUOUS
 62
     7
100
AcDbLine
 10
534.5149294293
 20
280.2792290524
 30
0.0
 11
534.3932077735
 21
273.3400591844
 31
0.0
  0
LINE
  5
26C
330
1F
100
AcDbEntity
  8
0
  6
CONTINUOUS
 62
     7
100
AcDbLine
 10
532.7162994782
 20
271.8923300895
 30
0.0
 11
532.2041900704
 21
271.6679035289
 31
0.0
  0
ARC
  5
26D
330
1F
100
AcDbEntity
  8
0
  6
CONTINUOUS
 62
     7
100
AcDbCircle
 10
534.7344586274
 20
271.2389087927
 30
0.0
 40
2.121302840845725
100
AcDbArc
 50
133.570342435
 51
162.0595535176
  0
LINE
  5
26E
330
1F
100
AcDbEntity
  8
0
  6
CONTINUOUS
 62
     7
100
AcDbLine
 10
528.7974157649
 20
258.1625563318
 30
0.0
 11
528.2856406286
 21
257.9225560153
 31
0.0
  0
ARC
  5
26F
330
1F
100
AcDbEntity
  8
0
  6
CONTINUOUS
 62
     7
100
AcDbCircle
 10
684.9012995013
 20
221.0300581529
 30
0.0
 40
160.4594806753155
100
AcDbArc
 50
161.5196795566
 51
166.6196923219
  0
LINE
  5
270
330
1F
100
AcDbEntity
  8
0
  6
CONTINUOUS
 62
     7
100
AcDbLine
 10
530.7439874413
 20
254.809723066
 30
0.0
 11
530.234526577
 21
254.5652230958
 31
0.0
  0
LINE
  5
271
330
1F
100
AcDbEntity
  8
0
  6
CONTINUOUS
 62
     7
100
AcDbLine
 10
536.3112713816
 20
246.8213173515
 30
0.0
 11
535.8080554376
 21
246.5658282547
 31
0.0
  0
LINE
  5
272
330
1F
100
AcDbEntity
  8
0
  6
CONTINUOUS
 62
     7
100
AcDbLine
 10
530.7439874413
 20
254.809723066
 30
0.0
 11
536.3112713816
 21
246.8213173515
 31
0.0
  0
LINE
  5
273
330
1F
100
AcDbEntity
  8
0
  6
CONTINUOUS
 62
     7
100
AcDbLine
 10
536.3112713816
 20
246.8213173515
 30
0.0
 11
535.2862272006
 21
192.0987000925
 31
0.0
  0
ARC
  5
274
330
1F
100
AcDbEntity
  8
0
  6
CONTINUOUS
 62
     7
100
AcDbCircle
 10
531.590668388
 20
257.5427671881
 30
0.0
 40
2.861188354363842
100
AcDbArc
 50
167.4894437961
 51
252.7873272724
  0
ARC
  5
275
330
1F
100
AcDbEntity
  8
0
  6
CONTINUOUS
 62
     7
100
AcDbCircle
 10
527.8178194183
 20
204.120926123
 30
0.0
 40
0.9596732084075001
100
AcDbArc
 50
260.3454736758
 51
25.5009469686
  0
LWPOLYLINE
  5
276
330
1F
100
AcDbEntity
  8
0
  6
CONTINUOUS
 62
     7
100
AcDbPolyline
 90
        9
 70
   128
 43
0.0
 10
527.4115351291
 20
205.5220692178
 10
527.2775609576
 20
205.5032440722
 10
526.9247190624
 20
205.3299910204
 10
526.6861909301
 20
205.0057043059
 10
526.5980556271
 20
204.5798333842
 10
526.6735540921
 20
204.1171040542
 10
526.9011685691
 20
203.6877397431
 10
527.2463978974
 20
203.3568885736
 10
527.656875496
 20
203.1748448787
  0
LWPOLYLINE
  5
277
330
1F
100
AcDbEntity
  8
0
  6
CONTINUOUS
 62
     7
100
AcDbPolyline
 90
        3
 70
   128
 43
0.0
 10
513.1730877831
 20
221.0336785552
 10
513.5771417737
 20
221.0362716572
 10
513.7722093264
 20
221.1112889706
  0
LWPOLYLINE
  5
278
330
1F
100
AcDbEntity
  8
0
  6
CONTINUOUS
 62
     7
100
AcDbPolyline
 90
        8
 70
   128
 43
0.0
 10
512.5968821181
 20
223.2864031296
 10
512.4422461456
 20
223.1784290447
 10
512.2114435975
 20
222.8489510079
 10
512.1283171956
 20
222.4206235297
 10
512.2054108483
 20
221.9585362678
 10
512.4309067104
 20
221.5328253601
 10
512.7706442813
 20
221.2080823224
 10
513.1730877831
 20
221.0336785552
  0
ARC
  5
279
330
1F
100
AcDbEntity
  8
0
  6
CONTINUOUS
 62
     7
100
AcDbCircle
 10
471.634966756
 20
297.8493580042
 30
0.0
 40
0.8061894544903637
100
AcDbArc
 50
261.865683599
 51
320.3461330118
  0
LWPOLYLINE
  5
27A
330
1F
100
AcDbEntity
  8
0
  6
CONTINUOUS
 62
     7
100
AcDbPolyline
 90
       12
 70
   128
 43
0.0
 10
472.2008756159
 20
299.0015482749
 10
471.8742107409
 20
299.3046808348
 10
471.4889971846
 20
299.450254543
 10
471.1065204903
 20
299.4129580154
 10
470.7850228274
 20
299.1987193513
 10
470.5733249544
 20
298.8403574772
 10
470.5034768106
 20
298.3924622469
 10
470.5859336086
 20
297.923126866
 10
470.8081464839
 20
297.5035604245
 10
471.1363927001
 20
297.1974282739
 10
471.5208956518
 20
297.0512795496
 10
471.5208956518
 20
297.0512795496
  0
LWPOLYLINE
  5
27B
330
1F
100
AcDbEntity
  8
0
  6
CONTINUOUS
 62
     7
100
AcDbPolyline
 90
       17
 70
   128
 43
0.0
 10
498.1914316325
 20
185.389591832
 10
498.5786669222
 20
185.3766202445
 10
498.9072236886
 20
185.5351960066
 10
499.1269681387
 20
185.8413749212
 10
499.2042283181
 20
186.2486264512
 10
499.1271077185
 20
186.6948462513
 10
498.9073030661
 20
187.1119019092
 10
498.5784219318
 20
187.4360920955
 10
498.1907218911
 20
187.6179872075
 10
497.8033792791
 20
187.6299932242
 10
497.4753842266
 20
187.4704907346
 10
497.2565638223
 20
187.1639611952
 10
497.1800171167
 20
186.7571515455
 10
497.2572450532
 20
186.31189424
 10
497.4764656508
 20
185.8957709205
 10
497.8044450779
 20
185.5719257472
 10
498.1914316325
 20
185.389591832
  0
LWPOLYLINE
  5
27C
330
1F
100
AcDbEntity
  8
0
  6
CONTINUOUS
 62
     7
100
AcDbPolyline
 90
       17
 70
   128
 43
0.0
 10
482.8485082262
 20
204.7151002795
 10
483.2262066148
 20
204.7105658338
 10
483.5453376455
 20
204.8766998987
 10
483.7571828294
 20
205.1884092232
 10
483.8293412941
 20
205.5983015249
 10
483.7506143453
 20
206.0438908936
 10
483.5330302988
 20
206.4571155565
 10
483.209793469
 20
206.7748793039
 10
482.8303184642
 20
206.9487302349
 10
482.4525237371
 20
206.952301796
 10
482.1339435343
 20
206.7852580011
 10
481.9229736379
 20
206.4732250341
 10
481.8515240972
 20
206.0637795813
 10
481.930325522
 20
205.6191582375
 10
482.1473587875
 20
205.2068433002
 10
482.4697202884
 20
204.8894032127
 10
482.8485082262
 20
204.7151002795
  0
LWPOLYLINE
  5
27D
330
1F
100
AcDbEntity
  8
0
  6
CONTINUOUS
 62
     7
100
AcDbPolyline
 90
       17
 70
   128
 43
0.0
 10
451.934157651
 20
246.534387316
 10
452.2934908823
 20
246.5477157506
 10
452.5944080892
 20
246.7302371375
 10
452.7909686444
 20
247.054355918
 10
452.8531072962
 20
247.4707888597
 10
452.771164524
 20
247.9160419164
 10
452.5576598522
 20
248.3221108641
 10
452.2451741558
 20
248.6269881391
 10
451.8814739653
 20
248.7841936605
 10
451.522065259
 20
248.7699100872
 10
451.2216789765
 20
248.5865104014
 10
451.0259446998
 20
248.2621046808
 10
450.9644643719
 20
247.8461488405
 10
451.0464615975
 20
247.4018612749
 10
451.2594352435
 20
246.9966768324
 10
451.5710947677
 20
246.6920803044
 10
451.934157651
 20
246.534387316
  0
LWPOLYLINE
  5
27E
330
1F
100
AcDbEntity
  8
0
  6
CONTINUOUS
 62
     7
100
AcDbPolyline
 90
       17
 70
   128
 43
0.0
 10
438.375232982
 20
286.4974141743
 10
438.7306563265
 20
286.5279159443
 10
439.0270497626
 20
286.7293459327
 10
439.2192196319
 20
287.0712205596
 10
439.2776893222
 20
287.5015731818
 10
439.1934397669
 20
287.9547591262
 10
438.9792630645
 20
288.3615742475
 10
438.6679231632
 20
288.6598824402
 10
438.3069525844
 20
288.8042200472
 10
437.9514608816
 20
288.7727355096
 10
437.6555811641
 20
288.5704275435
 10
437.4642354188
 20
288.2282893489
 10
437.4063962513
 20
287.7984632981
 10
437.4907138023
 20
287.3462728506
 10
437.7043556957
 20
286.9403517155
 10
438.0148925579
 20
286.6422910731
 10
438.375232982
 20
286.4974141743
  0
ARC
  5
27F
330
1F
100
AcDbEntity
  8
0
  6
CONTINUOUS
 62
     7
100
AcDbCircle
 10
501.9286696483
 20
263.2070813537
 30
0.0
 40
3.697738840861949
100
AcDbArc
 50
286.395786024
 51
292.9153873019
  0
ARC
  5
280
330
1F
100
AcDbEntity
  8
0
  6
CONTINUOUS
 62
     7
100
AcDbCircle
 10
503.5860293393
 20
257.7351454899
 30
0.0
 40
2.020013852036729
100
AcDbArc
 50
107.6834652633
 51
164.5579009108
  0
ARC
  5
281
330
1F
100
AcDbEntity
  8
0
  6
CONTINUOUS
 62
     7
100
AcDbCircle
 10
665.5437723074
 20
207.141937171
 30
0.0
 40
171.6950222185832
100
AcDbArc
 50
162.674385298
 51
167.7368224862
  0
ARC
  5
282
330
1F
100
AcDbEntity
  8
0
  6
CONTINUOUS
 62
     7
100
AcDbCircle
 10
500.8815787942
 20
242.9892362672
 30
0.0
 40
3.176462108362343
100
AcDbArc
 50
168.7234741041
 51
251.091692063
  0
LINE
  5
283
330
1F
100
AcDbEntity
  8
0
  6
CONTINUOUS
 62
     7
100
AcDbLine
 10
505.7932354641
 20
231.3269246779
 30
0.0
 11
499.8522316426
 21
239.9841811982
 31
0.0
  0
LINE
  5
284
330
1F
100
AcDbEntity
  8
0
  6
CONTINUOUS
 62
     7
100
AcDbLine
 10
505.5863037932
 20
172.463983686
 30
0.0
 11
505.7932354641
 21
231.3269246779
 31
0.0
  0
LINE
  5
285
330
1F
100
AcDbEntity
  8
0
  6
CONTINUOUS
 62
     7
100
AcDbLine
 10
501.3883577556
 20
175.6991635731
 30
0.0
 11
505.5863037932
 21
172.463983686
 31
0.0
  0
LINE
  5
286
330
1F
100
AcDbEntity
  8
0
  6
CONTINUOUS
 62
     7
100
AcDbLine
 10
502.089586841
 20
177.1523490602
 30
0.0
 11
501.3883577556
 21
175.6991635731
 31
0.0
  0
LINE
  5
287
330
1F
100
AcDbEntity
  8
0
  6
CONTINUOUS
 62
     7
100
AcDbLine
 10
492.7370655186
 20
184.3460949423
 30
0.0
 11
502.089586841
 21
177.1523490602
 31
0.0
  0
LINE
  5
288
330
1F
100
AcDbEntity
  8
0
  6
CONTINUOUS
 62
     7
100
AcDbLine
 10
434.3087372767
 20
263.5662203872
 30
0.0
 11
492.7370655186
 21
184.3460949423
 31
0.0
  0
LINE
  5
289
330
1F
100
AcDbEntity
  8
0
  6
CONTINUOUS
 62
     7
100
AcDbLine
 10
433.1047425883
 20
301.2498498676
 30
0.0
 11
434.3087372767
 21
263.5662203872
 31
0.0
  0
LINE
  5
28A
330
1F
100
AcDbEntity
  8
0
  6
CONTINUOUS
 62
     7
100
AcDbLine
 10
503.4391892754
 20
291.0618136996
 30
0.0
 11
433.1047425883
 21
301.2498498676
 31
0.0
  0
LINE
  5
28B
330
1F
100
AcDbEntity
  8
0
  6
CONTINUOUS
 62
     7
100
AcDbLine
 10
503.4391892754
 20
291.0618136996
 30
0.0
 11
503.3684631344
 21
259.8011648467
 31
0.0
  0
LWPOLYLINE
  5
28C
330
1F
100
AcDbEntity
  8
0
  6
CONTINUOUS
 62
     7
100
AcDbPolyline
 90
       17
 70
   128
 43
0.0
 10
495.5233557144
 20
286.8707886028
 10
495.9284685142
 20
286.9034738222
 10
496.2719657912
 20
287.1184703427
 10
496.5014273901
 20
287.48326141
 10
496.5816817412
 20
287.9423721272
 10
496.5003624459
 20
288.4257629926
 10
496.2698024633
 20
288.8596271318
 10
495.92526007
 20
289.1776733478
 10
495.5193960565
 20
289.3314196221
 10
495.1141669104
 20
289.2976019069
 10
494.7712876415
 20
289.0816031702
 10
494.5428397664
 20
288.716523788
 10
494.4633679181
 20
288.2580260422
 10
494.5448035925
 20
287.7757540881
 10
494.7747221917
 20
287.3428956579
 10
495.1182742422
 20
287.0251342787
 10
495.5233557144
 20
286.8707886028
  0
LWPOLYLINE
  5
28D
330
1F
100
AcDbEntity
  8
0
  6
CONTINUOUS
 62
     7
100
AcDbPolyline
 90
       17
 70
   128
 43
0.0
 10
495.5466262758
 20
272.4098764644
 10
495.9488795602
 20
272.4357792337
 10
496.2899518449
 20
272.642375746
 10
496.5177939859
 20
272.9984254646
 10
496.5974841561
 20
273.4497866716
 10
496.5167440794
 20
273.927618307
 10
496.2878190884
 20
274.3589271557
 10
495.9457164409
 20
274.6778516839
 10
495.5427225108
 20
274.8357742544
 10
495.140354529
 20
274.8087513197
 10
494.7998915295
 20
274.6011641905
 10
494.5730489562
 20
274.2448298924
 10
494.4941302933
 20
273.7940432875
 10
494.5749851061
 20
273.317318427
 10
494.8032776168
 20
272.8869905967
 10
495.1444038845
 20
272.5683602366
 10
495.5466262758
 20
272.4098764644
  0
LINE
  5
28E
330
1F
100
AcDbEntity
  8
0
  6
CONTINUOUS
 62
     7
100
AcDbLine
 10
503.3684631344
 20
259.8011648467
 30
0.0
 11
503.9635554851
 21
260.0608573132
 31
0.0
  0
LINE
  5
28F
330
1F
100
AcDbEntity
  8
0
  6
CONTINUOUS
 62
     7
100
AcDbLine
 10
503.4391892754
 20
291.0618136996
 30
0.0
 11
504.043397699
 21
291.2801714768
 31
0.0
  0
LINE
  5
290
330
1F
100
AcDbEntity
  8
0
  6
CONTINUOUS
 62
     7
100
AcDbLine
 10
504.043397699
 20
291.2801714768
 30
0.0
 11
503.9635554851
 21
260.0608573132
 31
0.0
  0
LINE
  5
291
330
1F
100
AcDbEntity
  8
0
  6
CONTINUOUS
 62
     7
100
AcDbLine
 10
433.1047425883
 20
301.2498498676
 30
0.0
 11
433.7611643723
 21
301.4390596812
 31
0.0
  0
LINE
  5
292
330
1F
100
AcDbEntity
  8
0
  6
CONTINUOUS
 62
     7
100
AcDbLine
 10
504.043397699
 20
291.2801714768
 30
0.0
 11
433.7611643723
 21
301.4390596812
 31
0.0
  0
LINE
  5
293
330
1F
100
AcDbEntity
  8
0
  6
CONTINUOUS
 62
     7
100
AcDbLine
 10
495.7774056293
 20
286.963397355
 30
0.0
 11
496.0668073813
 21
286.9667654133
 31
0.0
  0
ARC
  5
294
330
1F
100
AcDbEntity
  8
0
  6
CONTINUOUS
 62
     7
100
AcDbCircle
 10
496.0430284672
 20
288.2726668932
 30
0.0
 40
1.335942444746755
100
AcDbArc
 50
128.6454275506
 51
258.5315647541
  0
LINE
  5
295
330
1F
100
AcDbEntity
  8
0
  6
CONTINUOUS
 62
     7
100
AcDbLine
 10
495.7988644029
 20
272.5104262325
 30
0.0
 11
496.1096317726
 21
272.5133868427
 31
0.0
  0
ARC
  5
296
330
1F
100
AcDbEntity
  8
0
  6
CONTINUOUS
 62
     7
100
AcDbCircle
 10
496.0666556284
 20
273.8104625067
 30
0.0
 40
1.327330574806038
100
AcDbArc
 50
130.1769997809
 51
258.360586471
  0
LINE
  5
297
330
1F
100
AcDbEntity
  8
0
  6
CONTINUOUS
 62
     7
100
AcDbLine
 10
502.2349244479
 20
258.5341881467
 30
0.0
 11
501.6389379431
 21
258.2730033307
 31
0.0
  0
ARC
  5
298
330
1F
100
AcDbEntity
  8
0
  6
CONTINUOUS
 62
     7
100
AcDbCircle
 10
504.288645723
 20
257.9314165461
 30
0.0
 40
2.140351531431629
100
AcDbArc
 50
128.7950792548
 51
163.6429229379
  0
LINE
  5
299
330
1F
100
AcDbEntity
  8
0
  6
CONTINUOUS
 62
     7
100
AcDbLine
 10
498.3610369772
 20
243.8892162993
 30
0.0
 11
497.7664387459
 21
243.6103755477
 31
0.0
  0
ARC
  5
29A
330
1F
100
AcDbEntity
  8
0
  6
CONTINUOUS
 62
     7
100
AcDbCircle
 10
665.912891967
 20
207.4032513528
 30
0.0
 40
171.4784235658182
100
AcDbArc
 50
162.6518524152
 51
167.7150978541
  0
LINE
  5
29B
330
1F
100
AcDbEntity
  8
0
  6
CONTINUOUS
 62
     7
100
AcDbLine
 10
506.3781203914
 20
231.6238781501
 30
0.0
 11
505.7932354641
 21
231.3269246779
 31
0.0
  0
LINE
  5
29C
330
1F
100
AcDbEntity
  8
0
  6
CONTINUOUS
 62
     7
100
AcDbLine
 10
499.8522316426
 20
239.9841811982
 30
0.0
 11
500.4441832611
 21
240.2682700522
 31
0.0
  0
LINE
  5
29D
330
1F
100
AcDbEntity
  8
0
  6
CONTINUOUS
 62
     7
100
AcDbLine
 10
500.4441832611
 20
240.2682700522
 30
0.0
 11
506.3781203914
 21
231.6238781501
 31
0.0
  0
LINE
  5
29E
330
1F
100
AcDbEntity
  8
0
  6
CONTINUOUS
 62
     7
100
AcDbLine
 10
505.5863037932
 20
172.463983686
 30
0.0
 11
506.1541656391
 21
172.832835787
 31
0.0
  0
LINE
  5
29F
330
1F
100
AcDbEntity
  8
0
  6
CONTINUOUS
 62
     7
100
AcDbLine
 10
506.1541656391
 20
172.832835787
 30
0.0
 11
506.3781203914
 21
231.6238781501
 31
0.0
  0
ARC
  5
2A0
330
1F
100
AcDbEntity
  8
0
  6
CONTINUOUS
 62
     7
100
AcDbCircle
 10
501.4697937965
 20
243.2680030271
 30
0.0
 40
3.170216852415917
100
AcDbArc
 50
168.6996036816
 51
251.1244104735
  0
LWPOLYLINE
  5
2A1
330
1F
100
AcDbEntity
  8
0
  6
CONTINUOUS
 62
     7
100
AcDbPolyline
 90
        3
 70
   128
 43
0.0
 10
498.4320325251
 20
185.5357571168
 10
498.8191513199
 20
185.5228564504
 10
498.9550778151
 20
185.5641435241
  0
ARC
  5
2A2
330
1F
100
AcDbEntity
  8
0
  6
CONTINUOUS
 62
     7
100
AcDbCircle
 10
498.739368066
 20
186.8127871019
 30
0.0
 40
1.313491803337921
100
AcDbArc
 50
145.1174772285
 51
256.4682829374
  0
LWPOLYLINE
  5
2A3
330
1F
100
AcDbEntity
  8
0
  6
CONTINUOUS
 62
     7
100
AcDbPolyline
 90
        3
 70
   128
 43
0.0
 10
483.0959877679
 20
204.8492219953
 10
483.4735789079
 20
204.8447479628
 10
483.4808213968
 20
204.8464660733
  0
ARC
  5
2A4
330
1F
100
AcDbEntity
  8
0
  6
CONTINUOUS
 62
     7
100
AcDbCircle
 10
483.3896780465
 20
206.101964717
 30
0.0
 40
1.286708322277478
100
AcDbArc
 50
138.3995511033
 51
256.8059771783
  0
LINE
  5
2A5
330
1F
100
AcDbEntity
  8
0
  6
CONTINUOUS
 62
     7
100
AcDbLine
 10
438.6455548584
 20
286.5844683112
 30
0.0
 11
438.8439629307
 21
286.5790916358
 31
0.0
  0
ARC
  5
2A6
330
1F
100
AcDbEntity
  8
0
  6
CONTINUOUS
 62
     7
100
AcDbCircle
 10
438.9490367022
 20
287.8347453123
 30
0.0
 40
1.286582220025092
100
AcDbArc
 50
131.4512155166
 51
256.356368895
  0
LINE
  5
2A7
330
1F
100
AcDbEntity
  8
0
  6
CONTINUOUS
 62
     7
100
AcDbLine
 10
452.1954931709
 20
246.6433053399
 30
0.0
 11
452.471255711
 21
246.6374288772
 31
0.0
  0
ARC
  5
2A8
330
1F
100
AcDbEntity
  8
0
  6
CONTINUOUS
 62
     7
100
AcDbCircle
 10
452.4989650526
 20
247.8849740818
 30
0.0
 40
1.278216119256533
100
AcDbArc
 50
135.1810349978
 51
256.2657844825
  0
ELLIPSE
  5
2A9
330
1F
100
AcDbEntity
  8
0
  6
CONTINUOUS
 62
     7
100
AcDbEllipse
 10
436.1256269062
 20
264.2322389546
 30
0.0
 11
1.756326611658323
 21
1.32488755742412
 31
0.0
210
0.0
220
0.0
230
1.0
 40
0.161704225
 41
2.795070600428265
 42
3.058807432375262
  0
ELLIPSE
  5
2AA
330
1F
100
AcDbEntity
  8
0
  6
CONTINUOUS
 62
     7
100
AcDbEllipse
 10
494.3777321183
 20
185.3340786615
 30
0.0
 11
1.760100199002864
 21
1.319869798015645
 31
0.0
210
0.0
220
0.0
230
1.0
 40
0.1655001044
 41
2.971926598924292
 42
3.281047630064266
  0
LINE
  5
2AB
330
1F
100
AcDbEntity
  8
0
  6
CONTINUOUS
 62
     7
100
AcDbLine
 10
531.0809424709
 20
195.0735826651
 30
0.0
 11
530.2707485591
 21
194.5599319824
 31
0.0
  0
LINE
  5
2AC
330
1F
100
AcDbEntity
  8
0
  6
CONTINUOUS
 62
     7
100
AcDbLine
 10
531.1801071734
 20
195.1364515863
 30
0.0
 11
531.0809424709
 21
195.0735826651
 31
0.0
  0
LINE
  5
2AD
330
1F
100
AcDbEntity
  8
0
  6
CONTINUOUS
 62
     7
100
AcDbLine
 10
538.329821226
 20
189.8470066304
 30
0.0
 11
531.1801071734
 21
195.1364515863
 31
0.0
  0
LINE
  5
2AE
330
1F
100
AcDbEntity
  8
0
  6
CONTINUOUS
 62
     7
100
AcDbLine
 10
534.6114862638
 20
187.393912776
 30
0.0
 11
538.329821226
 21
189.8470066304
 31
0.0
  0
LINE
  5
2AF
330
1F
100
AcDbEntity
  8
0
  6
CONTINUOUS
 62
     7
100
AcDbLine
 10
535.269755622
 20
186.9044340921
 30
0.0
 11
534.6114862638
 21
187.393912776
 31
0.0
  0
LINE
  5
2B0
330
1F
100
AcDbEntity
  8
0
  6
CONTINUOUS
 62
     7
100
AcDbLine
 10
534.0226485203
 20
186.0786857733
 30
0.0
 11
535.269755622
 21
186.9044340921
 31
0.0
  0
LINE
  5
2B1
330
1F
100
AcDbEntity
  8
0
  6
CONTINUOUS
 62
     7
100
AcDbLine
 10
534.0226485203
 20
186.0786857733
 30
0.0
 11
533.3628430944
 21
186.570146516
 31
0.0
  0
LINE
  5
2B2
330
1F
100
AcDbEntity
  8
0
  6
CONTINUOUS
 62
     7
100
AcDbLine
 10
515.4492467948
 20
174.7520253839
 30
0.0
 11
533.3628430944
 21
186.570146516
 31
0.0
  0
LINE
  5
2B3
330
1F
100
AcDbEntity
  8
0
  6
CONTINUOUS
 62
     7
100
AcDbLine
 10
516.1306641599
 20
174.2318476112
 30
0.0
 11
515.4492467948
 21
174.7520253839
 31
0.0
  0
LINE
  5
2B4
330
1F
100
AcDbEntity
  8
0
  6
CONTINUOUS
 62
     7
100
AcDbLine
 10
514.7561230588
 20
173.3217212863
 30
0.0
 11
516.1306641599
 21
174.2318476112
 31
0.0
  0
LINE
  5
2B5
330
1F
100
AcDbEntity
  8
0
  6
CONTINUOUS
 62
     7
100
AcDbLine
 10
514.7561230588
 20
173.3217212863
 30
0.0
 11
514.0730782905
 21
173.8441269469
 31
0.0
  0
LINE
  5
2B6
330
1F
100
AcDbEntity
  8
0
  6
CONTINUOUS
 62
     7
100
AcDbLine
 10
509.8643030304
 20
171.067475346
 30
0.0
 11
514.0730782905
 21
173.8441269469
 31
0.0
  0
LINE
  5
2B7
330
1F
100
AcDbEntity
  8
0
  6
CONTINUOUS
 62
     7
100
AcDbLine
 10
509.8643030304
 20
171.067475346
 30
0.0
 11
506.1583006909
 21
173.9183407769
 31
0.0
  0
LINE
  5
2B8
330
1F
100
AcDbEntity
  8
0
  6
CONTINUOUS
 62
     7
100
AcDbLine
 10
521.3752164211
 20
201.149041615
 30
0.0
 11
530.2707485591
 21
194.5599319824
 31
0.0
  0
LINE
  5
2B9
330
1F
100
AcDbEntity
  8
0
  6
CONTINUOUS
 62
     7
100
AcDbLine
 10
506.2028830151
 20
185.6256508225
 30
0.0
 11
506.7696733183
 21
185.1945846101
 31
0.0
  0
LINE
  5
2BA
330
1F
100
AcDbEntity
  8
0
  6
CONTINUOUS
 62
     7
100
AcDbLine
 10
506.1999087368
 20
184.8409953222
 30
0.0
 11
506.7696733183
 21
185.1945846101
 31
0.0
  0
LINE
  5
2BB
330
1F
100
AcDbEntity
  8
0
  6
CONTINUOUS
 62
     7
100
AcDbLine
 10
506.1967259247
 20
184.0093310931
 30
0.0
 11
506.7696733183
 21
185.1945846101
 31
0.0
  0
LINE
  5
2BC
330
1F
100
AcDbEntity
  8
0
  6
CONTINUOUS
 62
     7
100
AcDbLine
 10
509.8643030304
 20
171.067475346
 30
0.0
 11
509.4736111446
 21
170.2766506017
 31
0.0
  0
LINE
  5
2BD
330
1F
100
AcDbEntity
  8
0
  6
CONTINUOUS
 62
     7
100
AcDbLine
 10
509.4736111446
 20
170.2766506017
 30
0.0
 11
506.1541656391
 21
172.832835787
 31
0.0
  0
LINE
  5
2BE
330
1F
100
AcDbEntity
  8
0
  6
CONTINUOUS
 62
     7
100
AcDbLine
 10
514.0730782905
 20
173.8441269469
 30
0.0
 11
513.6828603479
 21
173.0590824823
 31
0.0
  0
LINE
  5
2BF
330
1F
100
AcDbEntity
  8
0
  6
CONTINUOUS
 62
     7
100
AcDbLine
 10
509.4736111446
 20
170.2766506017
 30
0.0
 11
513.6828603479
 21
173.0590824823
 31
0.0
  0
ELLIPSE
  5
2C0
330
1F
100
AcDbEntity
  8
0
  6
CONTINUOUS
 62
     7
100
AcDbEllipse
 10
494.3777321183
 20
185.3340786616
 30
0.0
 11
1.287609697552796
 21
1.783835297406114
 31
0.0
210
0.0
220
0.0
230
1.0
 40
0.3511989017
 41
2.736765025662884
 42
3.073032378981959
  0
LINE
  5
2C1
330
1F
100
AcDbEntity
  8
0
  6
CONTINUOUS
 62
     7
100
AcDbLine
 10
514.3651352115
 20
172.5367223828
 30
0.0
 11
514.7561230588
 21
173.3217212863
 31
0.0
  0
ARC
  5
2C2
330
1F
100
AcDbEntity
  8
0
  6
CONTINUOUS
 62
     7
100
AcDbCircle
 10
513.479266846
 20
171.52047573
 30
0.0
 40
2.20790564612806
100
AcDbArc
 50
339.0936494357
 51
54.668162261
  0
LINE
  5
2C3
330
1F
100
AcDbEntity
  8
0
  6
CONTINUOUS
 62
     7
100
AcDbLine
 10
514.7221294586
 20
171.3607146101
 30
0.0
 11
515.5418148658
 21
170.7326032731
 31
0.0
  0
ARC
  5
2C4
330
1F
100
AcDbEntity
  8
0
  6
CONTINUOUS
 62
     7
100
AcDbCircle
 10
513.7841956846
 20
171.7181804664
 30
0.0
 40
1.003743793426439
100
AcDbArc
 50
339.1371270767
 51
54.6357313799
  0
ARC
  5
2C5
330
1F
100
AcDbEntity
  8
0
  6
CONTINUOUS
 62
     7
100
AcDbCircle
 10
514.8612899909
 20
172.4380201367
 30
0.0
 40
2.197527653818586
100
AcDbArc
 50
339.0173314724
 51
54.7154587876
  0
LINE
  5
2C6
330
1F
100
AcDbEntity
  8
0
  6
CONTINUOUS
 62
     7
100
AcDbLine
 10
516.9130969203
 20
171.651117275
 30
0.0
 11
515.5418148658
 21
170.7326032731
 31
0.0
  0
LINE
  5
2C7
330
1F
100
AcDbEntity
  8
0
  6
CONTINUOUS
 62
     7
100
AcDbLine
 10
514.3651352115
 20
172.5367223828
 30
0.0
 11
513.6828603479
 21
173.0590824823
 31
0.0
  0
LINE
  5
2C8
330
1F
100
AcDbEntity
  8
0
  6
CONTINUOUS
 62
     7
100
AcDbLine
 10
514.239447008
 20
168.1294163584
 30
0.0
 11
513.4228331299
 21
168.7573404163
 31
0.0
  0
LINE
  5
2C9
330
1F
100
AcDbEntity
  8
0
  6
CONTINUOUS
 62
     7
100
AcDbLine
 10
513.4228331299
 20
168.7573404163
 30
0.0
 11
514.7221294586
 21
171.3607146101
 31
0.0
  0
LINE
  5
2CA
330
1F
100
AcDbEntity
  8
0
  6
CONTINUOUS
 62
     7
100
AcDbLine
 10
514.239447008
 20
168.1294163584
 30
0.0
 11
515.5418148658
 21
170.7326032731
 31
0.0
  0
LINE
  5
2CB
330
1F
100
AcDbEntity
  8
0
  6
CONTINUOUS
 62
     7
100
AcDbLine
 10
515.6113167261
 20
169.0541779013
 30
0.0
 11
514.239447008
 21
168.1294163584
 31
0.0
  0
LINE
  5
2CC
330
1F
100
AcDbEntity
  8
0
  6
CONTINUOUS
 62
     7
100
AcDbLine
 10
516.9130969203
 20
171.651117275
 30
0.0
 11
515.6113167261
 21
169.0541779013
 31
0.0
  0
LINE
  5
2CD
330
1F
100
AcDbEntity
  8
0
  6
CONTINUOUS
 62
     7
100
AcDbLine
 10
441.4078336617
 20
300.3337780934
 30
0.0
 11
433.7611643723
 21
301.4390596812
 31
0.0
  0
LINE
  5
2CE
330
1F
100
AcDbEntity
  8
0
  6
CONTINUOUS
 62
     7
100
AcDbLine
 10
433.7611643723
 20
301.4390596812
 30
0.0
 11
434.4158160611
 21
301.627759275
 31
0.0
  0
LINE
  5
2CF
330
1F
100
AcDbEntity
  8
0
  6
CONTINUOUS
 62
     7
100
AcDbLine
 10
442.0575027421
 20
300.5255351365
 30
0.0
 11
434.4158160611
 21
301.627759275
 31
0.0
  0
LINE
  5
2D0
330
1F
100
AcDbEntity
  8
0
  6
CONTINUOUS
 62
     7
100
AcDbLine
 10
441.4078336617
 20
300.3337780934
 30
0.0
 11
442.0575027421
 21
300.5255351365
 31
0.0
  0
LINE
  5
2D1
330
1F
100
AcDbEntity
  8
0
  6
CONTINUOUS
 62
     7
100
AcDbLine
 10
442.0575027421
 20
300.5255351365
 30
0.0
 11
442.0654203501
 21
300.2387313981
 31
0.0
  0
LINE
  5
2D2
330
1F
100
AcDbEntity
  8
0
  6
CONTINUOUS
 62
     7
100
AcDbLine
 10
533.3628430944
 20
186.570146516
 30
0.0
 11
532.975735241
 21
185.8122143541
 31
0.0
  0
LINE
  5
2D3
330
1F
100
AcDbEntity
  8
0
  6
CONTINUOUS
 62
     7
100
AcDbLine
 10
515.8180379444
 20
174.4704948099
 30
0.0
 11
532.975735241
 21
185.8122143541
 31
0.0
  0
ARC
  5
2D4
330
1F
100
AcDbEntity
  8
0
  6
CONTINUOUS
 62
     7
100
AcDbCircle
 10
521.9630639935
 20
201.9376997347
 30
0.0
 40
0.9836393638562196
100
AcDbArc
 50
216.7737870916
 51
233.3000034124
  0
LWPOLYLINE
  5
2D5
330
1F
100
AcDbEntity
  8
0
  6
CONTINUOUS
 62
     7
100
AcDbPolyline
 90
        9
 70
   128
 43
0.0
 10
433.7611643723
 20
301.4390596812
 10
433.4884319143
 20
301.4884717327
 10
433.2725789668
 20
301.5492417992
 10
433.1218633383
 20
301.6190088001
 10
433.0419650156
 20
301.695072169
 10
433.0358891146
 20
301.7744880248
 10
433.103706756
 20
301.8542039525
 10
433.2427062366
 20
301.9311584626
 10
433.4474568623
 20
302.0024065951
  0
ELLIPSE
  5
2D6
330
1F
100
AcDbEntity
  8
0
  6
CONTINUOUS
 62
     7
100
AcDbEllipse
 10
436.1256269062
 20
264.2322389546
 30
0.0
 11
2.19999179260327
 21
0.006711187349594636
 31
0.0
210
0.0
220
0.0
230
1.0
 40
0.2942386083
 41
3.225567148102618
 42
3.446383122083006
  0
LINE
  5
2D7
330
1F
100
AcDbEntity
  8
0
  6
CONTINUOUS
 62
     7
100
AcDbLine
 10
433.4474568623
 20
302.0024065951
 30
0.0
 11
434.2718671259
 21
301.8837043699
 31
0.0
  0
LWPOLYLINE
  5
2D8
330
1F
100
AcDbEntity
  8
0
  6
CONTINUOUS
 62
     7
100
AcDbPolyline
 90
        9
 70
   128
 43
0.0
 10
434.4158160611
 20
301.627759275
 10
434.2918672902
 20
301.6501641442
 10
434.1936897925
 20
301.6777278058
 10
434.1250089555
 20
301.7093905327
 10
434.0884509684
 20
301.7439311002
 10
434.0854086958
 20
301.7800168564
 10
434.1159669689
 20
301.8162613233
 10
434.1789431998
 20
301.8512701165
 10
434.2718671259
 20
301.8837043699
  0
LINE
  5
2D9
330
1F
100
AcDbEntity
  8
0
  6
CONTINUOUS
 62
     7
100
AcDbLine
 10
434.2718671259
 20
301.8837043699
 30
0.0
 11
465.1878243559
 21
310.7761147941
 31
0.0
  0
LINE
  5
2DA
330
1F
100
AcDbEntity
  8
0
  6
CONTINUOUS
 62
     7
100
AcDbLine
 10
433.4474568623
 20
302.0024065951
 30
0.0
 11
464.3900901154
 21
310.8798542942
 31
0.0
  0
LINE
  5
2DB
330
1F
100
AcDbEntity
  8
0
  6
CONTINUOUS
 62
     7
100
AcDbLine
 10
464.3900901154
 20
310.8798542942
 30
0.0
 11
465.1878243559
 21
310.7761147941
 31
0.0
  0
LINE
  5
2DC
330
1F
100
AcDbEntity
  8
0
  6
CONTINUOUS
 62
     7
100
AcDbLine
 10
498.6760874425
 20
245.3062402214
 30
0.0
 11
526.7701547773
 21
208.07334676
 31
0.0
  0
LINE
  5
2DD
330
1F
100
AcDbEntity
  8
0
  6
CONTINUOUS
 62
     7
100
AcDbLine
 10
498.843122787
 20
246.0356201089
 30
0.0
 11
527.2717615709
 21
208.3712820319
 31
0.0
  0
LINE
  5
2DE
330
1F
100
AcDbEntity
  8
0
  6
CONTINUOUS
 62
     7
100
AcDbLine
 10
527.2717615709
 20
208.3712820319
 30
0.0
 11
526.7701547773
 21
208.07334676
 31
0.0
  0
LINE
  5
2DF
330
1F
100
AcDbEntity
  8
0
  6
CONTINUOUS
 62
     7
100
AcDbLine
 10
522.101362929
 20
202.0337274589
 30
0.0
 11
526.7701547773
 21
208.07334676
 31
0.0
  0
LWPOLYLINE
  5
2E0
330
1F
100
AcDbEntity
  8
0
  6
CONTINUOUS
 62
     7
100
AcDbPolyline
 90
       17
 70
   128
 43
0.0
 10
512.8897975423
 20
223.278852014
 10
513.3201190974
 20
223.0931734212
 10
513.6837763816
 20
222.7461203
 10
513.9251199263
 20
222.2906170376
 10
514.0073154708
 20
221.7962408967
 10
513.9178423809
 20
221.3385201505
 10
513.6705498268
 20
220.9872528658
 10
513.3032687054
 20
220.7958481428
 10
512.8721080945
 20
220.7931924605
 10
512.4426609592
 20
220.9794418673
 10
512.0801215689
 20
221.3261127914
 10
511.839433887
 20
221.7805154446
 10
511.757098669
 20
222.273706565
 10
511.8456973062
 20
222.7308565025
 10
512.0919139206
 20
223.0824970841
 10
512.4584972259
 20
223.2750113136
 10
512.8897975423
 20
223.278852014
  0
ELLIPSE
  5
2E1
330
1F
100
AcDbEntity
  8
0
  6
CONTINUOUS
 62
     7
100
AcDbEllipse
 10
521.6833401825
 20
201.7771424372
 30
0.0
 11
0.797390490187013
 21
0.603471111785126
 31
0.0
210
0.0
220
0.0
230
1.0
 40
0.1596194963
 41
3.459411593231587
 42
5.734225649269281
  0
ARC
  5
2E2
330
1F
100
AcDbEntity
  8
0
  6
CONTINUOUS
 62
     7
100
AcDbCircle
 10
534.1011224498
 20
185.212407144
 30
0.0
 40
2.056370269263138
100
AcDbArc
 50
337.9608488777
 51
55.368305018
  0
LINE
  5
2E3
330
1F
100
AcDbEntity
  8
0
  6
CONTINUOUS
 62
     7
100
AcDbLine
 10
536.0072289387
 20
184.4407746295
 30
0.0
 11
534.763027563
 21
183.6073819799
 31
0.0
  0
ARC
  5
2E4
330
1F
100
AcDbEntity
  8
0
  6
CONTINUOUS
 62
     7
100
AcDbCircle
 10
532.8476411327
 20
184.3801076223
 30
0.0
 40
2.06538376484745
100
AcDbArc
 50
338.0293401461
 51
55.3260886892
  0
LINE
  5
2E5
330
1F
100
AcDbEntity
  8
0
  6
CONTINUOUS
 62
     7
100
AcDbLine
 10
533.6348274447
 20
185.3207852454
 30
0.0
 11
534.0226485203
 21
186.0786857733
 31
0.0
  0
LINE
  5
2E6
330
1F
100
AcDbEntity
  8
0
  6
CONTINUOUS
 62
     7
100
AcDbLine
 10
533.9712427906
 20
184.198252476
 30
0.0
 11
534.763027563
 21
183.6073819799
 31
0.0
  0
ARC
  5
2E7
330
1F
100
AcDbEntity
  8
0
  6
CONTINUOUS
 62
     7
100
AcDbCircle
 10
533.1002437894
 20
184.5488971361
 30
0.0
 40
0.9389307417269288
100
AcDbArc
 50
338.071390162
 51
55.2948331365
  0
LINE
  5
2E8
330
1F
100
AcDbEntity
  8
0
  6
CONTINUOUS
 62
     7
100
AcDbLine
 10
533.6348274447
 20
185.3207852454
 30
0.0
 11
532.975735241
 21
185.8122143541
 31
0.0
  0
LINE
  5
2E9
330
1F
100
AcDbEntity
  8
0
  6
CONTINUOUS
 62
     7
100
AcDbLine
 10
533.4712684283
 20
181.0933652044
 30
0.0
 11
532.6823293673
 21
181.6841052224
 31
0.0
  0
LINE
  5
2EA
330
1F
100
AcDbEntity
  8
0
  6
CONTINUOUS
 62
     7
100
AcDbLine
 10
532.6823293673
 20
181.6841052224
 30
0.0
 11
533.9712427906
 21
184.198252476
 31
0.0
  0
LINE
  5
2EB
330
1F
100
AcDbEntity
  8
0
  6
CONTINUOUS
 62
     7
100
AcDbLine
 10
533.4712684283
 20
181.0933652044
 30
0.0
 11
534.763027563
 21
183.6073819799
 31
0.0
  0
LINE
  5
2EC
330
1F
100
AcDbEntity
  8
0
  6
CONTINUOUS
 62
     7
100
AcDbLine
 10
534.7163325356
 20
181.9326485486
 30
0.0
 11
533.4712684283
 21
181.0933652044
 31
0.0
  0
LINE
  5
2ED
330
1F
100
AcDbEntity
  8
0
  6
CONTINUOUS
 62
     7
100
AcDbLine
 10
536.0072289387
 20
184.4407746295
 30
0.0
 11
534.7163325356
 21
181.9326485486
 31
0.0
  0
LINE
  5
2EE
330
1F
100
AcDbEntity
  8
0
  6
CONTINUOUS
 62
     7
100
AcDbLine
 10
538.329821226
 20
189.8470066304
 30
0.0
 11
537.9437635085
 21
189.0962204958
 31
0.0
  0
LINE
  5
2EF
330
1F
100
AcDbEntity
  8
0
  6
CONTINUOUS
 62
     7
100
AcDbLine
 10
534.9677531524
 20
187.1289941112
 30
0.0
 11
537.9437635085
 21
189.0962204958
 31
0.0
  0
LINE
  5
2F0
330
1F
100
AcDbEntity
  8
0
  6
CONTINUOUS
 62
     7
100
AcDbLine
 10
526.7759827533
 20
208.0675712361
 30
0.0
 11
534.5030183511
 21
202.4055767335
 31
0.0
  0
LINE
  5
2F1
330
1F
100
AcDbEntity
  8
0
  6
CONTINUOUS
 62
     7
100
AcDbLine
 10
527.277583869
 20
208.3655149226
 30
0.0
 11
526.7759827533
 21
208.0675712361
 31
0.0
  0
LINE
  5
2F2
330
1F
100
AcDbEntity
  8
0
  6
CONTINUOUS
 62
     7
100
AcDbLine
 10
527.277583869
 20
208.3655149226
 30
0.0
 11
534.997529263
 21
202.7124644674
 31
0.0
  0
LINE
  5
2F3
330
1F
100
AcDbEntity
  8
0
  6
CONTINUOUS
 62
     7
100
AcDbLine
 10
534.997529263
 20
202.7124644674
 30
0.0
 11
534.5030183511
 21
202.4055767335
 31
0.0
  0
LINE
  5
2F4
330
1F
100
AcDbEntity
  8
0
  6
CONTINUOUS
 62
     7
100
AcDbLine
 10
527.4615243132
 20
202.7188414516
 30
0.0
 11
526.299819127
 21
203.5741800693
 31
0.0
  0
LWPOLYLINE
  5
2F5
330
1F
100
AcDbEntity
  8
0
  6
CONTINUOUS
 62
     7
100
AcDbPolyline
 90
        9
 70
   128
 43
0.0
 10
528.4674735069
 20
204.7467318333
 10
528.8257992529
 20
204.3780830482
 10
529.0528327776
 20
203.9108245512
 10
529.1138866731
 20
203.4163411623
 10
528.9997034159
 20
202.9701675806
 10
528.727875636
 20
202.6403294343
 10
528.3400532186
 20
202.4769240335
 10
527.8953814962
 20
202.5045829282
 10
527.4615243132
 20
202.7188414516
  0
LINE
  5
2F6
330
1F
100
AcDbEntity
  8
0
  6
CONTINUOUS
 62
     7
100
AcDbLine
 10
527.3024936791
 20
205.6021410445
 30
0.0
 11
528.4674735069
 21
204.7467318333
 31
0.0
  0
LWPOLYLINE
  5
2F7
330
1F
100
AcDbEntity
  8
0
  6
CONTINUOUS
 62
     7
100
AcDbPolyline
 90
        9
 70
   128
 43
0.0
 10
526.299819127
 20
203.5741800693
 10
525.943149565
 20
203.9418341464
 10
525.7169360878
 20
204.4075136257
 10
525.6554991408
 20
204.9005757996
 10
525.7682235481
 20
205.3462093666
 10
526.0381557603
 20
205.6766686924
 10
526.4244766031
 20
205.8415297386
 10
526.8684505011
 20
205.8154514002
 10
527.3024936791
 20
205.6021410445
  0
LINE
  5
2F8
330
1F
100
AcDbEntity
  8
0
  6
CONTINUOUS
 62
     7
100
AcDbLine
 10
526.7759827533
 20
208.0675712361
 30
0.0
 11
522.1071275586
 21
202.027977566
 31
0.0
  0
LINE
  5
2F9
330
1F
100
AcDbEntity
  8
0
  6
CONTINUOUS
 62
     7
100
AcDbLine
 10
531.0005295308
 20
195.4496958955
 30
0.0
 11
534.5030183511
 21
202.4055767335
 31
0.0
  0
LINE
  5
2FA
330
1F
100
AcDbEntity
  8
0
  6
CONTINUOUS
 62
     7
100
AcDbLine
 10
522.1071275586
 20
202.027977566
 30
0.0
 11
531.0005295308
 21
195.4496958955
 31
0.0
  0
LINE
  5
2FB
330
1F
100
AcDbEntity
  8
0
  6
CONTINUOUS
 62
     7
100
AcDbLine
 10
531.4959378016
 20
195.7632331278
 30
0.0
 11
531.0005295308
 21
195.4496958955
 31
0.0
  0
LINE
  5
2FC
330
1F
100
AcDbEntity
  8
0
  6
CONTINUOUS
 62
     7
100
AcDbLine
 10
531.4959378016
 20
195.7632331278
 30
0.0
 11
534.997529263
 21
202.7124644674
 31
0.0
  0
ELLIPSE
  5
2FD
330
1F
100
AcDbEntity
  8
0
  6
CONTINUOUS
 62
     7
100
AcDbEllipse
 10
521.6833401824
 20
201.7771424372
 30
0.0
 11
0.5886415024829148
 21
0.8083986126579248
 31
0.0
210
0.0
220
0.0
230
1.0
 40
0.3570763519
 41
3.597452185438735
 42
5.404214200885862
  0
ARC
  5
2FE
330
1F
100
AcDbEntity
  8
0
  6
CONTINUOUS
 62
     7
100
AcDbCircle
 10
528.7155667239
 20
196.5796499416
 30
0.0
 40
2.549088302740355
100
AcDbArc
 50
307.5962534548
 51
333.6867997843
  0
LINE
  5
2FF
330
1F
100
AcDbEntity
  8
0
  6
CONTINUOUS
 62
     7
100
AcDbLine
 10
527.4615243132
 20
202.7188414516
 30
0.0
 11
527.961304105
 21
203.0230343277
 31
0.0
  0
ARC
  5
300
330
1F
100
AcDbEntity
  8
0
  6
CONTINUOUS
 62
     7
100
AcDbCircle
 10
528.6750327794
 20
203.9024642459
 30
0.0
 40
1.132610083688656
100
AcDbArc
 50
230.9378697363
 51
278.6790088388
  0
LINE
  5
301
330
1F
100
AcDbEntity
  8
0
  6
CONTINUOUS
 62
     7
100
AcDbLine
 10
522.1204560424
 20
202.0452248375
 30
0.0
 11
522.101362929
 21
202.0337274589
 31
0.0
  0
LINE
  5
302
330
1F
100
AcDbEntity
  8
0
  6
CONTINUOUS
 62
     7
100
AcDbLine
 10
527.2585646637
 20
208.3542251204
 30
0.0
 11
527.2717615709
 21
208.3712820319
 31
0.0
  0
ARC
  5
303
330
1F
100
AcDbEntity
  8
0
  6
CONTINUOUS
 62
     7
100
AcDbCircle
 10
526.2501886918
 20
198.4501622959
 30
0.0
 40
5.893850360878265
100
AcDbArc
 50
325.047385715
 51
332.8779865568
  0
ARC
  5
304
330
1F
100
AcDbEntity
  8
0
  6
CONTINUOUS
 62
     7
100
AcDbCircle
 10
527.5725505677
 20
205.0591516849
 30
0.0
 40
1.41182250599243
100
AcDbArc
 50
146.1979535421
 51
236.8565197338
  0
LINE
  5
305
330
1F
100
AcDbEntity
  8
0
  6
CONTINUOUS
 62
     7
100
AcDbLine
 10
527.7831351867
 20
203.1541284918
 30
0.0
 11
527.961304105
 21
203.0230343277
 31
0.0
  0
LINE
  5
306
330
1F
100
AcDbEntity
  8
0
  6
CONTINUOUS
 62
     7
100
AcDbLine
 10
513.6580518247
 20
221.0512509383
 30
0.0
 11
513.7300698064
 21
221.0584606915
 31
0.0
  0
LINE
  5
307
330
1F
100
AcDbEntity
  8
0
  6
CONTINUOUS
 62
     7
100
AcDbLine
 10
512.5313753026
 20
223.2822218958
 30
0.0
 11
512.4664076183
 21
223.1996290155
 31
0.0
  0
ELLIPSE
  5
308
330
1F
100
AcDbEntity
  8
0
  6
CONTINUOUS
 62
     7
100
AcDbEllipse
 10
521.6833401825
 20
201.7771424372
 30
0.0
 11
1.75644692820174
 21
1.32472758389983
 31
0.0
210
0.0
220
0.0
230
0.9999999999999998
 40
0.1618254349
 41
4.00676958132142
 42
5.074480395129139
  0
LINE
  5
309
330
1F
100
AcDbEntity
  8
0
  6
CONTINUOUS
 62
     7
100
AcDbLine
 10
472.2378336259
 20
298.7137184373
 30
0.0
 11
472.256486793
 21
297.2718598525
 31
0.0
  0
LWPOLYLINE
  5
30A
330
1F
100
AcDbEntity
  8
0
  6
CONTINUOUS
 62
     7
100
AcDbPolyline
 90
        9
 70
   128
 43
0.0
 10
470.0975709085
 20
299.0167850573
 10
470.1720136137
 20
299.4952345131
 10
470.397878834
 20
299.8781829847
 10
470.7409808845
 20
300.1072959337
 10
471.1492602873
 20
300.1474510095
 10
471.5604967196
 20
299.9922563253
 10
471.9119230745
 20
299.6652126458
 10
472.1498238424
 20
299.2161768075
 10
472.2378336259
 20
298.7137184373
  0
LINE
  5
30B
330
1F
100
AcDbEntity
  8
0
  6
CONTINUOUS
 62
     7
100
AcDbLine
 10
470.1176818172
 20
297.5779126055
 30
0.0
 11
470.0975709085
 21
299.0167850573
 31
0.0
  0
LWPOLYLINE
  5
30C
330
1F
100
AcDbEntity
  8
0
  6
CONTINUOUS
 62
     7
100
AcDbPolyline
 90
        9
 70
   128
 43
0.0
 10
472.256486793
 20
297.2718598525
 10
472.1812609441
 20
296.7935710847
 10
471.954508464
 20
296.4118124506
 10
471.6109794241
 20
296.1846579515
 10
471.2031039795
 20
296.146430005
 10
470.7929377104
 20
296.3027172584
 10
470.4427907723
 20
296.6295486557
 10
470.205713752
 20
297.0772645465
 10
470.1176818172
 20
297.5779126055
  0
LINE
  5
30D
330
1F
100
AcDbEntity
  8
0
  6
CONTINUOUS
 62
     7
100
AcDbLine
 10
473.7109369331
 20
309.86839772
 30
0.0
 11
466.3296678633
 21
310.8267439805
 31
0.0
  0
LINE
  5
30E
330
1F
100
AcDbEntity
  8
0
  6
CONTINUOUS
 62
     7
100
AcDbLine
 10
473.7109369331
 20
309.86839772
 30
0.0
 11
473.8838695941
 21
295.6395662836
 31
0.0
  0
LINE
  5
30F
330
1F
100
AcDbEntity
  8
0
  6
CONTINUOUS
 62
     7
100
AcDbLine
 10
474.2758936499
 20
310.0351509683
 30
0.0
 11
473.7109369331
 21
309.86839772
 31
0.0
  0
LINE
  5
310
330
1F
100
AcDbEntity
  8
0
  6
CONTINUOUS
 62
     7
100
AcDbLine
 10
474.2758936499
 20
310.0351509683
 30
0.0
 11
474.4478694434
 21
295.5580348461
 31
0.0
  0
LINE
  5
311
330
1F
100
AcDbEntity
  8
0
  6
CONTINUOUS
 62
     7
100
AcDbLine
 10
466.8995869897
 20
310.9910198993
 30
0.0
 11
466.3296678633
 21
310.8267439805
 31
0.0
  0
LINE
  5
312
330
1F
100
AcDbEntity
  8
0
  6
CONTINUOUS
 62
     7
100
AcDbLine
 10
474.2758936499
 20
310.0351509683
 30
0.0
 11
466.8995869897
 21
310.9910198993
 31
0.0
  0
LINE
  5
313
330
1F
100
AcDbEntity
  8
0
  6
CONTINUOUS
 62
     7
100
AcDbLine
 10
470.0975709085
 20
299.0167850573
 30
0.0
 11
470.661770382
 21
299.1955895407
 31
0.0
  0
ARC
  5
314
330
1F
100
AcDbEntity
  8
0
  6
CONTINUOUS
 62
     7
100
AcDbCircle
 10
471.806960348
 20
299.274716091
 30
0.0
 40
1.147920323526835
100
AcDbArc
 50
129.6819283818
 51
183.952552413
  0
ARC
  5
315
330
1F
100
AcDbEntity
  8
0
  6
CONTINUOUS
 62
     7
100
AcDbCircle
 10
465.9036136537
 20
307.534221748
 30
0.0
 40
3.319973620484044
100
AcDbArc
 50
82.6268652372
 51
102.4507831165
  0
ARC
  5
316
330
1F
100
AcDbEntity
  8
0
  6
CONTINUOUS
 62
     7
100
AcDbCircle
 10
465.9634596367
 20
303.7427571797
 30
0.0
 40
7.308464057065056
100
AcDbArc
 50
82.6408745197
 51
102.43198193
  0
ARC
  5
317
330
1F
100
AcDbEntity
  8
0
  6
CONTINUOUS
 62
     7
100
AcDbCircle
 10
472.0371284601
 20
297.6649420114
 30
0.0
 40
1.358884395279734
100
AcDbArc
 50
176.0565207234
 51
261.2760458433
  0
LINE
  5
318
330
1F
100
AcDbEntity
  8
0
  6
CONTINUOUS
 62
     7
100
AcDbLine
 10
470.661770382
 20
299.1955895407
 30
0.0
 11
470.6639542871
 21
299.0361921691
 31
0.0
  0
LINE
  5
319
330
1F
100
AcDbEntity
  8
0
  6
CONTINUOUS
 62
     8
100
AcDbLine
 10
518.3428606581
 20
307.2645483855
 30
0.0
 11
520.3161336661
 21
307.9245204519
 31
0.0
  0
LINE
  5
31A
330
1F
100
AcDbEntity
  8
0
  6
CONTINUOUS
 62
     8
100
AcDbLine
 10
533.8448800176
 20
302.0502719609
 30
0.0
 11
533.8384390485
 21
301.6720570112
 31
0.0
  0
LINE
  5
31B
330
1F
100
AcDbEntity
  8
0
  6
CONTINUOUS
 62
     8
100
AcDbLine
 10
506.2284931258
 20
192.3435718085
 30
0.0
 11
521.1751636091
 21
201.3488369473
 31
0.0
  0
LINE
  5
31C
330
1F
100
AcDbEntity
  8
0
  6
CONTINUOUS
 62
     8
100
AcDbLine
 10
506.3380431823
 20
221.1043460435
 30
0.0
 11
521.1751636091
 21
201.3488369473
 31
0.0
  0
LINE
  5
31D
330
1F
100
AcDbEntity
  8
0
  6
CONTINUOUS
 62
     8
100
AcDbLine
 10
506.2272051547
 20
192.0102932371
 30
0.0
 11
521.3752164211
 21
201.149041615
 31
0.0
  0
LINE
  5
31E
330
1F
100
AcDbEntity
  8
0
  6
CONTINUOUS
 62
     8
100
AcDbLine
 10
434.2718671259
 20
301.8837043699
 30
0.0
 11
434.2791013526
 21
301.6531157388
 31
0.0
  0
LINE
  5
31F
330
1F
100
AcDbEntity
  8
0
  6
CONTINUOUS
 62
     8
100
AcDbLine
 10
465.1878243559
 20
310.7761147941
 30
0.0
 11
465.4142297113
 21
296.863801775
 31
0.0
  0
LINE
  5
320
330
1F
100
AcDbEntity
  8
0
  6
CONTINUOUS
 62
     8
100
AcDbLine
 10
506.3452601507
 20
222.9996062405
 30
0.0
 11
522.101362929
 21
202.0337274589
 31
0.0
  0
LINE
  5
321
330
1F
100
AcDbEntity
  8
0
  6
CONTINUOUS
 62
     8
100
AcDbLine
 10
526.299819127
 20
203.5741800693
 30
0.0
 11
526.7844886934
 21
203.8672519434
 31
0.0
  0
LINE
  5
322
330
1F
100
AcDbEntity
  8
0
  6
CONTINUOUS
 62
     8
100
AcDbLine
 10
466.3296678633
 20
310.8267439805
 30
0.0
 11
466.5517595357
 21
296.6993800847
 31
0.0
  0
LINE
  5
323
330
1F
100
AcDbEntity
  8
0
  6
CONTINUOUS
 62
     8
100
AcDbLine
 10
470.1176818172
 20
297.5779126055
 30
0.0
 11
470.6570298573
 21
297.7505744304
 31
0.0
  0
ENDSEC
  0
SECTION
  2
OBJECTS
  0
DICTIONARY
  5
C
330
0
100
AcDbDictionary
  3
ACAD_GROUP
350
D
  3
ACAD_MLINESTYLE
350
17
  0
DICTIONARY
  5
D
102
{ACAD_REACTORS
330
C
102
}
330
C
100
AcDbDictionary
  0
DICTIONARY
  5
17
102
{ACAD_REACTORS
330
C
102
}
330
C
100
AcDbDictionary
  3
STANDARD
350
18
  0
MLINESTYLE
  5
18
102
{ACAD_REACTORS
330
17
102
}
330
17
100
AcDbMlineStyle
  2
Standard
 70
     0
  3

 62
   256
 51
90.0
 52
90.0
 71
     2
 49
0.5
 62
   256
  6
BYLAYER
 49
-0.5
 62
   256
  6
BYLAYER
  0
ENDSEC
  0
EOF
