  0
SECTION
  2
HEADER
  9
$ACADVER
  1
AC1014
  9
$ACADMAINTVER
 70
     9
  9
$DWGCODEPAGE
  3
ANSI_1252
  9
$INSBASE
 10
0.0
 20
0.0
 30
0.0
  9
$EXTMIN
 10
0.0
 20
0.0
 30
0.0
  9
$EXTMAX
 10
891.0
 20
630.0
 30
0.0
  9
$LIMMIN
 10
0.0
 20
0.0
  9
$LIMMAX
 10
891.0
 20
630.0
  9
$ORTHOMODE
 70
     0
  9
$REGENMODE
 70
     1
  9
$FILLMODE
 70
     1
  9
$QTEXTMODE
 70
     0
  9
$MIRRTEXT
 70
     1
  9
$DRAGMODE
 70
     2
  9
$LTSCALE
 40
3.0
  9
$OSMODE
 70
    37
  9
$ATTMODE
 70
     1
  9
$TEXTSIZE
 40
12.7
  9
$TRACEWID
 40
1.0
  9
$TEXTSTYLE
  7
STANDARD
  9
$CLAYER
  8
0
  9
$CELTYPE
  6
BYLAYER
  9
$CECOLOR
 62
   256
  9
$CELTSCALE
 40
1.0
  9
$DELOBJ
 70
     1
  9
$DISPSILH
 70
     0
  9
$DIMSCALE
 40
1.0
  9
$DIMASZ
 40
9.0
  9
$DIMEXO
 40
3.0
  9
$DIMDLI
 40
3.75
  9
$DIMRND
 40
0.0
  9
$DIMDLE
 40
0.0
  9
$DIMEXE
 40
3.0
  9
$DIMTP
 40
0.0
  9
$DIMTM
 40
0.0
  9
$DIMTXT
 40
12.7
  9
$DIMCEN
 40
2.5
  9
$DIMTSZ
 40
0.0
  9
$DIMTOL
 70
     0
  9
$DIMLIM
 70
     0
  9
$DIMTIH
 70
     1
  9
$DIMTOH
 70
     1
  9
$DIMSE1
 70
     0
  9
$DIMSE2
 70
     0
  9
$DIMTAD
 70
     1
  9
$DIMZIN
 70
     0
  9
$DIMBLK
  1

  9
$DIMASO
 70
     1
  9
$DIMSHO
 70
     1
  9
$DIMPOST
  1

  9
$DIMAPOST
  1

  9
$DIMALT
 70
     0
  9
$DIMALTD
 70
     3
  9
$DIMALTF
 40
0.0393700787
  9
$DIMLFAC
 40
1.0
  9
$DIMTOFL
 70
     1
  9
$DIMTVP
 40
0.0
  9
$DIMTIX
 70
     0
  9
$DIMSOXD
 70
     0
  9
$DIMSAH
 70
     0
  9
$DIMBLK1
  1

  9
$DIMBLK2
  1

  9
$DIMSTYLE
  2
ISO-25
  9
$DIMCLRD
 70
     0
  9
$DIMCLRE
 70
     0
  9
$DIMCLRT
 70
     0
  9
$DIMTFAC
 40
1.0
  9
$DIMGAP
 40
4.5
  9
$DIMJUST
 70
     0
  9
$DIMSD1
 70
     0
  9
$DIMSD2
 70
     0
  9
$DIMTOLJ
 70
     0
  9
$DIMTZIN
 70
     0
  9
$DIMALTZ
 70
     0
  9
$DIMALTTZ
 70
     0
  9
$DIMFIT
 70
     3
  9
$DIMUPT
 70
     0
  9
$DIMUNIT
 70
     2
  9
$DIMDEC
 70
     2
  9
$DIMTDEC
 70
     2
  9
$DIMALTU
 70
     2
  9
$DIMALTTD
 70
     3
  9
$DIMTXSTY
  7
STANDARD
  9
$DIMAUNIT
 70
     0
  9
$LUNITS
 70
     2
  9
$LUPREC
 70
     2
  9
$SKETCHINC
 40
1.0
  9
$FILLETRAD
 40
10.0
  9
$AUNITS
 70
     0
  9
$AUPREC
 70
     2
  9
$MENU
  1
.
  9
$ELEVATION
 40
0.0
  9
$PELEVATION
 40
0.0
  9
$THICKNESS
 40
0.0
  9
$LIMCHECK
 70
     0
  9
$CHAMFERA
 40
10.0
  9
$CHAMFERB
 40
10.0
  9
$CHAMFERC
 40
20.0
  9
$CHAMFERD
 40
0.0
  9
$SKPOLY
 70
     0
  9
$TDCREATE
 40
2456127.450846308
  9
$TDUPDATE
 40
2456127.45084632
  9
$TDINDWG
 40
0.0000000116
  9
$TDUSRTIMER
 40
0.0000000116
  9
$USRTIMER
 70
     1
  9
$ANGBASE
 50
0.0
  9
$ANGDIR
 70
     0
  9
$PDMODE
 70
     0
  9
$PDSIZE
 40
-1.0
  9
$PLINEWID
 40
0.0
  9
$COORDS
 70
     1
  9
$SPLFRAME
 70
     0
  9
$SPLINETYPE
 70
     6
  9
$SPLINESEGS
 70
     8
  9
$ATTDIA
 70
     0
  9
$ATTREQ
 70
     1
  9
$HANDLING
 70
     1
  9
$HANDSEED
  5
3E2
  9
$SURFTAB1
 70
     6
  9
$SURFTAB2
 70
     6
  9
$SURFTYPE
 70
     6
  9
$SURFU
 70
     6
  9
$SURFV
 70
     6
  9
$UCSNAME
  2

  9
$UCSORG
 10
0.0
 20
0.0
 30
0.0
  9
$UCSXDIR
 10
1.0
 20
0.0
 30
0.0
  9
$UCSYDIR
 10
0.0
 20
1.0
 30
0.0
  9
$PUCSNAME
  2

  9
$PUCSORG
 10
0.0
 20
0.0
 30
0.0
  9
$PUCSXDIR
 10
1.0
 20
0.0
 30
0.0
  9
$PUCSYDIR
 10
0.0
 20
1.0
 30
0.0
  9
$USERI1
 70
     0
  9
$USERI2
 70
     0
  9
$USERI3
 70
     0
  9
$USERI4
 70
     0
  9
$USERI5
 70
     0
  9
$USERR1
 40
0.0
  9
$USERR2
 40
0.0
  9
$USERR3
 40
0.0
  9
$USERR4
 40
0.0
  9
$USERR5
 40
0.0
  9
$WORLDVIEW
 70
     1
  9
$SHADEDGE
 70
     3
  9
$SHADEDIF
 70
    70
  9
$TILEMODE
 70
     1
  9
$MAXACTVP
 70
    64
  9
$PINSBASE
 10
0.0
 20
0.0
 30
0.0
  9
$PLIMCHECK
 70
     0
  9
$PEXTMIN
 10
1.0000000000E+20
 20
1.0000000000E+20
 30
1.0000000000E+20
  9
$PEXTMAX
 10
-1.0000000000E+20
 20
-1.0000000000E+20
 30
-1.0000000000E+20
  9
$PLIMMIN
 10
0.0
 20
0.0
  9
$PLIMMAX
 10
420.0
 20
297.0
  9
$UNITMODE
 70
     0
  9
$VISRETAIN
 70
     1
  9
$PLINEGEN
 70
     0
  9
$PSLTSCALE
 70
     1
  9
$TREEDEPTH
 70
  3020
  9
$PICKSTYLE
 70
     1
  9
$CMLSTYLE
  2
STANDARD
  9
$CMLJUST
 70
     0
  9
$CMLSCALE
 40
20.0
  9
$PROXYGRAPHICS
 70
     1
  9
$MEASUREMENT
 70
     1
  0
ENDSEC
  0
SECTION
  2
CLASSES
  0
CLASS
  1
ACDBDICTIONARYWDFLT
  2
AcDbDictionaryWithDefault
  3
ObjectDBX Classes
 90
        0
280
     0
281
     0
  0
CLASS
  1
VISUALSTYLE
  2
AcDbVisualStyle
  3
ObjectDBX Classes
 90
     4095
280
     0
281
     0
  0
CLASS
  1
MATERIAL
  2
AcDbMaterial
  3
ObjectDBX Classes
 90
     1153
280
     0
281
     0
  0
CLASS
  1
XRECORD
  2
AcDbXrecord
  3
AutoCAD 2000
 90
        0
280
     0
281
     0
  0
CLASS
  1
LWPOLYLINE
  2
AcDbPolyline
  3
AutoCAD 2000
 90
        0
280
     0
281
     1
  0
CLASS
  1
HATCH
  2
AcDbHatch
  3
AutoCAD 2000
 90
        0
280
     0
281
     1
  0
ENDSEC
  0
SECTION
  2
TABLES
  0
TABLE
  2
VPORT
  5
8
330
0
100
AcDbSymbolTable
 70
     1
  0
VPORT
  5
29
330
8
100
AcDbSymbolTableRecord
100
AcDbViewportTableRecord
  2
*ACTIVE
 70
     0
 10
0.0
 20
0.0
 11
1.0
 21
1.0
 12
445.5
 22
315.0
 13
0.0
 23
0.0
 14
10.0
 24
10.0
 15
10.0
 25
10.0
 16
0.0
 26
0.0
 36
1.0
 17
0.0
 27
0.0
 37
0.0
 40
630.0
 41
1.4142857143
 42
50.0
 43
0.0
 44
0.0
 50
0.0
 51
0.0
 71
     0
 72
  2000
 73
     1
 74
     3
 75
     0
 76
     0
 77
     0
 78
     0
  0
ENDTAB
  0
TABLE
  2
LTYPE
  5
5
330
0
100
AcDbSymbolTable
 70
     6
  0
LTYPE
  5
14
330
5
100
AcDbSymbolTableRecord
100
AcDbLinetypeTableRecord
  2
BYBLOCK
 70
     0
  3

 72
    65
 73
     0
 40
0.0
  0
LTYPE
  5
15
330
5
100
AcDbSymbolTableRecord
100
AcDbLinetypeTableRecord
  2
BYLAYER
 70
     0
  3

 72
    65
 73
     0
 40
0.0
  0
LTYPE
  5
16
330
5
100
AcDbSymbolTableRecord
100
AcDbLinetypeTableRecord
  2
CONTINUOUS
 70
     0
  3
Solid line
 72
    65
 73
     0
 40
0.0
  0
LTYPE
  5
3F
330
5
100
AcDbSymbolTableRecord
100
AcDbLinetypeTableRecord
  2
HIDDEN
 70
     0
  3
Hidden __ __ __ __ __ __ __ __ __ __ __ __ __ __
 72
    65
 73
     2
 40
1.905
 49
1.27
 74
     0
 49
-0.635
 74
     0
  0
LTYPE
  5
40
330
5
100
AcDbSymbolTableRecord
100
AcDbLinetypeTableRecord
  2
PHANTOM
 70
     0
  3
Phantom ______  __  __  ______  __  __  ______
 72
    65
 73
     6
 40
12.7
 49
6.35
 74
     0
 49
-1.27
 74
     0
 49
1.27
 74
     0
 49
-1.27
 74
     0
 49
1.27
 74
     0
 49
-1.27
 74
     0
  0
LTYPE
  5
41
330
5
100
AcDbSymbolTableRecord
100
AcDbLinetypeTableRecord
  2
CENTER
 70
     0
  3
Center ____ _ ____ _ ____ _ ____ _ ____ _ ____
 72
    65
 73
     4
 40
10.16
 49
6.35
 74
     0
 49
-1.27
 74
     0
 49
1.27
 74
     0
 49
-1.27
 74
     0
  0
LTYPE
  5
42
330
5
100
AcDbSymbolTableRecord
100
AcDbLinetypeTableRecord
  2
CENTERX2
 70
     0
  3
Center (2x) ________  __  ________  __  _____
 72
    65
 73
     4
 40
20.32
 49
12.7
 74
     0
 49
-2.54
 74
     0
 49
2.54
 74
     0
 49
-2.54
 74
     0
  0
LTYPE
  5
43
330
5
100
AcDbSymbolTableRecord
100
AcDbLinetypeTableRecord
  2
DOT2
 70
     0
  3
Dot (.5x) ........................................
 72
    65
 73
     2
 40
0.635
 49
0.0
 74
     0
 49
-0.635
 74
     0
  0
ENDTAB
  0
TABLE
  2
LAYER
  5
2
330
0
100
AcDbSymbolTable
 70
     2
  0
LAYER
  5
10
330
2
100
AcDbSymbolTableRecord
100
AcDbLayerTableRecord
  2
0
 70
     0
 62
     7
  6
CONTINUOUS
  0
LAYER
  5
44
330
2
100
AcDbSymbolTableRecord
100
AcDbLayerTableRecord
  2
FORMAT
 70
     0
 62
     7
  6
CONTINUOUS
  0
ENDTAB
  0
TABLE
  2
STYLE
  5
3
330
0
100
AcDbSymbolTable
 70
     3
  0
STYLE
  5
11
330
3
100
AcDbSymbolTableRecord
100
AcDbTextStyleTableRecord
  2
STANDARD
 70
     0
 40
0.0
 41
1.0
 50
0.0
 71
     0
 42
2.5
  3
txt
  4

  0
STYLE
  5
7D
330
3
100
AcDbSymbolTableRecord
100
AcDbTextStyleTableRecord
  2
SLDTEXTSTYLE0
 70
     0
 40
0.0
 41
0.605
 50
0.0
 71
     0
 42
0.2
  3
TXT
  4

  0
STYLE
  5
9C
330
3
100
AcDbSymbolTableRecord
100
AcDbTextStyleTableRecord
  2
SLDTEXTSTYLE1
 70
     0
 40
0.0
 41
0.605
 50
0.0
 71
     0
 42
0.2
  3
TXT
  4
bigfont
  0
ENDTAB
  0
TABLE
  2
VIEW
  5
6
330
0
100
AcDbSymbolTable
 70
     0
  0
ENDTAB
  0
TABLE
  2
UCS
  5
7
330
0
100
AcDbSymbolTable
 70
     0
  0
ENDTAB
  0
TABLE
  2
APPID
  5
9
330
0
100
AcDbSymbolTable
 70
     1
  0
APPID
  5
12
330
9
100
AcDbSymbolTableRecord
100
AcDbRegAppTableRecord
  2
ACAD
 70
     0
  0
ENDTAB
  0
TABLE
  2
DIMSTYLE
  5
A
330
0
100
AcDbSymbolTable
 70
     3
  0
DIMSTYLE
105
27
330
A
100
AcDbSymbolTableRecord
100
AcDbDimStyleTableRecord
  2
ISO-25
 70
     0
  3

  4

  5

  6

  7

 40
1.0
 41
2.5
 42
0.625
 43
3.75
 44
1.25
 45
0.0
 46
0.0
 47
0.0
 48
0.0
140
2.5
141
2.5
142
0.0
143
0.0393700787
144
1.0
145
0.0
146
1.0
147
0.625
 71
     0
 72
     0
 73
     0
 74
     0
 75
     0
 76
     0
 77
     1
 78
     8
170
     0
171
     3
172
     1
173
     0
174
     0
175
     0
176
     0
177
     0
178
     0
270
     2
271
     2
272
     2
273
     2
274
     3
340
11
275
     0
280
     0
281
     0
282
     0
283
     0
284
     8
285
     0
286
     0
287
     3
288
     0
  0
DIMSTYLE
105
1B4
102
{ACAD_REACTORS
330
1B3
102
}
330
A
100
AcDbSymbolTableRecord
100
AcDbDimStyleTableRecord
  2
SLDDIMSTYLE0
 70
     0
  3

  4

  5

  6

  7

 40
1.0
 41
9.0
 42
0.0625
 43
0.38
 44
0.0
 45
0.000000001
 46
0.0
 47
0.0
 48
0.0
140
9.2459472656
141
0.09
142
0.0
143
25.4
144
1.0
145
0.0
146
1.0
147
2.3114868164
 71
     0
 72
     0
 73
     0
 74
     0
 75
     0
 76
     0
 77
     1
 78
    12
170
     0
171
     2
172
     0
173
     1
174
     0
175
     0
176
     0
177
     0
178
     0
270
     2
271
     0
272
     2
273
     2
274
     2
340
7D
275
     0
280
     0
281
     0
282
     0
283
     1
284
    12
285
     0
286
     0
287
     3
288
     0
  0
DIMSTYLE
105
2BD
102
{ACAD_REACTORS
330
2BC
330
2C7
102
}
330
A
100
AcDbSymbolTableRecord
100
AcDbDimStyleTableRecord
  2
SLDDIMSTYLE1
 70
     0
  3

  4

  5

  6

  7

 40
1.0
 41
9.0
 42
0.0625
 43
0.38
 44
0.0
 45
0.000000001
 46
0.0
 47
0.0
 48
0.0
140
9.2459472656
141
0.09
142
0.0
143
25.4
144
1.0
145
0.0
146
1.0
147
2.3114868164
 71
     0
 72
     0
 73
     0
 74
     0
 75
     0
 76
     0
 77
     1
 78
    12
170
     0
171
     2
172
     0
173
     1
174
     0
175
     0
176
     0
177
     0
178
     0
270
     2
271
     2
272
     2
273
     2
274
     2
340
7D
275
     0
280
     0
281
     0
282
     0
283
     1
284
    12
285
     0
286
     0
287
     3
288
     0
  0
ENDTAB
  0
TABLE
  2
BLOCK_RECORD
  5
1
330
0
100
AcDbSymbolTable
 70
     5
  0
BLOCK_RECORD
  5
1F
330
1
100
AcDbSymbolTableRecord
100
AcDbBlockTableRecord
  2
*MODEL_SPACE
  0
BLOCK_RECORD
  5
1B
330
1
100
AcDbSymbolTableRecord
100
AcDbBlockTableRecord
  2
*PAPER_SPACE
  0
BLOCK_RECORD
  5
23
330
1
100
AcDbSymbolTableRecord
100
AcDbBlockTableRecord
  2
*PAPER_SPACE0
  0
BLOCK_RECORD
  5
45
330
1
100
AcDbSymbolTableRecord
100
AcDbBlockTableRecord
  2
BLOCK1
  0
BLOCK_RECORD
  5
1B5
330
1
100
AcDbSymbolTableRecord
100
AcDbBlockTableRecord
  2
*D2
  0
BLOCK_RECORD
  5
2BE
330
1
100
AcDbSymbolTableRecord
100
AcDbBlockTableRecord
  2
*D3
  0
BLOCK_RECORD
  5
2C8
330
1
100
AcDbSymbolTableRecord
100
AcDbBlockTableRecord
  2
*D4
  0
ENDTAB
  0
ENDSEC
  0
SECTION
  2
BLOCKS
  0
BLOCK
  5
20
330
1F
100
AcDbEntity
  8
0
100
AcDbBlockBegin
  2
*MODEL_SPACE
 70
     0
 10
0.0
 20
0.0
 30
0.0
  3
*MODEL_SPACE
  1

  0
ENDBLK
  5
21
330
1F
100
AcDbEntity
  8
0
100
AcDbBlockEnd
  0
BLOCK
  5
1C
330
1B
100
AcDbEntity
 67
     1
  8
0
100
AcDbBlockBegin
  2
*PAPER_SPACE
 70
     0
 10
0.0
 20
0.0
 30
0.0
  3
*PAPER_SPACE
  1

  0
ENDBLK
  5
1D
330
1B
100
AcDbEntity
 67
     1
  8
0
100
AcDbBlockEnd
  0
BLOCK
  5
24
330
23
100
AcDbEntity
  8
0
100
AcDbBlockBegin
  2
*PAPER_SPACE0
 70
     0
 10
0.0
 20
0.0
 30
0.0
  3
*PAPER_SPACE0
  1

  0
ENDBLK
  5
25
330
23
100
AcDbEntity
  8
0
100
AcDbBlockEnd
  0
BLOCK
  5
46
330
45
100
AcDbEntity
  8
0
100
AcDbBlockBegin
  2
BLOCK1
 70
     0
 10
0.0
 20
0.0
 30
0.0
  3
BLOCK1
  1

  0
CIRCLE
  5
48
330
45
100
AcDbEntity
  8
0
  6
CONTINUOUS
 62
     7
100
AcDbCircle
 10
-61.3216986997
 20
-0.1674890557
 30
0.0
 40
15.0
  0
CIRCLE
  5
49
330
45
100
AcDbEntity
  8
0
  6
CONTINUOUS
 62
     7
100
AcDbCircle
 10
-61.3216986997
 20
-0.1674890557
 30
0.0
 40
30.00000000000001
  0
LINE
  5
4A
330
45
100
AcDbEntity
  8
0
  6
CENTERX2
 62
     7
100
AcDbLine
 10
-184.6788451855
 20
-0.1674890557
 30
0.0
 11
-26.4328087846
 21
-0.1674890557
 31
0.0
  0
LINE
  5
4B
330
45
100
AcDbEntity
  8
0
  6
CENTERX2
 62
     7
100
AcDbLine
 10
-61.3216986997
 20
34.7214008594
 30
0.0
 11
-61.3216986997
 21
-35.0563789709
 31
0.0
  0
LINE
  5
4C
330
45
100
AcDbEntity
  8
0
  6
CONTINUOUS
 62
     7
100
AcDbLine
 10
-176.579638598
 20
14.3652490258
 30
0.0
 11
-103.0637634197
 21
29.3652490258
 31
0.0
  0
LINE
  5
4D
330
45
100
AcDbEntity
  8
0
  6
CONTINUOUS
 62
     7
100
AcDbLine
 10
-176.579638598
 20
-15.6347509742
 30
0.0
 11
-176.579638598
 21
14.3652490258
 31
0.0
  0
LINE
  5
4E
330
45
100
AcDbEntity
  8
0
  6
CONTINUOUS
 62
     7
100
AcDbLine
 10
-103.0637634197
 20
-30.6347509742
 30
0.0
 11
-176.579638598
 21
-15.6347509742
 31
0.0
  0
LINE
  5
4F
330
45
100
AcDbEntity
  8
0
  6
CONTINUOUS
 62
     7
100
AcDbLine
 10
-103.0637634197
 20
29.3652490258
 30
0.0
 11
-103.0637634197
 21
-30.6347509742
 31
0.0
  0
ENDBLK
  5
47
330
45
100
AcDbEntity
  8
0
100
AcDbBlockEnd
  0
BLOCK
  5
1B6
330
1B5
100
AcDbEntity
  8
0
100
AcDbBlockBegin
  2
*D2
 70
     1
 10
0.0
 20
0.0
 30
0.0
  3
*D2
  1

  0
SOLID
  5
1B8
330
1B5
100
AcDbEntity
  8
0
  6
CONTINUOUS
 62
     7
100
AcDbTrace
 10
84.9127221163
 20
579.816647574
 30
0.0
 11
93.9127221163
 21
577.566647574
 31
0.0
 12
93.9127221163
 22
582.066647574
 32
0.0
 13
93.9127221163
 23
582.066647574
 33
0.0
  0
SOLID
  5
1B9
330
1B5
100
AcDbEntity
  8
0
  6
CONTINUOUS
 62
     7
100
AcDbTrace
 10
435.6625795291
 20
579.816647574
 30
0.0
 11
426.6625795291
 21
582.066647574
 31
0.0
 12
426.6625795291
 22
577.566647574
 32
0.0
 13
426.6625795291
 23
577.566647574
 33
0.0
  0
LINE
  5
1BA
330
1B5
100
AcDbEntity
  8
0
  6
CONTINUOUS
 62
     7
100
AcDbLine
 10
84.9127221163
 20
352.7301313178
 30
0.0
 11
84.9127221163
 21
582.816647574
 31
0.0
  0
LINE
  5
1BB
330
1B5
100
AcDbEntity
  8
0
  6
CONTINUOUS
 62
     7
100
AcDbLine
 10
435.6625795291
 20
352.0852237126
 30
0.0
 11
435.6625795291
 21
582.816647574
 31
0.0
  0
LINE
  5
1BC
330
1B5
100
AcDbEntity
  8
0
  6
CONTINUOUS
 62
     7
100
AcDbLine
 10
84.9127221163
 20
579.816647574
 30
0.0
 11
435.6625795291
 21
579.816647574
 31
0.0
  0
MTEXT
  5
1BD
330
1B5
100
AcDbEntity
  8
0
  6
CONTINUOUS
 62
     7
100
AcDbMText
 10
245.4709843351
 20
592.0950177953
 30
-5.2623848988
 40
9.525
 41
0.0
 71
     1
 72
     1
  1
351
  7
SLDTEXTSTYLE0
  0
ENDBLK
  5
1B7
330
1B5
100
AcDbEntity
  8
0
100
AcDbBlockEnd
  0
BLOCK
  5
2BF
330
2BE
100
AcDbEntity
  8
0
100
AcDbBlockBegin
  2
*D3
 70
     1
 10
0.0
 20
0.0
 30
0.0
  3
*D3
  1

  0
SOLID
  5
2C1
330
2BE
100
AcDbEntity
  8
0
  6
CONTINUOUS
 62
     7
100
AcDbTrace
 10
649.0302733814
 20
253.816647574
 30
0.0
 11
651.2802733814
 21
262.816647574
 31
0.0
 12
646.7802733814
 22
262.816647574
 32
0.0
 13
646.7802733814
 23
262.816647574
 33
0.0
  0
SOLID
  5
2C2
330
2BE
100
AcDbEntity
  8
0
  6
CONTINUOUS
 62
     7
100
AcDbTrace
 10
649.0302733814
 20
549.816647574
 30
0.0
 11
646.7802733814
 21
540.816647574
 31
0.0
 12
651.2802733814
 22
540.816647574
 32
0.0
 13
651.2802733814
 23
540.816647574
 33
0.0
  0
LINE
  5
2C3
330
2BE
100
AcDbEntity
  8
0
  6
CONTINUOUS
 62
     7
100
AcDbLine
 10
611.5055035839
 20
253.816647574
 30
0.0
 11
652.0302733814
 21
253.816647574
 31
0.0
  0
LINE
  5
2C4
330
2BE
100
AcDbEntity
  8
0
  6
CONTINUOUS
 62
     7
100
AcDbLine
 10
606.5055035839
 20
549.816647574
 30
0.0
 11
652.0302733814
 21
549.816647574
 31
0.0
  0
LINE
  5
2C5
330
2BE
100
AcDbEntity
  8
0
  6
CONTINUOUS
 62
     7
100
AcDbLine
 10
649.0302733814
 20
253.816647574
 30
0.0
 11
649.0302733814
 21
549.816647574
 31
0.0
  0
MTEXT
  5
2C6
330
2BE
100
AcDbEntity
  8
0
  6
CONTINUOUS
 62
     7
100
AcDbMText
 10
636.7519031601
 20
386.9999810864
 30
0.0
 40
9.525
 41
0.0
 71
     1
 72
     1
  1
296
  7
SLDTEXTSTYLE0
 11
6.123233995736766E-17
 21
1.0
 31
0.0
  0
ENDBLK
  5
2C0
330
2BE
100
AcDbEntity
  8
0
100
AcDbBlockEnd
  0
BLOCK
  5
2C9
330
2C8
100
AcDbEntity
  8
0
100
AcDbBlockBegin
  2
*D4
 70
     1
 10
0.0
 20
0.0
 30
0.0
  3
*D4
  1

  0
SOLID
  5
2CB
330
2C8
100
AcDbEntity
  8
0
  6
CONTINUOUS
 62
     7
100
AcDbTrace
 10
548.5055035839
 20
223.816647574
 30
0.0
 11
557.5055035839
 21
221.566647574
 31
0.0
 12
557.5055035839
 22
226.066647574
 32
0.0
 13
557.5055035839
 23
226.066647574
 33
0.0
  0
SOLID
  5
2CC
330
2C8
100
AcDbEntity
  8
0
  6
CONTINUOUS
 62
     7
100
AcDbTrace
 10
608.5055035839
 20
223.816647574
 30
0.0
 11
599.5055035839
 21
226.066647574
 31
0.0
 12
599.5055035839
 22
221.566647574
 32
0.0
 13
599.5055035839
 23
221.566647574
 33
0.0
  0
LINE
  5
2CD
330
2C8
100
AcDbEntity
  8
0
  6
CONTINUOUS
 62
     7
100
AcDbLine
 10
548.5055035839
 20
273.816647574
 30
0.0
 11
548.5055035839
 21
220.816647574
 31
0.0
  0
LINE
  5
2CE
330
2C8
100
AcDbEntity
  8
0
  6
CONTINUOUS
 62
     7
100
AcDbLine
 10
608.5055035839
 20
273.816647574
 30
0.0
 11
608.5055035839
 21
220.816647574
 31
0.0
  0
LINE
  5
2CF
330
2C8
100
AcDbEntity
  8
0
  6
CONTINUOUS
 62
     7
100
AcDbLine
 10
548.5055035839
 20
223.816647574
 30
0.0
 11
608.5055035839
 21
223.816647574
 31
0.0
  0
MTEXT
  5
2D0
330
2C8
100
AcDbEntity
  8
0
  6
CONTINUOUS
 62
     7
100
AcDbMText
 10
567.2166145986
 20
236.0950177953
 30
0.0
 40
9.525
 41
0.0
 71
     1
 72
     1
  1
60
  7
SLDTEXTSTYLE0
  0
ENDBLK
  5
2CA
330
2C8
100
AcDbEntity
  8
0
100
AcDbBlockEnd
  0
ENDSEC
  0
SECTION
  2
ENTITIES
  0
LINE
  5
50
330
1F
100
AcDbEntity
  8
0
  6
CONTINUOUS
 62
     7
100
AcDbLine
 10
876.0
 20
48.0
 30
0.0
 11
474.0
 21
48.0
 31
0.0
  0
LINE
  5
51
330
1F
100
AcDbEntity
  8
0
  6
CONTINUOUS
 62
     7
100
AcDbLine
 10
876.0
 20
15.0
 30
0.0
 11
15.0
 21
15.0
 31
0.0
  0
LINE
  5
52
330
1F
100
AcDbEntity
  8
0
  6
CONTINUOUS
 62
     7
100
AcDbLine
 10
876.0
 20
15.0
 30
0.0
 11
876.0
 21
615.0
 31
0.0
  0
LINE
  5
53
330
1F
100
AcDbEntity
  8
0
  6
CONTINUOUS
 62
     7
100
AcDbLine
 10
876.0
 20
615.0
 30
0.0
 11
15.0
 21
615.0
 31
0.0
  0
LINE
  5
54
330
1F
100
AcDbEntity
  8
0
  6
CONTINUOUS
 62
     7
100
AcDbLine
 10
15.0
 20
15.0
 30
0.0
 11
15.0
 21
615.0
 31
0.0
  0
LINE
  5
55
330
1F
100
AcDbEntity
  8
0
  6
CONTINUOUS
 62
     7
100
AcDbLine
 10
777.0
 20
48.0
 30
0.0
 11
777.0
 21
15.0
 31
0.0
  0
LINE
  5
56
330
1F
100
AcDbEntity
  8
0
  6
CONTINUOUS
 62
     7
100
AcDbLine
 10
876.0
 20
156.0
 30
0.0
 11
474.0
 21
156.0
 31
0.0
  0
LINE
  5
57
330
1F
100
AcDbEntity
  8
0
  6
CONTINUOUS
 62
     7
100
AcDbLine
 10
474.0
 20
48.0
 30
0.0
 11
474.0
 21
15.0
 31
0.0
  0
LINE
  5
58
330
1F
100
AcDbEntity
  8
0
  6
CONTINUOUS
 62
     7
100
AcDbLine
 10
474.0
 20
156.0
 30
0.0
 11
474.0
 21
168.0
 31
0.0
  0
LINE
  5
59
330
1F
100
AcDbEntity
  8
0
  6
CONTINUOUS
 62
     7
100
AcDbLine
 10
474.0
 20
168.0
 30
0.0
 11
876.0
 21
168.0
 31
0.0
  0
LINE
  5
5A
330
1F
100
AcDbEntity
  8
0
  6
CONTINUOUS
 62
     7
100
AcDbLine
 10
474.0
 20
168.0
 30
0.0
 11
474.0
 21
180.0
 31
0.0
  0
LINE
  5
5B
330
1F
100
AcDbEntity
  8
0
  6
CONTINUOUS
 62
     7
100
AcDbLine
 10
474.0
 20
180.0
 30
0.0
 11
876.0
 21
180.0
 31
0.0
  0
LINE
  5
5C
330
1F
100
AcDbEntity
  8
0
  6
CONTINUOUS
 62
     7
100
AcDbLine
 10
474.0
 20
180.0
 30
0.0
 11
474.0
 21
192.0
 31
0.0
  0
LINE
  5
5D
330
1F
100
AcDbEntity
  8
0
  6
CONTINUOUS
 62
     7
100
AcDbLine
 10
474.0
 20
192.0
 30
0.0
 11
876.0
 21
192.0
 31
0.0
  0
LINE
  5
5E
330
1F
100
AcDbEntity
  8
0
  6
CONTINUOUS
 62
     7
100
AcDbLine
 10
474.0
 20
192.0
 30
0.0
 11
474.0
 21
204.0
 31
0.0
  0
LINE
  5
5F
330
1F
100
AcDbEntity
  8
0
  6
CONTINUOUS
 62
     7
100
AcDbLine
 10
474.0
 20
204.0
 30
0.0
 11
876.0
 21
204.0
 31
0.0
  0
LINE
  5
60
330
1F
100
AcDbEntity
  8
0
  6
CONTINUOUS
 62
     7
100
AcDbLine
 10
876.0
 20
216.0
 30
0.0
 11
777.0
 21
216.0
 31
0.0
  0
LINE
  5
61
330
1F
100
AcDbEntity
  8
0
  6
CONTINUOUS
 62
     7
100
AcDbLine
 10
777.0
 20
216.0
 30
0.0
 11
777.0
 21
204.0
 31
0.0
  0
LINE
  5
62
330
1F
100
AcDbEntity
  8
0
  6
CONTINUOUS
 62
     7
100
AcDbLine
 10
846.0
 20
216.0
 30
0.0
 11
846.0
 21
204.0
 31
0.0
  0
LINE
  5
63
330
1F
100
AcDbEntity
  8
0
  6
CONTINUOUS
 62
     7
100
AcDbLine
 10
495.0
 20
144.0
 30
0.0
 11
495.0
 21
204.0
 31
0.0
  0
LINE
  5
64
330
1F
100
AcDbEntity
  8
0
  6
CONTINUOUS
 62
     7
100
AcDbLine
 10
543.0
 20
204.0
 30
0.0
 11
543.0
 21
144.0
 31
0.0
  0
LINE
  5
65
330
1F
100
AcDbEntity
  8
0
  6
CONTINUOUS
 62
     7
100
AcDbLine
 10
588.0
 20
204.0
 30
0.0
 11
588.0
 21
144.0
 31
0.0
  0
LINE
  5
66
330
1F
100
AcDbEntity
  8
0
  6
CONTINUOUS
 62
     7
100
AcDbLine
 10
474.0
 20
156.0
 30
0.0
 11
474.0
 21
144.0
 31
0.0
  0
LINE
  5
67
330
1F
100
AcDbEntity
  8
0
  6
CONTINUOUS
 62
     7
100
AcDbLine
 10
474.0
 20
144.0
 30
0.0
 11
876.0
 21
144.0
 31
0.0
  0
LINE
  5
68
330
1F
100
AcDbEntity
  8
0
  6
CONTINUOUS
 62
     7
100
AcDbLine
 10
876.0
 20
72.0
 30
0.0
 11
474.0
 21
72.0
 31
0.0
  0
LINE
  5
69
330
1F
100
AcDbEntity
  8
0
  6
CONTINUOUS
 62
     7
100
AcDbLine
 10
474.0
 20
72.0
 30
0.0
 11
474.0
 21
48.0
 31
0.0
  0
LINE
  5
6A
330
1F
100
AcDbEntity
  8
0
  6
CONTINUOUS
 62
     7
100
AcDbLine
 10
852.0
 20
72.0
 30
0.0
 11
852.0
 21
48.0
 31
0.0
  0
LINE
  5
6B
330
1F
100
AcDbEntity
  8
0
  6
CONTINUOUS
 62
     7
100
AcDbLine
 10
876.0
 20
96.0
 30
0.0
 11
474.0
 21
96.0
 31
0.0
  0
LINE
  5
6C
330
1F
100
AcDbEntity
  8
0
  6
CONTINUOUS
 62
     7
100
AcDbLine
 10
825.0
 20
72.0
 30
0.0
 11
825.0
 21
48.0
 31
0.0
  0
LINE
  5
6D
330
1F
100
AcDbEntity
  8
0
  6
CONTINUOUS
 62
     7
100
AcDbLine
 10
474.0
 20
96.0
 30
0.0
 11
474.0
 21
72.0
 31
0.0
  0
LINE
  5
6E
330
1F
100
AcDbEntity
  8
0
  6
CONTINUOUS
 62
     7
100
AcDbLine
 10
792.0
 20
72.0
 30
0.0
 11
792.0
 21
48.0
 31
0.0
  0
LINE
  5
6F
330
1F
100
AcDbEntity
  8
0
  6
CONTINUOUS
 62
     7
100
AcDbLine
 10
474.0
 20
120.0
 30
0.0
 11
474.0
 21
144.0
 31
0.0
  0
LINE
  5
70
330
1F
100
AcDbEntity
  8
0
  6
CONTINUOUS
 62
     7
100
AcDbLine
 10
876.0
 20
120.0
 30
0.0
 11
474.0
 21
120.0
 31
0.0
  0
LINE
  5
71
330
1F
100
AcDbEntity
  8
0
  6
CONTINUOUS
 62
     7
100
AcDbLine
 10
474.0
 20
120.0
 30
0.0
 11
474.0
 21
96.0
 31
0.0
  0
LINE
  5
72
330
1F
100
AcDbEntity
  8
0
  6
CONTINUOUS
 62
     7
100
AcDbLine
 10
135.0
 20
27.0
 30
0.0
 11
135.0
 21
15.0
 31
0.0
  0
LINE
  5
73
330
1F
100
AcDbEntity
  8
0
  6
CONTINUOUS
 62
     7
100
AcDbLine
 10
678.0
 20
72.0
 30
0.0
 11
678.0
 21
96.0
 31
0.0
  0
LINE
  5
74
330
1F
100
AcDbEntity
  8
0
  6
CONTINUOUS
 62
     7
100
AcDbLine
 10
678.0
 20
96.0
 30
0.0
 11
678.0
 21
120.0
 31
0.0
  0
LINE
  5
75
330
1F
100
AcDbEntity
  8
0
  6
CONTINUOUS
 62
     7
100
AcDbLine
 10
543.0
 20
144.0
 30
0.0
 11
543.0
 21
120.0
 31
0.0
  0
LINE
  5
76
330
1F
100
AcDbEntity
  8
0
  6
CONTINUOUS
 62
     7
100
AcDbLine
 10
678.0
 20
120.0
 30
0.0
 11
678.0
 21
144.0
 31
0.0
  0
LINE
  5
77
330
1F
100
AcDbEntity
  8
0
  6
CONTINUOUS
 62
     7
100
AcDbLine
 10
15.0
 20
27.0
 30
0.0
 11
411.0
 21
27.0
 31
0.0
  0
LINE
  5
78
330
1F
100
AcDbEntity
  8
0
  6
CONTINUOUS
 62
     7
100
AcDbLine
 10
654.0
 20
72.0
 30
0.0
 11
654.0
 21
48.0
 31
0.0
  0
LINE
  5
79
330
1F
100
AcDbEntity
  8
0
  6
CONTINUOUS
 62
     7
100
AcDbLine
 10
186.0
 20
27.0
 30
0.0
 11
186.0
 21
15.0
 31
0.0
  0
LINE
  5
7A
330
1F
100
AcDbEntity
  8
0
  6
CONTINUOUS
 62
     7
100
AcDbLine
 10
474.0
 20
48.0
 30
0.0
 11
411.0
 21
48.0
 31
0.0
  0
LINE
  5
7B
330
1F
100
AcDbEntity
  8
0
  6
CONTINUOUS
 62
     7
100
AcDbLine
 10
411.0
 20
48.0
 30
0.0
 11
411.0
 21
15.0
 31
0.0
  0
INSERT
  5
7C
330
1F
100
AcDbEntity
  8
0
  6
CONTINUOUS
 62
     7
100
AcDbBlockReference
  2
BLOCK1
 10
474.5042916068
 20
31.5502467167
 30
0.0
 41
0.3
 42
0.3
 43
0.3
  0
MTEXT
  5
7E
330
1F
100
AcDbEntity
  8
0
  6
CONTINUOUS
 62
     7
100
AcDbMText
 10
875.8966000146
 20
34.2883627479
 30
0.0
 40
12.7
 41
0.0
 71
     3
 72
     1
  1
92610003
  7
SLDTEXTSTYLE0
  0
MTEXT
  5
7F
330
1F
100
AcDbEntity
  8
0
  6
CONTINUOUS
 62
     7
100
AcDbMText
 10
681.0433630016
 20
131.5305015581
 30
0.0
 40
7.9375
 41
0.0
 71
     1
 72
     1
  1
-
  7
SLDTEXTSTYLE0
  0
MTEXT
  5
80
330
1F
100
AcDbEntity
  8
0
  6
CONTINUOUS
 62
     7
100
AcDbMText
 10
477.1191386894
 20
32.3601347233
 30
0.0
 40
11.1125
 41
0.0
 71
     1
 72
     1
  1
Flying Kit
  7
SLDTEXTSTYLE0
  0
MTEXT
  5
81
330
1F
100
AcDbEntity
  8
0
  6
CONTINUOUS
 62
     7
100
AcDbMText
 10
522.0135131435
 20
44.5908457047
 30
0.0
 40
6.35
 41
0.0
 71
     1
 72
     1
  1
( Model in view  92610003 - Flying Kit, Compact Hazer )
  7
SLDTEXTSTYLE0
  0
MTEXT
  5
82
330
1F
100
AcDbEntity
  8
0
  6
CONTINUOUS
 62
     7
100
AcDbMText
 10
807.0003313897
 20
107.5249897449
 30
0.0
 40
7.9375
 41
0.0
 71
     1
 72
     1
  1
ISO 2768
  7
SLDTEXTSTYLE0
  0
MTEXT
  5
83
330
1F
100
AcDbEntity
  8
0
  6
CONTINUOUS
 62
     7
100
AcDbMText
 10
807.0003313897
 20
83.6108870297
 30
0.0
 40
7.9375
 41
0.0
 71
     1
 72
     1
  1
ISO 2768
  7
SLDTEXTSTYLE0
  0
MTEXT
  5
84
330
1F
100
AcDbEntity
  8
0
  6
CONTINUOUS
 62
     7
100
AcDbMText
 10
657.0125341962
 20
59.5761188886
 30
0.0
 40
7.9375
 41
0.0
 71
     1
 72
     1
  1
-
  7
SLDTEXTSTYLE0
  0
MTEXT
  5
85
330
1F
100
AcDbEntity
  8
0
  6
CONTINUOUS
 62
     7
100
AcDbMText
 10
498.0445360788
 20
164.6910841407
 30
0.0
 40
6.35
 41
0.0
 71
     1
 72
     1
  1
26/06/2012
  7
SLDTEXTSTYLE0
  0
MTEXT
  5
86
330
1F
100
AcDbEntity
  8
0
  6
CONTINUOUS
 62
     7
100
AcDbMText
 10
492.2315335781
 20
164.5951051929
 30
0.0
 40
6.35
 41
0.0
 71
     3
 72
     1
  1
-A
  7
SLDTEXTSTYLE0
  0
MTEXT
  5
87
330
1F
100
AcDbEntity
  8
0
  6
CONTINUOUS
 62
     7
100
AcDbMText
 10
546.0466524429
 20
164.67498432
 30
0.0
 40
6.35
 41
0.0
 71
     1
 72
     1
  1
M.D
  7
SLDTEXTSTYLE0
  0
MTEXT
  5
88
330
1F
100
AcDbEntity
  8
0
  6
CONTINUOUS
 62
     7
100
AcDbMText
 10
591.0790748417
 20
164.6975354321
 30
0.0
 40
6.35
 41
0.0
 71
     1
 72
     1
  1
First Release
  7
SLDTEXTSTYLE0
  0
MTEXT
  5
89
330
1F
100
AcDbEntity
  8
0
  6
CONTINUOUS
 62
     7
100
AcDbMText
 10
780.0586586816
 20
44.6265194819
 30
0.0
 40
6.35
 41
0.0
 71
     1
 72
     1
  1
Item no.-Rev.
  7
SLDTEXTSTYLE0
  0
MTEXT
  5
8A
330
1F
100
AcDbEntity
  8
0
  6
CONTINUOUS
 62
     7
100
AcDbMText
 10
546.1417402684
 20
131.6057559729
 30
0.0
 40
7.9375
 41
0.0
 71
     1
 72
     1
  1
Compact Hazer
  7
SLDTEXTSTYLE0
  0
MTEXT
  5
8B
330
1F
100
AcDbEntity
  8
0
  6
CONTINUOUS
 62
     7
100
AcDbMText
 10
477.1491770183
 20
44.584820339
 30
0.0
 40
6.35
 41
0.0
 71
     1
 72
     1
  1
Description
  7
SLDTEXTSTYLE0
  0
MTEXT
  5
8C
330
1F
100
AcDbEntity
  8
0
  6
CONTINUOUS
 62
     7
100
AcDbMText
 10
477.1521798251
 20
152.5965559523
 30
0.0
 40
6.35
 41
0.0
 71
     1
 72
     1
  1
Rev.
  7
SLDTEXTSTYLE0
  0
MTEXT
  5
8D
330
1F
100
AcDbEntity
  8
0
  6
CONTINUOUS
 62
     7
100
AcDbMText
 10
498.1392391103
 20
152.581704821
 30
0.0
 40
6.35
 41
0.0
 71
     1
 72
     1
  1
Date
  7
SLDTEXTSTYLE0
  0
MTEXT
  5
8E
330
1F
100
AcDbEntity
  8
0
  6
CONTINUOUS
 62
     7
100
AcDbMText
 10
546.0010506365
 20
152.6167460296
 30
0.0
 40
6.35
 41
0.0
 71
     1
 72
     1
  1
Resp.
  7
SLDTEXTSTYLE0
  0
MTEXT
  5
8F
330
1F
100
AcDbEntity
  8
0
  6
CONTINUOUS
 62
     7
100
AcDbMText
 10
591.0134793818
 20
152.6926729068
 30
0.0
 40
6.35
 41
0.0
 71
     1
 72
     1
  1
CO no. / Comment
  7
SLDTEXTSTYLE0
  0
MTEXT
  5
90
330
1F
100
AcDbEntity
  8
0
  6
CONTINUOUS
 62
     7
100
AcDbMText
 10
681.139686049
 20
83.5068635997
 30
0.0
 40
7.9375
 41
0.0
 71
     1
 72
     1
  1
General angular tolerance
  7
SLDTEXTSTYLE0
  0
MTEXT
  5
91
330
1F
100
AcDbEntity
  8
0
  6
CONTINUOUS
 62
     7
100
AcDbMText
 10
681.2167120046
 20
107.5249895703
 30
0.0
 40
7.9375
 41
0.0
 71
     1
 72
     1
  1
General linear tolerance
  7
SLDTEXTSTYLE0
  0
MTEXT
  5
92
330
1F
100
AcDbEntity
  8
0
  6
CONTINUOUS
 62
     7
100
AcDbMText
 10
855.0385042872
 20
59.645788594
 30
0.0
 40
7.9375
 41
0.0
 71
     1
 72
     1
  1
mm
  7
SLDTEXTSTYLE0
  0
MTEXT
  5
93
330
1F
100
AcDbEntity
  8
0
  6
CONTINUOUS
 62
     7
100
AcDbMText
 10
855.0016034836
 20
68.7185006164
 30
0.0
 40
6.35
 41
0.0
 71
     1
 72
     1
  1
Unit
  7
SLDTEXTSTYLE0
  0
MTEXT
  5
94
330
1F
100
AcDbEntity
  8
0
  6
CONTINUOUS
 62
     7
100
AcDbMText
 10
828.0204280456
 20
68.6855328327
 30
0.0
 40
6.35
 41
0.0
 71
     1
 72
     1
  1
Scale
  7
SLDTEXTSTYLE0
  0
MTEXT
  5
95
330
1F
100
AcDbEntity
  8
0
  6
CONTINUOUS
 62
     7
100
AcDbMText
 10
795.1611565352
 20
68.7058944425
 30
0.0
 40
6.35
 41
0.0
 71
     1
 72
     1
  1
Format
  7
SLDTEXTSTYLE0
  0
MTEXT
  5
96
330
1F
100
AcDbEntity
  8
0
  6
CONTINUOUS
 62
     7
100
AcDbMText
 10
795.0228472201
 20
59.5597290322
 30
0.0
 40
7.9375
 41
0.0
 71
     1
 72
     1
  1
A4
  7
SLDTEXTSTYLE0
  0
MTEXT
  5
97
330
1F
100
AcDbEntity
  8
0
  6
CONTINUOUS
 62
     7
100
AcDbMText
 10
828.0911754957
 20
59.6357307421
 30
0.0
 40
7.9375
 41
0.0
 71
     1
 72
     1
  1
1:3
  7
SLDTEXTSTYLE0
  0
MTEXT
  5
98
330
1F
100
AcDbEntity
  8
0
  6
CONTINUOUS
 62
     7
100
AcDbMText
 10
657.1239299167
 20
68.6008333972
 30
0.0
 40
6.35
 41
0.0
 71
     1
 72
     1
  1
Colour
  7
SLDTEXTSTYLE0
  0
MTEXT
  5
99
330
1F
100
AcDbEntity
  8
0
  6
CONTINUOUS
 62
     7
100
AcDbMText
 10
477.0558220234
 20
116.6092770984
 30
0.0
 40
6.35
 41
0.0
 71
     1
 72
     1
  1
Item to be
  7
SLDTEXTSTYLE0
  0
MTEXT
  5
9A
330
1F
100
AcDbEntity
  8
0
  6
CONTINUOUS
 62
     7
100
AcDbMText
 10
477.1670642923
 20
68.6530977803
 30
0.0
 40
6.35
 41
0.0
 71
     1
 72
     1
  1
Item to be
  7
SLDTEXTSTYLE0
  0
MTEXT
  5
9B
330
1F
100
AcDbEntity
  8
0
  6
CONTINUOUS
 62
     7
100
AcDbMText
 10
477.1609887541
 20
92.647103046
 30
0.0
 40
6.35
 41
0.0
 71
     1
 72
     1
  1
Item to be
  7
SLDTEXTSTYLE0
  0
MTEXT
  5
9D
330
1F
100
AcDbEntity
  8
0
  6
CONTINUOUS
 62
     7
100
AcDbMText
 10
477.0558220234
 20
138.0624398922
 30
0.0
 40
12.7
 41
0.0
 71
     1
 72
     1
  1
Martin™
  7
SLDTEXTSTYLE1
  0
MTEXT
  5
9E
330
1F
100
AcDbEntity
  8
0
  6
CONTINUOUS
 62
     7
100
AcDbMText
 10
546.0422543814
 20
140.6437078891
 30
0.0
 40
6.35
 41
0.0
 71
     1
 72
     1
  1
First used in
  7
SLDTEXTSTYLE0
  0
MTEXT
  5
9F
330
1F
100
AcDbEntity
  8
0
  6
CONTINUOUS
 62
     7
100
AcDbMText
 10
681.0778062934
 20
140.70115389
 30
0.0
 40
6.35
 41
0.0
 71
     1
 72
     1
  1
Material
  7
SLDTEXTSTYLE0
  0
MTEXT
  5
A0
330
1F
100
AcDbEntity
  8
0
  6
CONTINUOUS
 62
     7
100
AcDbMText
 10
477.1618922863
 20
107.4616261826
 30
0.0
 40
7.9375
 41
0.0
 71
     1
 72
     1
  1
-
  7
SLDTEXTSTYLE0
  0
MTEXT
  5
A1
330
1F
100
AcDbEntity
  8
0
  6
CONTINUOUS
 62
     7
100
AcDbMText
 10
477.0237362736
 20
83.5474509131
 30
0.0
 40
7.9375
 41
0.0
 71
     1
 72
     1
  1
-
  7
SLDTEXTSTYLE0
  0
MTEXT
  5
A2
330
1F
100
AcDbEntity
  8
0
  6
CONTINUOUS
 62
     7
100
AcDbMText
 10
477.0372823768
 20
59.6442925191
 30
0.0
 40
7.9375
 41
0.0
 71
     1
 72
     1
  1
-
  7
SLDTEXTSTYLE0
  0
MTEXT
  5
A3
330
1F
100
AcDbEntity
  8
0
  6
CONTINUOUS
 62
     7
100
AcDbMText
 10
17.0536848884
 20
24.9898761898
 30
0.0
 40
6.35
 41
0.0
 71
     1
 72
     1
  1
© 2009 Martin Professional A/S
  7
SLDTEXTSTYLE0
  0
MTEXT
  5
A4
330
1F
100
AcDbEntity
  8
0
  6
CONTINUOUS
 62
     7
100
AcDbMText
 10
188.7511678407
 20
24.8075860607
 30
0.0
 40
6.35
 41
0.0
 71
     1
 72
     1
  1
Martin™ General Technical Specification apply to this item
  7
SLDTEXTSTYLE1
  0
MTEXT
  5
A5
330
1F
100
AcDbEntity
  8
0
  6
CONTINUOUS
 62
     7
100
AcDbMText
 10
137.7936013691
 20
24.9898761898
 30
0.0
 40
6.35
 41
0.0
 71
     1
 72
     1
  1
Confidential
  7
SLDTEXTSTYLE0
  0
MTEXT
  5
A6
330
1F
100
AcDbEntity
  8
0
  6
CONTINUOUS
 62
     7
100
AcDbMText
 10
780.0586586816
 20
212.8503841239
 30
0.0
 40
6.35
 41
0.0
 71
     1
 72
     1
  1
Approved by
  7
SLDTEXTSTYLE0
  0
LINE
  5
A7
330
1F
100
AcDbEntity
  8
0
  6
CONTINUOUS
 62
     7
100
AcDbLine
 10
134.2876487961
 20
332.8166451302
 30
0.0
 11
137.6876541963
 21
332.8166451302
 31
0.0
  0
LINE
  5
A8
330
1F
100
AcDbEntity
  8
0
  6
CONTINUOUS
 62
     7
100
AcDbLine
 10
137.6876541963
 20
340.8166464415
 30
0.0
 11
134.2876487961
 21
340.8166464415
 31
0.0
  0
LINE
  5
A9
330
1F
100
AcDbEntity
  8
0
  6
CONTINUOUS
 62
     7
100
AcDbLine
 10
386.2876528492
 20
340.8166464415
 30
0.0
 11
382.887647449
 21
340.8166464415
 31
0.0
  0
LINE
  5
AA
330
1F
100
AcDbEntity
  8
0
  6
CONTINUOUS
 62
     7
100
AcDbLine
 10
382.887647449
 20
332.8166451302
 30
0.0
 11
386.2876528492
 21
332.8166451302
 31
0.0
  0
LINE
  5
AB
330
1F
100
AcDbEntity
  8
0
  6
CONTINUOUS
 62
     7
100
AcDbLine
 10
112.6876556864
 20
328.8166444746
 30
0.0
 11
114.2876529684
 21
328.8166444746
 31
0.0
  0
LINE
  5
AC
330
1F
100
AcDbEntity
  8
0
  6
CONTINUOUS
 62
     7
100
AcDbLine
 10
406.2876486769
 20
328.8166444746
 30
0.0
 11
407.8876459589
 21
328.8166444746
 31
0.0
  0
ARC
  5
AD
330
1F
100
AcDbEntity
  8
0
  6
CONTINUOUS
 62
     7
100
AcDbCircle
 10
133.6876508227
 20
330.916647574
 30
0.0
 40
0.6000000000000796
100
AcDbArc
 50
270.0
 51
0.0
  0
LINE
  5
AE
330
1F
100
AcDbEntity
  8
0
  6
CONTINUOUS
 62
     7
100
AcDbLine
 10
132.287644743
 20
330.3166475144
 30
0.0
 11
133.6876535406
 21
330.3166475144
 31
0.0
  0
ARC
  5
AF
330
1F
100
AcDbEntity
  8
0
  6
CONTINUOUS
 62
     7
100
AcDbCircle
 10
133.6876508227
 20
342.716647574
 30
0.0
 40
0.6000000000000796
100
AcDbArc
 50
0.0
 51
90.0
  0
LINE
  5
B0
330
1F
100
AcDbEntity
  8
0
  6
CONTINUOUS
 62
     7
100
AcDbLine
 10
133.6876535406
 20
343.3166440573
 30
0.0
 11
132.6376581183
 21
343.3166440573
 31
0.0
  0
LINE
  5
B1
330
1F
100
AcDbEntity
  8
0
  6
CONTINUOUS
 62
     7
100
AcDbLine
 10
126.2876474848
 20
330.3166475144
 30
0.0
 11
126.4330381146
 21
330.0648253408
 31
0.0
  0
LINE
  5
B2
330
1F
100
AcDbEntity
  8
0
  6
CONTINUOUS
 62
     7
100
AcDbLine
 10
132.1422541132
 20
330.0648253408
 30
0.0
 11
132.287644743
 21
330.3166475144
 31
0.0
  0
ARC
  5
B3
330
1F
100
AcDbEntity
  8
0
  6
CONTINUOUS
 62
     7
100
AcDbCircle
 10
386.8876508227
 20
330.916647574
 30
0.0
 40
0.6000000000000796
100
AcDbArc
 50
180.0
 51
270.0
  0
LINE
  5
B4
330
1F
100
AcDbEntity
  8
0
  6
CONTINUOUS
 62
     7
100
AcDbLine
 10
386.8876481047
 20
330.3166475144
 30
0.0
 11
388.2876569023
 21
330.3166475144
 31
0.0
  0
LINE
  5
B5
330
1F
100
AcDbEntity
  8
0
  6
CONTINUOUS
 62
     7
100
AcDbLine
 10
388.2876569023
 20
330.3166475144
 30
0.0
 11
388.2951521864
 21
330.3036537018
 31
0.0
  0
ARC
  5
B6
330
1F
100
AcDbEntity
  8
0
  6
CONTINUOUS
 62
     7
100
AcDbCircle
 10
386.8876508227
 20
342.716647574
 30
0.0
 40
0.6000000000000227
100
AcDbArc
 50
90.0
 51
180.0
  0
LINE
  5
B7
330
1F
100
AcDbEntity
  8
0
  6
CONTINUOUS
 62
     7
100
AcDbLine
 10
387.9376435271
 20
343.3166440573
 30
0.0
 11
386.8876481047
 21
343.3166440573
 31
0.0
  0
LINE
  5
B8
330
1F
100
AcDbEntity
  8
0
  6
CONTINUOUS
 62
     7
100
AcDbLine
 10
397.287645339
 20
327.8166498986
 30
0.0
 11
402.7876490345
 21
327.8166498986
 31
0.0
  0
LINE
  5
B9
330
1F
100
AcDbEntity
  8
0
  6
CONTINUOUS
 62
     7
100
AcDbLine
 10
405.7876551142
 20
330.4166492072
 30
0.0
 11
406.2876486769
 21
330.4166492072
 31
0.0
  0
LINE
  5
BA
330
1F
100
AcDbEntity
  8
0
  6
CONTINUOUS
 62
     7
100
AcDbLine
 10
117.7876526108
 20
327.8166498986
 30
0.0
 11
123.2876563063
 21
327.8166498986
 31
0.0
  0
LINE
  5
BB
330
1F
100
AcDbEntity
  8
0
  6
CONTINUOUS
 62
     7
100
AcDbLine
 10
114.2876529684
 20
330.4166492072
 30
0.0
 11
114.7876465311
 21
330.4166492072
 31
0.0
  0
LINE
  5
BC
330
1F
100
AcDbEntity
  8
0
  6
CONTINUOUS
 62
     7
100
AcDbLine
 10
402.7876490345
 20
360.8166497198
 30
0.0
 11
397.287645339
 21
360.8166497198
 31
0.0
  0
LINE
  5
BD
330
1F
100
AcDbEntity
  8
0
  6
CONTINUOUS
 62
     7
100
AcDbLine
 10
397.287645339
 20
335.3166501966
 30
0.0
 11
402.7876490345
 21
335.3166501966
 31
0.0
  0
LINE
  5
BE
330
1F
100
AcDbEntity
  8
0
  6
CONTINUOUS
 62
     7
100
AcDbLine
 10
123.2876563063
 20
360.8166497198
 30
0.0
 11
117.7876526108
 21
360.8166497198
 31
0.0
  0
LINE
  5
BF
330
1F
100
AcDbEntity
  8
0
  6
CONTINUOUS
 62
     7
100
AcDbLine
 10
117.7876526108
 20
335.3166501966
 30
0.0
 11
123.2876563063
 21
335.3166501966
 31
0.0
  0
LINE
  5
C0
330
1F
100
AcDbEntity
  8
0
  6
CONTINUOUS
 62
     7
100
AcDbLine
 10
102.7876520148
 20
338.566645607
 30
0.0
 11
114.7876465311
 21
338.566645607
 31
0.0
  0
LINE
  5
C1
330
1F
100
AcDbEntity
  8
0
  6
CONTINUOUS
 62
     7
100
AcDbLine
 10
114.7876465311
 20
357.5666468587
 30
0.0
 11
102.7876520148
 21
357.5666468587
 31
0.0
  0
LINE
  5
C2
330
1F
100
AcDbEntity
  8
0
  6
CONTINUOUS
 62
     7
100
AcDbLine
 10
134.6021080008
 20
344.1811051217
 30
0.0
 11
134.78765726
 21
344.3666469303
 31
0.0
  0
LINE
  5
C3
330
1F
100
AcDbEntity
  8
0
  6
CONTINUOUS
 62
     7
100
AcDbLine
 10
117.7876526108
 20
344.1710691896
 30
0.0
 11
117.8880864373
 21
344.0707471219
 31
0.0
  0
LINE
  5
C4
330
1F
100
AcDbEntity
  8
0
  6
CONTINUOUS
 62
     7
100
AcDbLine
 10
126.2876474848
 20
344.0711792555
 30
0.0
 11
126.2880647173
 21
344.070762023
 31
0.0
  0
SPLINE
  5
C5
330
1F
100
AcDbEntity
  8
0
  6
CONTINUOUS
 62
     7
100
AcDbSpline
210
0.0
220
0.0
230
1.0
 70
     8
 71
     3
 72
     9
 73
     5
 74
     0
 42
0.00000001
 43
0.00000001
 40
0.0
 40
0.0
 40
0.0
 40
0.0
 40
0.4999780597233849
 40
1.0
 40
1.0
 40
1.0
 40
1.0
 10
132.9869115343397
 20
344.5713367310091
 30
0.0
 10
133.0704393423071
 20
344.4879169582583
 30
0.0
 10
133.2375022890565
 20
344.3210700914239
 30
0.0
 10
133.4045432448098
 20
344.154200486601
 30
0.0
 10
133.4880673876112
 20
344.0707620230242
 30
0.0
  0
SPLINE
  5
C6
330
1F
100
AcDbEntity
  8
0
  6
CONTINUOUS
 62
     7
100
AcDbSpline
210
0.0
220
0.0
230
1.0
 70
     8
 71
     3
 72
     9
 73
     5
 74
     0
 42
0.00000001
 43
0.00000001
 40
0.0
 40
0.0
 40
0.0
 40
0.0
 40
0.4999774142242864
 40
0.9999999999999999
 40
0.9999999999999999
 40
0.9999999999999999
 40
0.9999999999999999
 10
134.1869020452802
 20
344.5713367310091
 30
0.0
 10
134.2704348743199
 20
344.4879144208219
 30
0.0
 10
134.4375080793551
 20
344.3210622634767
 30
0.0
 10
134.6045586450567
 20
344.1541880150572
 30
0.0
 10
134.6880877008741
 20
344.070747121863
 30
0.0
  0
SPLINE
  5
C7
330
1F
100
AcDbEntity
  8
0
  6
CONTINUOUS
 62
     7
100
AcDbSpline
210
0.0
220
0.0
230
1.0
 70
     8
 71
     3
 72
     9
 73
     5
 74
     0
 42
0.00000001
 43
0.00000001
 40
0.0
 40
0.0
 40
0.0
 40
0.0
 40
0.5097240414513188
 40
0.9999999999999999
 40
0.9999999999999999
 40
0.9999999999999999
 40
0.9999999999999999
 10
134.0880775442427
 20
352.0625527945086
 30
0.0
 10
134.0045536745482
 20
351.9791116791554
 30
0.0
 10
133.8406927166529
 20
351.8154130725221
 30
0.0
 10
133.6768074435149
 20
351.6517382892197
 30
0.0
 10
133.5964584341352
 20
351.5714924779459
 30
0.0
  0
LINE
  5
C8
330
1F
100
AcDbEntity
  8
0
  6
CONTINUOUS
 62
     7
100
AcDbLine
 10
132.8880721321
 20
352.0625453439
 30
0.0
 11
132.6376581183
 21
351.8123921004
 31
0.0
  0
SPLINE
  5
C9
330
1F
100
AcDbEntity
  8
0
  6
CONTINUOUS
 62
     7
100
AcDbSpline
210
0.0
220
0.0
230
1.0
 70
     8
 71
     3
 72
     9
 73
     5
 74
     0
 42
0.00000001
 43
0.00000001
 40
0.0
 40
0.0
 40
0.0
 40
0.0
 40
0.5100442600293548
 40
1.0
 40
1.0
 40
1.0
 40
1.0
 10
132.5050228824919
 20
344.0709855404421
 30
0.0
 10
132.5885667881381
 20
344.1544362385802
 30
0.0
 10
132.7523641527854
 20
344.3180508592666
 30
0.0
 10
132.9161838678081
 20
344.4816457379865
 30
0.0
 10
132.9964482775038
 20
344.5617999878451
 30
0.0
  0
SPLINE
  5
CA
330
1F
100
AcDbEntity
  8
0
  6
CONTINUOUS
 62
     7
100
AcDbSpline
210
0.0
220
0.0
230
1.0
 70
     8
 71
     3
 72
     9
 73
     5
 74
     0
 42
0.00000001
 43
0.00000001
 40
0.0
 40
0.0
 40
0.0
 40
0.0
 40
0.5098740908855561
 40
1.0
 40
1.0
 40
1.0
 40
1.0
 10
133.7048941841429
 20
344.0708514299914
 30
0.0
 10
133.7884331838426
 20
344.1542972016726
 30
0.0
 10
133.9522755935534
 20
344.3179567662062
 30
0.0
 10
134.1161396634005
 20
344.4815961071152
 30
0.0
 10
134.1964536896055
 20
344.5617999878451
 30
0.0
  0
SPLINE
  5
CB
330
1F
100
AcDbEntity
  8
0
  6
CONTINUOUS
 62
     7
100
AcDbSpline
210
0.0
220
0.0
230
1.0
 70
     8
 71
     3
 72
     9
 73
     5
 74
     0
 42
0.00000001
 43
0.00000001
 40
0.0
 40
0.0
 40
0.0
 40
0.0
 40
0.4999836930210663
 40
1.0
 40
1.0
 40
1.0
 40
1.0
 10
133.6061888923948
 20
351.5617769208475
 30
0.0
 10
133.5226354775666
 20
351.645208641442
 30
0.0
 10
133.3555231977171
 20
351.8120775248858
 30
0.0
 10
133.1884421680786
 20
351.9789747836608
 30
0.0
 10
133.1048989286726
 20
352.0624261346384
 30
0.0
  0
LINE
  5
CC
330
1F
100
AcDbEntity
  8
0
  6
CONTINUOUS
 62
     7
100
AcDbLine
 10
126.4062160244
 20
351.5617396679
 30
0.0
 11
126.2876474848
 21
351.6801517454
 31
0.0
  0
LINE
  5
CD
330
1F
100
AcDbEntity
  8
0
  6
CONTINUOUS
 62
     7
100
AcDbLine
 10
118.006297349
 20
351.5616651621
 30
0.0
 11
117.7876526108
 21
351.7800193277
 31
0.0
  0
LINE
  5
CE
330
1F
100
AcDbEntity
  8
0
  6
CONTINUOUS
 62
     7
100
AcDbLine
 10
133.4963673344
 20
344.0666493025
 30
0.0
 11
133.6964750281
 21
344.0666493025
 31
0.0
  0
LINE
  5
CF
330
1F
100
AcDbEntity
  8
0
  6
CONTINUOUS
 62
     7
100
AcDbLine
 10
133.0967777958
 20
352.0666506138
 30
0.0
 11
132.8967744103
 21
352.0666506138
 31
0.0
  0
LINE
  5
D0
330
1F
100
AcDbEntity
  8
0
  6
CONTINUOUS
 62
     7
100
AcDbLine
 10
134.4876521817
 20
352.0666506138
 30
0.0
 11
134.0967798224
 21
352.0666506138
 31
0.0
  0
LINE
  5
D1
330
1F
100
AcDbEntity
  8
0
  6
CONTINUOUS
 62
     7
100
AcDbLine
 10
417.7876496306
 20
357.5666468587
 30
0.0
 11
405.7876551142
 21
357.5666468587
 31
0.0
  0
LINE
  5
D2
330
1F
100
AcDbEntity
  8
0
  6
CONTINUOUS
 62
     7
100
AcDbLine
 10
405.7876551142
 20
338.566645607
 30
0.0
 11
417.7876496306
 21
338.566645607
 31
0.0
  0
LINE
  5
D3
330
1F
100
AcDbEntity
  8
0
  6
CONTINUOUS
 62
     7
100
AcDbLine
 10
385.9692001334
 20
351.9482012835
 30
0.0
 11
385.7876443854
 21
351.7666455355
 31
0.0
  0
LINE
  5
D4
330
1F
100
AcDbEntity
  8
0
  6
CONTINUOUS
 62
     7
100
AcDbLine
 10
402.7876490345
 20
351.9676398483
 30
0.0
 11
402.6927137366
 21
352.0624633875
 31
0.0
  0
SPLINE
  5
D5
330
1F
100
AcDbEntity
  8
0
  6
CONTINUOUS
 62
     7
100
AcDbSpline
210
0.0
220
0.0
230
1.0
 70
     8
 71
     3
 72
     9
 73
     5
 74
     0
 42
0.00000001
 43
0.00000001
 40
0.0
 40
0.0
 40
0.0
 40
0.0
 40
0.4999807174103921
 40
1.0
 40
1.0
 40
1.0
 40
1.0
 10
387.593933342964
 20
351.5618439760729
 30
0.0
 10
387.5103958226468
 20
351.6452740822011
 30
0.0
 10
387.3433143384852
 20
351.8121407296996
 30
0.0
 10
387.1762521837875
 20
351.9790253233364
 30
0.0
 10
387.0927178850477
 20
352.062470838122
 30
0.0
  0
SPLINE
  5
D6
330
1F
100
AcDbEntity
  8
0
  6
CONTINUOUS
 62
     7
100
AcDbSpline
210
0.0
220
0.0
230
1.0
 70
     8
 71
     3
 72
     9
 73
     5
 74
     0
 42
0.00000001
 43
0.00000001
 40
0.0
 40
0.0
 40
0.0
 40
0.0
 40
0.4999844850672576
 40
1.0
 40
1.0
 40
1.0
 40
1.0
 10
386.3939428320234
 20
351.5618439760729
 30
0.0
 10
386.3103994176184
 20
351.6452706634437
 30
0.0
 10
386.1433074039659
 20
351.8121292157837
 30
0.0
 10
385.9762458445851
 20
351.9790169374543
 30
0.0
 10
385.892712472946
 20
352.0624633875414
 30
0.0
  0
SPLINE
  5
D7
330
1F
100
AcDbEntity
  8
0
  6
CONTINUOUS
 62
     7
100
AcDbSpline
210
0.0
220
0.0
230
1.0
 70
     8
 71
     3
 72
     9
 73
     5
 74
     0
 42
0.00000001
 43
0.00000001
 40
0.0
 40
0.0
 40
0.0
 40
0.0
 40
0.5097815374198044
 40
1.0
 40
1.0
 40
1.0
 40
1.0
 10
386.4927226295774
 20
344.0708290782496
 30
0.0
 10
386.5762566991467
 20
344.1542748251854
 30
0.0
 10
386.740119184226
 20
344.3179640544153
 30
0.0
 10
386.9040029110697
 20
344.4816333383355
 30
0.0
 10
386.9843417396849
 20
344.5618670430704
 30
0.0
  0
LINE
  5
D8
330
1F
100
AcDbEntity
  8
0
  6
CONTINUOUS
 62
     7
100
AcDbLine
 10
387.6927280417
 20
344.0708439794
 30
0.0
 11
387.9376435271
 21
344.3154912439
 31
0.0
  0
LINE
  5
D9
330
1F
100
AcDbEntity
  8
0
  6
CONTINUOUS
 62
     7
100
AcDbLine
 10
397.2927117338
 20
344.0708290782
 30
0.0
 11
397.3173880568
 21
344.0954755989
 31
0.0
  0
LINE
  5
DA
330
1F
100
AcDbEntity
  8
0
  6
CONTINUOUS
 62
     7
100
AcDbLine
 10
387.0844775429
 20
352.0666506138
 30
0.0
 11
386.8843698492
 21
352.0666506138
 31
0.0
  0
LINE
  5
DB
330
1F
100
AcDbEntity
  8
0
  6
CONTINUOUS
 62
     7
100
AcDbLine
 10
387.4841266861
 20
344.0666493025
 30
0.0
 11
387.6841002693
 21
344.0666493025
 31
0.0
  0
LINE
  5
DC
330
1F
100
AcDbEntity
  8
0
  6
CONTINUOUS
 62
     7
100
AcDbLine
 10
386.4598655691
 20
344.0666493025
 30
0.0
 11
386.4841246596
 21
344.0666493025
 31
0.0
  0
SPLINE
  5
DD
330
1F
100
AcDbEntity
  8
0
  6
CONTINUOUS
 62
     7
100
AcDbSpline
210
0.0
220
0.0
230
1.0
 70
     8
 71
     3
 72
     9
 73
     5
 74
     0
 42
0.00000001
 43
0.00000001
 40
0.0
 40
0.0
 40
0.0
 40
0.0
 40
0.5099010372254847
 40
1.0
 40
1.0
 40
1.0
 40
1.0
 10
388.0758666982954
 20
352.0623516288325
 30
0.0
 10
387.992327360579
 20
351.9789061746479
 30
0.0
 10
387.8284929464132
 20
351.8152558815665
 30
0.0
 10
387.6646407746061
 20
351.6516221465346
 30
0.0
 10
387.5843369951551
 20
351.5714254227206
 30
0.0
  0
SPLINE
  5
DE
330
1F
100
AcDbEntity
  8
0
  6
CONTINUOUS
 62
     7
100
AcDbSpline
210
0.0
220
0.0
230
1.0
 70
     8
 71
     3
 72
     9
 73
     5
 74
     0
 42
0.00000001
 43
0.00000001
 40
0.0
 40
0.0
 40
0.0
 40
0.0
 40
0.5099163267541665
 40
0.9999999999999999
 40
0.9999999999999999
 40
0.9999999999999999
 40
0.9999999999999999
 10
386.8758612861936
 20
352.0623516288325
 30
0.0
 10
386.7923219341631
 20
351.9789037006489
 30
0.0
 10
386.6284924044
 20
351.8152534627467
 30
0.0
 10
386.4646452832155
 20
351.651619671971
 30
0.0
 10
386.3843464842146
 20
351.5714254227206
 30
0.0
  0
SPLINE
  5
DF
330
1F
100
AcDbEntity
  8
0
  6
CONTINUOUS
 62
     7
100
AcDbSpline
210
0.0
220
0.0
230
1.0
 70
     8
 71
     3
 72
     9
 73
     5
 74
     0
 42
0.00000001
 43
0.00000001
 40
0.0
 40
0.0
 40
0.0
 40
0.0
 40
0.4999770700414098
 40
0.9999999999999999
 40
0.9999999999999999
 40
0.9999999999999999
 40
0.9999999999999999
 10
386.9746261825865
 20
344.5715676990076
 30
0.0
 10
387.058168974706
 20
344.4881379093534
 30
0.0
 10
387.2252622218277
 20
344.3212706775274
 30
0.0
 10
387.3923324818832
 20
344.1543817012659
 30
0.0
 10
387.4758714428251
 20
344.0709333863779
 30
0.0
  0
LINE
  5
E0
330
1F
100
AcDbEntity
  8
0
  6
CONTINUOUS
 62
     7
100
AcDbLine
 10
394.1746288529
 20
344.571567699
 30
0.0
 11
394.2876541605
 21
344.458691403
 31
0.0
  0
LINE
  5
E1
330
1F
100
AcDbEntity
  8
0
  6
CONTINUOUS
 62
     7
100
AcDbLine
 10
402.5746220341
 20
344.5715751496
 30
0.0
 11
402.7876490345
 21
344.3588238206
 31
0.0
  0
LINE
  5
E2
330
1F
100
AcDbEntity
  8
0
  6
CONTINUOUS
 62
     7
100
AcDbLine
 10
126.2876474848
 20
340.0666486469
 30
0.0
 11
132.6376581183
 21
340.0666486469
 31
0.0
  0
LINE
  5
E3
330
1F
100
AcDbEntity
  8
0
  6
CONTINUOUS
 62
     7
100
AcDbLine
 10
132.6376581183
 20
356.0666512695
 30
0.0
 11
126.2876474848
 21
356.0666512695
 31
0.0
  0
LINE
  5
E4
330
1F
100
AcDbEntity
  8
0
  6
CONTINUOUS
 62
     7
100
AcDbLine
 10
394.2876541605
 20
356.0666512695
 30
0.0
 11
387.9376435271
 21
356.0666512695
 31
0.0
  0
LINE
  5
E5
330
1F
100
AcDbEntity
  8
0
  6
CONTINUOUS
 62
     7
100
AcDbLine
 10
387.9376435271
 20
340.0666486469
 30
0.0
 11
394.2876541605
 21
340.0666486469
 31
0.0
  0
LINE
  5
E6
330
1F
100
AcDbEntity
  8
0
  6
CONTINUOUS
 62
     7
100
AcDbLine
 10
126.3332301369
 20
377.0751278844
 30
0.0
 11
123.3788067093
 21
377.5960724798
 31
0.0
  0
LINE
  5
E7
330
1F
100
AcDbEntity
  8
0
  6
CONTINUOUS
 62
     7
100
AcDbLine
 10
123.3788067093
 20
377.5960724798
 30
0.0
 11
150.3946492067
 21
530.810556933
 31
0.0
  0
LINE
  5
E8
330
1F
100
AcDbEntity
  8
0
  6
CONTINUOUS
 62
     7
100
AcDbLine
 10
150.3946492067
 20
530.810556933
 30
0.0
 11
153.3490726343
 21
530.2896123376
 31
0.0
  0
LINE
  5
E9
330
1F
100
AcDbEntity
  8
0
  6
CONTINUOUS
 62
     7
100
AcDbLine
 10
126.3332301369
 20
377.0751278844
 30
0.0
 11
153.3490726343
 21
530.2896123376
 31
0.0
  0
ARC
  5
EA
330
1F
100
AcDbEntity
  8
0
  6
CONTINUOUS
 62
     7
100
AcDbCircle
 10
391.2876508227
 20
376.5541815834
 30
0.0
 40
6.0
100
AcDbArc
 50
0.0
 51
10.0
  0
LINE
  5
EB
330
1F
100
AcDbEntity
  8
0
  6
CONTINUOUS
 62
     7
100
AcDbLine
 10
397.287645339
 20
376.5541832891
 30
0.0
 11
394.2876541605
 21
376.5541832891
 31
0.0
  0
ARC
  5
EC
330
1F
100
AcDbEntity
  8
0
  6
CONTINUOUS
 62
     7
100
AcDbCircle
 10
391.2876508227
 20
376.5541815834
 30
0.0
 40
3.0
100
AcDbArc
 50
0.0
 51
10.0
  0
LINE
  5
ED
330
1F
100
AcDbEntity
  8
0
  6
CONTINUOUS
 62
     7
100
AcDbLine
 10
394.2420715084
 20
377.0751278844
 30
0.0
 11
397.196494936
 21
377.5960724798
 31
0.0
  0
LINE
  5
EE
330
1F
100
AcDbEntity
  8
0
  6
CONTINUOUS
 62
     7
100
AcDbLine
 10
397.287645339
 20
334.5390778032
 30
0.0
 11
397.287645339
 21
376.5541832891
 31
0.0
  0
LINE
  5
EF
330
1F
100
AcDbEntity
  8
0
  6
CONTINUOUS
 62
     7
100
AcDbLine
 10
394.2876541605
 20
334.5390778032
 30
0.0
 11
397.287645339
 21
334.5390778032
 31
0.0
  0
LINE
  5
F0
330
1F
100
AcDbEntity
  8
0
  6
CONTINUOUS
 62
     7
100
AcDbLine
 10
394.2876541605
 20
334.5390778032
 30
0.0
 11
394.2876541605
 21
376.5541832891
 31
0.0
  0
LINE
  5
F1
330
1F
100
AcDbEntity
  8
0
  6
CONTINUOUS
 62
     7
100
AcDbLine
 10
370.1806524387
 20
530.810556933
 30
0.0
 11
367.2262290111
 21
530.2896123376
 31
0.0
  0
LINE
  5
F2
330
1F
100
AcDbEntity
  8
0
  6
CONTINUOUS
 62
     7
100
AcDbLine
 10
397.196494936
 20
377.5960724798
 30
0.0
 11
370.1806524387
 21
530.810556933
 31
0.0
  0
LINE
  5
F3
330
1F
100
AcDbEntity
  8
0
  6
CONTINUOUS
 62
     7
100
AcDbLine
 10
394.2420715084
 20
377.0751278844
 30
0.0
 11
367.2262290111
 21
530.2896123376
 31
0.0
  0
ARC
  5
F4
330
1F
100
AcDbEntity
  8
0
  6
CONTINUOUS
 62
     7
100
AcDbCircle
 10
129.2876508227
 20
376.5541815834
 30
0.0
 40
3.000000000000027
100
AcDbArc
 50
170.0
 51
180.0
  0
LINE
  5
F5
330
1F
100
AcDbEntity
  8
0
  6
CONTINUOUS
 62
     7
100
AcDbLine
 10
123.2876563063
 20
376.5541832891
 30
0.0
 11
126.2876474848
 21
376.5541832891
 31
0.0
  0
ARC
  5
F6
330
1F
100
AcDbEntity
  8
0
  6
CONTINUOUS
 62
     7
100
AcDbCircle
 10
129.2876508227
 20
376.5541815834
 30
0.0
 40
6.000000000000044
100
AcDbArc
 50
170.0
 51
180.0
  0
LINE
  5
F7
330
1F
100
AcDbEntity
  8
0
  6
CONTINUOUS
 62
     7
100
AcDbLine
 10
126.2876474848
 20
334.5390778032
 30
0.0
 11
123.2876563063
 21
334.5390778032
 31
0.0
  0
LINE
  5
F8
330
1F
100
AcDbEntity
  8
0
  6
CONTINUOUS
 62
     7
100
AcDbLine
 10
123.2876563063
 20
328.9410021153
 30
0.0
 11
126.2876474848
 21
328.9410021153
 31
0.0
  0
LINE
  5
F9
330
1F
100
AcDbEntity
  8
0
  6
CONTINUOUS
 62
     7
100
AcDbLine
 10
123.2876563063
 20
334.5390778032
 30
0.0
 11
123.2876563063
 21
328.9410021153
 31
0.0
  0
LINE
  5
FA
330
1F
100
AcDbEntity
  8
0
  6
CONTINUOUS
 62
     7
100
AcDbLine
 10
126.2876474848
 20
328.9410021153
 30
0.0
 11
126.2876474848
 21
334.5390778032
 31
0.0
  0
LINE
  5
FB
330
1F
100
AcDbEntity
  8
0
  6
CONTINUOUS
 62
     7
100
AcDbLine
 10
123.2876563063
 20
334.5390778032
 30
0.0
 11
123.2876563063
 21
376.5541832891
 31
0.0
  0
LINE
  5
FC
330
1F
100
AcDbEntity
  8
0
  6
CONTINUOUS
 62
     7
100
AcDbLine
 10
126.2876474848
 20
334.5390778032
 30
0.0
 11
126.2876474848
 21
376.5541832891
 31
0.0
  0
LINE
  5
FD
330
1F
100
AcDbEntity
  8
0
  6
CONTINUOUS
 62
     7
100
AcDbLine
 10
173.0452337852
 20
546.8166392293
 30
0.0
 11
173.0452337852
 21
549.8166602102
 31
0.0
  0
LINE
  5
FE
330
1F
100
AcDbEntity
  8
0
  6
CONTINUOUS
 62
     7
100
AcDbLine
 10
347.5300678602
 20
546.8166392293
 30
0.0
 11
347.5300678602
 21
549.8166602102
 31
0.0
  0
LINE
  5
FF
330
1F
100
AcDbEntity
  8
0
  6
CONTINUOUS
 62
     7
100
AcDbLine
 10
347.5300678602
 20
546.8166392293
 30
0.0
 11
173.0452337852
 21
546.8166392293
 31
0.0
  0
LINE
  5
100
330
1F
100
AcDbEntity
  8
0
  6
CONTINUOUS
 62
     7
100
AcDbLine
 10
347.5300678602
 20
549.8166602102
 30
0.0
 11
173.0452337852
 21
549.8166602102
 31
0.0
  0
ARC
  5
101
330
1F
100
AcDbEntity
  8
0
  6
CONTINUOUS
 62
     7
100
AcDbCircle
 10
173.0452301667
 20
526.816647574
 30
0.0
 40
20.0
100
AcDbArc
 50
90.0
 51
170.0
  0
ARC
  5
102
330
1F
100
AcDbEntity
  8
0
  6
CONTINUOUS
 62
     7
100
AcDbCircle
 10
173.0452301667
 20
526.816647574
 30
0.0
 40
22.99999999999997
100
AcDbArc
 50
90.0
 51
170.0
  0
LINE
  5
103
330
1F
100
AcDbEntity
  8
0
  6
CONTINUOUS
 62
     7
100
AcDbLine
 10
397.287645339
 20
328.9410021153
 30
0.0
 11
394.2876541605
 21
328.9410021153
 31
0.0
  0
LINE
  5
104
330
1F
100
AcDbEntity
  8
0
  6
CONTINUOUS
 62
     7
100
AcDbLine
 10
394.2876541605
 20
328.9410021153
 30
0.0
 11
394.2876541605
 21
334.5390778032
 31
0.0
  0
LINE
  5
105
330
1F
100
AcDbEntity
  8
0
  6
CONTINUOUS
 62
     7
100
AcDbLine
 10
397.287645339
 20
334.5390778032
 30
0.0
 11
397.287645339
 21
328.9410021153
 31
0.0
  0
ARC
  5
106
330
1F
100
AcDbEntity
  8
0
  6
CONTINUOUS
 62
     7
100
AcDbCircle
 10
347.5300714787
 20
526.816647574
 30
0.0
 40
23.0
100
AcDbArc
 50
10.0
 51
90.0
  0
ARC
  5
107
330
1F
100
AcDbEntity
  8
0
  6
CONTINUOUS
 62
     7
100
AcDbCircle
 10
347.5300714787
 20
526.816647574
 30
0.0
 40
20.0
100
AcDbArc
 50
10.0
 51
90.0
  0
LINE
  5
108
330
1F
100
AcDbEntity
  8
0
  6
CONTINUOUS
 62
     7
100
AcDbLine
 10
126.2876474848
 20
319.414727017
 30
0.0
 11
123.2876563063
 21
319.414727017
 31
0.0
  0
LINE
  5
109
330
1F
100
AcDbEntity
  8
0
  6
CONTINUOUS
 62
     7
100
AcDbLine
 10
123.2876563063
 20
328.9410021153
 30
0.0
 11
123.2876563063
 21
319.414727017
 31
0.0
  0
LINE
  5
10A
330
1F
100
AcDbEntity
  8
0
  6
CONTINUOUS
 62
     7
100
AcDbLine
 10
126.2876474848
 20
328.9410021153
 30
0.0
 11
126.2876474848
 21
319.414727017
 31
0.0
  0
LINE
  5
10B
330
1F
100
AcDbEntity
  8
0
  6
CONTINUOUS
 62
     7
100
AcDbLine
 10
394.2876541605
 20
319.414727017
 30
0.0
 11
397.287645339
 21
319.414727017
 31
0.0
  0
LINE
  5
10C
330
1F
100
AcDbEntity
  8
0
  6
CONTINUOUS
 62
     7
100
AcDbLine
 10
397.287645339
 20
328.9410021153
 30
0.0
 11
397.287645339
 21
319.414727017
 31
0.0
  0
LINE
  5
10D
330
1F
100
AcDbEntity
  8
0
  6
CONTINUOUS
 62
     7
100
AcDbLine
 10
394.2876541605
 20
328.9410021153
 30
0.0
 11
394.2876541605
 21
319.414727017
 31
0.0
  0
LINE
  5
10E
330
1F
100
AcDbEntity
  8
0
  6
CONTINUOUS
 62
     7
100
AcDbLine
 10
123.2876563063
 20
316.8166462329
 30
0.0
 11
126.2876474848
 21
316.8166462329
 31
0.0
  0
LINE
  5
10F
330
1F
100
AcDbEntity
  8
0
  6
CONTINUOUS
 62
     7
100
AcDbLine
 10
123.2876563063
 20
319.414727017
 30
0.0
 11
123.2876563063
 21
316.8166462329
 31
0.0
  0
LINE
  5
110
330
1F
100
AcDbEntity
  8
0
  6
CONTINUOUS
 62
     7
100
AcDbLine
 10
126.2876474848
 20
316.8166462329
 30
0.0
 11
126.2876474848
 21
319.414727017
 31
0.0
  0
LINE
  5
111
330
1F
100
AcDbEntity
  8
0
  6
CONTINUOUS
 62
     7
100
AcDbLine
 10
397.287645339
 20
316.8166462329
 30
0.0
 11
394.2876541605
 21
316.8166462329
 31
0.0
  0
LINE
  5
112
330
1F
100
AcDbEntity
  8
0
  6
CONTINUOUS
 62
     7
100
AcDbLine
 10
397.287645339
 20
319.414727017
 30
0.0
 11
397.287645339
 21
316.8166462329
 31
0.0
  0
LINE
  5
113
330
1F
100
AcDbEntity
  8
0
  6
CONTINUOUS
 62
     7
100
AcDbLine
 10
394.2876541605
 20
316.8166462329
 30
0.0
 11
394.2876541605
 21
319.414727017
 31
0.0
  0
LINE
  5
114
330
1F
100
AcDbEntity
  8
0
  6
CONTINUOUS
 62
     7
100
AcDbLine
 10
106.6876435271
 20
333.2245495167
 30
0.0
 11
112.6876556864
 21
333.2245495167
 31
0.0
  0
LINE
  5
115
330
1F
100
AcDbEntity
  8
0
  6
CONTINUOUS
 62
     7
100
AcDbLine
 10
106.6876435271
 20
333.2245495167
 30
0.0
 11
106.6876435271
 21
338.566645607
 31
0.0
  0
LINE
  5
116
330
1F
100
AcDbEntity
  8
0
  6
CONTINUOUS
 62
     7
100
AcDbLine
 10
106.6876435271
 20
329.3703641739
 30
0.0
 11
112.6876556864
 21
329.3703641739
 31
0.0
  0
LINE
  5
117
330
1F
100
AcDbEntity
  8
0
  6
CONTINUOUS
 62
     7
100
AcDbLine
 10
106.6876435271
 20
329.3703641739
 30
0.0
 11
106.6876435271
 21
333.2245495167
 31
0.0
  0
LINE
  5
118
330
1F
100
AcDbEntity
  8
0
  6
CONTINUOUS
 62
     7
100
AcDbLine
 10
137.6876541963
 20
340.8166464415
 30
0.0
 11
137.6876541963
 21
332.8166451302
 31
0.0
  0
LINE
  5
119
330
1F
100
AcDbEntity
  8
0
  6
CONTINUOUS
 62
     7
100
AcDbLine
 10
413.8876581183
 20
332.7687453476
 30
0.0
 11
407.8876459589
 21
332.7687453476
 31
0.0
  0
LINE
  5
11A
330
1F
100
AcDbEntity
  8
0
  6
CONTINUOUS
 62
     7
100
AcDbLine
 10
413.8876581183
 20
338.566645607
 30
0.0
 11
413.8876581183
 21
332.7687453476
 31
0.0
  0
LINE
  5
11B
330
1F
100
AcDbEntity
  8
0
  6
CONTINUOUS
 62
     7
100
AcDbLine
 10
413.8876581183
 20
329.3785151091
 30
0.0
 11
407.8876459589
 21
329.3785151091
 31
0.0
  0
LINE
  5
11C
330
1F
100
AcDbEntity
  8
0
  6
CONTINUOUS
 62
     7
100
AcDbLine
 10
413.8876581183
 20
332.7687453476
 30
0.0
 11
413.8876581183
 21
329.3785151091
 31
0.0
  0
LINE
  5
11D
330
1F
100
AcDbEntity
  8
0
  6
CONTINUOUS
 62
     7
100
AcDbLine
 10
382.887647449
 20
338.5987874117
 30
0.0
 11
382.887647449
 21
340.8166464415
 31
0.0
  0
LINE
  5
11E
330
1F
100
AcDbEntity
  8
0
  6
CONTINUOUS
 62
     7
100
AcDbLine
 10
382.887647449
 20
332.8166451302
 30
0.0
 11
382.887647449
 21
338.5987874117
 31
0.0
  0
LINE
  5
11F
330
1F
100
AcDbEntity
  8
0
  6
CONTINUOUS
 62
     7
100
AcDbLine
 10
114.2876529684
 20
335.1073559371
 30
0.0
 11
114.2876529684
 21
338.566645607
 31
0.0
  0
LINE
  5
120
330
1F
100
AcDbEntity
  8
0
  6
CONTINUOUS
 62
     7
100
AcDbLine
 10
114.2876529684
 20
328.8166444746
 30
0.0
 11
114.2876529684
 21
335.1073559371
 31
0.0
  0
LINE
  5
121
330
1F
100
AcDbEntity
  8
0
  6
CONTINUOUS
 62
     7
100
AcDbLine
 10
112.6876556864
 20
335.1073559371
 30
0.0
 11
112.6876556864
 21
338.566645607
 31
0.0
  0
LINE
  5
122
330
1F
100
AcDbEntity
  8
0
  6
CONTINUOUS
 62
     7
100
AcDbLine
 10
112.6876556864
 20
328.8166444746
 30
0.0
 11
112.6876556864
 21
335.1073559371
 31
0.0
  0
LINE
  5
123
330
1F
100
AcDbEntity
  8
0
  6
CONTINUOUS
 62
     7
100
AcDbLine
 10
407.8876459589
 20
331.2611948696
 30
0.0
 11
407.8876459589
 21
338.566645607
 31
0.0
  0
LINE
  5
124
330
1F
100
AcDbEntity
  8
0
  6
CONTINUOUS
 62
     7
100
AcDbLine
 10
407.8876459589
 20
328.8166444746
 30
0.0
 11
407.8876459589
 21
331.2611948696
 31
0.0
  0
LINE
  5
125
330
1F
100
AcDbEntity
  8
0
  6
CONTINUOUS
 62
     7
100
AcDbLine
 10
406.2876486769
 20
331.2611948696
 30
0.0
 11
406.2876486769
 21
338.566645607
 31
0.0
  0
LINE
  5
126
330
1F
100
AcDbEntity
  8
0
  6
CONTINUOUS
 62
     7
100
AcDbLine
 10
406.2876486769
 20
328.8166444746
 30
0.0
 11
406.2876486769
 21
331.2611948696
 31
0.0
  0
LINE
  5
127
330
1F
100
AcDbEntity
  8
0
  6
CONTINUOUS
 62
     7
100
AcDbLine
 10
126.8682116261
 20
329.6085964885
 30
0.0
 11
126.2876474848
 21
332.3165621605
 31
0.0
  0
LINE
  5
128
330
1F
100
AcDbEntity
  8
0
  6
CONTINUOUS
 62
     7
100
AcDbLine
 10
126.2876474848
 20
332.3165621605
 30
0.0
 11
126.8682116261
 21
335.0245278326
 31
0.0
  0
LINE
  5
129
330
1F
100
AcDbEntity
  8
0
  6
CONTINUOUS
 62
     7
100
AcDbLine
 10
126.8682116261
 20
335.0245278326
 30
0.0
 11
131.7070955029
 21
335.0245278326
 31
0.0
  0
LINE
  5
12A
330
1F
100
AcDbEntity
  8
0
  6
CONTINUOUS
 62
     7
100
AcDbLine
 10
131.7070955029
 20
335.0245278326
 30
0.0
 11
132.287644743
 21
332.3165621605
 31
0.0
  0
LINE
  5
12B
330
1F
100
AcDbEntity
  8
0
  6
CONTINUOUS
 62
     7
100
AcDbLine
 10
132.287644743
 20
332.3165621605
 30
0.0
 11
131.7070955029
 21
329.6085964885
 31
0.0
  0
LINE
  5
12C
330
1F
100
AcDbEntity
  8
0
  6
CONTINUOUS
 62
     7
100
AcDbLine
 10
126.8682116261
 20
329.6085964885
 30
0.0
 11
131.7070955029
 21
329.6085964885
 31
0.0
  0
LWPOLYLINE
  5
12D
330
1F
100
AcDbEntity
  8
0
  6
CONTINUOUS
 62
     7
100
AcDbPolyline
 90
        9
 70
   128
 43
0.0
 10
133.6876535406
 20
338.6285524812
 10
133.8047021618
 20
338.6253338304
 10
133.9172655335
 20
338.615819439
 10
134.0209925165
 20
338.6003669348
 10
134.1119194022
 20
338.5795649138
 10
134.1865295163
 20
338.5542180386
 10
134.2419767371
 20
338.5253023353
 10
134.2761152973
 20
338.4939279404
 10
134.2876487961
 20
338.461301848
  0
SPLINE
  5
12E
330
1F
100
AcDbEntity
  8
0
  6
CONTINUOUS
 62
     7
100
AcDbSpline
210
0.0
220
0.0
230
1.0
 70
    24
 71
     3
 72
    14
 73
    10
 74
     0
 42
0.00000001
 43
0.00000001
 40
0.0
 40
0.0
 40
0.0
 40
0.0
 40
0.2029784792154573
 40
0.3122447358952126
 40
0.4238301941969042
 40
0.5354157324022725
 40
0.6446824701086826
 40
0.8476603359797893
 40
1.0
 40
1.0
 40
1.0
 40
1.0
 10
134.2876487961119
 20
338.4613018479868
 30
0.0
 10
134.2876487961119
 20
337.726626860591
 30
0.0
 10
134.2876487961119
 20
336.5964656814605
 30
0.0
 10
134.2876487961118
 20
335.0716431392724
 30
0.0
 10
134.2876487961119
 20
333.9534885545193
 30
0.0
 10
134.2876487961119
 20
332.951751825219
 30
0.0
 10
134.2876487961119
 20
331.8950279645932
 30
0.0
 10
134.2876487961119
 20
331.0410186761024
 30
0.0
 10
134.2876487961119
 20
331.0086220919335
 30
0.0
 10
134.2876487961119
 20
330.994732305102
 30
0.0
  0
LINE
  5
12F
330
1F
100
AcDbEntity
  8
0
  6
CONTINUOUS
 62
     7
100
AcDbLine
 10
132.287644743
 20
332.3165621605
 30
0.0
 11
132.287644743
 21
338.6285524812
 31
0.0
  0
LINE
  5
130
330
1F
100
AcDbEntity
  8
0
  6
CONTINUOUS
 62
     7
100
AcDbLine
 10
132.287644743
 20
338.6285524812
 30
0.0
 11
133.6876535406
 21
338.6285524812
 31
0.0
  0
LINE
  5
131
330
1F
100
AcDbEntity
  8
0
  6
CONTINUOUS
 62
     7
100
AcDbLine
 10
132.287644743
 20
330.3166475144
 30
0.0
 11
132.287644743
 21
332.3165621605
 31
0.0
  0
LINE
  5
132
330
1F
100
AcDbEntity
  8
0
  6
CONTINUOUS
 62
     7
100
AcDbLine
 10
126.8682116261
 20
335.0245278326
 30
0.0
 11
126.2876474848
 21
338.6285524812
 31
0.0
  0
LINE
  5
133
330
1F
100
AcDbEntity
  8
0
  6
CONTINUOUS
 62
     7
100
AcDbLine
 10
132.287644743
 20
338.6285524812
 30
0.0
 11
131.7070955029
 21
335.0245278326
 31
0.0
  0
LINE
  5
134
330
1F
100
AcDbEntity
  8
0
  6
CONTINUOUS
 62
     7
100
AcDbLine
 10
126.2876474848
 20
338.6285524812
 30
0.0
 11
126.5193009367
 21
340.0666486469
 31
0.0
  0
LINE
  5
135
330
1F
100
AcDbEntity
  8
0
  6
CONTINUOUS
 62
     7
100
AcDbLine
 10
132.0559912911
 20
340.0666486469
 30
0.0
 11
132.287644743
 21
338.6285524812
 31
0.0
  0
SPLINE
  5
136
330
1F
100
AcDbEntity
  8
0
  6
CONTINUOUS
 62
     7
100
AcDbSpline
210
0.0
220
0.0
230
1.0
 70
    24
 71
     3
 72
    13
 73
     9
 74
     0
 42
0.00000001
 43
0.00000001
 40
0.0
 40
0.0
 40
0.0
 40
0.0
 40
0.0728271335428181
 40
0.2299728242588037
 40
0.3904535168743427
 40
0.5509340037890742
 40
0.7080797429124979
 40
1.0
 40
1.0
 40
1.0
 40
1.0
 10
134.2876487961119
 20
342.6385667171999
 30
0.0
 10
134.2876487961119
 20
342.6637278420276
 30
0.0
 10
134.2876487961119
 20
342.7431814008407
 30
0.0
 10
134.2876487961119
 20
342.4766790491613
 30
0.0
 10
134.2876487961119
 20
342.0285528492033
 30
0.0
 10
134.2876487961119
 20
341.3278127654227
 30
0.0
 10
134.2876487961119
 20
340.2153382412232
 30
0.0
 10
134.2876487961119
 20
339.1523251329332
 30
0.0
 10
134.2876487961119
 20
338.4613018479868
 30
0.0
  0
LINE
  5
137
330
1F
100
AcDbEntity
  8
0
  6
CONTINUOUS
 62
     7
100
AcDbLine
 10
132.287644743
 20
338.6285524812
 30
0.0
 11
132.287644743
 21
340.0666486469
 31
0.0
  0
LINE
  5
138
330
1F
100
AcDbEntity
  8
0
  6
CONTINUOUS
 62
     7
100
AcDbLine
 10
126.5346193304
 20
330.1234688607
 30
0.0
 11
126.8682116261
 21
329.6085964885
 31
0.0
  0
LINE
  5
139
330
1F
100
AcDbEntity
  8
0
  6
CONTINUOUS
 62
     7
100
AcDbLine
 10
131.7070955029
 20
329.6085964885
 30
0.0
 11
132.0406877985
 21
330.1234688607
 31
0.0
  0
LINE
  5
13A
330
1F
100
AcDbEntity
  8
0
  6
CONTINUOUS
 62
     7
100
AcDbLine
 10
394.2017042628
 20
340.2024801817
 30
0.0
 11
394.2876541605
 21
339.7047739473
 31
0.0
  0
LINE
  5
13B
330
1F
100
AcDbEntity
  8
0
  6
CONTINUOUS
 62
     7
100
AcDbLine
 10
394.2876541605
 20
339.7047739473
 30
0.0
 11
393.7070900193
 21
336.3427963105
 31
0.0
  0
LINE
  5
13C
330
1F
100
AcDbEntity
  8
0
  6
CONTINUOUS
 62
     7
100
AcDbLine
 10
393.7070900193
 20
336.3427963105
 30
0.0
 11
388.8682061425
 21
336.3427963105
 31
0.0
  0
LINE
  5
13D
330
1F
100
AcDbEntity
  8
0
  6
CONTINUOUS
 62
     7
100
AcDbLine
 10
388.8682061425
 20
336.3427963105
 30
0.0
 11
388.2876569023
 21
339.7047739473
 31
0.0
  0
LINE
  5
13E
330
1F
100
AcDbEntity
  8
0
  6
CONTINUOUS
 62
     7
100
AcDbLine
 10
388.2876569023
 20
339.7047739473
 30
0.0
 11
388.3501374712
 21
340.0666486469
 31
0.0
  0
LINE
  5
13F
330
1F
100
AcDbEntity
  8
0
  6
CONTINUOUS
 62
     7
100
AcDbLine
 10
393.7070900193
 20
336.3427963105
 30
0.0
 11
394.2876541605
 21
333.2177396861
 31
0.0
  0
LINE
  5
140
330
1F
100
AcDbEntity
  8
0
  6
CONTINUOUS
 62
     7
100
AcDbLine
 10
388.2876569023
 20
333.2177396861
 30
0.0
 11
388.8682061425
 21
336.3427963105
 31
0.0
  0
LINE
  5
141
330
1F
100
AcDbEntity
  8
0
  6
CONTINUOUS
 62
     7
100
AcDbLine
 10
388.2876569023
 20
339.7047739473
 30
0.0
 11
388.2876569023
 21
333.2177396861
 31
0.0
  0
LINE
  5
142
330
1F
100
AcDbEntity
  8
0
  6
CONTINUOUS
 62
     7
100
AcDbLine
 10
394.2876541605
 20
333.2177396861
 30
0.0
 11
393.7070900193
 21
330.0926905122
 31
0.0
  0
LINE
  5
143
330
1F
100
AcDbEntity
  8
0
  6
CONTINUOUS
 62
     7
100
AcDbLine
 10
393.7070900193
 20
330.0926905122
 30
0.0
 11
388.8682061425
 21
330.0926905122
 31
0.0
  0
LINE
  5
144
330
1F
100
AcDbEntity
  8
0
  6
CONTINUOUS
 62
     7
100
AcDbLine
 10
388.8682061425
 20
330.0926905122
 30
0.0
 11
388.2876569023
 21
333.2177396861
 31
0.0
  0
LINE
  5
145
330
1F
100
AcDbEntity
  8
0
  6
CONTINUOUS
 62
     7
100
AcDbLine
 10
386.2876528492
 20
330.9744220224
 30
0.0
 11
386.2876528492
 21
342.7048768845
 31
0.0
  0
ARC
  5
146
330
1F
100
AcDbEntity
  8
0
  6
CONTINUOUS
 62
     7
100
AcDbCircle
 10
386.8870513463
 20
342.7042815515
 30
0.0
 40
0.5993987926753361
100
AcDbArc
 50
89.9429565988
 51
179.9430928518
  0
LINE
  5
147
330
1F
100
AcDbEntity
  8
0
  6
CONTINUOUS
 62
     7
100
AcDbLine
 10
388.2876569023
 20
333.2177396861
 30
0.0
 11
388.2876569023
 21
330.3166475144
 31
0.0
  0
LINE
  5
148
330
1F
100
AcDbEntity
  8
0
  6
CONTINUOUS
 62
     7
100
AcDbLine
 10
388.2876569023
 20
340.0666486469
 30
0.0
 11
388.2876569023
 21
339.7047739473
 31
0.0
  0
LINE
  5
149
330
1F
100
AcDbEntity
  8
0
  6
CONTINUOUS
 62
     7
100
AcDbLine
 10
388.2876569023
 20
330.3296115246
 30
0.0
 11
388.8682061425
 21
330.0926905122
 31
0.0
  0
LINE
  5
14A
330
1F
100
AcDbEntity
  8
0
  6
CONTINUOUS
 62
     7
100
AcDbLine
 10
393.7070900193
 20
330.0926905122
 30
0.0
 11
394.2253524056
 21
330.3041901436
 31
0.0
  0
LINE
  5
14B
330
1F
100
AcDbEntity
  8
0
  6
CONTINUOUS
 62
     7
100
AcDbLine
 10
102.7876520148
 20
345.4212244597
 30
0.0
 11
88.2876449814
 21
345.9507521239
 31
0.0
  0
LINE
  5
14C
330
1F
100
AcDbEntity
  8
0
  6
CONTINUOUS
 62
     7
100
AcDbLine
 10
102.7876520148
 20
320.0030472127
 30
0.0
 11
88.2876449814
 21
320.8773802963
 31
0.0
  0
LINE
  5
14D
330
1F
100
AcDbEntity
  8
0
  6
CONTINUOUS
 62
     7
100
AcDbLine
 10
88.2876449814
 20
320.8773802963
 30
0.0
 11
88.2876449814
 21
345.9507521239
 31
0.0
  0
LINE
  5
14E
330
1F
100
AcDbEntity
  8
0
  6
CONTINUOUS
 62
     7
100
AcDbLine
 10
102.7876520148
 20
320.0030472127
 30
0.0
 11
102.7876520148
 21
345.4212244597
 31
0.0
  0
SPLINE
  5
14F
330
1F
100
AcDbEntity
  8
0
  6
CONTINUOUS
 62
     7
100
AcDbSpline
210
0.0
220
0.0
230
1.0
 70
     8
 71
     3
 72
    16
 73
    12
 74
     0
 42
0.00000001
 43
0.00000001
 40
0.0
 40
0.0
 40
0.0
 40
0.0
 40
0.3029771449529005
 40
0.5491713792709052
 40
0.7391476917081692
 40
0.8741770019760372
 40
0.9175535448275391
 40
0.9515150554551188
 40
0.9697410219709917
 40
0.9854330084725385
 40
1.0
 40
1.0
 40
1.0
 40
1.0
 10
84.91272568610363
 20
338.7587439265772
 30
0.0
 10
84.98227619754208
 20
336.8749580275527
 30
0.0
 10
85.10834230824358
 20
333.460438755549
 30
0.0
 10
85.48035209450258
 20
328.8718550752741
 30
0.0
 10
85.97568412678318
 20
325.3500874245337
 30
0.0
 10
86.51290642350985
 20
323.1009397542894
 30
0.0
 10
87.05084324432488
 20
321.8777981390554
 30
0.0
 10
87.38527003697266
 20
321.3654185791139
 30
0.0
 10
87.70573945518271
 20
321.0664699600612
 30
0.0
 10
87.98873011882456
 20
320.9068502843675
 30
0.0
 10
88.19050731068792
 20
320.8869570900695
 30
0.0
 10
88.2876449814146
 20
320.8773802962824
 30
0.0
  0
SPLINE
  5
150
330
1F
100
AcDbEntity
  8
0
  6
CONTINUOUS
 62
     7
100
AcDbSpline
210
0.0
220
0.0
230
1.0
 70
     8
 71
     3
 72
    12
 73
     8
 74
     0
 42
0.00000001
 43
0.00000001
 40
0.0
 40
0.0
 40
0.0
 40
0.0
 40
0.2244822288746038
 40
0.4501395647470021
 40
0.6851246040341364
 40
0.9262651521724422
 40
1.0
 40
1.0
 40
1.0
 40
1.0
 10
84.91272568610361
 20
347.3422970619723
 30
0.0
 10
84.98019967272914
 20
346.2682590284489
 30
0.0
 10
85.11550085502594
 20
344.1145606472645
 30
0.0
 10
85.31638910270398
 20
341.3290665894509
 30
0.0
 10
85.36069504481281
 20
339.3148055501479
 30
0.0
 10
85.24671661970616
 20
338.267189676913
 30
0.0
 10
85.14933220308062
 20
338.3701388572986
 30
0.0
 10
85.12652754691295
 20
338.3942466226145
 30
0.0
  0
SPLINE
  5
151
330
1F
100
AcDbEntity
  8
0
  6
CONTINUOUS
 62
     7
100
AcDbSpline
210
0.0
220
0.0
230
1.0
 70
     8
 71
     3
 72
    16
 73
    12
 74
     0
 42
0.00000001
 43
0.00000001
 40
0.0
 40
0.0
 40
0.0
 40
0.0
 40
0.0145669678781103
 40
0.0302589110427883
 40
0.0484850950150248
 40
0.0824465808888529
 40
0.125823201288611
 40
0.2608523692369835
 40
0.4508285003152124
 40
0.6970228732453557
 40
1.0
 40
1.0
 40
1.0
 40
1.0
 10
88.2876449814146
 20
345.9507521238848
 30
0.0
 10
88.19050740439872
 20
345.951497242271
 30
0.0
 10
87.98873052629811
 20
345.9530450229179
 30
0.0
 10
87.70573686936334
 20
345.9654657728498
 30
0.0
 10
87.38527350350232
 20
345.98872785122
 30
0.0
 10
87.05084156589558
 20
346.0286074888485
 30
0.0
 10
86.51290899095761
 20
346.1237834919799
 30
0.0
 10
85.9756828262064
 20
346.2988223032029
 30
0.0
 10
85.48035217814592
 20
346.5728875661458
 30
0.0
 10
85.10834234337314
 20
346.9299823131528
 30
0.0
 10
84.98227619751208
 20
347.1957006420052
 30
0.0
 10
84.91272568610363
 20
347.3422970619723
 30
0.0
  0
LINE
  5
152
330
1F
100
AcDbEntity
  8
0
  6
CONTINUOUS
 62
     7
100
AcDbLine
 10
102.7876520148
 20
353.52143608
 30
0.0
 11
88.2876449814
 21
352.9258366671
 31
0.0
  0
LINE
  5
153
330
1F
100
AcDbEntity
  8
0
  6
CONTINUOUS
 62
     7
100
AcDbLine
 10
88.2876449814
 20
345.9507521239
 30
0.0
 11
88.2876449814
 21
352.9258366671
 31
0.0
  0
LINE
  5
154
330
1F
100
AcDbEntity
  8
0
  6
CONTINUOUS
 62
     7
100
AcDbLine
 10
102.7876520148
 20
345.4212244597
 30
0.0
 11
102.7876520148
 21
353.52143608
 31
0.0
  0
LINE
  5
155
330
1F
100
AcDbEntity
  8
0
  6
CONTINUOUS
 62
     7
100
AcDbLine
 10
102.7876520148
 20
375.0601705161
 30
0.0
 11
88.2876449814
 21
374.172396585
 31
0.0
  0
LINE
  5
156
330
1F
100
AcDbEntity
  8
0
  6
CONTINUOUS
 62
     7
100
AcDbLine
 10
88.2876449814
 20
352.9258366671
 30
0.0
 11
88.2876449814
 21
374.172396585
 31
0.0
  0
LINE
  5
157
330
1F
100
AcDbEntity
  8
0
  6
CONTINUOUS
 62
     7
100
AcDbLine
 10
102.7876520148
 20
353.52143608
 30
0.0
 11
102.7876520148
 21
375.0601705161
 31
0.0
  0
LINE
  5
158
330
1F
100
AcDbEntity
  8
0
  6
CONTINUOUS
 62
     7
100
AcDbLine
 10
84.9127256861
 20
349.7301336375
 30
0.0
 11
84.9127256861
 21
347.342297062
 31
0.0
  0
SPLINE
  5
159
330
1F
100
AcDbEntity
  8
0
  6
CONTINUOUS
 62
     7
100
AcDbSpline
210
0.0
220
0.0
230
1.0
 70
     8
 71
     3
 72
    16
 73
    12
 74
     0
 42
0.00000001
 43
0.00000001
 40
0.0
 40
0.0
 40
0.0
 40
0.0
 40
0.0145669673888767
 40
0.0302588427009625
 40
0.0484850478395655
 40
0.0824465754567954
 40
0.1258230868813708
 40
0.2608523785396146
 40
0.4508285166281198
 40
0.6970228978816075
 40
1.0
 40
1.0
 40
1.0
 40
1.0
 10
88.2876449814146
 20
352.9258366671129
 30
0.0
 10
88.19050751952416
 20
352.9241263787403
 30
0.0
 10
87.98873132951515
 20
352.9205737280437
 30
0.0
 10
87.70573584400539
 20
352.8920432883322
 30
0.0
 10
87.38527380752328
 20
352.8386211392652
 30
0.0
 10
87.05084226199192
 20
352.7470495733097
 30
0.0
 10
86.51290729636511
 20
352.5284401271848
 30
0.0
 10
85.97568394449567
 20
352.1264993873061
 30
0.0
 10
85.4803517703644
 20
351.4970865189912
 30
0.0
 10
85.10834250791876
 20
350.6770274465206
 30
0.0
 10
84.98227625370212
 20
350.0667969226888
 30
0.0
 10
84.91272568610363
 20
349.7301336374804
 30
0.0
  0
SPLINE
  5
15A
330
1F
100
AcDbEntity
  8
0
  6
CONTINUOUS
 62
     7
100
AcDbSpline
210
0.0
220
0.0
230
1.0
 70
     8
 71
     3
 72
    13
 73
     9
 74
     0
 42
0.00000001
 43
0.00000001
 40
0.0
 40
0.0
 40
0.0
 40
0.0
 40
0.1809305363671731
 40
0.3628086874342929
 40
0.5522045412854906
 40
0.7465616052868874
 40
0.9390760587125266
 40
1.0
 40
1.0
 40
1.0
 40
1.0
 10
84.91272568610363
 20
357.0036288347765
 30
0.0
 10
84.98022232550812
 20
357.347885271147
 30
0.0
 10
85.11556911461432
 20
358.0382011698792
 30
0.0
 10
85.3161108185169
 20
357.6980125947455
 30
0.0
 10
85.36179811775887
 20
356.3515221658154
 30
0.0
 10
85.20827427809671
 20
353.9877029442324
 30
0.0
 10
85.02200582211816
 20
351.5695529462793
 30
0.0
 10
84.93390435742646
 20
350.0866161455252
 30
0.0
 10
84.91272568610363
 20
349.7301336374804
 30
0.0
  0
SPLINE
  5
15B
330
1F
100
AcDbEntity
  8
0
  6
CONTINUOUS
 62
     7
100
AcDbSpline
210
0.0
220
0.0
230
1.0
 70
     8
 71
     3
 72
    16
 73
    12
 74
     0
 42
0.00000001
 43
0.00000001
 40
0.0
 40
0.0
 40
0.0
 40
0.0
 40
0.0145669644826928
 40
0.0302590258773146
 40
0.0484850936931516
 40
0.0824467227047385
 40
0.1258231310213068
 40
0.2608523578651053
 40
0.450828720871519
 40
0.6970228315032934
 40
0.9999999999999999
 40
0.9999999999999999
 40
0.9999999999999999
 40
0.9999999999999999
 10
88.2876449814146
 20
374.1723965850397
 30
0.0
 10
88.19050717154866
 20
374.1632032128863
 30
0.0
 10
87.98872899697483
 20
374.1441064074934
 30
0.0
 10
87.70573949891705
 20
373.9908415830921
 30
0.0
 10
87.38527035607042
 20
373.7038048496212
 30
0.0
 10
87.05084460170627
 20
373.2118419067375
 30
0.0
 10
86.51290467818089
 20
372.0374482403049
 30
0.0
 10
85.9756846445763
 20
369.8779309654628
 30
0.0
 10
85.48035206638087
 20
366.4965109832722
 30
0.0
 10
85.10834223645229
 20
362.0907896894229
 30
0.0
 10
84.98227618367355
 20
358.8123437314866
 30
0.0
 10
84.91272568610363
 20
357.0036288347765
 30
0.0
  0
LINE
  5
15C
330
1F
100
AcDbEntity
  8
0
  6
CONTINUOUS
 62
     7
100
AcDbLine
 10
84.9127256861
 20
338.7587439266
 30
0.0
 11
84.9127256861
 21
339.8540165272
 31
0.0
  0
SPLINE
  5
15D
330
1F
100
AcDbEntity
  8
0
  6
CONTINUOUS
 62
     7
100
AcDbSpline
210
0.0
220
0.0
230
1.0
 70
     8
 71
     3
 72
     9
 73
     5
 74
     0
 42
0.00000001
 43
0.00000001
 40
0.0
 40
0.0
 40
0.0
 40
0.0
 40
0.7371095604317015
 40
1.0
 40
1.0
 40
1.0
 40
1.0
 10
84.91272568610363
 20
339.854016527228
 30
0.0
 10
84.9834364566471
 20
340.5573396163992
 30
0.0
 10
85.07936625370746
 20
341.5115031857325
 30
0.0
 10
85.15590729611532
 20
342.8819148341883
 30
0.0
 10
85.17602920439892
 20
343.2421829548403
 30
0.0
  0
SPLINE
  5
15E
330
1F
100
AcDbEntity
  8
0
  6
CONTINUOUS
 62
     7
100
AcDbSpline
210
0.0
220
0.0
230
1.0
 70
     8
 71
     3
 72
     9
 73
     5
 74
     0
 42
0.00000001
 43
0.00000001
 40
0.0
 40
0.0
 40
0.0
 40
0.0
 40
0.6853722922413182
 40
0.9999999999999999
 40
0.9999999999999999
 40
0.9999999999999999
 40
0.9999999999999999
 10
85.12611031439954
 20
352.9027473178431
 30
0.0
 10
85.07555053605262
 20
353.620651697441
 30
0.0
 10
85.00178073397679
 20
354.6681179982018
 30
0.0
 10
84.93403908563975
 20
355.4614637539185
 30
0.0
 10
84.91272568610363
 20
355.7110723104998
 30
0.0
  0
LINE
  5
15F
330
1F
100
AcDbEntity
  8
0
  6
CONTINUOUS
 62
     7
100
AcDbLine
 10
84.9127256861
 20
355.7110723105
 30
0.0
 11
84.9127256861
 21
357.0036288348
 31
0.0
  0
SPLINE
  5
160
330
1F
100
AcDbEntity
  8
0
  6
CONTINUOUS
 62
     7
100
AcDbSpline
210
0.0
220
0.0
230
1.0
 70
     8
 71
     3
 72
    11
 73
     7
 74
     0
 42
0.00000001
 43
0.00000001
 40
0.0
 40
0.0
 40
0.0
 40
0.0
 40
0.2367103558368764
 40
0.5548483168283391
 40
0.8745476552306214
 40
1.0
 40
1.0
 40
1.0
 40
1.0
 10
134.5875942697828
 20
344.210840388827
 30
0.0
 10
134.5798312437724
 20
344.2264365913572
 30
0.0
 10
134.5616347356384
 20
344.2629940401947
 30
0.0
 10
134.5306182738602
 20
344.8280965987263
 30
0.0
 10
134.5066927762272
 20
345.5673330252741
 30
0.0
 10
134.4918384248608
 20
346.0956992206047
 30
0.0
 10
134.4876521816557
 20
346.2446030226275
 30
0.0
  0
LINE
  5
161
330
1F
100
AcDbEntity
  8
0
  6
CONTINUOUS
 62
     7
100
AcDbLine
 10
134.4876521817
 20
346.2446030226
 30
0.0
 11
134.4876521817
 21
352.0660694686
 31
0.0
  0
LINE
  5
162
330
1F
100
AcDbEntity
  8
0
  6
CONTINUOUS
 62
     7
100
AcDbLine
 10
134.78765726
 20
351.7662581053
 30
0.0
 11
134.4876521817
 21
352.0660694686
 31
0.0
  0
LINE
  5
163
330
1F
100
AcDbEntity
  8
0
  6
CONTINUOUS
 62
     7
100
AcDbLine
 10
134.78765726
 20
351.7662581053
 30
0.0
 11
134.78765726
 21
344.3666469303
 31
0.0
  0
SPLINE
  5
164
330
1F
100
AcDbEntity
  8
0
  6
CONTINUOUS
 62
     7
100
AcDbSpline
210
0.0
220
0.0
230
1.0
 70
     8
 71
     3
 72
    18
 73
    14
 74
     0
 42
0.00000001
 43
0.00000001
 40
0.0
 40
0.0
 40
0.0
 40
0.0
 40
0.054183928368601
 40
0.1541270017952796
 40
0.2529051538892484
 40
0.3513518177897775
 40
0.4513808729130852
 40
0.5491781827850877
 40
0.6487679054475779
 40
0.7481862783076652
 40
0.8460902350833766
 40
0.9461572554508498
 40
1.0
 40
1.0
 40
1.0
 40
1.0
 10
134.1871404638594
 20
344.6090441194102
 30
0.0
 10
134.177024250929
 20
344.6130655145253
 30
0.0
 10
134.1482485306108
 20
344.6245044336069
 30
0.0
 10
134.097007245202
 20
344.9875935738046
 30
0.0
 10
134.0401083035718
 20
345.6368716739472
 30
0.0
 10
133.9841259016391
 20
346.5188173531295
 30
0.0
 10
133.9237242820839
 20
347.5335458698214
 30
0.0
 10
133.869406739245
 20
348.6007367774357
 30
0.0
 10
133.8103431219052
 20
349.6171460340467
 30
0.0
 10
133.7517669500803
 20
350.4978368429738
 30
0.0
 10
133.6972079302041
 20
351.1465066496594
 30
0.0
 10
133.6455995310631
 20
351.5087548242971
 30
0.0
 10
133.6165574074847
 20
351.5197416784385
 30
0.0
 10
133.6063975086516
 20
351.5235852447077
 30
0.0
  0
SPLINE
  5
165
330
1F
100
AcDbEntity
  8
0
  6
CONTINUOUS
 62
     7
100
AcDbSpline
210
0.0
220
0.0
230
1.0
 70
     8
 71
     3
 72
    14
 73
    10
 74
     0
 42
0.00000001
 43
0.00000001
 40
0.0
 40
0.0
 40
0.0
 40
0.0
 40
0.1105896165253019
 40
0.2765729785702125
 40
0.4397595191513859
 40
0.6037916593443979
 40
0.7695505422087217
 40
0.9316606580445274
 40
1.0
 40
1.0
 40
1.0
 40
1.0
 10
132.9871499529188
 20
344.6043279018923
 30
0.0
 10
132.9747068993306
 20
344.6166511324448
 30
0.0
 10
132.9435881333785
 20
344.6474702336099
 30
0.0
 10
132.8895319004362
 20
345.0530175303184
 30
0.0
 10
132.8337453425988
 20
345.7349536720474
 30
0.0
 10
132.7766654482251
 20
346.6389866496251
 30
0.0
 10
132.7165620166645
 20
347.6607928173304
 30
0.0
 10
132.6734184283893
 20
348.5314429689448
 30
0.0
 10
132.6458372604121
 20
348.9898308497931
 30
0.0
 10
132.6376581182783
 20
349.1257648911997
 30
0.0
  0
SPLINE
  5
166
330
1F
100
AcDbEntity
  8
0
  6
CONTINUOUS
 62
     7
100
AcDbSpline
210
0.0
220
0.0
230
1.0
 70
     8
 71
     3
 72
    15
 73
    11
 74
     0
 42
0.00000001
 43
0.00000001
 40
0.0
 40
0.0
 40
0.0
 40
0.0
 40
0.0098381157119945
 40
0.155414828944051
 40
0.2977486760185546
 40
0.442687039859639
 40
0.5873766759829737
 40
0.7298658151605282
 40
0.8754980119772124
 40
1.0
 40
1.0
 40
1.0
 40
1.0
 10
134.4876521816557
 20
346.2446030226275
 30
0.0
 10
134.4863218816096
 20
346.2689872500657
 30
0.0
 10
134.4653068457881
 20
346.6541901331357
 30
0.0
 10
134.4237972235103
 20
347.4584764692667
 30
0.0
 10
134.3693741864805
 20
348.6766358945638
 30
0.0
 10
134.3103644605352
 20
349.8390806450537
 30
0.0
 10
134.251764777561
 20
350.8438129606925
 30
0.0
 10
134.1971549302514
 20
351.5913737856199
 30
0.0
 10
134.1392747515755
 20
352.0350273154721
 30
0.0
 10
134.1043621212924
 20
352.0401600231805
 30
0.0
 10
134.0882712593382
 20
352.042525633864
 30
0.0
  0
SPLINE
  5
167
330
1F
100
AcDbEntity
  8
0
  6
CONTINUOUS
 62
     7
100
AcDbSpline
210
0.0
220
0.0
230
1.0
 70
     8
 71
     3
 72
    18
 73
    14
 74
     0
 42
0.00000001
 43
0.00000001
 40
0.0
 40
0.0
 40
0.0
 40
0.0
 40
0.079111424330663
 40
0.1745486533026931
 40
0.2683792443402043
 40
0.3626962648950697
 40
0.4580047250321892
 40
0.5512180097712792
 40
0.6464349637356946
 40
0.7409555664852934
 40
0.8346030875090742
 40
0.9300656935662418
 40
0.9999999999999999
 40
0.9999999999999999
 40
0.9999999999999999
 40
0.9999999999999999
 10
133.4963673343962
 20
344.0893959250971
 30
0.0
 10
133.4809112211455
 20
344.1048025774688
 30
0.0
 10
133.4468093986081
 20
344.1387952712691
 30
0.0
 10
133.3895493048712
 20
344.6201022931941
 30
0.0
 10
133.3337376316433
 20
345.4027810865394
 30
0.0
 10
133.2766397679235
 20
346.4336749120786
 30
0.0
 10
133.2166354621073
 20
347.6072894204406
 30
0.0
 10
133.1625227091607
 20
348.8259004332514
 30
0.0
 10
133.1028260951662
 20
349.9729666272213
 30
0.0
 10
133.0451557205545
 20
350.9524526674333
 30
0.0
 10
132.9898585850331
 20
351.6619169933246
 30
0.0
 10
132.9344004698199
 20
352.054793830092
 30
0.0
 10
132.9019758549766
 20
352.0367824454372
 30
0.0
 10
132.8882658472364
 20
352.0291667428538
 30
0.0
  0
SPLINE
  5
168
330
1F
100
AcDbEntity
  8
0
  6
CONTINUOUS
 62
     7
100
AcDbSpline
210
0.0
220
0.0
230
1.0
 70
     8
 71
     3
 72
    18
 73
    14
 74
     0
 42
0.00000001
 43
0.00000001
 40
0.0
 40
0.0
 40
0.0
 40
0.0
 40
0.0684132922285814
 40
0.1651305567637133
 40
0.2607226144398989
 40
0.3559937455258577
 40
0.452793976798044
 40
0.5474377742489311
 40
0.6438135392452045
 40
0.7400238569562619
 40
0.834770914639404
 40
0.931608039367141
 40
1.0
 40
1.0
 40
1.0
 40
1.0
 10
133.6964750280684
 20
344.101875647597
 30
0.0
 10
133.6833045256065
 20
344.1057091570944
 30
0.0
 10
133.6515146155827
 20
344.1149621770421
 30
0.0
 10
133.5970141029206
 20
344.5449256395922
 30
0.0
 10
133.5401144438939
 20
345.2905167846525
 30
0.0
 10
133.4841333106738
 20
346.2974735227095
 30
0.0
 10
133.423729633312
 20
347.4574842848561
 30
0.0
 10
133.3694129174882
 20
348.6769417692877
 30
0.0
 10
133.3103547117804
 20
349.8388588216961
 30
0.0
 10
133.251752774268
 20
350.8443853575148
 30
0.0
 10
133.1972000361063
 20
351.589318197604
 30
0.0
 10
133.142231445797
 20
352.018622216894
 30
0.0
 10
133.1100842350021
 20
352.0272022511922
 30
0.0
 10
133.096777795822
 20
352.0307537165209
 30
0.0
  0
LINE
  5
169
330
1F
100
AcDbEntity
  8
0
  6
CONTINUOUS
 62
     7
100
AcDbLine
 10
417.7876496306
 20
351.5926968303
 30
0.0
 11
432.2876566639
 21
351.0420020667
 31
0.0
  0
LINE
  5
16A
330
1F
100
AcDbEntity
  8
0
  6
CONTINUOUS
 62
     7
100
AcDbLine
 10
417.7876496306
 20
375.8232068267
 30
0.0
 11
432.2876566639
 21
374.9438147989
 31
0.0
  0
LINE
  5
16B
330
1F
100
AcDbEntity
  8
0
  6
CONTINUOUS
 62
     7
100
AcDbLine
 10
432.2876566639
 20
374.9438147989
 30
0.0
 11
432.2876566639
 21
351.0420020667
 31
0.0
  0
LINE
  5
16C
330
1F
100
AcDbEntity
  8
0
  6
CONTINUOUS
 62
     7
100
AcDbLine
 10
417.7876496306
 20
375.8232068267
 30
0.0
 11
417.7876496306
 21
351.5926968303
 31
0.0
  0
LINE
  5
16D
330
1F
100
AcDbEntity
  8
0
  6
CONTINUOUS
 62
     7
100
AcDbLine
 10
417.7876496306
 20
343.484580144
 30
0.0
 11
432.2876566639
 21
344.0601076928
 31
0.0
  0
LINE
  5
16E
330
1F
100
AcDbEntity
  8
0
  6
CONTINUOUS
 62
     7
100
AcDbLine
 10
432.2876566639
 20
351.0420020667
 30
0.0
 11
432.2876566639
 21
344.0601076928
 31
0.0
  0
LINE
  5
16F
330
1F
100
AcDbEntity
  8
0
  6
CONTINUOUS
 62
     7
100
AcDbLine
 10
417.7876496306
 20
351.5926968303
 30
0.0
 11
417.7876496306
 21
343.484580144
 31
0.0
  0
LINE
  5
170
330
1F
100
AcDbEntity
  8
0
  6
CONTINUOUS
 62
     7
100
AcDbLine
 10
417.7876496306
 20
320.7123275843
 30
0.0
 11
432.2876566639
 21
321.5967636552
 31
0.0
  0
LINE
  5
171
330
1F
100
AcDbEntity
  8
0
  6
CONTINUOUS
 62
     7
100
AcDbLine
 10
432.2876566639
 20
344.0601076928
 30
0.0
 11
432.2876566639
 21
321.5967636552
 31
0.0
  0
LINE
  5
172
330
1F
100
AcDbEntity
  8
0
  6
CONTINUOUS
 62
     7
100
AcDbLine
 10
417.7876496306
 20
343.484580144
 30
0.0
 11
417.7876496306
 21
320.7123275843
 31
0.0
  0
SPLINE
  5
173
330
1F
100
AcDbEntity
  8
0
  6
CONTINUOUS
 62
     7
100
AcDbSpline
210
0.0
220
0.0
230
1.0
 70
     8
 71
     3
 72
    16
 73
    12
 74
     0
 42
0.00000001
 43
0.00000001
 40
0.0
 40
0.0
 40
0.0
 40
0.0
 40
0.302976960848926
 40
0.5491714537761925
 40
0.7391474127459376
 40
0.8741768018378827
 40
0.9175534853705066
 40
0.9515150470435368
 40
0.9697411688997792
 40
0.9854330212251347
 40
1.0
 40
1.0
 40
1.0
 40
1.0
 10
435.6625759592359
 20
357.2677146640345
 30
0.0
 10
435.5930253221875
 20
359.1298751182756
 30
0.0
 10
435.4669588901
 20
362.5051989744353
 30
0.0
 10
435.0949502276973
 20
367.0411100788106
 30
0.0
 10
434.5996176277736
 20
370.5224504471225
 30
0.0
 10
434.0623931046962
 20
372.7457769019493
 30
0.0
 10
433.5244596520591
 20
373.9548837880369
 30
0.0
 10
433.1900291108179
 20
374.4613797854984
 30
0.0
 10
432.8695653045253
 20
374.7569053330251
 30
0.0
 10
432.5865699806611
 20
374.914684170483
 30
0.0
 10
432.3847940932889
 20
374.9343482605929
 30
0.0
 10
432.287656663925
 20
374.943814798884
 30
0.0
  0
SPLINE
  5
174
330
1F
100
AcDbEntity
  8
0
  6
CONTINUOUS
 62
     7
100
AcDbSpline
210
0.0
220
0.0
230
1.0
 70
     8
 71
     3
 72
    13
 73
     9
 74
     0
 42
0.00000001
 43
0.00000001
 40
0.0
 40
0.0
 40
0.0
 40
0.0
 40
0.1809303568147906
 40
0.3628085348689383
 40
0.5522044063840279
 40
0.746561654853605
 40
0.939075962544836
 40
1.0
 40
1.0
 40
1.0
 40
1.0
 10
435.6625759592359
 20
349.0852262821718
 30
0.0
 10
435.5950793016252
 20
350.1532940873216
 30
0.0
 10
435.45973239861
 20
352.2950248745092
 30
0.0
 10
435.259190826511
 20
355.0024744713984
 30
0.0
 10
435.2135035960271
 20
357.003994848739
 30
0.0
 10
435.3670271073652
 20
357.9952916343507
 30
0.0
 10
435.55329602566
 20
357.8581848017682
 30
0.0
 10
435.6413972968554
 20
357.3821489181896
 30
0.0
 10
435.6625759592359
 20
357.2677146640345
 30
0.0
  0
SPLINE
  5
175
330
1F
100
AcDbEntity
  8
0
  6
CONTINUOUS
 62
     7
100
AcDbSpline
210
0.0
220
0.0
230
1.0
 70
     8
 71
     3
 72
    16
 73
    12
 74
     0
 42
0.00000001
 43
0.00000001
 40
0.0
 40
0.0
 40
0.0
 40
0.0
 40
0.0145669438064025
 40
0.0302588812273281
 40
0.0484851458632459
 40
0.0824466213191098
 40
0.1258230894060526
 40
0.2608523547453704
 40
0.4508285678664316
 40
0.6970228747959991
 40
1.0
 40
1.0
 40
1.0
 40
1.0
 10
432.287656663925
 20
351.0420020666643
 30
0.0
 10
432.3847942462012
 20
351.0409551259216
 30
0.0
 10
432.5865712698428
 20
351.038780390026
 30
0.0
 10
432.869565572707
 20
351.021312783535
 30
0.0
 10
433.1900269458658
 20
350.9885904344912
 30
0.0
 10
433.5244597430604
 20
350.9325331566797
 30
0.0
 10
434.0623943347287
 20
350.7986677159165
 30
0.0
 10
434.5996179621624
 20
350.5525587783533
 30
0.0
 10
435.0949495977797
 20
350.167155599898
 30
0.0
 10
435.4669592813561
 20
349.6650251498044
 30
0.0
 10
435.5930254352156
 20
349.291370847693
 30
0.0
 10
435.6625759592359
 20
349.0852262821718
 30
0.0
  0
LINE
  5
176
330
1F
100
AcDbEntity
  8
0
  6
CONTINUOUS
 62
     7
100
AcDbLine
 10
435.6625759592
 20
346.6950576749
 30
0.0
 11
435.6625759592
 21
349.0852262822
 31
0.0
  0
SPLINE
  5
177
330
1F
100
AcDbEntity
  8
0
  6
CONTINUOUS
 62
     7
100
AcDbSpline
210
0.0
220
0.0
230
1.0
 70
     8
 71
     3
 72
    16
 73
    12
 74
     0
 42
0.00000001
 43
0.00000001
 40
0.0
 40
0.0
 40
0.0
 40
0.0
 40
0.0145669500079173
 40
0.0302588783214653
 40
0.0484850567430865
 40
0.0824465104363304
 40
0.1258231246808163
 40
0.2608524352771651
 40
0.4508285183106707
 40
0.6970228734231835
 40
1.0
 40
1.0
 40
1.0
 40
1.0
 10
432.287656663925
 20
344.0601076927706
 30
0.0
 10
432.3847942438595
 20
344.0615167327847
 30
0.0
 10
432.5865711573576
 20
344.064443630338
 30
0.0
 10
432.869564881392
 20
344.0879688780449
 30
0.0
 10
433.1900279717722
 20
344.1320209900251
 30
0.0
 10
433.5244603016934
 20
344.2075257003544
 30
0.0
 10
434.0623929647057
 20
344.3877626582589
 30
0.0
 10
434.5996182084787
 20
344.7191870460169
 30
0.0
 10
435.0949497017255
 20
345.2381509016687
 30
0.0
 10
435.4669592390085
 20
345.914307778365
 30
0.0
 10
435.5930254240006
 20
346.4174659990908
 30
0.0
 10
435.6625759592359
 20
346.6950576749369
 30
0.0
  0
SPLINE
  5
178
330
1F
100
AcDbEntity
  8
0
  6
CONTINUOUS
 62
     7
100
AcDbSpline
210
0.0
220
0.0
230
1.0
 70
     8
 71
     3
 72
    13
 73
     9
 74
     0
 42
0.00000001
 43
0.00000001
 40
0.0
 40
0.0
 40
0.0
 40
0.0
 40
0.1809306322061149
 40
0.3628087581653234
 40
0.5522045113428153
 40
0.7465615793123949
 40
0.9390761378494066
 40
1.0
 40
1.0
 40
1.0
 40
1.0
 10
435.6625759592359
 20
339.0050154176279
 30
0.0
 10
435.5950793313396
 20
338.6919270364479
 30
0.0
 10
435.4597326106168
 20
338.0641106993972
 30
0.0
 10
435.2591908458203
 20
338.5050821658687
 30
0.0
 10
435.2135035203033
 20
339.9456976559948
 30
0.0
 10
435.3670274784938
 20
342.3865752869064
 30
0.0
 10
435.5532956650993
 20
344.8432976107295
 30
0.0
 10
435.6413972811973
 20
346.3361839135264
 30
0.0
 10
435.6625759592359
 20
346.6950576749369
 30
0.0
  0
SPLINE
  5
179
330
1F
100
AcDbEntity
  8
0
  6
CONTINUOUS
 62
     7
100
AcDbSpline
210
0.0
220
0.0
230
1.0
 70
     8
 71
     3
 72
    16
 73
    12
 74
     0
 42
0.00000001
 43
0.00000001
 40
0.0
 40
0.0
 40
0.0
 40
0.0
 40
0.0145669688898794
 40
0.0302589344530374
 40
0.0484851771618431
 40
0.08244663591046
 40
0.1258232253357552
 40
0.260852333701276
 40
0.4508284204441285
 40
0.6970227650152474
 40
0.9999999999999999
 40
0.9999999999999999
 40
0.9999999999999999
 40
0.9999999999999999
 10
432.287656663925
 20
321.5967636552378
 30
0.0
 10
432.3847942603779
 20
321.6060861070147
 30
0.0
 10
432.5865713209467
 20
321.6254509769056
 30
0.0
 10
432.8695650708347
 20
321.7808464859231
 30
0.0
 10
433.1900272228475
 20
322.0718962169157
 30
0.0
 10
433.5244603758328
 20
322.5707142519963
 30
0.0
 10
434.062392464507
 20
323.7614969482714
 30
0.0
 10
434.5996190061103
 20
325.9511287266876
 30
0.0
 10
435.0949494325096
 20
329.379715509951
 30
0.0
 10
435.4669594056105
 20
333.8468924976505
 30
0.0
 10
435.5930254751851
 20
337.1710706965422
 30
0.0
 10
435.6625759592359
 20
339.0050154176279
 30
0.0
  0
LINE
  5
17A
330
1F
100
AcDbEntity
  8
0
  6
CONTINUOUS
 62
     7
100
AcDbLine
 10
435.6625759592
 20
357.267714664
 30
0.0
 11
435.6625759592
 21
356.1097081748
 31
0.0
  0
SPLINE
  5
17B
330
1F
100
AcDbEntity
  8
0
  6
CONTINUOUS
 62
     7
100
AcDbSpline
210
0.0
220
0.0
230
1.0
 70
     8
 71
     3
 72
     9
 73
     5
 74
     0
 42
0.00000001
 43
0.00000001
 40
0.0
 40
0.0
 40
0.0
 40
0.0
 40
0.7885156815260432
 40
1.0
 40
1.0
 40
1.0
 40
1.0
 10
435.6625759592359
 20
356.1097081747576
 30
0.0
 10
435.591619683141
 20
355.3859190483313
 30
0.0
 10
435.5016325367121
 20
354.4680056277313
 30
0.0
 10
435.4297730814159
 20
353.1777290870095
 30
0.0
 10
435.4145759334867
 20
352.904855832152
 30
0.0
  0
SPLINE
  5
17C
330
1F
100
AcDbEntity
  8
0
  6
CONTINUOUS
 62
     7
100
AcDbSpline
210
0.0
220
0.0
230
1.0
 70
     8
 71
     3
 72
     9
 73
     5
 74
     0
 42
0.00000001
 43
0.00000001
 40
0.0
 40
0.0
 40
0.0
 40
0.0
 40
0.7093594746737266
 40
1.0
 40
1.0
 40
1.0
 40
1.0
 10
435.4312652340239
 20
343.2238694277331
 30
0.0
 10
435.4879512816944
 20
342.4305984810014
 30
0.0
 10
435.56786287757
 20
341.3123065922569
 30
0.0
 10
435.6412474333834
 20
340.4792810625652
 30
0.0
 10
435.6625759592359
 20
340.2371700850054
 30
0.0
  0
LINE
  5
17D
330
1F
100
AcDbEntity
  8
0
  6
CONTINUOUS
 62
     7
100
AcDbLine
 10
435.6625759592
 20
340.237170085
 30
0.0
 11
435.6625759592
 21
339.0050154176
 31
0.0
  0
SPLINE
  5
17E
330
1F
100
AcDbEntity
  8
0
  6
CONTINUOUS
 62
     7
100
AcDbSpline
210
0.0
220
0.0
230
1.0
 70
     8
 71
     3
 72
    11
 73
     7
 74
     0
 42
0.00000001
 43
0.00000001
 40
0.0
 40
0.0
 40
0.0
 40
0.0
 40
0.2488622746512284
 40
0.5619358789362736
 40
0.8765453757819999
 40
1.0
 40
1.0
 40
1.0
 40
1.0
 10
385.9860831489867
 20
351.9313182678744
 30
0.0
 10
385.9943791551265
 20
351.9258524679771
 30
0.0
 10
386.0131116990943
 20
351.9135105850071
 30
0.0
 10
386.0446777356948
 20
351.3755795776779
 30
0.0
 10
386.0686092951671
 20
350.6587363181574
 30
0.0
 10
386.0834633223146
 20
350.1400052164326
 30
0.0
 10
386.0876494636839
 20
349.9938171353861
 30
0.0
  0
LINE
  5
17F
330
1F
100
AcDbEntity
  8
0
  6
CONTINUOUS
 62
     7
100
AcDbLine
 10
386.0876494637
 20
349.9938171354
 30
0.0
 11
386.0876494637
 21
344.0669696775
 31
0.0
  0
LINE
  5
180
330
1F
100
AcDbEntity
  8
0
  6
CONTINUOUS
 62
     7
100
AcDbLine
 10
385.7876443854
 20
344.3670790639
 30
0.0
 11
386.0876494637
 21
344.0669696775
 31
0.0
  0
LINE
  5
181
330
1F
100
AcDbEntity
  8
0
  6
CONTINUOUS
 62
     7
100
AcDbLine
 10
385.7876443854
 20
344.3670790639
 30
0.0
 11
385.7876443854
 21
351.7666455355
 31
0.0
  0
SPLINE
  5
182
330
1F
100
AcDbEntity
  8
0
  6
CONTINUOUS
 62
     7
100
AcDbSpline
210
0.0
220
0.0
230
1.0
 70
     8
 71
     3
 72
    18
 73
    14
 74
     0
 42
0.00000001
 43
0.00000001
 40
0.0
 40
0.0
 40
0.0
 40
0.0
 40
0.0440311339820156
 40
0.144002918913734
 40
0.2428096182595982
 40
0.3412849928314926
 40
0.4413421752030389
 40
0.5391677021043734
 40
0.638786282995845
 40
0.7382332423722509
 40
0.8361654035727364
 40
0.9362610428579579
 40
0.9999999999999999
 40
0.9999999999999999
 40
0.9999999999999999
 40
0.9999999999999999
 10
386.393913029701
 20
351.5239279714152
 30
0.0
 10
386.4021410420174
 20
351.5244355853357
 30
0.0
 10
386.4290505872245
 20
351.5260957262321
 30
0.0
 10
386.4783159740667
 20
351.1947943894019
 30
0.0
 10
386.535187770046
 20
350.5730129455623
 30
0.0
 10
386.5911768601612
 20
349.7088044681106
 30
0.0
 10
386.6515773478237
 20
348.7040444612799
 30
0.0
 10
386.7058946776496
 20
347.6373082878611
 30
0.0
 10
386.7649597359779
 20
346.6118419263497
 30
0.0
 10
386.8235298497239
 20
345.7140907898932
 30
0.0
 10
386.8781117433185
 20
345.0388427312675
 30
0.0
 10
386.9316679516452
 20
344.6429894003378
 30
0.0
 10
386.9625407735994
 20
344.6167385668989
 30
0.0
 10
386.9745516767805
 20
344.6065258231684
 30
0.0
  0
SPLINE
  5
183
330
1F
100
AcDbEntity
  8
0
  6
CONTINUOUS
 62
     7
100
AcDbSpline
210
0.0
220
0.0
230
1.0
 70
     8
 71
     3
 72
    14
 73
    10
 74
     0
 42
0.00000001
 43
0.00000001
 40
0.0
 40
0.0
 40
0.0
 40
0.0
 40
0.0953252693479323
 40
0.264157160850149
 40
0.430144054137144
 40
0.5969917202527684
 40
0.7655959101339328
 40
0.9304880349366056
 40
0.9999999999999999
 40
0.9999999999999999
 40
0.9999999999999999
 40
0.9999999999999999
 10
387.5939184418028
 20
351.5245612707659
 30
0.0
 10
387.6044745695934
 20
351.5191463785281
 30
0.0
 10
387.6337268000446
 20
351.504141096407
 30
0.0
 10
387.6857892659506
 20
351.1330721644317
 30
0.0
 10
387.7415512022377
 20
350.4774979186909
 30
0.0
 10
387.79863764877
 20
349.5904430859929
 30
0.0
 10
387.8587391171592
 20
348.5770258256109
 30
0.0
 10
387.9018831996303
 20
347.7070596547525
 30
0.0
 10
387.9294643914391
 20
347.2434878849485
 30
0.0
 10
387.9376435270613
 20
347.106016799502
 30
0.0
  0
SPLINE
  5
184
330
1F
100
AcDbEntity
  8
0
  6
CONTINUOUS
 62
     7
100
AcDbSpline
210
0.0
220
0.0
230
1.0
 70
     8
 71
     3
 72
    15
 73
    11
 74
     0
 42
0.00000001
 43
0.00000001
 40
0.0
 40
0.0
 40
0.0
 40
0.0
 40
0.0096986548446548
 40
0.1532082790297582
 40
0.2935202995322788
 40
0.4363998324460516
 40
0.5790346619838971
 40
0.7194998018777883
 40
0.8630636440446379
 40
1.0
 40
1.0
 40
1.0
 40
1.0
 10
386.0876494636839
 20
349.9938171353861
 30
0.0
 10
386.0889797625447
 20
349.9698079881675
 30
0.0
 10
386.1099943055223
 20
349.590538884849
 30
0.0
 10
386.1515044860797
 20
348.7939673689007
 30
0.0
 10
386.2059271908781
 20
347.5763698427007
 30
0.0
 10
386.2649381694872
 20
346.4036168608595
 30
0.0
 10
386.3235336439305
 20
345.3791857459949
 30
0.0
 10
386.3781582355703
 20
344.602003803566
 30
0.0
 10
386.4380049670826
 20
344.1151958870698
 30
0.0
 10
386.4747429472255
 20
344.0886674693903
 30
0.0
 10
386.4926779260938
 20
344.0757166591212
 30
0.0
  0
SPLINE
  5
185
330
1F
100
AcDbEntity
  8
0
  6
CONTINUOUS
 62
     7
100
AcDbSpline
210
0.0
220
0.0
230
1.0
 70
     8
 71
     3
 72
    18
 73
    14
 74
     0
 42
0.00000001
 43
0.00000001
 40
0.0
 40
0.0
 40
0.0
 40
0.0
 40
0.069770909486293
 40
0.1651967148570423
 40
0.2590161913336504
 40
0.3533220645050137
 40
0.4486193360866951
 40
0.541821280999049
 40
0.6370274888614541
 40
0.7315364698144434
 40
0.8251730306196517
 40
0.9206244429878327
 40
0.9999999999999999
 40
0.9999999999999999
 40
0.9999999999999999
 40
0.9999999999999999
 10
387.0844775429075
 20
352.0333688703104
 30
0.0
 10
387.0981235801644
 20
352.0275381809178
 30
0.0
 10
387.1304333284858
 20
352.0137328465729
 30
0.0
 10
387.1857672124395
 20
351.5739219236673
 30
0.0
 10
387.2415600442544
 20
350.8208979876126
 30
0.0
 10
387.2986629981154
 20
349.8094148640551
 30
0.0
 10
387.3586657640924
 20
348.6458412833741
 30
0.0
 10
387.4127791269221
 20
347.42641260356
 30
0.0
 10
387.4724761147163
 20
346.2677474931232
 30
0.0
 10
387.5301424222609
 20
345.2675154219209
 30
0.0
 10
387.5854570631055
 20
344.5273610254463
 30
0.0
 10
387.6428746488065
 20
344.0940044625945
 30
0.0
 10
387.6771099181743
 20
344.0936429695918
 30
0.0
 10
387.6926535358732
 20
344.0934788432642
 30
0.0
  0
SPLINE
  5
186
330
1F
100
AcDbEntity
  8
0
  6
CONTINUOUS
 62
     7
100
AcDbSpline
210
0.0
220
0.0
230
1.0
 70
     8
 71
     3
 72
    18
 73
    14
 74
     0
 42
0.00000001
 43
0.00000001
 40
0.0
 40
0.0
 40
0.0
 40
0.0
 40
0.072645097727016
 40
0.1679540414419181
 40
0.2621536505068943
 40
0.3560372786720369
 40
0.4514280379232252
 40
0.5446932412634495
 40
0.6396651789852875
 40
0.7344744058552661
 40
0.827841387383269
 40
0.9232681853223413
 40
1.0
 40
1.0
 40
1.0
 40
1.0
 10
386.8757271757429
 20
352.0320203152224
 30
0.0
 10
386.8899117227166
 20
352.0377694705136
 30
0.0
 10
386.9227061171742
 20
352.0510614048113
 30
0.0
 10
386.9782790836519
 20
351.6473725232541
 30
0.0
 10
387.0351895032939
 20
350.9295398344224
 30
0.0
 10
387.0911678327109
 20
349.9438330197303
 30
0.0
 10
387.1515720474441
 20
348.7949489634199
 30
0.0
 10
387.2058883981508
 20
347.576070748905
 30
0.0
 10
387.2649482008072
 20
346.4038218972139
 30
0.0
 10
387.3235445897917
 20
345.3786730982733
 30
0.0
 10
387.3781170489002
 20
344.6038387683574
 30
0.0
 10
387.4350194726891
 20
344.1336337882091
 30
0.0
 10
387.4689871500593
 20
344.105502836291
 30
0.0
 10
387.4841266861265
 20
344.092964753203
 30
0.0
  0
LINE
  5
187
330
1F
100
AcDbEntity
  8
0
  6
CONTINUOUS
 62
     7
100
AcDbLine
 10
386.0876494637
 20
344.0669696775
 30
0.0
 11
386.259161829
 21
344.0672900525
 31
0.0
  0
LINE
  5
188
330
1F
100
AcDbEntity
  8
0
  6
CONTINUOUS
 62
     7
100
AcDbLine
 10
132.6376581183
 20
342.9227095094
 30
0.0
 11
132.6376581183
 21
340.0666486469
 31
0.0
  0
LINE
  5
189
330
1F
100
AcDbEntity
  8
0
  6
CONTINUOUS
 62
     7
100
AcDbLine
 10
132.6376581183
 20
356.0666512695
 30
0.0
 11
132.6376581183
 21
342.9227095094
 31
0.0
  0
LINE
  5
18A
330
1F
100
AcDbEntity
  8
0
  6
CONTINUOUS
 62
     7
100
AcDbLine
 10
387.9376435271
 20
355.652369186
 30
0.0
 11
387.9376435271
 21
356.0666512695
 31
0.0
  0
LINE
  5
18B
330
1F
100
AcDbEntity
  8
0
  6
CONTINUOUS
 62
     7
100
AcDbLine
 10
387.9376435271
 20
340.0666486469
 30
0.0
 11
387.9376435271
 21
355.652369186
 31
0.0
  0
LINE
  5
18C
330
1F
100
AcDbEntity
  8
0
  6
CONTINUOUS
 62
     7
100
AcDbLine
 10
405.7876551142
 20
356.496139988
 30
0.0
 11
402.7876490345
 21
356.496139988
 31
0.0
  0
LINE
  5
18D
330
1F
100
AcDbEntity
  8
0
  6
CONTINUOUS
 62
     7
100
AcDbLine
 10
402.7876490345
 20
356.496139988
 30
0.0
 11
402.7876490345
 21
362.0942156759
 31
0.0
  0
LINE
  5
18E
330
1F
100
AcDbEntity
  8
0
  6
CONTINUOUS
 62
     7
100
AcDbLine
 10
402.7876490345
 20
362.0942156759
 30
0.0
 11
405.7876551142
 21
362.0942156759
 31
0.0
  0
LINE
  5
18F
330
1F
100
AcDbEntity
  8
0
  6
CONTINUOUS
 62
     7
100
AcDbLine
 10
405.7876551142
 20
362.0942156759
 30
0.0
 11
405.7876551142
 21
356.496139988
 31
0.0
  0
LINE
  5
190
330
1F
100
AcDbEntity
  8
0
  6
CONTINUOUS
 62
     7
100
AcDbLine
 10
117.7876526108
 20
362.0942156759
 30
0.0
 11
114.7876465311
 21
362.0942156759
 31
0.0
  0
LINE
  5
191
330
1F
100
AcDbEntity
  8
0
  6
CONTINUOUS
 62
     7
100
AcDbLine
 10
117.7876526108
 20
356.496139988
 30
0.0
 11
117.7876526108
 21
362.0942156759
 31
0.0
  0
LINE
  5
192
330
1F
100
AcDbEntity
  8
0
  6
CONTINUOUS
 62
     7
100
AcDbLine
 10
114.7876465311
 20
356.496139988
 30
0.0
 11
117.7876526108
 21
356.496139988
 31
0.0
  0
LINE
  5
193
330
1F
100
AcDbEntity
  8
0
  6
CONTINUOUS
 62
     7
100
AcDbLine
 10
114.7876465311
 20
362.0942156759
 30
0.0
 11
114.7876465311
 21
356.496139988
 31
0.0
  0
LINE
  5
194
330
1F
100
AcDbEntity
  8
0
  6
CONTINUOUS
 62
     7
100
AcDbLine
 10
117.7876526108
 20
276.816647127
 30
0.0
 11
117.7876526108
 21
356.496139988
 31
0.0
  0
LINE
  5
195
330
1F
100
AcDbEntity
  8
0
  6
CONTINUOUS
 62
     7
100
AcDbLine
 10
117.7876526108
 20
276.816647127
 30
0.0
 11
114.7876465311
 21
276.816647127
 31
0.0
  0
LINE
  5
196
330
1F
100
AcDbEntity
  8
0
  6
CONTINUOUS
 62
     7
100
AcDbLine
 10
114.7876465311
 20
276.816647127
 30
0.0
 11
114.7876465311
 21
356.496139988
 31
0.0
  0
LINE
  5
197
330
1F
100
AcDbEntity
  8
0
  6
CONTINUOUS
 62
     7
100
AcDbLine
 10
402.7876490345
 20
276.816647127
 30
0.0
 11
405.7876551142
 21
276.816647127
 31
0.0
  0
LINE
  5
198
330
1F
100
AcDbEntity
  8
0
  6
CONTINUOUS
 62
     7
100
AcDbLine
 10
402.7876490345
 20
276.816647127
 30
0.0
 11
402.7876490345
 21
356.496139988
 31
0.0
  0
LINE
  5
199
330
1F
100
AcDbEntity
  8
0
  6
CONTINUOUS
 62
     7
100
AcDbLine
 10
405.7876551142
 20
276.816647127
 30
0.0
 11
405.7876551142
 21
356.496139988
 31
0.0
  0
LINE
  5
19A
330
1F
100
AcDbEntity
  8
0
  6
CONTINUOUS
 62
     7
100
AcDbLine
 10
137.7876484385
 20
253.8166475479
 30
0.0
 11
137.7876484385
 21
256.816647574
 31
0.0
  0
ARC
  5
19B
330
1F
100
AcDbEntity
  8
0
  6
CONTINUOUS
 62
     7
100
AcDbCircle
 10
137.7876508227
 20
276.816647574
 30
0.0
 40
23.0
100
AcDbArc
 50
180.0
 51
270.0
  0
ARC
  5
19C
330
1F
100
AcDbEntity
  8
0
  6
CONTINUOUS
 62
     7
100
AcDbCircle
 10
137.7876508227
 20
276.816647574
 30
0.0
 40
20.0
100
AcDbArc
 50
180.0
 51
270.0
  0
LINE
  5
19D
330
1F
100
AcDbEntity
  8
0
  6
CONTINUOUS
 62
     7
100
AcDbLine
 10
137.7876484385
 20
256.816647574
 30
0.0
 11
382.7876532069
 21
256.816647574
 31
0.0
  0
LINE
  5
19E
330
1F
100
AcDbEntity
  8
0
  6
CONTINUOUS
 62
     7
100
AcDbLine
 10
382.7876532069
 20
253.8166475479
 30
0.0
 11
382.7876532069
 21
256.816647574
 31
0.0
  0
LINE
  5
19F
330
1F
100
AcDbEntity
  8
0
  6
CONTINUOUS
 62
     7
100
AcDbLine
 10
137.7876484385
 20
253.8166475479
 30
0.0
 11
382.7876532069
 21
253.8166475479
 31
0.0
  0
ARC
  5
1A0
330
1F
100
AcDbEntity
  8
0
  6
CONTINUOUS
 62
     7
100
AcDbCircle
 10
382.7876508227
 20
276.816647574
 30
0.0
 40
20.00000000000006
100
AcDbArc
 50
270.0
 51
0.0
  0
ARC
  5
1A1
330
1F
100
AcDbEntity
  8
0
  6
CONTINUOUS
 62
     7
100
AcDbCircle
 10
382.7876508227
 20
276.816647574
 30
0.0
 40
23.00000000000006
100
AcDbArc
 50
270.0
 51
0.0
  0
LINE
  5
1A2
330
1F
100
AcDbEntity
  8
0
  6
CONTINUOUS
 62
     7
100
AcDbLine
 10
114.7876465311
 20
374.218567833
 30
0.0
 11
117.7876526108
 21
374.218567833
 31
0.0
  0
LINE
  5
1A3
330
1F
100
AcDbEntity
  8
0
  6
CONTINUOUS
 62
     7
100
AcDbLine
 10
117.7876526108
 20
374.218567833
 30
0.0
 11
117.7876526108
 21
362.0942156759
 31
0.0
  0
LINE
  5
1A4
330
1F
100
AcDbEntity
  8
0
  6
CONTINUOUS
 62
     7
100
AcDbLine
 10
114.7876465311
 20
374.218567833
 30
0.0
 11
114.7876465311
 21
362.0942156759
 31
0.0
  0
LINE
  5
1A5
330
1F
100
AcDbEntity
  8
0
  6
CONTINUOUS
 62
     7
100
AcDbLine
 10
405.7876551142
 20
374.218567833
 30
0.0
 11
402.7876490345
 21
374.218567833
 31
0.0
  0
LINE
  5
1A6
330
1F
100
AcDbEntity
  8
0
  6
CONTINUOUS
 62
     7
100
AcDbLine
 10
402.7876490345
 20
374.218567833
 30
0.0
 11
402.7876490345
 21
362.0942156759
 31
0.0
  0
LINE
  5
1A7
330
1F
100
AcDbEntity
  8
0
  6
CONTINUOUS
 62
     7
100
AcDbLine
 10
405.7876551142
 20
374.218567833
 30
0.0
 11
405.7876551142
 21
362.0942156759
 31
0.0
  0
LINE
  5
1A8
330
1F
100
AcDbEntity
  8
0
  6
CONTINUOUS
 62
     7
100
AcDbLine
 10
402.7876490345
 20
376.8166448918
 30
0.0
 11
405.7876551142
 21
376.8166448918
 31
0.0
  0
LINE
  5
1A9
330
1F
100
AcDbEntity
  8
0
  6
CONTINUOUS
 62
     7
100
AcDbLine
 10
402.7876490345
 20
374.218567833
 30
0.0
 11
402.7876490345
 21
376.8166448918
 31
0.0
  0
LINE
  5
1AA
330
1F
100
AcDbEntity
  8
0
  6
CONTINUOUS
 62
     7
100
AcDbLine
 10
405.7876551142
 20
376.8166448918
 30
0.0
 11
405.7876551142
 21
374.218567833
 31
0.0
  0
LINE
  5
1AB
330
1F
100
AcDbEntity
  8
0
  6
CONTINUOUS
 62
     7
100
AcDbLine
 10
117.7876526108
 20
376.8166448918
 30
0.0
 11
114.7876465311
 21
376.8166448918
 31
0.0
  0
LINE
  5
1AC
330
1F
100
AcDbEntity
  8
0
  6
CONTINUOUS
 62
     7
100
AcDbLine
 10
117.7876526108
 20
374.218567833
 30
0.0
 11
117.7876526108
 21
376.8166448918
 31
0.0
  0
LINE
  5
1AD
330
1F
100
AcDbEntity
  8
0
  6
CONTINUOUS
 62
     7
100
AcDbLine
 10
114.7876465311
 20
376.8166448918
 30
0.0
 11
114.7876465311
 21
374.218567833
 31
0.0
  0
LINE
  5
1AE
330
1F
100
AcDbEntity
  8
0
  6
CONTINUOUS
 62
     8
100
AcDbLine
 10
133.6876535406
 20
330.3166475144
 30
0.0
 11
133.6876535406
 21
338.6285524812
 31
0.0
  0
LINE
  5
1AF
330
1F
100
AcDbEntity
  8
0
  6
CONTINUOUS
 62
     8
100
AcDbLine
 10
133.6876535406
 20
338.6285524812
 30
0.0
 11
133.6876535406
 21
343.3166440573
 31
0.0
  0
LINE
  5
1B0
330
1F
100
AcDbEntity
  8
0
  6
CONTINUOUS
 62
     8
100
AcDbLine
 10
386.8876481047
 20
343.3036800471
 30
0.0
 11
386.8876481047
 21
330.3166475144
 31
0.0
  0
LINE
  5
1B1
330
1F
100
AcDbEntity
  8
0
  6
CONTINUOUS
 62
     8
100
AcDbLine
 10
386.8876481047
 20
343.3036800471
 30
0.0
 11
387.9376435271
 21
343.3036800471
 31
0.0
  0
LINE
  5
1B2
330
1F
100
AcDbEntity
  8
0
  6
CONTINUOUS
 62
     8
100
AcDbLine
 10
386.8876481047
 20
343.3166440573
 30
0.0
 11
386.8876481047
 21
343.3036800471
 31
0.0
  0
DIMENSION
  5
1B3
330
1F
100
AcDbEntity
  8
0
  6
CONTINUOUS
 62
     7
100
AcDbDimension
  2
*D2
 10
435.6625795291
 20
579.816647574
 30
0.0
 11
260.2876508227
 21
579.816647574
 31
0.0
 70
   160
  3
SLDDIMSTYLE0
100
AcDbAlignedDimension
 13
84.9127221163
 23
349.7301313178
 33
0.0
 14
435.6625795291
 24
349.0852237126
 34
0.0
100
AcDbRotatedDimension
  0
LINE
  5
1BE
330
1F
100
AcDbEntity
  8
0
  6
CONTINUOUS
 62
     7
100
AcDbLine
 10
114.2876529684
 20
143.6834886948
 30
0.0
 11
112.6876556864
 21
143.6834886948
 31
0.0
  0
LINE
  5
1BF
330
1F
100
AcDbEntity
  8
0
  6
CONTINUOUS
 62
     7
100
AcDbLine
 10
112.6876556864
 20
127.6834895646
 30
0.0
 11
114.2876529684
 21
127.6834895646
 31
0.0
  0
LINE
  5
1C0
330
1F
100
AcDbEntity
  8
0
  6
CONTINUOUS
 62
     7
100
AcDbLine
 10
407.8876459589
 20
143.6834886948
 30
0.0
 11
406.2876486769
 21
143.6834886948
 31
0.0
  0
LINE
  5
1C1
330
1F
100
AcDbEntity
  8
0
  6
CONTINUOUS
 62
     7
100
AcDbLine
 10
406.2876486769
 20
127.6834895646
 30
0.0
 11
407.8876459589
 21
127.6834895646
 31
0.0
  0
LINE
  5
1C2
330
1F
100
AcDbEntity
  8
0
  6
CONTINUOUS
 62
     7
100
AcDbLine
 10
402.7876490345
 20
144.6834888587
 30
0.0
 11
397.287645339
 21
144.6834888587
 31
0.0
  0
LINE
  5
1C3
330
1F
100
AcDbEntity
  8
0
  6
CONTINUOUS
 62
     7
100
AcDbLine
 10
405.7876551142
 20
129.2834894078
 30
0.0
 11
406.2876486769
 21
129.2834894078
 31
0.0
  0
LINE
  5
1C4
330
1F
100
AcDbEntity
  8
0
  6
CONTINUOUS
 62
     7
100
AcDbLine
 10
406.2876486769
 20
142.0834895501
 30
0.0
 11
405.7876551142
 21
142.0834895501
 31
0.0
  0
LINE
  5
1C5
330
1F
100
AcDbEntity
  8
0
  6
CONTINUOUS
 62
     7
100
AcDbLine
 10
123.2876563063
 20
144.6834888587
 30
0.0
 11
117.7876526108
 21
144.6834888587
 31
0.0
  0
LINE
  5
1C6
330
1F
100
AcDbEntity
  8
0
  6
CONTINUOUS
 62
     7
100
AcDbLine
 10
114.7876465311
 20
142.0834895501
 30
0.0
 11
114.2876529684
 21
142.0834895501
 31
0.0
  0
LINE
  5
1C7
330
1F
100
AcDbEntity
  8
0
  6
CONTINUOUS
 62
     7
100
AcDbLine
 10
114.2876529684
 20
129.2834894078
 30
0.0
 11
114.7876465311
 21
129.2834894078
 31
0.0
  0
LINE
  5
1C8
330
1F
100
AcDbEntity
  8
0
  6
CONTINUOUS
 62
     7
100
AcDbLine
 10
402.7876490345
 20
128.9479178189
 30
0.0
 11
397.287645339
 21
128.9479178189
 31
0.0
  0
LINE
  5
1C9
330
1F
100
AcDbEntity
  8
0
  6
CONTINUOUS
 62
     7
100
AcDbLine
 10
397.287645339
 20
103.4479171315
 30
0.0
 11
402.7876490345
 21
103.4479171315
 31
0.0
  0
LINE
  5
1CA
330
1F
100
AcDbEntity
  8
0
  6
CONTINUOUS
 62
     7
100
AcDbLine
 10
123.2876563063
 20
128.9479178189
 30
0.0
 11
117.7876526108
 21
128.9479178189
 31
0.0
  0
LINE
  5
1CB
330
1F
100
AcDbEntity
  8
0
  6
CONTINUOUS
 62
     7
100
AcDbLine
 10
117.7876526108
 20
103.4479171315
 30
0.0
 11
123.2876563063
 21
103.4479171315
 31
0.0
  0
LINE
  5
1CC
330
1F
100
AcDbEntity
  8
0
  6
CONTINUOUS
 62
     7
100
AcDbLine
 10
102.7876520148
 20
106.6979181299
 30
0.0
 11
114.7876465311
 21
106.6979181299
 31
0.0
  0
LINE
  5
1CD
330
1F
100
AcDbEntity
  8
0
  6
CONTINUOUS
 62
     7
100
AcDbLine
 10
114.7876465311
 20
125.6979178846
 30
0.0
 11
102.7876520148
 21
125.6979178846
 31
0.0
  0
LINE
  5
1CE
330
1F
100
AcDbEntity
  8
0
  6
CONTINUOUS
 62
     7
100
AcDbLine
 10
88.2876449814
 20
87.1979177276
 30
0.0
 11
102.7876520148
 21
86.4380069355
 31
0.0
  0
SPLINE
  5
1CF
330
1F
100
AcDbEntity
  8
0
  6
CONTINUOUS
 62
     7
100
AcDbSpline
210
0.0
220
0.0
230
1.0
 70
     8
 71
     3
 72
    17
 73
    13
 74
     0
 42
0.00000001
 43
0.00000001
 40
0.0
 40
0.0
 40
0.0
 40
0.0
 40
0.2054283826314278
 40
0.4702889867892229
 40
0.6390168720128097
 40
0.7735091707135121
 40
0.8745705982644255
 40
0.9178114482916067
 40
0.9516666264656364
 40
0.9698357719207255
 40
0.9854786117975858
 40
1.0
 40
1.0
 40
1.0
 40
1.0
 10
84.93050277140789
 20
106.3317109177165
 30
0.0
 10
84.96695234381951
 20
104.9646954702741
 30
0.0
 10
85.05039666762133
 20
101.835175092088
 30
0.0
 10
85.3218614561618
 20
97.58894292319253
 30
0.0
 10
85.71187218082953
 20
93.82591582831675
 30
0.0
 10
86.14193529254626
 20
91.1689275362861
 30
0.0
 10
86.59737770618072
 20
89.36244236780674
 30
0.0
 10
87.05094309558837
 20
88.26501159492139
 30
0.0
 10
87.38526143812459
 20
87.71845432651565
 30
0.0
 10
87.70573892023137
 20
87.39959494351204
 30
0.0
 10
87.98873013037682
 20
87.22934650914057
 30
0.0
 10
88.190507267927
 20
87.20813107084776
 30
0.0
 10
88.2876449814146
 20
87.1979177275948
 30
0.0
  0
LINE
  5
1D0
330
1F
100
AcDbEntity
  8
0
  6
CONTINUOUS
 62
     7
100
AcDbLine
 10
123.2876563063
 20
120.1110461073
 30
0.0
 11
123.2048803559
 21
120.1937126274
 31
0.0
  0
LINE
  5
1D1
330
1F
100
AcDbEntity
  8
0
  6
CONTINUOUS
 62
     7
100
AcDbLine
 10
123.086475729
 20
112.7030479068
 30
0.0
 11
123.2876563063
 21
112.5021253059
 31
0.0
  0
LINE
  5
1D2
330
1F
100
AcDbEntity
  8
0
  6
CONTINUOUS
 62
     7
100
AcDbLine
 10
417.7876496306
 20
125.6979178846
 30
0.0
 11
405.7876551142
 21
125.6979178846
 31
0.0
  0
LINE
  5
1D3
330
1F
100
AcDbEntity
  8
0
  6
CONTINUOUS
 62
     7
100
AcDbLine
 10
405.7876551142
 20
106.6979181299
 30
0.0
 11
417.7876496306
 21
106.6979181299
 31
0.0
  0
LINE
  5
1D4
330
1F
100
AcDbEntity
  8
0
  6
CONTINUOUS
 62
     7
100
AcDbLine
 10
397.287645339
 20
112.4967012832
 30
0.0
 11
397.4843406668
 21
112.6931386346
 31
0.0
  0
LINE
  5
1D5
330
1F
100
AcDbEntity
  8
0
  6
CONTINUOUS
 62
     7
100
AcDbLine
 10
397.3759347191
 20
120.1936818937
 30
0.0
 11
397.287645339
 21
120.1055052037
 31
0.0
  0
LINE
  5
1D6
330
1F
100
AcDbEntity
  8
0
  6
CONTINUOUS
 62
     7
100
AcDbLine
 10
417.7876496306
 20
86.4380069355
 30
0.0
 11
432.2876566639
 21
87.1979177276
 31
0.0
  0
SPLINE
  5
1D7
330
1F
100
AcDbEntity
  8
0
  6
CONTINUOUS
 62
     7
100
AcDbSpline
210
0.0
220
0.0
230
1.0
 70
     8
 71
     3
 72
    17
 73
    13
 74
     0
 42
0.00000001
 43
0.00000001
 40
0.0
 40
0.0
 40
0.0
 40
0.0
 40
0.0145154103422189
 40
0.0301518107032051
 40
0.0483134766659834
 40
0.0821547180511058
 40
0.1253777675930585
 40
0.2596519922743585
 40
0.448487399559199
 40
0.6931471503011899
 40
0.9249225649593306
 40
1.0
 40
1.0
 40
1.0
 40
1.0
 10
432.287656663925
 20
87.1979177275948
 30
0.0
 10
432.3847942409026
 20
87.20813114306337
 30
0.0
 10
432.5865710948906
 20
87.22934673136444
 30
0.0
 10
432.869564682121
 20
87.39959390822581
 30
0.0
 10
433.1900283555721
 20
87.71846059619516
 30
0.0
 10
433.5244571308371
 20
88.26495944419224
 30
0.0
 10
434.0617165675462
 20
89.56784824944498
 30
0.0
 10
434.5980155111112
 20
91.9617720976197
 30
0.0
 10
435.0950123718835
 20
95.70862247084406
 30
0.0
 10
435.4213714517055
 20
100.1295883732114
 30
0.0
 10
435.5988958869805
 20
103.798137120505
 30
0.0
 10
435.6431742425993
 20
105.8411146320939
 30
0.0
 10
435.6540077915495
 20
106.3409682641081
 30
0.0
  0
LINE
  5
1D8
330
1F
100
AcDbEntity
  8
0
  6
CONTINUOUS
 62
     7
100
AcDbLine
 10
130.1536643496
 20
124.1979178552
 30
0.0
 11
129.3228203049
 21
124.1979178552
 31
0.0
  0
LINE
  5
1D9
330
1F
100
AcDbEntity
  8
0
  6
CONTINUOUS
 62
     7
100
AcDbLine
 10
391.2524813404
 20
124.1979178552
 30
0.0
 11
390.4216372958
 21
124.1979178552
 31
0.0
  0
LINE
  5
1DA
330
1F
100
AcDbEntity
  8
0
  6
CONTINUOUS
 62
     7
100
AcDbLine
 10
370.1806524387
 20
100.6834890971
 30
0.0
 11
347.5300678602
 21
100.6834890971
 31
0.0
  0
LINE
  5
1DB
330
1F
100
AcDbEntity
  8
0
  6
CONTINUOUS
 62
     7
100
AcDbLine
 10
370.1806524387
 20
150.6834898422
 30
0.0
 11
347.5300678602
 21
150.6834898422
 31
0.0
  0
LINE
  5
1DC
330
1F
100
AcDbEntity
  8
0
  6
CONTINUOUS
 62
     7
100
AcDbLine
 10
347.5300678602
 20
100.6834890971
 30
0.0
 11
173.0452337852
 21
100.6834890971
 31
0.0
  0
CIRCLE
  5
1DD
330
1F
100
AcDbEntity
  8
0
  6
CONTINUOUS
 62
     7
100
AcDbCircle
 10
260.2876508227
 20
125.6834894697
 30
0.0
 40
6.500000000000014
  0
LINE
  5
1DE
330
1F
100
AcDbEntity
  8
0
  6
CONTINUOUS
 62
     7
100
AcDbLine
 10
347.5300678602
 20
150.6834898422
 30
0.0
 11
173.0452337852
 21
150.6834898422
 31
0.0
  0
LINE
  5
1DF
330
1F
100
AcDbEntity
  8
0
  6
CONTINUOUS
 62
     7
100
AcDbLine
 10
150.3946492067
 20
100.6834890971
 30
0.0
 11
173.0452337852
 21
100.6834890971
 31
0.0
  0
LINE
  5
1E0
330
1F
100
AcDbEntity
  8
0
  6
CONTINUOUS
 62
     7
100
AcDbLine
 10
150.3946492067
 20
150.6834898422
 30
0.0
 11
173.0452337852
 21
150.6834898422
 31
0.0
  0
LINE
  5
1E1
330
1F
100
AcDbEntity
  8
0
  6
CONTINUOUS
 62
     7
100
AcDbLine
 10
123.3788067093
 20
100.6834890971
 30
0.0
 11
150.3946492067
 21
100.6834890971
 31
0.0
  0
LINE
  5
1E2
330
1F
100
AcDbEntity
  8
0
  6
CONTINUOUS
 62
     7
100
AcDbLine
 10
123.3788067093
 20
150.6834898422
 30
0.0
 11
150.3946492067
 21
150.6834898422
 31
0.0
  0
LWPOLYLINE
  5
1E3
330
1F
100
AcDbEntity
  8
0
  6
CONTINUOUS
 62
     7
100
AcDbPolyline
 90
       36
 70
   128
 43
0.0
 10
130.1711583128
 20
125.6834894697
 10
130.1404619208
 20
123.7193636874
 10
130.0493562212
 20
121.8183664417
 10
129.900776743
 20
120.0415973829
 10
129.6994918576
 20
118.4461635815
 10
129.451968669
 20
117.0833429599
 10
129.1661792984
 20
115.9969384129
 10
128.8512879601
 20
115.2218675519
 10
128.5174274435
 20
114.7830423245
 10
128.1753265848
 20
114.6945657486
 10
127.835982441
 20
114.9592820833
 10
127.5103026619
 20
115.5686836968
 10
127.2087478628
 20
116.503183944
 10
126.9410037985
 20
117.7327458093
 10
126.7156982413
 20
119.2178518789
 10
126.5400582543
 20
120.9107681455
 10
126.4197313776
 20
122.7570841832
 10
126.3585919133
 20
124.6974570489
 10
126.3585919133
 20
126.6695218904
 10
126.4197313776
 20
128.6098947561
 10
126.5400582543
 20
130.4562107938
 10
126.7156982413
 20
132.1491270604
 10
126.9410037985
 20
133.63423313
 10
127.2087478628
 20
134.8637949953
 10
127.5103026619
 20
135.7982952426
 10
127.835982441
 20
136.407696856
 10
128.1753265848
 20
136.6724131907
 10
128.5174274435
 20
136.5839366148
 10
128.8512879601
 20
136.1451113874
 10
129.1661792984
 20
135.3700405265
 10
129.451968669
 20
134.2836359794
 10
129.6994918576
 20
132.9208153578
 10
129.900776743
 20
131.3253815564
 10
130.0493562212
 20
129.5486124976
 10
130.1404619208
 20
127.6476152519
 10
130.1711583128
 20
125.6834894697
  0
LWPOLYLINE
  5
1E4
330
1F
100
AcDbEntity
  8
0
  6
CONTINUOUS
 62
     7
100
AcDbPolyline
 90
       33
 70
   128
 43
0.0
 10
136.4425727716
 20
125.6834894697
 10
136.4108705511
 20
123.8301313527
 10
136.3169932356
 20
122.0479968282
 10
136.1645543566
 20
120.4055722149
 10
135.9593951693
 20
118.965975223
 10
135.7094132891
 20
117.7845282758
 10
135.4242050639
 20
116.9066338146
 10
135.1147377482
 20
116.3660289998
 10
134.7929173699
 20
116.1834897751
 10
134.4710820904
 20
116.3660289998
 10
134.1616147747
 20
116.9066338146
 10
133.8764065495
 20
117.7845282758
 10
133.6264246693
 20
118.965975223
 10
133.421265482
 20
120.4055722149
 10
133.268826603
 20
122.0479968282
 10
133.1749492874
 20
123.8301313527
 10
133.1432545176
 20
125.6834894697
 10
133.1749492874
 20
127.5368475866
 10
133.268826603
 20
129.3189821111
 10
133.421265482
 20
130.9614067244
 10
133.6264246693
 20
132.4010037164
 10
133.8764065495
 20
133.5824506635
 10
134.1616147747
 20
134.4603451247
 10
134.4710820904
 20
135.0009499396
 10
134.7929173699
 20
135.1834891642
 10
135.1147377482
 20
135.0009499396
 10
135.4242050639
 20
134.4603451247
 10
135.7094132891
 20
133.5824506635
 10
135.9593951693
 20
132.4010037164
 10
136.1645543566
 20
130.9614067244
 10
136.3169932356
 20
129.3189821111
 10
136.4108705511
 20
127.5368475866
 10
136.4425727716
 20
125.6834894697
  0
LWPOLYLINE
  5
1E5
330
1F
100
AcDbEntity
  8
0
  6
CONTINUOUS
 62
     7
100
AcDbPolyline
 90
       30
 70
   128
 43
0.0
 10
142.1930351844
 20
125.6834894697
 10
142.1605581036
 20
123.9637259672
 10
142.064639329
 20
122.3243765811
 10
141.9097715607
 20
120.8420956785
 10
141.7031893125
 20
119.5861932168
 10
141.4545559874
 20
118.6153932752
 10
141.1754944911
 20
117.9750894474
 10
140.8790582409
 20
117.6952218915
 10
140.5791053167
 20
117.7888775522
 10
140.2896577111
 20
118.2516754883
 10
140.0242605796
 20
119.0619773509
 10
139.7953042379
 20
120.1818936782
 10
139.6135175219
 20
121.5590585301
 10
139.487386643
 20
123.1290772369
 10
139.4228050103
 20
124.8185373073
 10
139.4228050103
 20
126.548441632
 10
139.487386643
 20
128.2379017024
 10
139.6135175219
 20
129.8079204092
 10
139.7953042379
 20
131.1850852611
 10
140.0242605796
 20
132.3050015884
 10
140.2896577111
 20
133.115303451
 10
140.5791053167
 20
133.5781013871
 10
140.8790582409
 20
133.6717570478
 10
141.1754944911
 20
133.3918894919
 10
141.4545559874
 20
132.7515856641
 10
141.7031893125
 20
131.7807857225
 10
141.9097715607
 20
130.5248832608
 10
142.064639329
 20
129.0426023582
 10
142.1605581036
 20
127.4032529721
 10
142.1930351844
 20
125.6834894697
  0
LWPOLYLINE
  5
1E6
330
1F
100
AcDbEntity
  8
0
  6
CONTINUOUS
 62
     7
100
AcDbPolyline
 90
       28
 70
   128
 43
0.0
 10
147.4225604525
 20
125.6834894697
 10
147.3921322813
 20
124.184486321
 10
147.3025017968
 20
122.7662947307
 10
147.1584895244
 20
121.505370112
 10
146.9678664198
 20
120.4696886519
 10
146.7409068337
 20
119.7150850015
 10
146.4898446193
 20
119.2822388651
 10
146.2282174816
 20
119.1944863925
 10
145.9701219192
 20
119.456557771
 10
145.7294905176
 20
120.0543243716
 10
145.5192723861
 20
120.9555605704
 10
145.3508147588
 20
122.1116811315
 10
145.2331998935
 20
123.4603584556
 10
145.1727607837
 20
124.9288855282
 10
145.1727607837
 20
126.4380934111
 10
145.2331998935
 20
127.9066204837
 10
145.3508147588
 20
129.2552978078
 10
145.5192723861
 20
130.4114183689
 10
145.7294905176
 20
131.3126545677
 10
145.9701219192
 20
131.9104211683
 10
146.2282174816
 20
132.1724925468
 10
146.4898446193
 20
132.0847400742
 10
146.7409068337
 20
131.6518939378
 10
146.9678664198
 20
130.8972902874
 10
147.1584895244
 20
129.8616088273
 10
147.3025017968
 20
128.6006842086
 10
147.3921322813
 20
127.1824926183
 10
147.4225604525
 20
125.6834894697
  0
LINE
  5
1E7
330
1F
100
AcDbEntity
  8
0
  6
CONTINUOUS
 62
     7
100
AcDbLine
 10
397.196494936
 20
100.6834890971
 30
0.0
 11
370.1806524387
 21
100.6834890971
 31
0.0
  0
LINE
  5
1E8
330
1F
100
AcDbEntity
  8
0
  6
CONTINUOUS
 62
     7
100
AcDbLine
 10
397.196494936
 20
150.6834898422
 30
0.0
 11
370.1806524387
 21
150.6834898422
 31
0.0
  0
LWPOLYLINE
  5
1E9
330
1F
100
AcDbEntity
  8
0
  6
CONTINUOUS
 62
     7
100
AcDbPolyline
 90
       36
 70
   128
 43
0.0
 10
390.4041433325
 20
125.6834894697
 10
390.4348397246
 20
123.7193636874
 10
390.5259454241
 20
121.8183664417
 10
390.6745249024
 20
120.0415973829
 10
390.8758097878
 20
118.4461635815
 10
391.1233329764
 20
117.0833429599
 10
391.4091223469
 20
115.9969384129
 10
391.7240136853
 20
115.2218675519
 10
392.0578742018
 20
114.7830423245
 10
392.3999750605
 20
114.6945657486
 10
392.7393192044
 20
114.9592820833
 10
393.0649989834
 20
115.5686836968
 10
393.3665537825
 20
116.503183944
 10
393.6342978468
 20
117.7327458093
 10
393.8596034041
 20
119.2178518789
 10
394.0352433911
 20
120.9107681455
 10
394.1555702677
 20
122.7570841832
 10
394.2167097321
 20
124.6974570489
 10
394.2167097321
 20
126.6695218904
 10
394.1555702677
 20
128.6098947561
 10
394.0352433911
 20
130.4562107938
 10
393.8596034041
 20
132.1491270604
 10
393.6342978468
 20
133.63423313
 10
393.3665537825
 20
134.8637949953
 10
393.0649989834
 20
135.7982952426
 10
392.7393192044
 20
136.407696856
 10
392.3999750605
 20
136.6724131907
 10
392.0578742018
 20
136.5839366148
 10
391.7240136853
 20
136.1451113874
 10
391.4091223469
 20
135.3700405265
 10
391.1233329764
 20
134.2836359794
 10
390.8758097878
 20
132.9208153578
 10
390.6745249024
 20
131.3253815564
 10
390.5259454241
 20
129.5486124976
 10
390.4348397246
 20
127.6476152519
 10
390.4041433325
 20
125.6834894697
  0
LWPOLYLINE
  5
1EA
330
1F
100
AcDbEntity
  8
0
  6
CONTINUOUS
 62
     7
100
AcDbPolyline
 90
       33
 70
   128
 43
0.0
 10
384.1327288738
 20
125.6834894697
 10
384.1644310942
 20
123.8301313527
 10
384.2583084097
 20
122.0479968282
 10
384.4107472887
 20
120.4055722149
 10
384.6159064761
 20
118.965975223
 10
384.8658883562
 20
117.7845282758
 10
385.1510965815
 20
116.9066338146
 10
385.4605638972
 20
116.3660289998
 10
385.7823842755
 20
116.1834897751
 10
386.1042195549
 20
116.3660289998
 10
386.4136868706
 20
116.9066338146
 10
386.6988950959
 20
117.7845282758
 10
386.948876976
 20
118.965975223
 10
387.1540361634
 20
120.4055722149
 10
387.3064750424
 20
122.0479968282
 10
387.4003523579
 20
123.8301313527
 10
387.4320471278
 20
125.6834894697
 10
387.4003523579
 20
127.5368475866
 10
387.3064750424
 20
129.3189821111
 10
387.1540361634
 20
130.9614067244
 10
386.948876976
 20
132.4010037164
 10
386.6988950959
 20
133.5824506635
 10
386.4136868706
 20
134.4603451247
 10
386.1042195549
 20
135.0009499396
 10
385.7823842755
 20
135.1834891642
 10
385.4605638972
 20
135.0009499396
 10
385.1510965815
 20
134.4603451247
 10
384.8658883562
 20
133.5824506635
 10
384.6159064761
 20
132.4010037164
 10
384.4107472887
 20
130.9614067244
 10
384.2583084097
 20
129.3189821111
 10
384.1644310942
 20
127.5368475866
 10
384.1327288738
 20
125.6834894697
  0
LWPOLYLINE
  5
1EB
330
1F
100
AcDbEntity
  8
0
  6
CONTINUOUS
 62
     7
100
AcDbPolyline
 90
       30
 70
   128
 43
0.0
 10
378.3822664609
 20
125.6834894697
 10
378.4147435417
 20
123.9637259672
 10
378.5106623164
 20
122.3243765811
 10
378.6655300846
 20
120.8420956785
 10
378.8721123329
 20
119.5861932168
 10
379.120745658
 20
118.6153932752
 10
379.3998071542
 20
117.9750894474
 10
379.6962434044
 20
117.6952218915
 10
379.9961963287
 20
117.7888775522
 10
380.2856439343
 20
118.2516754883
 10
380.5510410657
 20
119.0619773509
 10
380.7799974075
 20
120.1818936782
 10
380.9617841235
 20
121.5590585301
 10
381.0879150024
 20
123.1290772369
 10
381.152496635
 20
124.8185373073
 10
381.152496635
 20
126.548441632
 10
381.0879150024
 20
128.2379017024
 10
380.9617841235
 20
129.8079204092
 10
380.7799974075
 20
131.1850852611
 10
380.5510410657
 20
132.3050015884
 10
380.2856439343
 20
133.115303451
 10
379.9961963287
 20
133.5781013871
 10
379.6962434044
 20
133.6717570478
 10
379.3998071542
 20
133.3918894919
 10
379.120745658
 20
132.7515856641
 10
378.8721123329
 20
131.7807857225
 10
378.6655300846
 20
130.5248832608
 10
378.5106623164
 20
129.0426023582
 10
378.4147435417
 20
127.4032529721
 10
378.3822664609
 20
125.6834894697
  0
LWPOLYLINE
  5
1EC
330
1F
100
AcDbEntity
  8
0
  6
CONTINUOUS
 62
     7
100
AcDbPolyline
 90
       28
 70
   128
 43
0.0
 10
373.1527411928
 20
125.6834894697
 10
373.183169364
 20
124.184486321
 10
373.2727998486
 20
122.7662947307
 10
373.4168121209
 20
121.505370112
 10
373.6074352255
 20
120.4696886519
 10
373.8343948117
 20
119.7150850015
 10
374.085457026
 20
119.2822388651
 10
374.3470841637
 20
119.1944863925
 10
374.6051797262
 20
119.456557771
 10
374.8458111277
 20
120.0543243716
 10
375.0560292592
 20
120.9555605704
 10
375.2244868865
 20
122.1116811315
 10
375.3421017518
 20
123.4603584556
 10
375.4025408616
 20
124.9288855282
 10
375.4025408616
 20
126.4380934111
 10
375.3421017518
 20
127.9066204837
 10
375.2244868865
 20
129.2552978078
 10
375.0560292592
 20
130.4114183689
 10
374.8458111277
 20
131.3126545677
 10
374.6051797262
 20
131.9104211683
 10
374.3470841637
 20
132.1724925468
 10
374.085457026
 20
132.0847400742
 10
373.8343948117
 20
131.6518939378
 10
373.6074352255
 20
130.8972902874
 10
373.4168121209
 20
129.8616088273
 10
373.2727998486
 20
128.6006842086
 10
373.183169364
 20
127.1824926183
 10
373.1527411928
 20
125.6834894697
  0
ARC
  5
1ED
330
1F
100
AcDbEntity
  8
0
  6
CONTINUOUS
 62
     7
100
AcDbCircle
 10
335.4463793839
 20
125.801934277
 30
0.0
 40
49.03138737961252
100
AcDbArc
 50
359.8615908191
 51
4.8087448998
  0
ARC
  5
1EE
330
1F
100
AcDbEntity
  8
0
  6
CONTINUOUS
 62
     7
100
AcDbCircle
 10
335.4463793839
 20
125.5650446623
 30
0.0
 40
49.03138737961326
100
AcDbArc
 50
355.1912551002
 51
0.1384091809
  0
ARC
  5
1EF
330
1F
100
AcDbEntity
  8
0
  6
CONTINUOUS
 62
     7
100
AcDbCircle
 10
185.1289222614
 20
125.801934277
 30
0.0
 40
49.0313873796124
100
AcDbArc
 50
175.1912551002
 51
180.1384091809
  0
ARC
  5
1F0
330
1F
100
AcDbEntity
  8
0
  6
CONTINUOUS
 62
     7
100
AcDbCircle
 10
185.1289222614
 20
125.5650446623
 30
0.0
 40
49.03138737961345
100
AcDbArc
 50
179.8615908191
 51
184.8087448998
  0
ARC
  5
1F1
330
1F
100
AcDbEntity
  8
0
  6
CONTINUOUS
 62
     7
100
AcDbCircle
 10
180.2982549676
 20
126.018257153
 30
0.0
 40
50.99402748612329
100
AcDbArc
 50
172.5194239696
 51
180.3761403854
  0
ARC
  5
1F2
330
1F
100
AcDbEntity
  8
0
  6
CONTINUOUS
 62
     7
100
AcDbCircle
 10
180.2982549676
 20
125.3487217863
 30
0.0
 40
50.9940274861233
100
AcDbArc
 50
179.6238596146
 51
187.4805760304
  0
ARC
  5
1F3
330
1F
100
AcDbEntity
  8
0
  6
CONTINUOUS
 62
     7
100
AcDbCircle
 10
340.2770466777
 20
126.018257153
 30
0.0
 40
50.9940274861079
100
AcDbArc
 50
359.6238596146
 51
7.4805760304
  0
ARC
  5
1F4
330
1F
100
AcDbEntity
  8
0
  6
CONTINUOUS
 62
     7
100
AcDbCircle
 10
340.2770466777
 20
125.3487217863
 30
0.0
 40
50.99402748610807
100
AcDbArc
 50
352.5194239696
 51
0.3761403854
  0
LINE
  5
1F5
330
1F
100
AcDbEntity
  8
0
  6
CONTINUOUS
 62
     7
100
AcDbLine
 10
397.287645339
 20
100.6834890971
 30
0.0
 11
397.287645339
 21
150.6834898422
 31
0.0
  0
LINE
  5
1F6
330
1F
100
AcDbEntity
  8
0
  6
CONTINUOUS
 62
     7
100
AcDbLine
 10
397.287645339
 20
100.6834890971
 30
0.0
 11
397.196494936
 21
100.6834890971
 31
0.0
  0
LINE
  5
1F7
330
1F
100
AcDbEntity
  8
0
  6
CONTINUOUS
 62
     7
100
AcDbLine
 10
397.287645339
 20
150.6834898422
 30
0.0
 11
397.196494936
 21
150.6834898422
 31
0.0
  0
LINE
  5
1F8
330
1F
100
AcDbEntity
  8
0
  6
CONTINUOUS
 62
     7
100
AcDbLine
 10
123.2876563063
 20
100.6834890971
 30
0.0
 11
123.3788067093
 21
100.6834890971
 31
0.0
  0
LINE
  5
1F9
330
1F
100
AcDbEntity
  8
0
  6
CONTINUOUS
 62
     7
100
AcDbLine
 10
123.2876563063
 20
100.6834890971
 30
0.0
 11
123.2876563063
 21
150.6834898422
 31
0.0
  0
LINE
  5
1FA
330
1F
100
AcDbEntity
  8
0
  6
CONTINUOUS
 62
     7
100
AcDbLine
 10
123.2876563063
 20
150.6834898422
 30
0.0
 11
123.3788067093
 21
150.6834898422
 31
0.0
  0
LINE
  5
1FB
330
1F
100
AcDbEntity
  8
0
  6
CONTINUOUS
 62
     7
100
AcDbLine
 10
106.6876435271
 20
135.8348002935
 30
0.0
 11
112.6876556864
 21
135.8348002935
 31
0.0
  0
LINE
  5
1FC
330
1F
100
AcDbEntity
  8
0
  6
CONTINUOUS
 62
     7
100
AcDbLine
 10
106.6876435271
 20
135.8348002935
 30
0.0
 11
106.6876435271
 21
142.2078136632
 31
0.0
  0
LINE
  5
1FD
330
1F
100
AcDbEntity
  8
0
  6
CONTINUOUS
 62
     7
100
AcDbLine
 10
106.6876435271
 20
142.2078136632
 30
0.0
 11
112.6876556864
 21
142.2078136632
 31
0.0
  0
LINE
  5
1FE
330
1F
100
AcDbEntity
  8
0
  6
CONTINUOUS
 62
     7
100
AcDbLine
 10
106.6876435271
 20
129.3104761092
 30
0.0
 11
112.6876556864
 21
129.3104761092
 31
0.0
  0
LINE
  5
1FF
330
1F
100
AcDbEntity
  8
0
  6
CONTINUOUS
 62
     7
100
AcDbLine
 10
106.6876435271
 20
129.3104761092
 30
0.0
 11
106.6876435271
 21
135.8348002935
 31
0.0
  0
LINE
  5
200
330
1F
100
AcDbEntity
  8
0
  6
CONTINUOUS
 62
     7
100
AcDbLine
 10
106.6876435271
 20
129.1591652947
 30
0.0
 11
112.6876556864
 21
129.1591652947
 31
0.0
  0
LINE
  5
201
330
1F
100
AcDbEntity
  8
0
  6
CONTINUOUS
 62
     7
100
AcDbLine
 10
106.6876435271
 20
129.1591652947
 30
0.0
 11
106.6876435271
 21
129.3104761092
 31
0.0
  0
LINE
  5
202
330
1F
100
AcDbEntity
  8
0
  6
CONTINUOUS
 62
     7
100
AcDbLine
 10
413.8876581183
 20
135.3037862385
 30
0.0
 11
407.8876459589
 21
135.3037862385
 31
0.0
  0
LINE
  5
203
330
1F
100
AcDbEntity
  8
0
  6
CONTINUOUS
 62
     7
100
AcDbLine
 10
413.8876581183
 20
129.0520257129
 30
0.0
 11
407.8876459589
 21
129.0520257129
 31
0.0
  0
LINE
  5
204
330
1F
100
AcDbEntity
  8
0
  6
CONTINUOUS
 62
     7
100
AcDbLine
 10
413.8876581183
 20
135.3037862385
 30
0.0
 11
413.8876581183
 21
129.0520257129
 31
0.0
  0
LINE
  5
205
330
1F
100
AcDbEntity
  8
0
  6
CONTINUOUS
 62
     7
100
AcDbLine
 10
413.8876581183
 20
141.9352509359
 30
0.0
 11
407.8876459589
 21
141.9352509359
 31
0.0
  0
LINE
  5
206
330
1F
100
AcDbEntity
  8
0
  6
CONTINUOUS
 62
     7
100
AcDbLine
 10
413.8876581183
 20
141.9352509359
 30
0.0
 11
413.8876581183
 21
135.3037862385
 31
0.0
  0
LINE
  5
207
330
1F
100
AcDbEntity
  8
0
  6
CONTINUOUS
 62
     7
100
AcDbLine
 10
413.8876581183
 20
142.3149530122
 30
0.0
 11
407.8876459589
 21
142.3149530122
 31
0.0
  0
LINE
  5
208
330
1F
100
AcDbEntity
  8
0
  6
CONTINUOUS
 62
     7
100
AcDbLine
 10
413.8876581183
 20
142.3149530122
 30
0.0
 11
413.8876581183
 21
141.9352509359
 31
0.0
  0
LINE
  5
209
330
1F
100
AcDbEntity
  8
0
  6
CONTINUOUS
 62
     7
100
AcDbLine
 10
114.2876529684
 20
127.6834895646
 30
0.0
 11
114.2876529684
 21
143.6834886948
 31
0.0
  0
LINE
  5
20A
330
1F
100
AcDbEntity
  8
0
  6
CONTINUOUS
 62
     7
100
AcDbLine
 10
112.6876556864
 20
127.6834895646
 30
0.0
 11
112.6876556864
 21
143.6834886948
 31
0.0
  0
LINE
  5
20B
330
1F
100
AcDbEntity
  8
0
  6
CONTINUOUS
 62
     7
100
AcDbLine
 10
406.2876486769
 20
127.6834895646
 30
0.0
 11
406.2876486769
 21
143.6834886948
 31
0.0
  0
LINE
  5
20C
330
1F
100
AcDbEntity
  8
0
  6
CONTINUOUS
 62
     7
100
AcDbLine
 10
407.8876459589
 20
127.6834895646
 30
0.0
 11
407.8876459589
 21
143.6834886948
 31
0.0
  0
LINE
  5
20D
330
1F
100
AcDbEntity
  8
0
  6
CONTINUOUS
 62
     7
100
AcDbLine
 10
129.4970893851
 20
130.487236874
 30
0.0
 11
129.9793952694
 21
130.487236874
 31
0.0
  0
LINE
  5
20E
330
1F
100
AcDbEntity
  8
0
  6
CONTINUOUS
 62
     7
100
AcDbLine
 10
129.3642604342
 20
128.3950307219
 30
0.0
 11
130.1122093191
 21
128.3950307219
 31
0.0
  0
LINE
  5
20F
330
1F
100
AcDbEntity
  8
0
  6
CONTINUOUS
 62
     7
100
AcDbLine
 10
390.9780764571
 20
131.527829198
 30
0.0
 11
390.6960421791
 21
131.527829198
 31
0.0
  0
LINE
  5
210
330
1F
100
AcDbEntity
  8
0
  6
CONTINUOUS
 62
     7
100
AcDbLine
 10
391.2196093788
 20
128.1929090431
 30
0.0
 11
390.4545092573
 21
128.1929090431
 31
0.0
  0
LINE
  5
211
330
1F
100
AcDbEntity
  8
0
  6
CONTINUOUS
 62
     7
100
AcDbLine
 10
102.7876520148
 20
128.727963874
 30
0.0
 11
88.2876449814
 21
128.8268505408
 31
0.0
  0
LINE
  5
212
330
1F
100
AcDbEntity
  8
0
  6
CONTINUOUS
 62
     7
100
AcDbLine
 10
102.7876520148
 20
86.9421877245
 30
0.0
 11
88.2876449814
 21
87.6079157273
 31
0.0
  0
LINE
  5
213
330
1F
100
AcDbEntity
  8
0
  6
CONTINUOUS
 62
     7
100
AcDbLine
 10
88.2876449814
 20
87.6079157273
 30
0.0
 11
88.2876449814
 21
128.8268505408
 31
0.0
  0
LINE
  5
214
330
1F
100
AcDbEntity
  8
0
  6
CONTINUOUS
 62
     7
100
AcDbLine
 10
102.7876520148
 20
86.9421877245
 30
0.0
 11
102.7876520148
 21
128.727963874
 31
0.0
  0
SPLINE
  5
215
330
1F
100
AcDbEntity
  8
0
  6
CONTINUOUS
 62
     7
100
AcDbSpline
210
0.0
220
0.0
230
1.0
 70
     8
 71
     3
 72
    16
 73
    12
 74
     0
 42
0.00000001
 43
0.00000001
 40
0.0
 40
0.0
 40
0.0
 40
0.0
 40
0.0145669673888767
 40
0.0302588427009625
 40
0.0484850478395655
 40
0.0824465754567954
 40
0.1258230868813708
 40
0.2608523785396146
 40
0.4508285166281198
 40
0.6970228978816075
 40
1.0
 40
1.0
 40
1.0
 40
1.0
 10
88.2876449814146
 20
87.60791572726292
 30
0.0
 10
88.19050751952416
 20
87.61798509163903
 30
0.0
 10
87.98873132951515
 20
87.63890140899055
 30
0.0
 10
87.70573584400539
 20
87.80673714079747
 30
0.0
 10
87.38527380752328
 20
88.12109937245478
 30
0.0
 10
87.05084226199192
 20
88.6598713126771
 30
0.0
 10
86.51290729636511
 20
89.9460272578602
 30
0.0
 10
85.97568394449567
 20
92.31104552009153
 30
0.0
 10
85.4803517703644
 20
96.01424507666736
 30
0.0
 10
85.10834250791876
 20
100.8392223567809
 30
0.0
 10
84.98227625370212
 20
104.4296514437716
 30
0.0
 10
84.91272568610363
 20
106.4104859063677
 30
0.0
  0
SPLINE
  5
216
330
1F
100
AcDbEntity
  8
0
  6
CONTINUOUS
 62
     7
100
AcDbSpline
210
0.0
220
0.0
230
1.0
 70
     8
 71
     3
 72
    13
 73
     9
 74
     0
 42
0.00000001
 43
0.00000001
 40
0.0
 40
0.0
 40
0.0
 40
0.0
 40
0.1809305363671731
 40
0.3628086874342929
 40
0.5522045412854906
 40
0.7465616052868874
 40
0.9390760587125266
 40
1.0
 40
1.0
 40
1.0
 40
1.0
 10
84.91272568610363
 20
120.5212760063164
 30
0.0
 10
84.98022232550812
 20
119.4785157020248
 30
0.0
 10
85.11556911461432
 20
117.3875336881273
 30
0.0
 10
85.3161108185169
 20
113.9950282675841
 30
0.0
 10
85.36179811775887
 20
110.8106700648629
 30
0.0
 10
85.20827427809671
 20
108.1852891187859
 30
0.0
 10
85.02200582211816
 20
106.8526942965428
 30
0.0
 10
84.93390435742646
 20
106.4961866246618
 30
0.0
 10
84.91272568610363
 20
106.4104859063677
 30
0.0
  0
SPLINE
  5
217
330
1F
100
AcDbEntity
  8
0
  6
CONTINUOUS
 62
     7
100
AcDbSpline
210
0.0
220
0.0
230
1.0
 70
     8
 71
     3
 72
    16
 73
    12
 74
     0
 42
0.00000001
 43
0.00000001
 40
0.0
 40
0.0
 40
0.0
 40
0.0
 40
0.0145669644826928
 40
0.0302590258773146
 40
0.0484850936931516
 40
0.0824467227047385
 40
0.1258231310213068
 40
0.2608523578651053
 40
0.450828720871519
 40
0.6970228315032934
 40
0.9999999999999999
 40
0.9999999999999999
 40
0.9999999999999999
 40
0.9999999999999999
 10
88.2876449814146
 20
128.8268505407773
 30
0.0
 10
88.19050717154866
 20
128.8224027566186
 30
0.0
 10
87.98872899697483
 20
128.8131636583759
 30
0.0
 10
87.70573949891705
 20
128.7390252518393
 30
0.0
 10
87.38527035607042
 20
128.6001635884196
 30
0.0
 10
87.05084460170627
 20
128.3621759347822
 30
0.0
 10
86.51290467818089
 20
127.7940437019281
 30
0.0
 10
85.9756846445763
 20
126.7493580948921
 30
0.0
 10
85.48035206638087
 20
125.1135625957386
 30
0.0
 10
85.10834223645229
 20
122.9822432608934
 30
0.0
 10
84.98227618367355
 20
121.3962607494474
 30
0.0
 10
84.91272568610363
 20
120.5212760063164
 30
0.0
  0
LINE
  5
218
330
1F
100
AcDbEntity
  8
0
  6
CONTINUOUS
 62
     7
100
AcDbLine
 10
102.7876520148
 20
135.5497662256
 30
0.0
 11
88.2876449814
 21
134.7011022548
 31
0.0
  0
LINE
  5
219
330
1F
100
AcDbEntity
  8
0
  6
CONTINUOUS
 62
     7
100
AcDbLine
 10
88.2876449814
 20
128.8268505408
 30
0.0
 11
88.2876449814
 21
134.7011022548
 31
0.0
  0
LINE
  5
21A
330
1F
100
AcDbEntity
  8
0
  6
CONTINUOUS
 62
     7
100
AcDbLine
 10
102.7876520148
 20
128.727963874
 30
0.0
 11
102.7876520148
 21
135.5497662256
 31
0.0
  0
LINE
  5
21B
330
1F
100
AcDbEntity
  8
0
  6
CONTINUOUS
 62
     7
100
AcDbLine
 10
84.9127256861
 20
122.5322533677
 30
0.0
 11
84.9127256861
 21
120.5212760063
 31
0.0
  0
SPLINE
  5
21C
330
1F
100
AcDbEntity
  8
0
  6
CONTINUOUS
 62
     7
100
AcDbSpline
210
0.0
220
0.0
230
1.0
 70
     8
 71
     3
 72
    16
 73
    12
 74
     0
 42
0.00000001
 43
0.00000001
 40
0.0
 40
0.0
 40
0.0
 40
0.0
 40
0.0145669575284342
 40
0.030258909389362
 40
0.0484849849756212
 40
0.0824465281858284
 40
0.1258231711886381
 40
0.2608524440639784
 40
0.4508284058509192
 40
0.6970229067201857
 40
1.0
 40
1.0
 40
1.0
 40
1.0
 10
88.2876449814146
 20
134.7011022547536
 30
0.0
 10
88.19050734534623
 20
134.6945854099702
 30
0.0
 10
87.98873021224541
 20
134.6810484297589
 30
0.0
 10
87.70573805125598
 20
134.5724252303068
 30
0.0
 10
87.38527152999309
 20
134.3689739201201
 30
0.0
 10
87.0508424473547
 20
134.0202854139432
 30
0.0
 10
86.51290809110986
 20
133.1878969447395
 30
0.0
 10
85.9756839338363
 20
131.6572820249301
 30
0.0
 10
85.4803514076004
 20
129.2606001836529
 30
0.0
 10
85.10834268319027
 20
126.1379253273809
 30
0.0
 10
84.98227630567013
 20
123.8142315315613
 30
0.0
 10
84.91272568610363
 20
122.5322533676676
 30
0.0
  0
LINE
  5
21D
330
1F
100
AcDbEntity
  8
0
  6
CONTINUOUS
 62
     7
100
AcDbLine
 10
84.9127256861
 20
119.6510151306
 30
0.0
 11
84.9127256861
 21
120.5528278182
 31
0.0
  0
LINE
  5
21E
330
1F
100
AcDbEntity
  8
0
  6
CONTINUOUS
 62
     7
100
AcDbLine
 10
84.9127256861
 20
106.4104859064
 30
0.0
 11
84.9127256861
 21
106.2701281438
 31
0.0
  0
LINE
  5
21F
330
1F
100
AcDbEntity
  8
0
  6
CONTINUOUS
 62
     7
100
AcDbLine
 10
88.2876449814
 20
87.1979177276
 30
0.0
 11
88.2876449814
 21
87.6079157273
 31
0.0
  0
LINE
  5
220
330
1F
100
AcDbEntity
  8
0
  6
CONTINUOUS
 62
     7
100
AcDbLine
 10
102.7876520148
 20
86.4380069355
 30
0.0
 11
102.7876520148
 21
86.9421877245
 31
0.0
  0
LINE
  5
221
330
1F
100
AcDbEntity
  8
0
  6
CONTINUOUS
 62
     7
100
AcDbLine
 10
417.7876496306
 20
126.9322539259
 30
0.0
 11
432.2876566639
 21
127.0891006382
 31
0.0
  0
LINE
  5
222
330
1F
100
AcDbEntity
  8
0
  6
CONTINUOUS
 62
     7
100
AcDbLine
 10
417.7876496306
 20
134.0267082954
 30
0.0
 11
432.2876566639
 21
133.1981329525
 31
0.0
  0
LINE
  5
223
330
1F
100
AcDbEntity
  8
0
  6
CONTINUOUS
 62
     7
100
AcDbLine
 10
432.2876566639
 20
133.1981329525
 30
0.0
 11
432.2876566639
 21
127.0891006382
 31
0.0
  0
LINE
  5
224
330
1F
100
AcDbEntity
  8
0
  6
CONTINUOUS
 62
     7
100
AcDbLine
 10
417.7876496306
 20
134.0267082954
 30
0.0
 11
417.7876496306
 21
126.9322539259
 31
0.0
  0
LINE
  5
225
330
1F
100
AcDbEntity
  8
0
  6
CONTINUOUS
 62
     7
100
AcDbLine
 10
417.7876496306
 20
86.6476327459
 30
0.0
 11
432.2876566639
 21
87.3509563783
 31
0.0
  0
LINE
  5
226
330
1F
100
AcDbEntity
  8
0
  6
CONTINUOUS
 62
     7
100
AcDbLine
 10
432.2876566639
 20
127.0891006382
 30
0.0
 11
432.2876566639
 21
87.3509563783
 31
0.0
  0
LINE
  5
227
330
1F
100
AcDbEntity
  8
0
  6
CONTINUOUS
 62
     7
100
AcDbLine
 10
417.7876496306
 20
126.9322539259
 30
0.0
 11
417.7876496306
 21
86.6476327459
 31
0.0
  0
SPLINE
  5
228
330
1F
100
AcDbEntity
  8
0
  6
CONTINUOUS
 62
     7
100
AcDbSpline
210
0.0
220
0.0
230
1.0
 70
     8
 71
     3
 72
    16
 73
    12
 74
     0
 42
0.00000001
 43
0.00000001
 40
0.0
 40
0.0
 40
0.0
 40
0.0
 40
0.0145669347884073
 40
0.0302588955631969
 40
0.048485036582131
 40
0.082446685957086
 40
0.1258231733296026
 40
0.2608524656533681
 40
0.4508285161854471
 40
0.6970229185946012
 40
1.0
 40
1.0
 40
1.0
 40
1.0
 10
432.287656663925
 20
133.1981329525165
 30
0.0
 10
432.3847943336388
 20
133.1921457837778
 30
0.0
 10
432.5865717594195
 20
133.1797090483755
 30
0.0
 10
432.8695640329909
 20
133.0799075951845
 30
0.0
 10
433.1900299508543
 20
132.8929824969781
 30
0.0
 10
433.5244577851107
 20
132.5726193305553
 30
0.0
 10
434.0623958248721
 20
131.8078389584724
 30
0.0
 10
434.5996167481094
 20
130.4015555033519
 30
0.0
 10
435.0949503919069
 20
128.1995509036396
 30
0.0
 10
435.4669589457645
 20
125.3305215756567
 30
0.0
 10
435.5930253265954
 20
123.1955764745958
 30
0.0
 10
435.6625759592359
 20
122.0177304743133
 30
0.0
  0
LINE
  5
229
330
1F
100
AcDbEntity
  8
0
  6
CONTINUOUS
 62
     7
100
AcDbLine
 10
435.6625759592
 20
119.9263792763
 30
0.0
 11
435.6625759592
 21
122.0177304743
 31
0.0
  0
SPLINE
  5
22A
330
1F
100
AcDbEntity
  8
0
  6
CONTINUOUS
 62
     7
100
AcDbSpline
210
0.0
220
0.0
230
1.0
 70
     8
 71
     3
 72
    16
 73
    12
 74
     0
 42
0.00000001
 43
0.00000001
 40
0.0
 40
0.0
 40
0.0
 40
0.0
 40
0.302976960848926
 40
0.5491714537761925
 40
0.7391474127459376
 40
0.8741768018378827
 40
0.9175534853705066
 40
0.9515150470435368
 40
0.9697411688997792
 40
0.9854330212251347
 40
1.0
 40
1.0
 40
1.0
 40
1.0
 10
435.6625759592359
 20
119.9263792762808
 30
0.0
 10
435.5930253221875
 20
120.6809660568465
 30
0.0
 10
435.4669588901
 20
122.0487186348723
 30
0.0
 10
435.0949502276973
 20
123.8867597224254
 30
0.0
 10
434.5996176277736
 20
125.2974743153459
 30
0.0
 10
434.0623931046962
 20
126.198411253491
 30
0.0
 10
433.5244596520591
 20
126.6883641457107
 30
0.0
 10
433.1900291108179
 20
126.8936064985634
 30
0.0
 10
432.8695653045253
 20
127.0133593999257
 30
0.0
 10
432.5865699806611
 20
127.0772974238485
 30
0.0
 10
432.3847940932889
 20
127.085264964689
 30
0.0
 10
432.287656663925
 20
127.0891006382458
 30
0.0
  0
SPLINE
  5
22B
330
1F
100
AcDbEntity
  8
0
  6
CONTINUOUS
 62
     7
100
AcDbSpline
210
0.0
220
0.0
230
1.0
 70
     8
 71
     3
 72
    13
 73
     9
 74
     0
 42
0.00000001
 43
0.00000001
 40
0.0
 40
0.0
 40
0.0
 40
0.0
 40
0.1809303568147906
 40
0.3628085348689383
 40
0.5522044063840279
 40
0.746561654853605
 40
0.939075962544836
 40
1.0
 40
1.0
 40
1.0
 40
1.0
 10
435.6625759592359
 20
106.322518763905
 30
0.0
 10
435.5950793016252
 20
106.5776479932572
 30
0.0
 10
435.45973239861
 20
107.0892429711981
 30
0.0
 10
435.259190826511
 20
109.1615686699072
 30
0.0
 10
435.2135035960271
 20
111.9806293726882
 30
0.0
 10
435.3670271073652
 20
115.3714415922285
 30
0.0
 10
435.55329602566
 20
118.1290594899482
 30
0.0
 10
435.6413972968554
 20
119.578055227216
 30
0.0
 10
435.6625759592359
 20
119.9263792762808
 30
0.0
  0
SPLINE
  5
22C
330
1F
100
AcDbEntity
  8
0
  6
CONTINUOUS
 62
     7
100
AcDbSpline
210
0.0
220
0.0
230
1.0
 70
     8
 71
     3
 72
    16
 73
    12
 74
     0
 42
0.00000001
 43
0.00000001
 40
0.0
 40
0.0
 40
0.0
 40
0.0
 40
0.0145669438064025
 40
0.0302588812273281
 40
0.0484851458632459
 40
0.0824466213191098
 40
0.1258230894060526
 40
0.2608523547453704
 40
0.4508285678664316
 40
0.6970228747959991
 40
1.0
 40
1.0
 40
1.0
 40
1.0
 10
432.287656663925
 20
87.35095637834593
 30
0.0
 10
432.3847942462012
 20
87.36111488737072
 30
0.0
 10
432.5865712698428
 20
87.3822164390835
 30
0.0
 10
432.869565572707
 20
87.55156587344403
 30
0.0
 10
433.1900269458658
 20
87.86875206340206
 30
0.0
 10
433.5244597430604
 20
88.4123670008878
 30
0.0
 10
434.0623943347287
 20
89.71008250481131
 30
0.0
 10
434.5996179621624
 20
92.09635533404735
 30
0.0
 10
435.0949495977797
 20
95.83283922219931
 30
0.0
 10
435.4669592813561
 20
100.7011828210383
 30
0.0
 10
435.5930254352156
 20
104.3238810978425
 30
0.0
 10
435.6625759592359
 20
106.322518763905
 30
0.0
  0
LINE
  5
22D
330
1F
100
AcDbEntity
  8
0
  6
CONTINUOUS
 62
     7
100
AcDbLine
 10
417.7876496306
 20
134.8686332161
 30
0.0
 11
432.2876566639
 21
134.0286361331
 31
0.0
  0
LINE
  5
22E
330
1F
100
AcDbEntity
  8
0
  6
CONTINUOUS
 62
     7
100
AcDbLine
 10
432.2876566639
 20
134.0286361331
 30
0.0
 11
432.2876566639
 21
133.0301032679
 31
0.0
  0
LINE
  5
22F
330
1F
100
AcDbEntity
  8
0
  6
CONTINUOUS
 62
     7
100
AcDbLine
 10
417.7876496306
 20
134.8686332161
 30
0.0
 11
417.7876496306
 21
134.0267082954
 31
0.0
  0
SPLINE
  5
230
330
1F
100
AcDbEntity
  8
0
  6
CONTINUOUS
 62
     7
100
AcDbSpline
210
0.0
220
0.0
230
1.0
 70
     8
 71
     3
 72
    16
 73
    12
 74
     0
 42
0.00000001
 43
0.00000001
 40
0.0
 40
0.0
 40
0.0
 40
0.0
 40
0.0145670089915613
 40
0.0302588334842875
 40
0.0484851528720749
 40
0.0824466951662212
 40
0.1258231208065238
 40
0.26085233491507
 40
0.4508285654621139
 40
0.6970228126806642
 40
1.0
 40
1.0
 40
1.0
 40
1.0
 10
432.287656663925
 20
134.0286361331396
 30
0.0
 10
432.3847939513664
 20
134.0223564338688
 30
0.0
 10
432.5865691412841
 20
134.0093121380443
 30
0.0
 10
432.8695675967547
 20
133.9046345646501
 30
0.0
 10
433.1900260424725
 20
133.7085816992394
 30
0.0
 10
433.5244594559878
 20
133.3725637390414
 30
0.0
 10
434.0623945949034
 20
132.5704231678511
 30
0.0
 10
434.5996180208872
 20
131.0954368576173
 30
0.0
 10
435.0949494988271
 20
128.7858642277178
 30
0.0
 10
435.4669593877687
 20
125.7766697110144
 30
0.0
 10
435.5930254640571
 20
123.5374291766929
 30
0.0
 10
435.6625759592359
 20
122.3020430000774
 30
0.0
  0
LINE
  5
231
330
1F
100
AcDbEntity
  8
0
  6
CONTINUOUS
 62
     7
100
AcDbLine
 10
435.6625759592
 20
122.3020430001
 30
0.0
 11
435.6625759592
 21
122.0177304743
 31
0.0
  0
LINE
  5
232
330
1F
100
AcDbEntity
  8
0
  6
CONTINUOUS
 62
     7
100
AcDbLine
 10
435.6625759592
 20
106.3653316627
 30
0.0
 11
435.6625759592
 21
106.3225187639
 31
0.0
  0
LINE
  5
233
330
1F
100
AcDbEntity
  8
0
  6
CONTINUOUS
 62
     7
100
AcDbLine
 10
435.6625759592
 20
106.2701281438
 30
0.0
 11
435.6625759592
 21
106.3225187639
 31
0.0
  0
LINE
  5
234
330
1F
100
AcDbEntity
  8
0
  6
CONTINUOUS
 62
     7
100
AcDbLine
 10
432.2876566639
 20
87.3509563783
 30
0.0
 11
432.2876566639
 21
87.1979177276
 31
0.0
  0
LINE
  5
235
330
1F
100
AcDbEntity
  8
0
  6
CONTINUOUS
 62
     7
100
AcDbLine
 10
417.7876496306
 20
86.6476327459
 30
0.0
 11
417.7876496306
 21
86.4380069355
 31
0.0
  0
LINE
  5
236
330
1F
100
AcDbEntity
  8
0
  6
CONTINUOUS
 62
     7
100
AcDbLine
 10
405.7876551142
 20
142.6834903935
 30
0.0
 11
402.7876490345
 21
142.6834903935
 31
0.0
  0
LINE
  5
237
330
1F
100
AcDbEntity
  8
0
  6
CONTINUOUS
 62
     7
100
AcDbLine
 10
402.7876490345
 20
147.1834901998
 30
0.0
 11
405.7876551142
 21
147.1834901998
 31
0.0
  0
LINE
  5
238
330
1F
100
AcDbEntity
  8
0
  6
CONTINUOUS
 62
     7
100
AcDbLine
 10
402.7876490345
 20
142.6834903935
 30
0.0
 11
402.7876490345
 21
147.1834901998
 31
0.0
  0
LINE
  5
239
330
1F
100
AcDbEntity
  8
0
  6
CONTINUOUS
 62
     7
100
AcDbLine
 10
405.7876551142
 20
147.1834901998
 30
0.0
 11
405.7876551142
 21
142.6834903935
 31
0.0
  0
LINE
  5
23A
330
1F
100
AcDbEntity
  8
0
  6
CONTINUOUS
 62
     7
100
AcDbLine
 10
117.7876526108
 20
147.1834901998
 30
0.0
 11
114.7876465311
 21
147.1834901998
 31
0.0
  0
LINE
  5
23B
330
1F
100
AcDbEntity
  8
0
  6
CONTINUOUS
 62
     7
100
AcDbLine
 10
114.7876465311
 20
142.6834903935
 30
0.0
 11
117.7876526108
 21
142.6834903935
 31
0.0
  0
LINE
  5
23C
330
1F
100
AcDbEntity
  8
0
  6
CONTINUOUS
 62
     7
100
AcDbLine
 10
117.7876526108
 20
142.6834903935
 30
0.0
 11
117.7876526108
 21
147.1834901998
 31
0.0
  0
LINE
  5
23D
330
1F
100
AcDbEntity
  8
0
  6
CONTINUOUS
 62
     7
100
AcDbLine
 10
114.7876465311
 20
147.1834901998
 30
0.0
 11
114.7876465311
 21
142.6834903935
 31
0.0
  0
LINE
  5
23E
330
1F
100
AcDbEntity
  8
0
  6
CONTINUOUS
 62
     7
100
AcDbLine
 10
402.7876490345
 20
108.6834885458
 30
0.0
 11
405.7876551142
 21
108.6834885458
 31
0.0
  0
LINE
  5
23F
330
1F
100
AcDbEntity
  8
0
  6
CONTINUOUS
 62
     7
100
AcDbLine
 10
402.7876490345
 20
108.6834885458
 30
0.0
 11
402.7876490345
 21
142.6834903935
 31
0.0
  0
LINE
  5
240
330
1F
100
AcDbEntity
  8
0
  6
CONTINUOUS
 62
     7
100
AcDbLine
 10
405.7876551142
 20
108.6834885458
 30
0.0
 11
405.7876551142
 21
142.6834903935
 31
0.0
  0
LINE
  5
241
330
1F
100
AcDbEntity
  8
0
  6
CONTINUOUS
 62
     7
100
AcDbLine
 10
117.7876526108
 20
108.6834885458
 30
0.0
 11
114.7876465311
 21
108.6834885458
 31
0.0
  0
LINE
  5
242
330
1F
100
AcDbEntity
  8
0
  6
CONTINUOUS
 62
     7
100
AcDbLine
 10
117.7876526108
 20
108.6834885458
 30
0.0
 11
117.7876526108
 21
142.6834903935
 31
0.0
  0
LINE
  5
243
330
1F
100
AcDbEntity
  8
0
  6
CONTINUOUS
 62
     7
100
AcDbLine
 10
114.7876465311
 20
108.6834885458
 30
0.0
 11
114.7876465311
 21
142.6834903935
 31
0.0
  0
LINE
  5
244
330
1F
100
AcDbEntity
  8
0
  6
CONTINUOUS
 62
     7
100
AcDbLine
 10
114.7876465311
 20
104.1834887395
 30
0.0
 11
117.7876526108
 21
104.1834887395
 31
0.0
  0
LINE
  5
245
330
1F
100
AcDbEntity
  8
0
  6
CONTINUOUS
 62
     7
100
AcDbLine
 10
117.7876526108
 20
104.1834887395
 30
0.0
 11
117.7876526108
 21
108.6834885458
 31
0.0
  0
LINE
  5
246
330
1F
100
AcDbEntity
  8
0
  6
CONTINUOUS
 62
     7
100
AcDbLine
 10
114.7876465311
 20
108.6834885458
 30
0.0
 11
114.7876465311
 21
104.1834887395
 31
0.0
  0
LINE
  5
247
330
1F
100
AcDbEntity
  8
0
  6
CONTINUOUS
 62
     7
100
AcDbLine
 10
405.7876551142
 20
104.1834887395
 30
0.0
 11
402.7876490345
 21
104.1834887395
 31
0.0
  0
LINE
  5
248
330
1F
100
AcDbEntity
  8
0
  6
CONTINUOUS
 62
     7
100
AcDbLine
 10
402.7876490345
 20
104.1834887395
 30
0.0
 11
402.7876490345
 21
108.6834885458
 31
0.0
  0
LINE
  5
249
330
1F
100
AcDbEntity
  8
0
  6
CONTINUOUS
 62
     7
100
AcDbLine
 10
405.7876551142
 20
108.6834885458
 30
0.0
 11
405.7876551142
 21
104.1834887395
 31
0.0
  0
LINE
  5
24A
330
1F
100
AcDbEntity
  8
0
  6
CONTINUOUS
 62
     7
100
AcDbLine
 10
114.7876465311
 20
154.1834894846
 30
0.0
 11
117.7876526108
 21
154.1834894846
 31
0.0
  0
LINE
  5
24B
330
1F
100
AcDbEntity
  8
0
  6
CONTINUOUS
 62
     7
100
AcDbLine
 10
117.7876526108
 20
154.1834894846
 30
0.0
 11
117.7876526108
 21
147.1834901998
 31
0.0
  0
LINE
  5
24C
330
1F
100
AcDbEntity
  8
0
  6
CONTINUOUS
 62
     7
100
AcDbLine
 10
114.7876465311
 20
154.1834894846
 30
0.0
 11
114.7876465311
 21
147.1834901998
 31
0.0
  0
LINE
  5
24D
330
1F
100
AcDbEntity
  8
0
  6
CONTINUOUS
 62
     7
100
AcDbLine
 10
405.7876551142
 20
154.1834894846
 30
0.0
 11
402.7876490345
 21
154.1834894846
 31
0.0
  0
LINE
  5
24E
330
1F
100
AcDbEntity
  8
0
  6
CONTINUOUS
 62
     7
100
AcDbLine
 10
402.7876490345
 20
154.1834894846
 30
0.0
 11
402.7876490345
 21
147.1834901998
 31
0.0
  0
LINE
  5
24F
330
1F
100
AcDbEntity
  8
0
  6
CONTINUOUS
 62
     7
100
AcDbLine
 10
405.7876551142
 20
154.1834894846
 30
0.0
 11
405.7876551142
 21
147.1834901998
 31
0.0
  0
LINE
  5
250
330
1F
100
AcDbEntity
  8
0
  6
CONTINUOUS
 62
     7
100
AcDbLine
 10
402.7876490345
 20
97.1834894548
 30
0.0
 11
405.7876551142
 21
97.1834894548
 31
0.0
  0
LINE
  5
251
330
1F
100
AcDbEntity
  8
0
  6
CONTINUOUS
 62
     7
100
AcDbLine
 10
402.7876490345
 20
104.1834887395
 30
0.0
 11
402.7876490345
 21
97.1834894548
 31
0.0
  0
LINE
  5
252
330
1F
100
AcDbEntity
  8
0
  6
CONTINUOUS
 62
     7
100
AcDbLine
 10
405.7876551142
 20
104.1834887395
 30
0.0
 11
405.7876551142
 21
97.1834894548
 31
0.0
  0
LINE
  5
253
330
1F
100
AcDbEntity
  8
0
  6
CONTINUOUS
 62
     7
100
AcDbLine
 10
117.7876526108
 20
97.1834894548
 30
0.0
 11
114.7876465311
 21
97.1834894548
 31
0.0
  0
LINE
  5
254
330
1F
100
AcDbEntity
  8
0
  6
CONTINUOUS
 62
     7
100
AcDbLine
 10
117.7876526108
 20
104.1834887395
 30
0.0
 11
117.7876526108
 21
97.1834894548
 31
0.0
  0
LINE
  5
255
330
1F
100
AcDbEntity
  8
0
  6
CONTINUOUS
 62
     7
100
AcDbLine
 10
114.7876465311
 20
104.1834887395
 30
0.0
 11
114.7876465311
 21
97.1834894548
 31
0.0
  0
LINE
  5
256
330
1F
100
AcDbEntity
  8
0
  6
CONTINUOUS
 62
     7
100
AcDbLine
 10
117.7876526108
 20
155.6834887991
 30
0.0
 11
114.7876465311
 21
155.6834887991
 31
0.0
  0
LINE
  5
257
330
1F
100
AcDbEntity
  8
0
  6
CONTINUOUS
 62
     7
100
AcDbLine
 10
117.7876526108
 20
154.1834894846
 30
0.0
 11
117.7876526108
 21
155.6834887991
 31
0.0
  0
LINE
  5
258
330
1F
100
AcDbEntity
  8
0
  6
CONTINUOUS
 62
     7
100
AcDbLine
 10
114.7876465311
 20
155.6834887991
 30
0.0
 11
114.7876465311
 21
154.1834894846
 31
0.0
  0
LINE
  5
259
330
1F
100
AcDbEntity
  8
0
  6
CONTINUOUS
 62
     7
100
AcDbLine
 10
402.7876490345
 20
155.6834887991
 30
0.0
 11
405.7876551142
 21
155.6834887991
 31
0.0
  0
LINE
  5
25A
330
1F
100
AcDbEntity
  8
0
  6
CONTINUOUS
 62
     7
100
AcDbLine
 10
402.7876490345
 20
154.1834894846
 30
0.0
 11
402.7876490345
 21
155.6834887991
 31
0.0
  0
LINE
  5
25B
330
1F
100
AcDbEntity
  8
0
  6
CONTINUOUS
 62
     7
100
AcDbLine
 10
405.7876551142
 20
155.6834887991
 30
0.0
 11
405.7876551142
 21
154.1834894846
 31
0.0
  0
LINE
  5
25C
330
1F
100
AcDbEntity
  8
0
  6
CONTINUOUS
 62
     7
100
AcDbLine
 10
405.7876551142
 20
95.6834901402
 30
0.0
 11
402.7876490345
 21
95.6834901402
 31
0.0
  0
LINE
  5
25D
330
1F
100
AcDbEntity
  8
0
  6
CONTINUOUS
 62
     7
100
AcDbLine
 10
402.7876490345
 20
95.6834901402
 30
0.0
 11
402.7876490345
 21
97.1834894548
 31
0.0
  0
LINE
  5
25E
330
1F
100
AcDbEntity
  8
0
  6
CONTINUOUS
 62
     7
100
AcDbLine
 10
405.7876551142
 20
97.1834894548
 30
0.0
 11
405.7876551142
 21
95.6834901402
 31
0.0
  0
LINE
  5
25F
330
1F
100
AcDbEntity
  8
0
  6
CONTINUOUS
 62
     7
100
AcDbLine
 10
114.7876465311
 20
95.6834901402
 30
0.0
 11
117.7876526108
 21
95.6834901402
 31
0.0
  0
LINE
  5
260
330
1F
100
AcDbEntity
  8
0
  6
CONTINUOUS
 62
     7
100
AcDbLine
 10
117.7876526108
 20
95.6834901402
 30
0.0
 11
117.7876526108
 21
97.1834894548
 31
0.0
  0
LINE
  5
261
330
1F
100
AcDbEntity
  8
0
  6
CONTINUOUS
 62
     7
100
AcDbLine
 10
114.7876465311
 20
97.1834894548
 30
0.0
 11
114.7876465311
 21
95.6834901402
 31
0.0
  0
LINE
  5
262
330
1F
100
AcDbEntity
  8
0
  6
CONTINUOUS
 62
     7
100
AcDbLine
 10
137.7876484385
 20
95.6834901402
 30
0.0
 11
117.7876526108
 21
95.6834901402
 31
0.0
  0
LINE
  5
263
330
1F
100
AcDbEntity
  8
0
  6
CONTINUOUS
 62
     7
100
AcDbLine
 10
137.7876484385
 20
155.6834887991
 30
0.0
 11
117.7876526108
 21
155.6834887991
 31
0.0
  0
LINE
  5
264
330
1F
100
AcDbEntity
  8
0
  6
CONTINUOUS
 62
     7
100
AcDbLine
 10
382.7876532069
 20
95.6834901402
 30
0.0
 11
402.7876490345
 21
95.6834901402
 31
0.0
  0
LINE
  5
265
330
1F
100
AcDbEntity
  8
0
  6
CONTINUOUS
 62
     7
100
AcDbLine
 10
382.7876532069
 20
155.6834887991
 30
0.0
 11
402.7876490345
 21
155.6834887991
 31
0.0
  0
LINE
  5
266
330
1F
100
AcDbEntity
  8
0
  6
CONTINUOUS
 62
     7
100
AcDbLine
 10
137.7876484385
 20
95.6834901402
 30
0.0
 11
382.7876532069
 21
95.6834901402
 31
0.0
  0
LINE
  5
267
330
1F
100
AcDbEntity
  8
0
  6
CONTINUOUS
 62
     7
100
AcDbLine
 10
137.7876484385
 20
155.6834887991
 30
0.0
 11
382.7876532069
 21
155.6834887991
 31
0.0
  0
LINE
  5
268
330
1F
100
AcDbEntity
  8
0
  6
CONTINUOUS
 62
     8
100
AcDbLine
 10
370.1806524387
 20
100.6834890971
 30
0.0
 11
370.1806524387
 21
150.6834898422
 31
0.0
  0
LINE
  5
269
330
1F
100
AcDbEntity
  8
0
  6
CONTINUOUS
 62
     8
100
AcDbLine
 10
347.5300678602
 20
100.6834890971
 30
0.0
 11
347.5300678602
 21
150.6834898422
 31
0.0
  0
LINE
  5
26A
330
1F
100
AcDbEntity
  8
0
  6
CONTINUOUS
 62
     8
100
AcDbLine
 10
173.0452337852
 20
100.6834890971
 30
0.0
 11
173.0452337852
 21
150.6834898422
 31
0.0
  0
LINE
  5
26B
330
1F
100
AcDbEntity
  8
0
  6
CONTINUOUS
 62
     8
100
AcDbLine
 10
150.3946492067
 20
100.6834890971
 30
0.0
 11
150.3946492067
 21
150.6834898422
 31
0.0
  0
LINE
  5
26C
330
1F
100
AcDbEntity
  8
0
  6
CONTINUOUS
 62
     8
100
AcDbLine
 10
123.3788067093
 20
100.6834890971
 30
0.0
 11
123.3788067093
 21
150.6834898422
 31
0.0
  0
LINE
  5
26D
330
1F
100
AcDbEntity
  8
0
  6
CONTINUOUS
 62
     8
100
AcDbLine
 10
397.196494936
 20
100.6834890971
 30
0.0
 11
397.196494936
 21
150.6834898422
 31
0.0
  0
LINE
  5
26E
330
1F
100
AcDbEntity
  8
0
  6
CONTINUOUS
 62
     8
100
AcDbLine
 10
137.7876484385
 20
95.6834901402
 30
0.0
 11
137.7876484385
 21
100.6834890971
 31
0.0
  0
LINE
  5
26F
330
1F
100
AcDbEntity
  8
0
  6
CONTINUOUS
 62
     8
100
AcDbLine
 10
137.7876484385
 20
150.6834898422
 30
0.0
 11
137.7876484385
 21
155.6834887991
 31
0.0
  0
LINE
  5
270
330
1F
100
AcDbEntity
  8
0
  6
CONTINUOUS
 62
     8
100
AcDbLine
 10
382.7876532069
 20
95.6834901402
 30
0.0
 11
382.7876532069
 21
100.6834890971
 31
0.0
  0
LINE
  5
271
330
1F
100
AcDbEntity
  8
0
  6
CONTINUOUS
 62
     8
100
AcDbLine
 10
382.7876532069
 20
150.6834898422
 30
0.0
 11
382.7876532069
 21
155.6834887991
 31
0.0
  0
LINE
  5
272
330
1F
100
AcDbEntity
  8
0
  6
CONTINUOUS
 62
     7
100
AcDbLine
 10
603.5055039564
 20
376.5541832891
 30
0.0
 11
603.5055039564
 21
377.5960724798
 31
0.0
  0
LINE
  5
273
330
1F
100
AcDbEntity
  8
0
  6
CONTINUOUS
 62
     7
100
AcDbLine
 10
553.5055032114
 20
376.5541832891
 30
0.0
 11
553.5055032114
 21
377.5960724798
 31
0.0
  0
LINE
  5
274
330
1F
100
AcDbEntity
  8
0
  6
CONTINUOUS
 62
     7
100
AcDbLine
 10
603.5055039564
 20
368.1563954797
 30
0.0
 11
603.5055039564
 21
376.5541832891
 31
0.0
  0
LINE
  5
275
330
1F
100
AcDbEntity
  8
0
  6
CONTINUOUS
 62
     7
100
AcDbLine
 10
553.5055032114
 20
368.1563954797
 30
0.0
 11
553.5055032114
 21
376.5541832891
 31
0.0
  0
LINE
  5
276
330
1F
100
AcDbEntity
  8
0
  6
CONTINUOUS
 62
     7
100
AcDbLine
 10
603.5055039564
 20
377.5960724798
 30
0.0
 11
603.5055039564
 21
530.810556933
 31
0.0
  0
LINE
  5
277
330
1F
100
AcDbEntity
  8
0
  6
CONTINUOUS
 62
     7
100
AcDbLine
 10
553.5055032114
 20
377.5960724798
 30
0.0
 11
553.5055032114
 21
530.810556933
 31
0.0
  0
LWPOLYLINE
  5
278
330
1F
100
AcDbEntity
  8
0
  6
CONTINUOUS
 62
     7
100
AcDbPolyline
 90
       36
 70
   128
 43
0.0
 10
578.5055035839
 20
416.117436811
 10
580.4696293661
 20
415.9433465448
 10
582.3706266118
 20
415.4266636816
 10
584.1473956706
 20
414.5840179172
 10
585.742829472
 20
413.4424846616
 10
587.1056500936
 20
412.0387356725
 10
588.1920546407
 20
410.4179065671
 10
588.9671255017
 20
408.632091805
 10
589.405950729
 20
406.7386757579
 10
589.4944273049
 20
404.7985296693
 10
589.2297109703
 20
402.8739999977
 10
588.6203093568
 20
401.0269563642
 10
587.6858091095
 20
399.3167351928
 10
586.4562472442
 20
397.7983366695
 10
584.9711411746
 20
396.5205620971
 10
583.278224908
 20
395.5244492736
 10
581.4319088703
 20
394.8420505968
 10
579.4915360046
 20
394.4952707735
 10
577.5194711631
 20
394.4952707735
 10
575.5790982975
 20
394.8420505968
 10
573.7327822598
 20
395.5244492736
 10
572.0398659931
 20
396.5205620971
 10
570.5547599235
 20
397.7983366695
 10
569.3251980582
 20
399.3167351928
 10
568.390697811
 20
401.0269563642
 10
567.7812961975
 20
402.8739999977
 10
567.5165798629
 20
404.7985296693
 10
567.6050564388
 20
406.7386757579
 10
568.0438816661
 20
408.632091805
 10
568.8189525271
 20
410.4179065671
 10
569.9053570742
 20
412.0387356725
 10
571.2681776958
 20
413.4424846616
 10
572.8636114972
 20
414.5840179172
 10
574.6403805559
 20
415.4266636816
 10
576.5413778016
 20
415.9433465448
 10
578.5055035839
 20
416.117436811
  0
LWPOLYLINE
  5
279
330
1F
100
AcDbEntity
  8
0
  6
CONTINUOUS
 62
     7
100
AcDbPolyline
 90
       33
 70
   128
 43
0.0
 10
578.5055035839
 20
451.6843628135
 10
580.3588617008
 20
451.5045952049
 10
582.1409962254
 20
450.9722065177
 10
583.7834208386
 20
450.1076560464
 10
585.2230178306
 20
448.9441584793
 10
586.4044647777
 20
447.526432201
 10
587.2823592389
 20
445.9089558569
 10
587.8229640538
 20
444.1538970914
 10
588.0055032784
 20
442.3286985603
 10
587.8229640538
 20
440.503485128
 10
587.2823592389
 20
438.7484263626
 10
586.4044647777
 20
437.1309649196
 10
585.2230178306
 20
435.7132386413
 10
583.7834208386
 20
434.549726173
 10
582.1409962254
 20
433.6851757017
 10
580.3588617008
 20
433.1527870145
 10
578.5055035839
 20
432.9730194059
 10
576.6521454669
 20
433.1527870145
 10
574.8700109424
 20
433.6851757017
 10
573.2275863292
 20
434.549726173
 10
571.7879893372
 20
435.7132386413
 10
570.60654239
 20
437.1309649196
 10
569.7286479289
 20
438.7484263626
 10
569.188043114
 20
440.503485128
 10
569.0055038894
 20
442.3286985603
 10
569.188043114
 20
444.1538970914
 10
569.7286479289
 20
445.9089558569
 10
570.60654239
 20
447.526432201
 10
571.7879893372
 20
448.9441584793
 10
573.2275863292
 20
450.1076560464
 10
574.8700109424
 20
450.9722065177
 10
576.6521454669
 20
451.5045952049
 10
578.5055035839
 20
451.6843628135
  0
LWPOLYLINE
  5
27A
330
1F
100
AcDbEntity
  8
0
  6
CONTINUOUS
 62
     7
100
AcDbPolyline
 90
       30
 70
   128
 43
0.0
 10
578.5055035839
 20
484.2968802896
 10
580.2252670864
 20
484.1126870361
 10
581.8646164725
 20
483.5687201467
 10
583.346897375
 20
482.6904010025
 10
584.6027998367
 20
481.5188270059
 10
585.5735997783
 20
480.1087599245
 10
586.2139036061
 20
478.5261224952
 10
586.4937711621
 20
476.844943687
 10
586.4001155013
 20
475.1438271251
 10
585.9373175653
 20
473.5023003068
 10
585.1270157026
 20
471.9971191135
 10
584.0070993753
 20
470.6986915317
 10
582.6299345234
 20
469.6676950899
 10
581.0599158166
 20
468.9523648468
 10
579.3704557463
 20
468.5861390081
 10
577.6405514215
 20
468.5861390081
 10
575.9510913512
 20
468.9523648468
 10
574.3810726443
 20
469.6676950899
 10
573.0039077925
 20
470.6986915317
 10
571.8839914652
 20
471.9971191135
 10
571.0736896025
 20
473.5023003068
 10
570.6108916664
 20
475.1438271251
 10
570.5172360057
 20
476.844943687
 10
570.7971035616
 20
478.5261224952
 10
571.4374073895
 20
480.1087599245
 10
572.408207331
 20
481.5188270059
 10
573.6641097927
 20
482.6904010025
 10
575.1463906953
 20
483.5687201467
 10
576.7857400814
 20
484.1126870361
 10
578.5055035839
 20
484.2968802896
  0
LWPOLYLINE
  5
27B
330
1F
100
AcDbEntity
  8
0
  6
CONTINUOUS
 62
     7
100
AcDbPolyline
 90
       28
 70
   128
 43
0.0
 10
578.5055035839
 20
513.9549594369
 10
580.0045067325
 20
513.7824337926
 10
581.4226983229
 20
513.2740955797
 10
582.6836229416
 20
512.4573629346
 10
583.7193044016
 20
511.37628369
 10
584.473908052
 20
510.0891213861
 10
584.9067541884
 20
508.6652856317
 10
584.994506661
 20
507.181517407
 10
584.7324352825
 20
505.7178210464
 10
584.134668682
 20
504.3530981985
 10
583.2334324831
 20
503.160915896
 10
582.077311922
 20
502.2055428472
 10
580.7286345979
 20
501.5385072675
 10
579.2601075253
 20
501.1957507577
 10
577.7508996424
 20
501.1957507577
 10
576.2823725698
 20
501.5385072675
 10
574.9336952457
 20
502.2055428472
 10
573.7775746847
 20
503.160915896
 10
572.8763384858
 20
504.3530981985
 10
572.2785718853
 20
505.7178210464
 10
572.0165005067
 20
507.181517407
 10
572.1042529793
 20
508.6652856317
 10
572.5370991157
 20
510.0891213861
 10
573.2917027662
 20
511.37628369
 10
574.3273842262
 20
512.4573629346
 10
575.5883088449
 20
513.2740955797
 10
577.0065004352
 20
513.7824337926
 10
578.5055035839
 20
513.9549594369
  0
ARC
  5
27C
330
1F
100
AcDbEntity
  8
0
  6
CONTINUOUS
 62
     7
100
AcDbCircle
 10
578.5055035839
 20
404.6339213512
 30
0.0
 40
11.0037383353071
100
AcDbArc
 50
2.0319245632
 51
177.9680754368
  0
ARC
  5
27D
330
1F
100
AcDbEntity
  8
0
  6
CONTINUOUS
 62
     7
100
AcDbCircle
 10
578.5055035839
 20
441.6866606282
 30
0.0
 40
9.503979879625263
100
AcDbArc
 50
2.3009284648
 51
177.6990715352
  0
ARC
  5
27E
330
1F
100
AcDbEntity
  8
0
  6
CONTINUOUS
 62
     7
100
AcDbCircle
 10
578.5055035839
 20
475.8002859338
 30
0.0
 40
8.003622066054273
100
AcDbArc
 50
2.5612061836
 51
177.4387938164
  0
ARC
  5
27F
330
1F
100
AcDbEntity
  8
0
  6
CONTINUOUS
 62
     7
100
AcDbCircle
 10
578.5055035839
 20
506.9564282803
 30
0.0
 40
6.503344637945794
100
AcDbArc
 50
2.9687631145
 51
177.0312368855
  0
LINE
  5
280
330
1F
100
AcDbEntity
  8
0
  6
CONTINUOUS
 62
     7
100
AcDbLine
 10
603.5055039564
 20
549.8166602102
 30
0.0
 11
553.5055032114
 21
549.8166602102
 31
0.0
  0
LINE
  5
281
330
1F
100
AcDbEntity
  8
0
  6
CONTINUOUS
 62
     7
100
AcDbLine
 10
603.5055039564
 20
530.810556933
 30
0.0
 11
603.5055039564
 21
549.8166602102
 31
0.0
  0
LINE
  5
282
330
1F
100
AcDbEntity
  8
0
  6
CONTINUOUS
 62
     7
100
AcDbLine
 10
553.5055032114
 20
530.810556933
 30
0.0
 11
553.5055032114
 21
549.8166602102
 31
0.0
  0
LINE
  5
283
330
1F
100
AcDbEntity
  8
0
  6
CONTINUOUS
 62
     7
100
AcDbLine
 10
568.6568139235
 20
329.3703641739
 30
0.0
 11
571.7254254149
 21
331.226154789
 31
0.0
  0
LINE
  5
284
330
1F
100
AcDbEntity
  8
0
  6
CONTINUOUS
 62
     7
100
AcDbLine
 10
562.1324895063
 20
332.9624678937
 30
0.0
 11
568.6568139235
 21
329.3703641739
 31
0.0
  0
LINE
  5
285
330
1F
100
AcDbEntity
  8
0
  6
CONTINUOUS
 62
     7
100
AcDbLine
 10
572.1388739647
 20
342.1791937199
 30
0.0
 11
568.35419276
 21
344.2629273978
 31
0.0
  0
LINE
  5
286
330
1F
100
AcDbEntity
  8
0
  6
CONTINUOUS
 62
     7
100
AcDbLine
 10
568.35419276
 20
344.2629273978
 30
0.0
 11
561.9811793903
 21
340.4087495056
 31
0.0
  0
LINE
  5
287
330
1F
100
AcDbEntity
  8
0
  6
CONTINUOUS
 62
     7
100
AcDbLine
 10
561.9811793903
 20
340.4087495056
 30
0.0
 11
562.1324895063
 21
332.9624678937
 31
0.0
  0
ARC
  5
288
330
1F
100
AcDbEntity
  8
0
  6
CONTINUOUS
 62
     7
100
AcDbCircle
 10
568.5055035839
 20
336.816647574
 30
0.0
 40
8.000000000000034
100
AcDbArc
 50
63.1817583367
 51
292.4801709657
  0
CIRCLE
  5
289
330
1F
100
AcDbEntity
  8
0
  6
CONTINUOUS
 62
     7
100
AcDbCircle
 10
587.991075169
 20
348.066647574
 30
0.0
 40
9.422649730810337
  0
SPLINE
  5
28A
330
1F
100
AcDbEntity
  8
0
  6
CONTINUOUS
 62
     7
100
AcDbSpline
210
0.0
220
0.0
230
1.0
 70
     8
 71
     3
 72
    13
 73
     9
 74
     0
 42
0.00000001
 43
0.00000001
 40
0.0
 40
0.0
 40
0.0
 40
0.0
 40
0.180930712531709
 40
0.3628085510229108
 40
0.5522044368605482
 40
0.7465616089791581
 40
0.9390758709355171
 40
1.0
 40
1.0
 40
1.0
 40
1.0
 10
597.8924041727503
 20
347.3422970619723
 30
0.0
 10
597.6691610802903
 20
346.2671094247399
 30
0.0
 10
597.2215062749345
 20
344.1111058182561
 30
0.0
 10
595.2306337127069
 20
341.3432099371221
 30
0.0
 10
592.4723676544745
 20
339.2587076523236
 30
0.0
 10
589.1125442589412
 20
338.1669846543437
 30
0.0
 10
586.3520650441567
 20
338.221986703783
 30
0.0
 10
584.8895518887682
 20
338.6547192282483
 30
0.0
 10
584.5379779228886
 20
338.7587439265772
 30
0.0
  0
ARC
  5
28B
330
1F
100
AcDbEntity
  8
0
  6
CONTINUOUS
 62
     7
100
AcDbCircle
 10
587.991075169
 20
348.066647574
 30
0.0
 40
9.927790054981877
100
AcDbArc
 50
235.8158686475
 51
249.6458843921
  0
SPLINE
  5
28C
330
1F
100
AcDbEntity
  8
0
  6
CONTINUOUS
 62
     7
100
AcDbSpline
210
0.0
220
0.0
230
1.0
 70
     8
 71
     3
 72
    13
 73
     9
 74
     0
 42
0.00000001
 43
0.00000001
 40
0.0
 40
0.0
 40
0.0
 40
0.0
 40
0.1809305392600234
 40
0.36280868810889
 40
0.5522043849333612
 40
0.7465616005219604
 40
0.9390759991491635
 40
1.0
 40
1.0
 40
1.0
 40
1.0
 10
582.4131035359521
 20
339.854016527228
 30
0.0
 10
581.5935866422587
 20
340.5849442923741
 30
0.0
 10
579.9502606990545
 20
342.050627999832
 30
0.0
 10
578.5486246068434
 20
345.1587210356088
 30
0.0
 10
578.1225338247542
 20
348.5897024216313
 30
0.0
 10
578.8569805086288
 20
352.0452582184521
 30
0.0
 10
580.2848587995638
 20
354.4083981457518
 30
0.0
 10
581.3908666927946
 20
355.4586117050379
 30
0.0
 10
581.6567396858651
 20
355.7110723104998
 30
0.0
  0
ARC
  5
28D
330
1F
100
AcDbEntity
  8
0
  6
CONTINUOUS
 62
     7
100
AcDbCircle
 10
587.991075169
 20
348.066647574
 30
0.0
 40
9.927790054981388
100
AcDbArc
 50
115.8158686475
 51
129.6458843921
  0
SPLINE
  5
28E
330
1F
100
AcDbEntity
  8
0
  6
CONTINUOUS
 62
     7
100
AcDbSpline
210
0.0
220
0.0
230
1.0
 70
     8
 71
     3
 72
    13
 73
     9
 74
     0
 42
0.00000001
 43
0.00000001
 40
0.0
 40
0.0
 40
0.0
 40
0.0
 40
0.1809305363671731
 40
0.3628086874342929
 40
0.5522045412854906
 40
0.7465616052868874
 40
0.9390760587125266
 40
1.0
 40
1.0
 40
1.0
 40
1.0
 10
583.6677170472165
 20
357.0036288347765
 30
0.0
 10
584.710477351508
 20
357.347885271147
 30
0.0
 10
586.8014593654055
 20
358.0382011698792
 30
0.0
 10
590.1939647859487
 20
357.6980125947455
 30
0.0
 10
593.3783229886699
 20
356.3515221658154
 30
0.0
 10
596.0037039347469
 20
353.9877029442324
 30
0.0
 10
597.33629875699
 20
351.5695529462793
 30
0.0
 10
597.6928064288709
 20
350.0866161455252
 30
0.0
 10
597.7785071471651
 20
349.7301336374804
 30
0.0
  0
ARC
  5
28F
330
1F
100
AcDbEntity
  8
0
  6
CONTINUOUS
 62
     7
100
AcDbCircle
 10
587.991075169
 20
348.066647574
 30
0.0
 40
9.927790054982864
100
AcDbArc
 50
355.8158686475
 51
9.6458843921
  0
ARC
  5
290
330
1F
100
AcDbEntity
  8
0
  6
CONTINUOUS
 62
     7
100
AcDbCircle
 10
663.8228415518
 20
230.0864323892
 30
0.0
 40
124.9999999999999
100
AcDbArc
 50
112.0411544728
 51
133.4205985668
  0
SPLINE
  5
291
330
1F
100
AcDbEntity
  8
0
  6
CONTINUOUS
 62
     7
100
AcDbSpline
210
0.0
220
0.0
230
1.0
 70
     8
 71
     3
 72
    16
 73
    12
 74
     0
 42
0.00000001
 43
0.00000001
 40
0.0
 40
0.0
 40
0.0
 40
0.0
 40
0.3029771449529005
 40
0.5491713792709052
 40
0.7391476917081692
 40
0.8741770019760372
 40
0.9175535448275391
 40
0.9515150554551188
 40
0.9697410219709917
 40
0.9854330084725385
 40
1.0
 40
1.0
 40
1.0
 40
1.0
 10
584.5379779228886
 20
338.7587439265772
 30
0.0
 10
583.8391212779654
 20
336.8749580275527
 30
0.0
 10
582.5723852419364
 20
333.460438755549
 30
0.0
 10
580.8700870886711
 20
328.8718550752741
 30
0.0
 10
579.5635643463439
 20
325.3500874245337
 30
0.0
 10
578.7291657243883
 20
323.1009397542894
 30
0.0
 10
578.2753963795519
 20
321.8777981390554
 30
0.0
 10
578.0853134931133
 20
321.3654185791139
 30
0.0
 10
577.9744030826793
 20
321.0664699600612
 30
0.0
 10
577.9151883963988
 20
320.9068502843675
 30
0.0
 10
577.9078091014
 20
320.8869570900695
 30
0.0
 10
577.9042566308696
 20
320.8773802962824
 30
0.0
  0
SPLINE
  5
292
330
1F
100
AcDbEntity
  8
0
  6
CONTINUOUS
 62
     7
100
AcDbSpline
210
0.0
220
0.0
230
1.0
 70
     8
 71
     3
 72
    16
 73
    12
 74
     0
 42
0.00000001
 43
0.00000001
 40
0.0
 40
0.0
 40
0.0
 40
0.0
 40
0.0145669678781103
 40
0.0302589110427883
 40
0.0484850950150248
 40
0.0824465808888529
 40
0.125823201288611
 40
0.2608523692369835
 40
0.4508285003152124
 40
0.6970228732453557
 40
1.0
 40
1.0
 40
1.0
 40
1.0
 10
616.9137830028255
 20
345.9507521238848
 30
0.0
 10
616.9035967893493
 20
345.951497242271
 30
0.0
 10
616.8824377032568
 20
345.9530450229179
 30
0.0
 10
616.7126440155856
 20
345.9654657728498
 30
0.0
 10
616.3946264595626
 20
345.98872785122
 30
0.0
 10
615.8495842383938
 20
346.0286074888485
 30
0.0
 10
614.5484579501641
 20
346.1237834919799
 30
0.0
 10
612.1559226214216
 20
346.2988223032029
 30
0.0
 10
608.4096267096846
 20
346.5728875661458
 30
0.0
 10
603.5285010878607
 20
346.9299823131528
 30
0.0
 10
599.896289875865
 20
347.1957006420052
 30
0.0
 10
597.8924041727503
 20
347.3422970619723
 30
0.0
  0
ARC
  5
293
330
1F
100
AcDbEntity
  8
0
  6
CONTINUOUS
 62
     7
100
AcDbCircle
 10
447.9013284837
 20
341.384519065
 30
0.0
 40
124.9999999999997
100
AcDbArc
 50
352.0411544728
 51
13.4205985668
  0
SPLINE
  5
294
330
1F
100
AcDbEntity
  8
0
  6
CONTINUOUS
 62
     7
100
AcDbSpline
210
0.0
220
0.0
230
1.0
 70
     8
 71
     3
 72
    16
 73
    12
 74
     0
 42
0.00000001
 43
0.00000001
 40
0.0
 40
0.0
 40
0.0
 40
0.0
 40
0.0145669575284342
 40
0.030258909389362
 40
0.0484849849756212
 40
0.0824465281858284
 40
0.1258231711886381
 40
0.2608524440639784
 40
0.4508284058509192
 40
0.6970229067201857
 40
1.0
 40
1.0
 40
1.0
 40
1.0
 10
569.4878907987793
 20
370.3967180100008
 30
0.0
 10
569.4944076435625
 20
370.3888546839581
 30
0.0
 10
569.5079446237738
 20
370.3725207535705
 30
0.0
 10
569.6165678232259
 20
370.2414272009668
 30
0.0
 10
569.8200191334126
 20
369.995904652411
 30
0.0
 10
570.1687076395896
 20
369.5750955830184
 30
0.0
 10
571.0010961087933
 20
368.570547784175
 30
0.0
 10
572.5317110286028
 20
366.7233647660015
 30
0.0
 10
574.9283928698799
 20
363.8310034007895
 30
0.0
 10
578.0510677261518
 20
360.0624762178737
 30
0.0
 10
580.3747615219715
 20
357.2581916418929
 30
0.0
 10
581.6567396858651
 20
355.7110723104998
 30
0.0
  0
SPLINE
  5
295
330
1F
100
AcDbEntity
  8
0
  6
CONTINUOUS
 62
     7
100
AcDbSpline
210
0.0
220
0.0
230
1.0
 70
     8
 71
     3
 72
    16
 73
    12
 74
     0
 42
0.00000001
 43
0.00000001
 40
0.0
 40
0.0
 40
0.0
 40
0.0
 40
0.014567020786322
 40
0.030258941688568
 40
0.0484850643059178
 40
0.0824466147071927
 40
0.1258231410189453
 40
0.2608523773895576
 40
0.4508286731312407
 40
0.6970230074580369
 40
1.0
 40
1.0
 40
1.0
 40
1.0
 10
571.6973008701522
 20
324.0767937150522
 30
0.0
 10
571.7030391537807
 20
324.0852456154435
 30
0.0
 10
571.7149588449963
 20
324.1028020921486
 30
0.0
 10
571.8106130892584
 20
324.2436327579651
 30
0.0
 10
571.9897701064551
 20
324.5074101378393
 30
0.0
 10
572.2968229549248
 20
324.9594946888216
 30
0.0
 10
573.029819397023
 20
326.0387073809164
 30
0.0
 10
574.377669800222
 20
328.0231898430675
 30
0.0
 10
576.4881645666889
 20
331.1305447811097
 30
0.0
 10
579.2379758629262
 20
335.1791779537576
 30
0.0
 10
581.2842030717989
 20
338.1919014947314
 30
0.0
 10
582.4131035359521
 20
339.854016527228
 30
0.0
  0
ARC
  5
296
330
1F
100
AcDbEntity
  8
0
  6
CONTINUOUS
 62
     7
100
AcDbCircle
 10
652.2490554716
 20
472.7289912677
 30
0.0
 40
124.9999999999999
100
AcDbArc
 50
232.0411544728
 51
253.4205985668
  0
SPLINE
  5
297
330
1F
100
AcDbEntity
  8
0
  6
CONTINUOUS
 62
     7
100
AcDbSpline
210
0.0
220
0.0
230
1.0
 70
     8
 71
     3
 72
    16
 73
    12
 74
     0
 42
0.00000001
 43
0.00000001
 40
0.0
 40
0.0
 40
0.0
 40
0.0
 40
0.0145669673888767
 40
0.0302588427009625
 40
0.0484850478395655
 40
0.0824465754567954
 40
0.1258230868813708
 40
0.2608523785396146
 40
0.4508285166281198
 40
0.6970228978816075
 40
1.0
 40
1.0
 40
1.0
 40
1.0
 10
616.5810773262699
 20
352.9258366671129
 30
0.0
 10
616.5710079618937
 20
352.9241263787403
 30
0.0
 10
616.5500916445422
 20
352.9205737280437
 30
0.0
 10
616.3822559127353
 20
352.8920432883322
 30
0.0
 10
616.067893681078
 20
352.8386211392652
 30
0.0
 10
615.5291217408557
 20
352.7470495733097
 30
0.0
 10
614.2429657956726
 20
352.5284401271848
 30
0.0
 10
611.8779475334412
 20
352.1264993873061
 30
0.0
 10
608.1747479768654
 20
351.4970865189912
 30
0.0
 10
603.3497706967519
 20
350.6770274465206
 30
0.0
 10
599.7593416097611
 20
350.0667969226888
 30
0.0
 10
597.7785071471651
 20
349.7301336374804
 30
0.0
  0
SPLINE
  5
298
330
1F
100
AcDbEntity
  8
0
  6
CONTINUOUS
 62
     7
100
AcDbSpline
210
0.0
220
0.0
230
1.0
 70
     8
 71
     3
 72
    16
 73
    12
 74
     0
 42
0.00000001
 43
0.00000001
 40
0.0
 40
0.0
 40
0.0
 40
0.0
 40
0.0145669644826928
 40
0.0302590258773146
 40
0.0484850936931516
 40
0.0824467227047385
 40
0.1258231310213068
 40
0.2608523578651053
 40
0.450828720871519
 40
0.6970228315032934
 40
0.9999999999999999
 40
0.9999999999999999
 40
0.9999999999999999
 40
0.9999999999999999
 10
575.3621425127556
 20
374.1723965850397
 30
0.0
 10
575.3665902969142
 20
374.1632032128863
 30
0.0
 10
575.3758293951569
 20
374.1441064074934
 30
0.0
 10
575.4499678016934
 20
373.9908415830921
 30
0.0
 10
575.5888294651131
 20
373.7038048496212
 30
0.0
 10
575.8268171187506
 20
373.2118419067375
 30
0.0
 10
576.3949493516046
 20
372.0374482403049
 30
0.0
 10
577.4396349586407
 20
369.8779309654628
 30
0.0
 10
579.0754304577941
 20
366.4965109832722
 30
0.0
 10
581.2067497926394
 20
362.0907896894229
 30
0.0
 10
582.7927323040853
 20
358.8123437314866
 30
0.0
 10
583.6677170472165
 20
357.0036288347765
 30
0.0
  0
ARC
  5
299
330
1F
100
AcDbEntity
  8
0
  6
CONTINUOUS
 62
     7
100
AcDbCircle
 10
587.991075169
 20
348.066647574
 30
0.0
 40
29.00000000000001
100
AcDbArc
 50
235.8158686475
 51
249.6458843921
  0
ARC
  5
29A
330
1F
100
AcDbEntity
  8
0
  6
CONTINUOUS
 62
     7
100
AcDbCircle
 10
587.991075169
 20
348.066647574
 30
0.0
 40
29.00000000000006
100
AcDbArc
 50
115.8158686475
 51
129.6458843921
  0
ARC
  5
29B
330
1F
100
AcDbEntity
  8
0
  6
CONTINUOUS
 62
     7
100
AcDbCircle
 10
587.991075169
 20
348.066647574
 30
0.0
 40
28.99999999999991
100
AcDbArc
 50
355.8158686475
 51
9.6458843921
  0
LINE
  5
29C
330
1F
100
AcDbEntity
  8
0
  6
CONTINUOUS
 62
     7
100
AcDbLine
 10
578.0871939668
 20
320.0030472127
 30
0.0
 11
577.9042566309
 21
320.8773802963
 31
0.0
  0
ARC
  5
29D
330
1F
100
AcDbEntity
  8
0
  6
CONTINUOUS
 62
     7
100
AcDbCircle
 10
587.991075169
 20
348.066647574
 30
0.0
 40
29.7599127996041
100
AcDbArc
 50
234.9001209058
 51
250.5616321338
  0
LINE
  5
29E
330
1F
100
AcDbEntity
  8
0
  6
CONTINUOUS
 62
     7
100
AcDbLine
 10
570.879020367
 20
323.7185474482
 30
0.0
 11
571.6973008702
 21
324.0767937151
 31
0.0
  0
LINE
  5
29F
330
1F
100
AcDbEntity
  8
0
  6
CONTINUOUS
 62
     7
100
AcDbLine
 10
617.6331775377
 20
345.4212244597
 30
0.0
 11
616.9137830028
 21
345.9507521239
 31
0.0
  0
ARC
  5
2A0
330
1F
100
AcDbEntity
  8
0
  6
CONTINUOUS
 62
     7
100
AcDbCircle
 10
663.8228415518
 20
230.0864323892
 30
0.0
 40
124.2400872003958
100
AcDbArc
 50
111.8252804242
 51
133.6364726154
  0
ARC
  5
2A1
330
1F
100
AcDbEntity
  8
0
  6
CONTINUOUS
 62
     7
100
AcDbCircle
 10
447.9013284837
 20
341.384519065
 30
0.0
 40
124.2400872003956
100
AcDbArc
 50
351.8252804242
 51
13.6364726154
  0
LINE
  5
2A2
330
1F
100
AcDbEntity
  8
0
  6
CONTINUOUS
 62
     7
100
AcDbLine
 10
568.639226828
 20
370.6754591313
 30
0.0
 11
569.4878907988
 21
370.39671801
 31
0.0
  0
ARC
  5
2A3
330
1F
100
AcDbEntity
  8
0
  6
CONTINUOUS
 62
     7
100
AcDbCircle
 10
587.991075169
 20
348.066647574
 30
0.0
 40
29.75991279960418
100
AcDbArc
 50
114.9001209058
 51
130.5616321338
  0
LINE
  5
2A4
330
1F
100
AcDbEntity
  8
0
  6
CONTINUOUS
 62
     7
100
AcDbLine
 10
575.4610291796
 20
375.0601705161
 30
0.0
 11
575.3621425128
 21
374.172396585
 31
0.0
  0
ARC
  5
2A5
330
1F
100
AcDbEntity
  8
0
  6
CONTINUOUS
 62
     7
100
AcDbCircle
 10
652.2490554716
 20
472.7289912677
 30
0.0
 40
124.2400872003958
100
AcDbArc
 50
231.8252804242
 51
253.6364726154
  0
LINE
  5
2A6
330
1F
100
AcDbEntity
  8
0
  6
CONTINUOUS
 62
     7
100
AcDbLine
 10
617.2468053291
 20
353.52143608
 30
0.0
 11
616.5810773263
 21
352.9258366671
 31
0.0
  0
ARC
  5
2A7
330
1F
100
AcDbEntity
  8
0
  6
CONTINUOUS
 62
     7
100
AcDbCircle
 10
587.991075169
 20
348.066647574
 30
0.0
 40
29.75991279960408
100
AcDbArc
 50
354.9001209058
 51
10.5616321338
  0
LWPOLYLINE
  5
2A8
330
1F
100
AcDbEntity
  8
0
  6
CONTINUOUS
 62
     7
100
AcDbPolyline
 90
        3
 70
   128
 43
0.0
 10
617.6331775377
 20
345.4212244597
 10
617.5354929754
 20
344.4917719808
 10
617.3961261401
 20
343.484580144
  0
LWPOLYLINE
  5
2A9
330
1F
100
AcDbEntity
  8
0
  6
CONTINUOUS
 62
     7
100
AcDbPolyline
 90
        3
 70
   128
 43
0.0
 10
617.3961261401
 20
343.484580144
 10
611.8214750776
 20
341.5179919448
 10
608.5055029133
 20
340.2039628473
  0
LINE
  5
2AA
330
1F
100
AcDbEntity
  8
0
  6
CONTINUOUS
 62
     7
100
AcDbLine
 10
608.5055029133
 20
253.8166475479
 30
0.0
 11
608.5055029133
 21
276.816647127
 31
0.0
  0
LINE
  5
2AB
330
1F
100
AcDbEntity
  8
0
  6
CONTINUOUS
 62
     7
100
AcDbLine
 10
608.5055029133
 20
253.8166475479
 30
0.0
 11
548.5055042544
 21
253.8166475479
 31
0.0
  0
LINE
  5
2AC
330
1F
100
AcDbEntity
  8
0
  6
CONTINUOUS
 62
     7
100
AcDbLine
 10
548.5055042544
 20
253.8166475479
 30
0.0
 11
548.5055042544
 21
276.816647127
 31
0.0
  0
LINE
  5
2AD
330
1F
100
AcDbEntity
  8
0
  6
CONTINUOUS
 62
     7
100
AcDbLine
 10
607.0055035988
 20
362.0942156759
 30
0.0
 11
608.5055029133
 21
356.496139988
 31
0.0
  0
LINE
  5
2AE
330
1F
100
AcDbEntity
  8
0
  6
CONTINUOUS
 62
     7
100
AcDbLine
 10
608.5055029133
 20
276.816647127
 30
0.0
 11
608.5055029133
 21
341.3320701566
 31
0.0
  0
LINE
  5
2AF
330
1F
100
AcDbEntity
  8
0
  6
CONTINUOUS
 62
     7
100
AcDbLine
 10
608.5055029133
 20
356.4444255081
 30
0.0
 11
608.5055029133
 21
356.496139988
 31
0.0
  0
LINE
  5
2B0
330
1F
100
AcDbEntity
  8
0
  6
CONTINUOUS
 62
     7
100
AcDbLine
 10
557.0055028537
 20
374.218567833
 30
0.0
 11
561.50550266
 21
376.8166448918
 31
0.0
  0
LINE
  5
2B1
330
1F
100
AcDbEntity
  8
0
  6
CONTINUOUS
 62
     7
100
AcDbLine
 10
595.5055045078
 20
376.8166448918
 30
0.0
 11
561.50550266
 21
376.8166448918
 31
0.0
  0
LINE
  5
2B2
330
1F
100
AcDbEntity
  8
0
  6
CONTINUOUS
 62
     7
100
AcDbLine
 10
595.5055045078
 20
376.8166448918
 30
0.0
 11
600.005504314
 21
374.218567833
 31
0.0
  0
LINE
  5
2B3
330
1F
100
AcDbEntity
  8
0
  6
CONTINUOUS
 62
     7
100
AcDbLine
 10
600.005504314
 20
374.218567833
 30
0.0
 11
607.0055035988
 21
362.0942156759
 31
0.0
  0
LINE
  5
2B4
330
1F
100
AcDbEntity
  8
0
  6
CONTINUOUS
 62
     7
100
AcDbLine
 10
550.005503569
 20
362.0942156759
 30
0.0
 11
557.0055028537
 21
374.218567833
 31
0.0
  0
LINE
  5
2B5
330
1F
100
AcDbEntity
  8
0
  6
CONTINUOUS
 62
     7
100
AcDbLine
 10
548.5055042544
 20
356.496139988
 30
0.0
 11
550.005503569
 21
362.0942156759
 31
0.0
  0
LINE
  5
2B6
330
1F
100
AcDbEntity
  8
0
  6
CONTINUOUS
 62
     7
100
AcDbLine
 10
548.5055042544
 20
276.816647127
 30
0.0
 11
548.5055042544
 21
356.496139988
 31
0.0
  0
LINE
  5
2B7
330
1F
100
AcDbEntity
  8
0
  6
CONTINUOUS
 62
     8
100
AcDbLine
 10
603.5055039564
 20
377.5960724798
 30
0.0
 11
553.5055032114
 21
377.5960724798
 31
0.0
  0
LINE
  5
2B8
330
1F
100
AcDbEntity
  8
0
  6
CONTINUOUS
 62
     8
100
AcDbLine
 10
603.5055039564
 20
376.5541832891
 30
0.0
 11
595.9601072708
 21
376.5541832891
 31
0.0
  0
LINE
  5
2B9
330
1F
100
AcDbEntity
  8
0
  6
CONTINUOUS
 62
     8
100
AcDbLine
 10
561.050899897
 20
376.5541832891
 30
0.0
 11
553.5055032114
 21
376.5541832891
 31
0.0
  0
LINE
  5
2BA
330
1F
100
AcDbEntity
  8
0
  6
CONTINUOUS
 62
     8
100
AcDbLine
 10
603.5055039564
 20
530.810556933
 30
0.0
 11
553.5055032114
 21
530.810556933
 31
0.0
  0
LINE
  5
2BB
330
1F
100
AcDbEntity
  8
0
  6
CONTINUOUS
 62
     8
100
AcDbLine
 10
608.5055029133
 20
276.816647127
 30
0.0
 11
548.5055042544
 21
276.816647127
 31
0.0
  0
DIMENSION
  5
2BC
330
1F
100
AcDbEntity
  8
0
  6
CONTINUOUS
 62
     7
100
AcDbDimension
  2
*D3
 10
649.0302733814
 20
549.816647574
 30
0.0
 11
649.0302733814
 21
401.816647574
 31
0.0
 70
   160
  3
SLDDIMSTYLE1
100
AcDbAlignedDimension
 13
608.5055035839
 23
253.816647574
 33
0.0
 14
603.5055035839
 24
549.816647574
 34
0.0
 50
90.0
100
AcDbRotatedDimension
  0
DIMENSION
  5
2C7
330
1F
100
AcDbEntity
  8
0
  6
CONTINUOUS
 62
     7
100
AcDbDimension
  2
*D4
 10
608.5055035839
 20
223.816647574
 30
0.0
 11
578.5055035839
 21
223.816647574
 31
0.0
 70
   160
  3
SLDDIMSTYLE1
100
AcDbAlignedDimension
 13
548.5055035839
 23
276.816647574
 33
0.0
 14
608.5055035839
 24
276.816647574
 34
0.0
100
AcDbRotatedDimension
  0
LINE
  5
2D1
330
1F
100
AcDbEntity
  8
0
  6
CONTINUOUS
 62
     7
100
AcDbLine
 10
749.303202273
 20
442.5443603173
 30
0.0
 11
730.0405069115
 21
433.4748917237
 31
0.0
  0
LINE
  5
2D2
330
1F
100
AcDbEntity
  8
0
  6
CONTINUOUS
 62
     7
100
AcDbLine
 10
736.3858236707
 20
353.0626871459
 30
0.0
 11
737.5786244018
 21
352.3621129413
 31
0.0
  0
LINE
  5
2D3
330
1F
100
AcDbEntity
  8
0
  6
CONTINUOUS
 62
     7
100
AcDbLine
 10
739.5459564817
 20
355.7212389395
 30
0.0
 11
738.3509432322
 21
356.4179347506
 31
0.0
  0
SPLINE
  5
2D4
330
1F
100
AcDbEntity
  8
0
  6
CONTINUOUS
 62
     7
100
AcDbSpline
210
0.0
220
0.0
230
1.0
 70
     8
 71
     3
 72
    13
 73
     9
 74
     0
 42
0.00000001
 43
0.00000001
 40
0.0
 40
0.0
 40
0.0
 40
0.0
 40
0.1312185617815081
 40
0.3080246354377819
 40
0.489498644951409
 40
0.6763588568666826
 40
0.8718699997754167
 40
1.0
 40
1.0
 40
1.0
 40
1.0
 10
739.6129235588265
 20
355.6283255409476
 30
0.0
 10
739.6204886145359
 20
355.7413344182073
 30
0.0
 10
739.6382510568761
 20
356.0066746540691
 30
0.0
 10
739.5907680715319
 20
356.3981499219769
 30
0.0
 10
739.4767839663549
 20
356.7982764857925
 30
0.0
 10
739.2794192013409
 20
357.1530140488048
 30
0.0
 10
739.0411292718038
 20
357.4250841820519
 30
0.0
 10
738.841477586012
 20
357.5240734485925
 30
0.0
 10
738.7624057787415
 20
357.56327802718
 30
0.0
  0
LINE
  5
2D5
330
1F
100
AcDbEntity
  8
0
  6
CONTINUOUS
 62
     7
100
AcDbLine
 10
738.8275986007
 20
357.5463497427
 30
0.0
 11
738.3634575077
 21
357.8163183124
 31
0.0
  0
SPLINE
  5
2D6
330
1F
100
AcDbEntity
  8
0
  6
CONTINUOUS
 62
     7
100
AcDbSpline
210
0.0
220
0.0
230
1.0
 70
     8
 71
     3
 72
    10
 73
     6
 74
     0
 42
0.00000001
 43
0.00000001
 40
0.0
 40
0.0
 40
0.0
 40
0.0
 40
0.0216383364978435
 40
0.5158610582216897
 40
1.0
 40
1.0
 40
1.0
 40
1.0
 10
735.8004418325619
 20
354.7921678441247
 30
0.0
 10
735.801923550802
 20
354.7971579655307
 30
0.0
 10
735.8372496633008
 20
354.9161290258791
 30
0.0
 10
735.9375701692112
 20
355.1490079386533
 30
0.0
 10
736.0557695583241
 20
355.3665652535598
 30
0.0
 10
736.1142610456208
 20
355.4742244472043
 30
0.0
  0
SPLINE
  5
2D7
330
1F
100
AcDbEntity
  8
0
  6
CONTINUOUS
 62
     7
100
AcDbSpline
210
0.0
220
0.0
230
1.0
 70
     8
 71
     3
 72
     9
 73
     5
 74
     0
 42
0.00000001
 43
0.00000001
 40
0.0
 40
0.0
 40
0.0
 40
0.0
 40
0.3441773960514383
 40
1.0
 40
1.0
 40
1.0
 40
1.0
 10
735.6893362051451
 20
354.36508336418
 30
0.0
 10
735.6972174271032
 20
354.4130349096668
 30
0.0
 10
735.7201186839864
 20
354.5523725234266
 30
0.0
 10
735.7686266282387
 20
354.6971872904605
 30
0.0
 10
735.8004418325619
 20
354.7921678441247
 30
0.0
  0
SPLINE
  5
2D8
330
1F
100
AcDbEntity
  8
0
  6
CONTINUOUS
 62
     7
100
AcDbSpline
210
0.0
220
0.0
230
1.0
 70
     8
 71
     3
 72
    13
 73
     9
 74
     0
 42
0.00000001
 43
0.00000001
 40
0.0
 40
0.0
 40
0.0
 40
0.0
 40
0.2673844752887681
 40
0.3749506762710925
 40
0.5501335399294374
 40
0.7268193903037711
 40
0.9114886206087071
 40
1.0
 40
1.0
 40
1.0
 40
1.0
 10
736.1142610456208
 20
355.4742244472043
 30
0.0
 10
736.2229220998494
 20
355.6429931277027
 30
0.0
 10
736.3752907750824
 20
355.8796470093613
 30
0.0
 10
736.6389915258908
 20
356.1785981607429
 30
0.0
 10
736.8714671262185
 20
356.4027426712478
 30
0.0
 10
737.1534106263514
 20
356.6123189597681
 30
0.0
 10
737.393464455115
 20
356.7522555742461
 30
0.0
 10
737.5300080724112
 20
356.796089596422
 30
0.0
 10
737.574238619105
 20
356.8102887424752
 30
0.0
  0
SPLINE
  5
2D9
330
1F
100
AcDbEntity
  8
0
  6
CONTINUOUS
 62
     7
100
AcDbSpline
210
0.0
220
0.0
230
1.0
 70
     8
 71
     3
 72
    13
 73
     9
 74
     0
 42
0.00000001
 43
0.00000001
 40
0.0
 40
0.0
 40
0.0
 40
0.0
 40
0.0968859635378243
 40
0.3254860612481063
 40
0.5525010333519188
 40
0.7719321670904339
 40
0.97848586260709
 40
1.0
 40
1.0
 40
1.0
 40
1.0
 10
735.7098835920917
 20
352.0727257506776
 30
0.0
 10
735.7627697502592
 20
352.0408218323911
 30
0.0
 10
735.9403822478696
 20
351.9336759400294
 30
0.0
 10
736.3042629372227
 20
351.8835223396557
 30
0.0
 10
736.7604612408218
 20
351.9155840471773
 30
0.0
 10
737.2109636391122
 20
352.0699454479995
 30
0.0
 10
737.5209873471019
 20
352.2171510196469
 30
0.0
 10
737.6703440513937
 20
352.3310351789053
 30
0.0
 10
737.6844316378937
 20
352.3417769326962
 30
0.0
  0
LINE
  5
2DA
330
1F
100
AcDbEntity
  8
0
  6
CONTINUOUS
 62
     7
100
AcDbLine
 10
735.1719263495
 20
352.3671794052
 30
0.0
 11
735.6346717657
 21
352.0947644287
 31
0.0
  0
SPLINE
  5
2DB
330
1F
100
AcDbEntity
  8
0
  6
CONTINUOUS
 62
     7
100
AcDbSpline
210
0.0
220
0.0
230
1.0
 70
     8
 71
     3
 72
    13
 73
     9
 74
     0
 42
0.00000001
 43
0.00000001
 40
0.0
 40
0.0
 40
0.0
 40
0.0
 40
0.1114011105795916
 40
0.2456141996177898
 40
0.4023341419440299
 40
0.5809898498765802
 40
0.7806632267169129
 40
1.0
 40
1.0
 40
1.0
 40
1.0
 10
718.5510093407231
 20
376.7451437495187
 30
0.0
 10
718.0997467212196
 20
376.1008382676433
 30
0.0
 10
717.104449489385
 20
374.6797689504641
 30
0.0
 10
715.393843177634
 20
372.4244842183365
 30
0.0
 10
713.3206326670471
 20
369.872444216899
 30
0.0
 10
710.854472613079
 20
367.0908807746308
 30
0.0
 10
707.9902226383692
 20
364.1318803593793
 30
0.0
 10
705.8848524369256
 20
362.242509070365
 30
0.0
 10
704.7806488207771
 20
361.2515904147545
 30
0.0
  0
LINE
  5
2DC
330
1F
100
AcDbEntity
  8
0
  6
CONTINUOUS
 62
     7
100
AcDbLine
 10
730.6072706016
 20
353.9043542223
 30
0.0
 11
730.6537223459
 21
353.9352781584
 31
0.0
  0
LINE
  5
2DD
330
1F
100
AcDbEntity
  8
0
  6
CONTINUOUS
 62
     7
100
AcDbLine
 10
731.787956132
 20
355.8598927419
 30
0.0
 11
731.7891099685
 21
355.8740734232
 31
0.0
  0
LINE
  5
2DE
330
1F
100
AcDbEntity
  8
0
  6
CONTINUOUS
 62
     7
100
AcDbLine
 10
728.8045252715
 20
355.0198072434
 30
0.0
 11
728.8408302138
 21
355.0441160268
 31
0.0
  0
LINE
  5
2DF
330
1F
100
AcDbEntity
  8
0
  6
CONTINUOUS
 62
     7
100
AcDbLine
 10
728.9761858087
 20
353.9408111905
 30
0.0
 11
729.0424748775
 21
353.9016539944
 31
0.0
  0
LINE
  5
2E0
330
1F
100
AcDbEntity
  8
0
  6
CONTINUOUS
 62
     7
100
AcDbLine
 10
730.8369234273
 20
357.4008875676
 30
0.0
 11
730.7704263978
 21
357.4398741815
 31
0.0
  0
LINE
  5
2E1
330
1F
100
AcDbEntity
  8
0
  6
CONTINUOUS
 62
     7
100
AcDbLine
 10
731.2358872095
 20
357.1669786687
 30
0.0
 11
731.1693338634
 21
357.2059983006
 31
0.0
  0
SPLINE
  5
2E2
330
1F
100
AcDbEntity
  8
0
  6
CONTINUOUS
 62
     7
100
AcDbSpline
210
0.0
220
0.0
230
1.0
 70
     8
 71
     3
 72
    11
 73
     7
 74
     0
 42
0.00000001
 43
0.00000001
 40
0.0
 40
0.0
 40
0.0
 40
0.0
 40
0.0716109441943666
 40
0.4535653408708703
 40
0.8414508088060422
 40
1.0
 40
1.0
 40
1.0
 40
1.0
 10
704.5882274555345
 20
360.9718727027582
 30
0.0
 10
704.5795631367754
 20
360.8989244605406
 30
0.0
 10
704.5247015033316
 20
360.4370232036466
 30
0.0
 10
704.5147327956322
 20
359.609081862537
 30
0.0
 10
704.5356314247076
 20
358.7107005310189
 30
0.0
 10
704.6099940997588
 20
358.2154259724788
 30
0.0
 10
704.6315587311167
 20
358.071799976392
 30
0.0
  0
SPLINE
  5
2E3
330
1F
100
AcDbEntity
  8
0
  6
CONTINUOUS
 62
     7
100
AcDbSpline
210
0.0
220
0.0
230
1.0
 70
     8
 71
     3
 72
    17
 73
    13
 74
     0
 42
0.00000001
 43
0.00000001
 40
0.0
 40
0.0
 40
0.0
 40
0.0
 40
0.1448612885247324
 40
0.2653150495934729
 40
0.3654377635728092
 40
0.4606210271241721
 40
0.5215752163396462
 40
0.5834030064855369
 40
0.6609706789780704
 40
0.756316165460259
 40
0.8693805454381163
 40
1.0
 40
1.0
 40
1.0
 40
1.0
 10
830.0742511299792
 20
282.3477535216446
 30
0.0
 10
830.7995769150507
 20
282.5399577396469
 30
0.0
 10
832.1241292594536
 20
282.8909511177936
 30
0.0
 10
833.8898443037303
 20
283.2015444820438
 30
0.0
 10
835.383128617102
 20
283.3845049585762
 30
0.0
 10
836.5718525106985
 20
283.4644457361131
 30
0.0
 10
837.5667602455554
 20
283.4870825702946
 30
0.0
 10
838.4696355450076
 20
283.4745853732275
 30
0.0
 10
839.5065477866603
 20
283.41622414545
 30
0.0
 10
840.7359117128536
 20
283.277479390025
 30
0.0
 10
842.1476478081763
 20
283.0274187585304
 30
0.0
 10
843.108443066919
 20
282.7477181574018
 30
0.0
 10
843.6219888531551
 20
282.5982179763691
 30
0.0
  0
SPLINE
  5
2E4
330
1F
100
AcDbEntity
  8
0
  6
CONTINUOUS
 62
     7
100
AcDbSpline
210
0.0
220
0.0
230
1.0
 70
     8
 71
     3
 72
    12
 73
     8
 74
     0
 42
0.00000001
 43
0.00000001
 40
0.0
 40
0.0
 40
0.0
 40
0.0
 40
0.2260102907010893
 40
0.4411248722703753
 40
0.6432410526335313
 40
0.8302563235090864
 40
1.0
 40
1.0
 40
1.0
 40
1.0
 10
845.9279828629673
 20
285.5175676739523
 30
0.0
 10
845.797942965868
 20
286.7230692036092
 30
0.0
 10
845.5431143870697
 20
289.0853922167283
 30
0.0
 10
845.5049670620444
 20
292.814450610239
 30
0.0
 10
845.6917863708078
 20
296.4863735343924
 30
0.0
 10
846.0616700312331
 20
300.0204888019876
 30
0.0
 10
846.4539424666141
 20
302.3597380905188
 30
0.0
 10
846.6410375410366
 20
303.4754474298854
 30
0.0
  0
LINE
  5
2E5
330
1F
100
AcDbEntity
  8
0
  6
CONTINUOUS
 62
     7
100
AcDbLine
 10
833.0974251695
 20
300.8797650768
 30
0.0
 11
831.7103720063
 21
301.6887880054
 31
0.0
  0
LINE
  5
2E6
330
1F
100
AcDbEntity
  8
0
  6
CONTINUOUS
 62
     7
100
AcDbLine
 10
826.5349002301
 20
292.8761396198
 30
0.0
 11
826.7112828864
 21
292.7714128389
 31
0.0
  0
SPLINE
  5
2E7
330
1F
100
AcDbEntity
  8
0
  6
CONTINUOUS
 62
     7
100
AcDbSpline
210
0.0
220
0.0
230
1.0
 70
     8
 71
     3
 72
    11
 73
     7
 74
     0
 42
0.00000001
 43
0.00000001
 40
0.0
 40
0.0
 40
0.0
 40
0.0
 40
0.1338950175391458
 40
0.4964267549047304
 40
0.7759048928414601
 40
1.0
 40
1.0
 40
1.0
 40
1.0
 10
843.7698268208558
 20
282.6527138967377
 30
0.0
 10
843.8727876876347
 20
282.7690832731776
 30
0.0
 10
844.2544269862174
 20
283.2004231461842
 30
0.0
 10
844.8202010851654
 20
283.932382587985
 30
0.0
 10
845.4346642774168
 20
284.7678424529936
 30
0.0
 10
845.7728358329537
 20
285.2736820816076
 30
0.0
 10
845.9233103401426
 20
285.4987630134187
 30
0.0
  0
LINE
  5
2E8
330
1F
100
AcDbEntity
  8
0
  6
CONTINUOUS
 62
     7
100
AcDbLine
 10
725.6370554712
 20
353.6382937048
 30
0.0
 11
727.7365539943
 21
352.3934661746
 31
0.0
  0
LINE
  5
2E9
330
1F
100
AcDbEntity
  8
0
  6
CONTINUOUS
 62
     7
100
AcDbLine
 10
731.7224599905
 20
359.1565475062
 30
0.0
 11
729.6150594988
 21
360.387461708
 31
0.0
  0
LINE
  5
2EA
330
1F
100
AcDbEntity
  8
0
  6
CONTINUOUS
 62
     7
100
AcDbLine
 10
818.4730748834
 20
258.3669473336
 30
0.0
 11
839.442708724
 21
272.6247011303
 31
0.0
  0
LINE
  5
2EB
330
1F
100
AcDbEntity
  8
0
  6
CONTINUOUS
 62
     7
100
AcDbLine
 10
820.5382617701
 20
308.3095891972
 30
0.0
 11
811.7244627631
 21
384.4667156208
 31
0.0
  0
LINE
  5
2EC
330
1F
100
AcDbEntity
  8
0
  6
CONTINUOUS
 62
     7
100
AcDbLine
 10
838.6883200795
 20
319.7986742382
 30
0.0
 11
830.8770878997
 21
395.0899989343
 31
0.0
  0
LWPOLYLINE
  5
2ED
330
1F
100
AcDbEntity
  8
0
  6
CONTINUOUS
 62
     7
100
AcDbPolyline
 90
       36
 70
   128
 43
0.0
 10
827.6763721648
 20
332.499462111
 10
826.9626875095
 20
331.9715679439
 10
826.2896611518
 20
331.2917394634
 10
825.6792672665
 20
330.4818843335
 10
825.1514771692
 20
329.5682455275
 10
824.723564509
 20
328.5805433082
 10
824.4095059708
 20
327.5509973729
 10
824.2195234996
 20
326.5131941257
 10
824.1597124971
 20
325.5009615532
 10
824.2318655225
 20
324.5472277232
 10
824.4334251612
 20
323.6828929454
 10
824.7575990138
 20
322.9358261778
 10
825.1936200534
 20
322.329927709
 10
825.7271357756
 20
321.8844214773
 10
826.3407017639
 20
321.6132372329
 10
827.014403017
 20
321.5245990311
 10
827.7265013916
 20
321.6208777967
 10
828.4541453435
 20
321.8985163431
 10
829.1741118813
 20
322.3482431885
 10
829.8635175449
 20
322.9553962436
 10
830.5005214482
 20
323.7004200017
 10
831.0650001459
 20
324.5595159914
 10
831.5391398333
 20
325.5053492394
 10
831.9079634216
 20
326.5079489826
 10
832.1598000308
 20
327.5355667429
 10
832.2866094641
 20
328.5556478952
 10
832.2842481298
 20
329.5358528199
 10
832.1526113021
 20
330.4449940242
 10
831.8956573858
 20
331.2540286417
 10
831.5213117129
 20
331.9369473675
 10
831.0412629247
 20
332.4716310122
 10
830.4706108089
 20
332.8405744948
 10
829.827451221
 20
333.0314722096
 10
829.1323041889
 20
333.0377049031
 10
828.4074797401
 20
332.8585920467
 10
827.6763721648
 20
332.499462111
  0
LWPOLYLINE
  5
2EE
330
1F
100
AcDbEntity
  8
0
  6
CONTINUOUS
 62
     7
100
AcDbPolyline
 90
       33
 70
   128
 43
0.0
 10
825.7727369092
 20
349.8580798527
 10
825.091844548
 20
349.3578438473
 10
824.4559362682
 20
348.6988289039
 10
823.8897940747
 20
347.9064251303
 10
823.4155238088
 20
347.0113247903
 10
823.0516312756
 20
346.0483276864
 10
822.8122892555
 20
345.0549199076
 10
822.70674796
 20
344.0697781655
 10
822.7389753455
 20
343.1311938157
 10
822.9075362393
 20
342.2755229773
 10
823.2056478175
 20
341.5357903606
 10
823.6215073807
 20
340.9403524013
 10
824.1387904899
 20
340.5118314513
 10
824.7373409069
 20
340.2662948505
 10
825.3939717361
 20
340.2127177048
 10
826.0834032537
 20
340.3526545898
 10
826.7792190164
 20
340.6803055687
 10
827.4548895448
 20
341.1827825277
 10
828.0847412257
 20
341.8406514905
 10
828.644917134
 20
342.628695118
 10
829.1142200895
 20
343.5168915669
 10
829.474899988
 20
344.4714797957
 10
829.7132731747
 20
345.4562538851
 10
829.8202374277
 20
346.4338639624
 10
829.7916020811
 20
347.3671686556
 10
829.6282719276
 20
348.2205870014
 10
829.3362169226
 20
348.9614657589
 10
828.9263237833
 20
349.5612706507
 10
828.414008157
 20
349.9967021002
 10
827.8186700443
 20
350.2506407133
 10
827.1630078027
 20
350.3128446798
 10
826.4721534193
 20
350.180439383
 10
825.7727369092
 20
349.8580798527
  0
LWPOLYLINE
  5
2EF
330
1F
100
AcDbEntity
  8
0
  6
CONTINUOUS
 62
     7
100
AcDbPolyline
 90
       30
 70
   128
 43
0.0
 10
823.9914270282
 20
366.1012871633
 10
823.3533705194
 20
365.633224537
 10
822.7649467181
 20
365.0011804918
 10
822.2540051334
 20
364.2347881585
 10
821.8447620568
 20
363.3701720682
 10
821.5565960066
 20
362.4481711682
 10
821.4031045593
 20
361.5123742022
 10
821.3914401422
 20
360.6070074986
 10
821.5219853713
 20
359.774746216
 10
821.7883623713
 20
359.0546674127
 10
822.1777786361
 20
358.4804070402
 10
822.6717036449
 20
358.0785894174
 10
823.2467661835
 20
357.8676017032
 10
823.8759304333
 20
357.8568468025
 10
824.5297670209
 20
358.0463557297
 10
825.1778286898
 20
358.4268938109
 10
825.7900613192
 20
358.9804525503
 10
826.3381634492
 20
359.6811307941
 10
826.796838405
 20
360.4963565284
 10
827.1449183869
 20
361.3883540141
 10
827.3663228862
 20
362.3158806751
 10
827.4507414703
 20
363.2360318193
 10
827.3941390574
 20
364.1061862461
 10
827.1989408073
 20
364.885927281
 10
826.8739665899
 20
365.5388711819
 10
826.4340762432
 20
366.0343409401
 10
825.899531807
 20
366.3488602944
 10
825.2951119689
 20
366.4672927932
 10
824.6489863228
 20
366.3836076995
 10
823.9914270282
 20
366.1012871633
  0
LWPOLYLINE
  5
2F0
330
1F
100
AcDbEntity
  8
0
  6
CONTINUOUS
 62
     7
100
AcDbPolyline
 90
       28
 70
   128
 43
0.0
 10
822.3408621097
 20
381.1522376524
 10
821.7795884357
 20
380.742065141
 10
821.2675624958
 20
380.176843386
 10
820.8326753129
 20
379.4871318618
 10
820.4986276333
 20
378.7103753885
 10
820.2836086254
 20
377.8888073225
 10
820.1992725235
 20
377.0671293998
 10
820.2500960372
 20
376.2899829026
 10
820.4331576889
 20
375.5994952034
 10
820.7383196026
 20
375.0329439793
 10
821.1488586927
 20
374.6207322786
 10
821.6423953307
 20
374.3847965823
 10
822.1921719982
 20
374.3374850771
 10
822.7685252122
 20
374.4809431592
 10
823.3404816884
 20
374.8071139404
 10
823.8774140307
 20
375.2982292678
 10
824.3506475053
 20
375.9278060302
 10
824.7349422565
 20
376.6620869592
 10
825.0098027353
 20
377.4617904771
 10
825.1605401902
 20
378.2841932587
 10
825.1790161842
 20
379.0853509072
 10
825.0641147328
 20
379.8223676895
 10
824.8218006141
 20
380.4556508073
 10
824.464862601
 20
380.9510312672
 10
824.0122733462
 20
381.2815829571
 10
823.4882282375
 20
381.4291531535
 10
822.9208861851
 20
381.3853768119
 10
822.3408621097
 20
381.1522376524
  0
LINE
  5
2F1
330
1F
100
AcDbEntity
  8
0
  6
CONTINUOUS
 62
     7
100
AcDbLine
 10
819.3466321714
 20
308.7742186891
 30
0.0
 11
810.4881146639
 21
384.8543837763
 31
0.0
  0
ARC
  5
2F2
330
1F
100
AcDbEntity
  8
0
  6
CONTINUOUS
 62
     7
100
AcDbCircle
 10
793.073092661
 20
382.3093652372
 30
0.0
 40
18.77572281868156
100
AcDbArc
 50
6.5979181593
 51
59.6845761473
  0
ARC
  5
2F3
330
1F
100
AcDbEntity
  8
0
  6
CONTINUOUS
 62
     7
100
AcDbCircle
 10
813.0336231096
 20
393.2439561265
 30
0.0
 40
17.93870423869887
100
AcDbArc
 50
5.9066721207
 51
60.5790210885
  0
ARC
  5
2F4
330
1F
100
AcDbEntity
  8
0
  6
CONTINUOUS
 62
     7
100
AcDbCircle
 10
794.2295590406
 20
382.9430292633
 30
0.0
 40
16.3705194490364
100
AcDbArc
 50
6.7049122817
 51
59.5699652667
  0
LINE
  5
2F5
330
1F
100
AcDbEntity
  8
0
  6
CONTINUOUS
 62
     7
100
AcDbLine
 10
802.5503270561
 20
398.5176901224
 30
0.0
 11
734.9477724843
 21
433.0644510407
 31
0.0
  0
LINE
  5
2F6
330
1F
100
AcDbEntity
  8
0
  6
CONTINUOUS
 62
     7
100
AcDbLine
 10
821.8455221376
 20
408.869177574
 30
0.0
 11
754.2475882987
 21
442.1982791236
 31
0.0
  0
LWPOLYLINE
  5
2F7
330
1F
100
AcDbEntity
  8
0
  6
CONTINUOUS
 62
     7
100
AcDbPolyline
 90
       28
 70
   128
 43
0.0
 10
774.9104088429
 20
419.9710546034
 10
775.5589497951
 20
419.7125600787
 10
776.3090448094
 20
419.5362851702
 10
777.1199792778
 20
419.4518994846
 10
777.9476390196
 20
419.4640381361
 10
778.7469736363
 20
419.5720343628
 10
779.4745180109
 20
419.7699571011
 10
780.0908137946
 20
420.0469550319
 10
780.562588827
 20
420.3878798506
 10
780.8645594504
 20
420.7741492437
 10
780.9807611997
 20
421.1847920655
 10
780.905341486
 20
421.5976099406
 10
780.6427882115
 20
421.9903863245
 10
780.2075973887
 20
422.3420762731
 10
779.6234196197
 20
422.6339124268
 10
778.9217456623
 20
422.8503764188
 10
778.1402100749
 20
422.97998991
 10
777.320602343
 20
423.0158929554
 10
776.506688136
 20
422.9561869384
 10
775.7419372643
 20
422.8040295803
 10
775.0672669167
 20
422.567477044
 10
774.518901877
 20
422.2590806914
 10
774.1264527941
 20
421.8952528112
 10
773.9113097087
 20
421.4954275783
 10
773.8854412911
 20
421.0810507011
 10
774.0506696181
 20
420.6744474673
 10
774.3984831067
 20
420.2976222737
 10
774.9104088429
 20
419.9710546034
  0
LINE
  5
2F8
330
1F
100
AcDbEntity
  8
0
  6
CONTINUOUS
 62
     7
100
AcDbLine
 10
802.5209951473
 20
397.0584815876
 30
0.0
 11
734.9912608959
 21
431.6581291419
 31
0.0
  0
LWPOLYLINE
  5
2F9
330
1F
100
AcDbEntity
  8
0
  6
CONTINUOUS
 62
     7
100
AcDbPolyline
 90
       11
 70
   128
 43
0.0
 10
821.8286114602
 20
375.0152686635
 10
822.3867009637
 20
375.4259903598
 10
822.8949870519
 20
375.9892813244
 10
823.3263514256
 20
376.6748581367
 10
823.6577944981
 20
377.4460168094
 10
823.8716238845
 20
378.2615473957
 10
823.9563729427
 20
379.0778734399
 10
823.9074068204
 20
379.8513427707
 10
823.7271832984
 20
380.5404701186
 10
823.4251600469
 20
381.1081846474
 10
823.1069010662
 20
381.4535926322
  0
LWPOLYLINE
  5
2FA
330
1F
100
AcDbEntity
  8
0
  6
CONTINUOUS
 62
     7
100
AcDbPolyline
 90
        3
 70
   128
 43
0.0
 10
821.0622573466
 20
374.74258673
 10
821.2505676587
 20
374.7793645906
 10
821.8286114602
 20
375.0152686635
  0
LWPOLYLINE
  5
2FB
330
1F
100
AcDbEntity
  8
0
  6
CONTINUOUS
 62
     7
100
AcDbPolyline
 90
       12
 70
   128
 43
0.0
 10
823.6377514618
 20
358.6237402516
 10
824.2714699213
 20
359.0927326978
 10
824.8548096101
 20
359.7225642051
 10
825.3608196798
 20
360.4838752861
 10
825.7661655408
 20
361.3413448307
 10
826.0521264508
 20
362.2552837091
 10
826.2054536494
 20
363.183435214
 10
826.218957965
 20
364.0828494629
 10
826.091846633
 20
364.9118163877
 10
825.8297930153
 20
365.6317406862
 10
825.4447221249
 20
366.2089277979
 10
825.1829491461
 20
366.4583755408
  0
LWPOLYLINE
  5
2FC
330
1F
100
AcDbEntity
  8
0
  6
CONTINUOUS
 62
     7
100
AcDbPolyline
 90
        3
 70
   128
 43
0.0
 10
822.434356735
 20
358.2487677251
 10
822.9829854925
 20
358.3376396063
 10
823.6377514618
 20
358.6237402516
  0
LWPOLYLINE
  5
2FD
330
1F
100
AcDbEntity
  8
0
  6
CONTINUOUS
 62
     7
100
AcDbPolyline
 90
       13
 70
   128
 43
0.0
 10
825.5709727891
 20
341.1079492048
 10
826.2465399936
 20
341.6095371325
 10
826.8761887772
 20
342.2663795822
 10
827.4360666051
 20
343.0532999886
 10
827.9049962331
 20
343.9403139979
 10
828.265229445
 20
344.893711547
 10
828.5031112852
 20
345.8773247306
 10
828.6095491176
 20
346.8538520318
 10
828.5803783898
 20
347.7861894511
 10
828.4165125042
 20
348.6387991495
 10
828.1239601663
 20
349.3790490487
 10
827.7136155703
 20
349.9784358792
 10
827.390396593
 20
350.2815809764
  0
ARC
  5
2FE
330
1F
100
AcDbEntity
  8
0
  6
CONTINUOUS
 62
     7
100
AcDbCircle
 10
823.999293953
 20
343.5034840933
 30
0.0
 40
2.865093674939732
100
AcDbArc
 50
268.6407484923
 51
303.2683518819
  0
LWPOLYLINE
  5
2FF
330
1F
100
AcDbEntity
  8
0
  6
CONTINUOUS
 62
     7
100
AcDbPolyline
 90
       10
 70
   128
 43
0.0
 10
779.9284788809
 20
421.0735293885
 10
779.2818842174
 20
421.3297815668
 10
778.5360664503
 20
421.5042488708
 10
777.7309579936
 20
421.5876894514
 10
776.9095715583
 20
421.5756899285
 10
776.1157636971
 20
421.4688844949
 10
775.3919597089
 20
421.2729244205
 10
774.7769460261
 20
420.9981949697
 10
774.3038270716
 20
420.6592938929
 10
774.1846063757
 20
420.537674452
  0
LWPOLYLINE
  5
300
330
1F
100
AcDbEntity
  8
0
  6
CONTINUOUS
 62
     7
100
AcDbPolyline
 90
        3
 70
   128
 43
0.0
 10
780.6833766997
 20
420.5162455136
 10
780.4410926954
 20
420.7490983667
 10
779.9284788809
 20
421.0735293885
  0
LWPOLYLINE
  5
301
330
1F
100
AcDbEntity
  8
0
  6
CONTINUOUS
 62
     7
100
AcDbPolyline
 90
       14
 70
   128
 43
0.0
 10
827.6193913737
 20
322.5484243168
 10
828.3267881099
 20
323.0780735381
 10
828.9924337497
 20
323.7558189164
 10
829.5952772665
 20
324.5599348398
 10
830.1162819892
 20
325.4647798647
 10
830.5390107044
 20
326.441640907
 10
830.8500887685
 20
327.4595714715
 10
831.0396444903
 20
328.4863394893
 10
831.1015860453
 20
329.4894127102
 10
831.0337849231
 20
330.4369351519
 10
830.8381901678
 20
331.2987088159
 10
830.520792617
 20
332.0471107508
 10
830.0914398263
 20
332.6580106535
 10
829.6255826549
 20
333.0701277439
  0
ARC
  5
302
330
1F
100
AcDbEntity
  8
0
  6
CONTINUOUS
 62
     7
100
AcDbCircle
 10
825.7461671185
 20
325.3219345657
 30
0.0
 40
3.346838539725968
100
AcDbArc
 50
268.3765171731
 51
304.0350269348
  0
ARC
  5
303
330
1F
100
AcDbEntity
  8
0
  6
CONTINUOUS
 62
     7
100
AcDbCircle
 10
817.4323363327
 20
307.9407006616
 30
0.0
 40
3.127755037404315
100
AcDbArc
 50
358.0973072945
 51
6.773249406
  0
ARC
  5
304
330
1F
100
AcDbEntity
  8
0
  6
CONTINUOUS
 62
     7
100
AcDbCircle
 10
817.7909133309
 20
308.5884073859
 30
0.0
 40
1.566775973435918
100
AcDbArc
 50
358.1571545395
 51
6.8110048051
  0
ARC
  5
305
330
1F
100
AcDbEntity
  8
0
  6
CONTINUOUS
 62
     7
100
AcDbCircle
 10
835.6613930456
 20
319.4757742734
 30
0.0
 40
3.044101124413138
100
AcDbArc
 50
357.2626961556
 51
6.0890474739
  0
LINE
  5
306
330
1F
100
AcDbEntity
  8
0
  6
CONTINUOUS
 62
     7
100
AcDbLine
 10
838.5502891369
 20
316.3504721037
 30
0.0
 11
838.7020208306
 21
319.3303977667
 31
0.0
  0
LINE
  5
307
330
1F
100
AcDbEntity
  8
0
  6
CONTINUOUS
 62
     7
100
AcDbLine
 10
819.9049565455
 20
289.9087097022
 30
0.0
 11
820.287630882
 21
288.2478825504
 31
0.0
  0
LINE
  5
308
330
1F
100
AcDbEntity
  8
0
  6
CONTINUOUS
 62
     7
100
AcDbLine
 10
819.9049565455
 20
289.9087097022
 30
0.0
 11
820.5583669032
 21
307.8368524725
 31
0.0
  0
LINE
  5
309
330
1F
100
AcDbEntity
  8
0
  6
CONTINUOUS
 62
     7
100
AcDbLine
 10
818.7218925808
 20
290.6184288834
 30
0.0
 11
819.9049565455
 21
289.9087097022
 31
0.0
  0
LINE
  5
30A
330
1F
100
AcDbEntity
  8
0
  6
CONTINUOUS
 62
     7
100
AcDbLine
 10
818.7218925808
 20
290.6184288834
 30
0.0
 11
819.3568789555
 21
308.538022729
 31
0.0
  0
LINE
  5
30B
330
1F
100
AcDbEntity
  8
0
  6
CONTINUOUS
 62
     7
100
AcDbLine
 10
820.2773179949
 20
287.9677461878
 30
0.0
 11
819.1836173767
 21
288.6255296338
 31
0.0
  0
LINE
  5
30C
330
1F
100
AcDbEntity
  8
0
  6
CONTINUOUS
 62
     7
100
AcDbLine
 10
819.1836173767
 20
288.6255296338
 30
0.0
 11
818.7218925808
 21
290.6184288834
 31
0.0
  0
LINE
  5
30D
330
1F
100
AcDbEntity
  8
0
  6
CONTINUOUS
 62
     7
100
AcDbLine
 10
819.1836173767
 20
288.6255296338
 30
0.0
 11
820.244926819
 21
287.0878920536
 31
0.0
  0
LWPOLYLINE
  5
30E
330
1F
100
AcDbEntity
  8
0
  6
CONTINUOUS
 62
     7
100
AcDbPolyline
 90
       11
 70
   128
 43
0.0
 10
728.1602679177
 20
427.6368658508
 10
728.3560048607
 20
428.7612922201
 10
728.6865304994
 20
429.7642325309
 10
729.1459822019
 20
430.6258617099
 10
729.7259748699
 20
431.3289615525
 10
730.415731849
 20
431.8592077099
 10
731.2022357023
 20
432.2055740706
 10
732.0704751365
 20
432.3605138699
 10
733.0036918353
 20
432.3202079941
 10
733.9837051947
 20
432.0847544668
 10
734.9912608959
 20
431.6581291419
  0
LWPOLYLINE
  5
30F
330
1F
100
AcDbEntity
  8
0
  6
CONTINUOUS
 62
     7
100
AcDbPolyline
 90
       12
 70
   128
 43
0.0
 10
727.0993640211
 20
428.4236326071
 10
727.2960848723
 20
429.6047460674
 10
727.621242755
 20
430.6726817373
 10
728.0701663856
 20
431.6100373809
 10
728.6361939628
 20
432.4013047533
 10
729.3107487995
 20
433.0331782269
 10
730.0834309531
 20
433.4948021839
 10
730.9421635465
 20
433.7779762937
 10
731.8733666316
 20
433.8773442107
 10
732.8621445633
 20
433.7905700985
 10
733.8925386486
 20
433.5183356141
 10
734.9477724843
 20
433.0644510407
  0
ARC
  5
310
330
1F
100
AcDbEntity
  8
0
  6
CONTINUOUS
 62
     7
100
AcDbCircle
 10
751.4264068632
 20
437.385398753
 30
0.0
 40
5.578788591934356
100
AcDbArc
 50
59.6223113721
 51
112.3699384222
  0
LINE
  5
311
330
1F
100
AcDbEntity
  8
0
  6
CONTINUOUS
 62
     7
100
AcDbLine
 10
720.5049836344
 20
366.6464351345
 30
0.0
 11
727.0993640211
 21
428.4236326071
 31
0.0
  0
LINE
  5
312
330
1F
100
AcDbEntity
  8
0
  6
CONTINUOUS
 62
     7
100
AcDbLine
 10
721.4984153453
 20
365.8568815958
 30
0.0
 11
728.1602679177
 21
427.6368658508
 31
0.0
  0
LINE
  5
313
330
1F
100
AcDbEntity
  8
0
  6
CONTINUOUS
 62
     7
100
AcDbLine
 10
739.6569171115
 20
375.4252006281
 30
0.0
 11
745.9795590655
 21
426.0281477652
 31
0.0
  0
LWPOLYLINE
  5
314
330
1F
100
AcDbEntity
  8
0
  6
CONTINUOUS
 62
     7
100
AcDbPolyline
 90
       36
 70
   128
 43
0.0
 10
731.398681594
 20
377.0978034805
 10
732.1234233834
 20
377.5384349871
 10
732.8398026174
 20
378.0978360474
 10
733.5251523075
 20
378.7581628472
 10
734.1578228852
 20
379.498438022
 10
734.7178179652
 20
380.295251158
 10
735.1874149536
 20
381.1234031967
 10
735.5516703617
 20
381.9567095057
 10
735.7989002656
 20
382.7687732314
 10
735.9210643288
 20
383.5337630231
 10
735.9140096522
 20
384.2272442063
 10
735.7776350639
 20
384.8269227828
 10
735.5159610658
 20
385.3133691006
 10
735.1370204812
 20
385.6706585052
 10
734.6526666904
 20
385.886916226
 10
734.0782099174
 20
385.9547631091
 10
733.4319873059
 20
385.8715794526
 10
732.7347706547
 20
385.6396875051
 10
732.0091122797
 20
385.2662766021
 10
731.2785914192
 20
384.7632366011
 10
730.5670233503
 20
384.1467904553
 10
729.8976628333
 20
383.4369365443
 10
729.2923915295
 20
382.6568267745
 10
728.770990338
 20
381.8319387976
 10
728.3504283299
 20
380.9892308656
 10
728.0443192636
 20
380.156205418
 10
727.862450327
 20
379.3599730839
 10
727.8105010602
 20
378.6263413008
 10
727.8898576262
 20
377.9789506789
 10
728.0976035634
 20
377.4385301539
 10
728.4266844572
 20
377.0222047696
 10
728.866173002
 20
376.7430001218
 10
729.4016442532
 20
376.6094826403
 10
730.0157082692
 20
376.6254921472
 10
730.6885691382
 20
376.7901349953
 10
731.398681594
 20
377.0978034805
  0
LWPOLYLINE
  5
315
330
1F
100
AcDbEntity
  8
0
  6
CONTINUOUS
 62
     7
100
AcDbPolyline
 90
       33
 70
   128
 43
0.0
 10
733.1441920496
 20
392.0808384086
 10
733.8380603931
 20
392.5007604102
 10
734.5212667043
 20
393.0460297982
 10
735.1679194518
 20
393.6958341823
 10
735.7535381418
 20
394.4255010901
 10
736.2559466341
 20
395.2073631728
 10
736.6560556527
 20
396.0118149533
 10
736.9385868114
 20
396.8083624713
 10
737.0926242296
 20
397.5667298841
 10
737.1120625643
 20
398.2579567984
 10
736.9958469986
 20
398.8555226399
 10
736.7480831596
 20
399.3363254945
 10
736.3779122738
 20
399.6816011382
 10
735.8992357932
 20
399.8776875926
 10
735.330214809
 20
399.916608907
 10
734.6926264292
 20
399.7964497048
 10
734.0110237833
 20
399.5214923304
 10
733.3117911154
 20
399.1021025763
 10
732.6221095259
 20
398.5543649635
 10
731.9688563727
 20
397.8994676276
 10
731.3775095527
 20
397.1628687229
 10
730.8711274883
 20
396.3732738297
 10
730.4693945813
 20
395.5614710662
 10
730.187845877
 20
394.7590799835
 10
730.0372378325
 20
393.9972714349
 10
730.0231640841
 20
393.3055060113
 10
730.1458522907
 20
392.7104098994
 10
730.4002212804
 20
392.2347036037
 10
730.7761148543
 20
391.896368988
 10
731.25877019
 20
391.7080059838
 10
731.8294102096
 20
391.6764319309
 10
732.4660188369
 20
391.8024333327
 10
733.1441920496
 20
392.0808384086
  0
LWPOLYLINE
  5
316
330
1F
100
AcDbEntity
  8
0
  6
CONTINUOUS
 62
     7
100
AcDbPolyline
 90
       30
 70
   128
 43
0.0
 10
734.8028086611
 20
406.3179989644
 10
735.4556764679
 20
406.7129181901
 10
736.0949922407
 20
407.2385162913
 10
736.69123038
 20
407.8703689034
 10
737.2168586757
 20
408.5792515785
 10
737.6475911435
 20
409.3324089233
 10
737.9634479515
 20
410.0950564156
 10
738.1496682429
 20
410.8319058957
 10
738.1974007641
 20
411.5087512241
 10
738.1041426959
 20
412.094013178
 10
737.8739013394
 20
412.560217298
 10
737.5170759958
 20
412.8852984734
 10
737.0500417168
 20
413.0536555469
 10
736.4944327587
 20
413.0569925435
 10
735.8761789307
 20
412.8947540007
 10
735.22429754
 20
412.5742407939
 10
734.5695175591
 20
412.1103176462
 10
733.9427967776
 20
411.5247411993
 10
733.3738105877
 20
410.8451359348
 10
732.8895003658
 20
410.1036415553
 10
732.5127412926
 20
409.3353737885
 10
732.2612391916
 20
408.576661699
 10
732.146681717
 20
407.8632979996
 10
732.1742052082
 20
407.2288081059
 10
732.3421967386
 20
406.7028349492
 10
732.6424333267
 20
406.3097678388
 10
733.060532295
 20
406.067636495
 10
733.5766792675
 20
405.9873551633
 10
734.1666244718
 20
406.0722453424
 10
734.8028086611
 20
406.3179989644
  0
LWPOLYLINE
  5
317
330
1F
100
AcDbEntity
  8
0
  6
CONTINUOUS
 62
     7
100
AcDbPolyline
 90
       28
 70
   128
 43
0.0
 10
736.3649796781
 20
419.7272629959
 10
736.9413596824
 20
420.0750341605
 10
737.5030914043
 20
420.5474970079
 10
738.0201912569
 20
421.1193264678
 10
738.4650723665
 20
421.7599763552
 10
738.8139668947
 20
422.4352606211
 10
739.0481623903
 20
423.1091177125
 10
739.1549865137
 20
423.7455063213
 10
739.1285049145
 20
424.3102509961
 10
738.9698755804
 20
424.7729101595
 10
738.6873411942
 20
425.1083469185
 10
738.2958562666
 20
425.2981824586
 10
737.8163321094
 20
425.3318128805
 10
737.2745596849
 20
425.2070889178
 10
736.699824538
 20
424.9304836358
 10
736.1233168919
 20
424.5168019761
 10
735.5764066365
 20
423.9884060279
 10
735.0888839776
 20
423.373991842
 10
734.6872973027
 20
422.7070183739
 10
734.3934544717
 20
422.023801367
 10
734.2232225401
 20
421.3615157439
 10
734.1856612564
 20
420.7560606926
 10
734.2825619075
 20
420.2401518998
 10
734.508402013
 20
419.8414873131
 10
734.8507047511
 20
419.5813171851
 10
735.2907761835
 20
419.4733246522
 10
735.8047655971
 20
419.5229667731
 10
736.3649796781
 20
419.7272629959
  0
LWPOLYLINE
  5
318
330
1F
100
AcDbEntity
  8
0
  6
CONTINUOUS
 62
     7
100
AcDbPolyline
 90
       12
 70
   128
 43
0.0
 10
734.2879529983
 20
420.249785117
 10
734.4937662399
 20
420.2566687544
 10
735.0347309691
 20
420.3839390346
 10
735.6069335819
 20
420.6612388108
 10
736.1797327241
 20
421.073515775
 10
736.7225323024
 20
421.59860779
 10
737.2063770068
 20
422.2084288177
 10
737.6054416098
 20
422.8704140665
 10
737.8983667813
 20
423.5492398044
 10
738.0693945176
 20
424.2086317179
 10
738.109184069
 20
424.8132656461
 10
738.0181338443
 20
425.3224777123
  0
LWPOLYLINE
  5
319
330
1F
100
AcDbEntity
  8
0
  6
CONTINUOUS
 62
     7
100
AcDbPolyline
 90
       13
 70
   128
 43
0.0
 10
732.2802261241
 20
406.7861119226
 10
732.8323326629
 20
406.7885581561
 10
733.4492259724
 20
406.954204148
 10
734.0975900123
 20
407.2757321835
 10
734.7473556182
 20
407.7379913928
 10
735.3684740339
 20
408.3194376236
 10
735.9322698692
 20
408.9931243928
 10
736.4127131259
 20
409.7279014813
 10
736.7875588835
 20
410.4898566731
 10
737.0393744658
 20
411.2437537877
 10
737.1563129199
 20
411.9546591595
 10
737.1326929124
 20
412.5895021624
 10
737.0175975654
 20
413.011064581
  0
LWPOLYLINE
  5
31A
330
1F
100
AcDbEntity
  8
0
  6
CONTINUOUS
 62
     7
100
AcDbPolyline
 90
       15
 70
   128
 43
0.0
 10
730.2603218514
 20
392.485366372
 10
730.8130500339
 20
392.4568690086
 10
731.4499550396
 20
392.5821492719
 10
732.1282757929
 20
392.8598003086
 10
732.8221373777
 20
393.278964252
 10
733.505182886
 20
393.823500369
 10
734.1515242241
 20
394.4726253209
 10
734.7367000166
 20
395.2016879789
 10
735.2385405774
 20
395.9830491016
 10
735.6379880149
 20
396.7871163731
 10
735.9197813147
 20
397.5834143354
 10
736.073037672
 20
398.3416737765
 10
736.0916714356
 20
399.0329440356
 10
735.9746738225
 20
399.6306949664
 10
735.8672080206
 20
399.885562271
  0
LWPOLYLINE
  5
31B
330
1F
100
AcDbEntity
  8
0
  6
CONTINUOUS
 62
     7
100
AcDbPolyline
 90
       17
 70
   128
 43
0.0
 10
728.1697666977
 20
377.4283939117
 10
728.6998328214
 20
377.3800084762
 10
729.3462448645
 20
377.4700055753
 10
730.0407249704
 20
377.7063604719
 10
730.7610904757
 20
378.0812398784
 10
731.484443987
 20
378.5824904258
 10
732.1878770654
 20
379.1940422215
 10
732.8491515171
 20
379.8964490664
 10
733.4473779987
 20
380.6674394387
 10
733.9636420219
 20
381.4826439213
 10
734.3815585491
 20
382.3162987534
 10
734.6877911758
 20
383.1420042252
 10
734.8724596659
 20
383.9335673534
 10
734.9294604534
 20
384.6657591735
 10
734.8566849378
 20
385.3151246149
 10
734.656123319
 20
385.8607037483
 10
734.6154980377
 20
385.9321811552
  0
ARC
  5
31C
330
1F
100
AcDbEntity
  8
0
  6
CONTINUOUS
 62
     7
100
AcDbCircle
 10
722.8693224864
 20
365.7143549006
 30
0.0
 40
1.378296139633351
100
AcDbArc
 50
174.0645539821
 51
182.6684234135
  0
ARC
  5
31D
330
1F
100
AcDbEntity
  8
0
  6
CONTINUOUS
 62
     7
100
AcDbCircle
 10
723.2507066269
 20
366.3638560157
 30
0.0
 40
2.760225662928018
100
AcDbArc
 50
174.1240287622
 51
182.7140488637
  0
ARC
  5
31E
330
1F
100
AcDbEntity
  8
0
  6
CONTINUOUS
 62
     7
100
AcDbCircle
 10
740.9939561848
 20
375.2631560116
 30
0.0
 40
1.346822906372396
100
AcDbArc
 50
173.0896481766
 51
181.8328119867
  0
LINE
  5
31F
330
1F
100
AcDbEntity
  8
0
  6
CONTINUOUS
 62
     7
100
AcDbLine
 10
722.8739289013
 20
346.5489848445
 30
0.0
 11
722.2324343122
 21
348.5023822181
 31
0.0
  0
LINE
  5
320
330
1F
100
AcDbEntity
  8
0
  6
CONTINUOUS
 62
     7
100
AcDbLine
 10
722.2324343122
 20
348.5023822181
 30
0.0
 11
721.4925208549
 21
365.6501870282
 31
0.0
  0
LINE
  5
321
330
1F
100
AcDbEntity
  8
0
  6
CONTINUOUS
 62
     7
100
AcDbLine
 10
740.1349873605
 20
358.2162044762
 30
0.0
 11
739.6478223019
 21
375.2200803746
 31
0.0
  0
LINE
  5
322
330
1F
100
AcDbEntity
  8
0
  6
CONTINUOUS
 62
     7
100
AcDbLine
 10
740.1349873605
 20
358.2162044762
 30
0.0
 11
739.6710465919
 21
355.6971486191
 31
0.0
  0
LINE
  5
323
330
1F
100
AcDbEntity
  8
0
  6
CONTINUOUS
 62
     7
100
AcDbLine
 10
737.8471497471
 20
350.856967316
 30
0.0
 11
738.4056992786
 21
352.3392213615
 31
0.0
  0
LINE
  5
324
330
1F
100
AcDbEntity
  8
0
  6
CONTINUOUS
 62
     7
100
AcDbLine
 10
739.6518729982
 20
355.6462673473
 30
0.0
 11
739.6710465919
 21
355.6971486191
 31
0.0
  0
LINE
  5
325
330
1F
100
AcDbEntity
  8
0
  6
CONTINUOUS
 62
     7
100
AcDbLine
 10
737.8471497471
 20
350.856967316
 30
0.0
 11
736.2927878899
 21
348.9583419579
 31
0.0
  0
LINE
  5
326
330
1F
100
AcDbEntity
  8
0
  6
CONTINUOUS
 62
     7
100
AcDbLine
 10
726.6822754255
 20
343.682114674
 30
0.0
 11
736.2927878899
 21
348.9583419579
 31
0.0
  0
LINE
  5
327
330
1F
100
AcDbEntity
  8
0
  6
CONTINUOUS
 62
     7
100
AcDbLine
 10
726.6822754255
 20
343.682114674
 30
0.0
 11
725.0219757479
 21
343.8278713762
 31
0.0
  0
LINE
  5
328
330
1F
100
AcDbEntity
  8
0
  6
CONTINUOUS
 62
     7
100
AcDbLine
 10
722.8739289013
 20
346.5489848445
 30
0.0
 11
725.0219757479
 21
343.8278713762
 31
0.0
  0
LINE
  5
329
330
1F
100
AcDbEntity
  8
0
  6
CONTINUOUS
 62
     7
100
AcDbLine
 10
722.2324343122
 20
348.5023822181
 30
0.0
 11
721.2462418008
 21
349.0939983628
 31
0.0
  0
LINE
  5
32A
330
1F
100
AcDbEntity
  8
0
  6
CONTINUOUS
 62
     7
100
AcDbLine
 10
721.2462418008
 20
349.0939983628
 30
0.0
 11
720.4935771244
 21
366.2331555325
 31
0.0
  0
LINE
  5
32B
330
1F
100
AcDbEntity
  8
0
  6
CONTINUOUS
 62
     7
100
AcDbLine
 10
721.8893608178
 20
347.1411328017
 30
0.0
 11
722.8739289013
 21
346.5489848445
 31
0.0
  0
LINE
  5
32C
330
1F
100
AcDbEntity
  8
0
  6
CONTINUOUS
 62
     7
100
AcDbLine
 10
721.2462418008
 20
349.0939983628
 30
0.0
 11
721.8893608178
 21
347.1411328017
 31
0.0
  0
LINE
  5
32D
330
1F
100
AcDbEntity
  8
0
  6
CONTINUOUS
 62
     7
100
AcDbLine
 10
725.0219757479
 20
343.8278713762
 30
0.0
 11
724.0400673357
 21
344.4197856469
 31
0.0
  0
LINE
  5
32E
330
1F
100
AcDbEntity
  8
0
  6
CONTINUOUS
 62
     7
100
AcDbLine
 10
721.8893608178
 20
347.1411328017
 30
0.0
 11
724.0400673357
 21
344.4197856469
 31
0.0
  0
LWPOLYLINE
  5
32F
330
1F
100
AcDbEntity
  8
0
  6
CONTINUOUS
 62
     7
100
AcDbPolyline
 90
       22
 70
   128
 43
0.0
 10
739.7969694017
 20
355.4836704711
 10
739.5318426772
 20
355.7292583948
 10
739.1804958122
 20
355.8249292893
 10
738.7740637915
 20
355.7619374474
 10
738.3486897774
 20
355.5456740323
 10
737.942305174
 20
355.1952557216
 10
737.5912107674
 20
354.7418726315
 10
737.3267853759
 20
354.2259848189
 10
737.1726339046
 20
353.6936712863
 10
737.1424510397
 20
353.1924558584
 10
737.2388064962
 20
352.7670016652
 10
737.4529547298
 20
352.4551018924
 10
737.7656771562
 20
352.2843152182
 10
738.1490550867
 20
352.269587516
 10
738.5689975924
 20
352.4119904182
 10
738.9882771008
 20
352.6987134986
 10
739.3698093992
 20
353.1042583486
 10
739.6798886876
 20
353.5927047288
 10
739.8911143904
 20
354.120874363
 10
739.9847744141
 20
354.6420775268
 10
739.9524876577
 20
355.1101891434
 10
739.7969694017
 20
355.4836704711
  0
LINE
  5
330
330
1F
100
AcDbEntity
  8
0
  6
CONTINUOUS
 62
     7
100
AcDbLine
 10
738.7785910479
 20
357.5733411448
 30
0.0
 11
738.8275986007
 21
357.5463497427
 31
0.0
  0
ARC
  5
331
330
1F
100
AcDbEntity
  8
0
  6
CONTINUOUS
 62
     7
100
AcDbCircle
 10
737.6037453785
 20
355.9642026906
 30
0.0
 40
1.997695412955122
100
AcDbArc
 50
66.8633626129
 51
137.0456507022
  0
ARC
  5
332
330
1F
100
AcDbEntity
  8
0
  6
CONTINUOUS
 62
     7
100
AcDbCircle
 10
739.2984958306
 20
353.6073561393
 30
0.0
 40
4.877506417790059
100
AcDbArc
 50
130.3329097772
 51
168.2022063792
  0
LINE
  5
333
330
1F
100
AcDbEntity
  8
0
  6
CONTINUOUS
 62
     7
100
AcDbLine
 10
733.0575708239
 20
357.3076571303
 30
0.0
 11
734.1563965137
 21
358.4835916807
 31
0.0
  0
LINE
  5
334
330
1F
100
AcDbEntity
  8
0
  6
CONTINUOUS
 62
     7
100
AcDbLine
 10
734.1563965137
 20
358.4835916807
 30
0.0
 11
735.6364868594
 21
359.4339313344
 31
0.0
  0
LINE
  5
335
330
1F
100
AcDbEntity
  8
0
  6
CONTINUOUS
 62
     7
100
AcDbLine
 10
737.2381310005
 20
358.5023804537
 30
0.0
 11
735.6364868594
 21
359.4339313344
 31
0.0
  0
LINE
  5
336
330
1F
100
AcDbEntity
  8
0
  6
CONTINUOUS
 62
     7
100
AcDbLine
 10
737.2381310005
 20
358.5023804537
 30
0.0
 11
736.1416383883
 21
357.3254631772
 31
0.0
  0
LINE
  5
337
330
1F
100
AcDbEntity
  8
0
  6
CONTINUOUS
 62
     7
100
AcDbLine
 10
736.1416383883
 20
357.3254631772
 30
0.0
 11
734.6580409223
 21
356.3711841076
 31
0.0
  0
LINE
  5
338
330
1F
100
AcDbEntity
  8
0
  6
CONTINUOUS
 62
     7
100
AcDbLine
 10
733.0575708239
 20
357.3076571303
 30
0.0
 11
734.6580409223
 21
356.3711841076
 31
0.0
  0
ARC
  5
339
330
1F
100
AcDbEntity
  8
0
  6
CONTINUOUS
 62
     7
100
AcDbCircle
 10
738.0186209978
 20
355.8535581868
 30
0.0
 40
1.061306162581323
100
AcDbArc
 50
7.8631623393
 51
113.8781709481
  0
LINE
  5
33A
330
1F
100
AcDbEntity
  8
0
  6
CONTINUOUS
 62
     7
100
AcDbLine
 10
734.6580409223
 20
356.3711841076
 30
0.0
 11
734.5240254536
 21
354.6046030873
 31
0.0
  0
LWPOLYLINE
  5
33B
330
1F
100
AcDbEntity
  8
0
  6
CONTINUOUS
 62
     7
100
AcDbPolyline
 90
        7
 70
   128
 43
0.0
 10
735.6840484371
 20
354.3759297476
 10
735.6328598165
 20
353.7861322571
 10
735.7227007872
 20
353.2741030079
 10
735.9460642129
 20
352.8813322147
 10
736.2846015507
 20
352.6394819876
 10
736.7106903933
 20
352.5678592863
 10
737.1034973577
 20
352.6411727599
  0
LINE
  5
33C
330
1F
100
AcDbEntity
  8
0
  6
CONTINUOUS
 62
     7
100
AcDbLine
 10
732.4094171693
 20
354.0062863553
 30
0.0
 11
732.5417551739
 21
355.76800354
 31
0.0
  0
LINE
  5
33D
330
1F
100
AcDbEntity
  8
0
  6
CONTINUOUS
 62
     7
100
AcDbLine
 10
732.5417551739
 20
355.76800354
 30
0.0
 11
733.0575708239
 21
357.3076571303
 31
0.0
  0
LINE
  5
33E
330
1F
100
AcDbEntity
  8
0
  6
CONTINUOUS
 62
     7
100
AcDbLine
 10
734.5240254536
 20
354.6046030873
 30
0.0
 11
734.006276519
 21
353.0662462814
 31
0.0
  0
LINE
  5
33F
330
1F
100
AcDbEntity
  8
0
  6
CONTINUOUS
 62
     7
100
AcDbLine
 10
732.4094171693
 20
354.0062863553
 30
0.0
 11
734.006276519
 21
353.0662462814
 31
0.0
  0
LINE
  5
340
330
1F
100
AcDbEntity
  8
0
  6
CONTINUOUS
 62
     7
100
AcDbLine
 10
735.6922214337
 20
352.0629799319
 30
0.0
 11
735.6346717657
 21
352.0947644287
 31
0.0
  0
ARC
  5
341
330
1F
100
AcDbEntity
  8
0
  6
CONTINUOUS
 62
     7
100
AcDbCircle
 10
736.4694667316
 20
353.9538106718
 30
0.0
 40
2.051407451949411
100
AcDbArc
 50
161.5037910499
 51
230.3995614089
  0
LINE
  5
342
330
1F
100
AcDbEntity
  8
0
  6
CONTINUOUS
 62
     7
100
AcDbLine
 10
738.3886902677
 20
357.8012243246
 30
0.0
 11
737.2381310005
 21
358.5023804537
 31
0.0
  0
LINE
  5
343
330
1F
100
AcDbEntity
  8
0
  6
CONTINUOUS
 62
     7
100
AcDbLine
 10
734.006276519
 20
353.0662462814
 30
0.0
 11
735.1618383094
 21
352.3731840734
 31
0.0
  0
LINE
  5
344
330
1F
100
AcDbEntity
  8
0
  6
CONTINUOUS
 62
     7
100
AcDbLine
 10
734.3361733024
 20
352.8465188497
 30
0.0
 11
733.1833055084
 21
353.5379323117
 31
0.0
  0
LINE
  5
345
330
1F
100
AcDbEntity
  8
0
  6
CONTINUOUS
 62
     7
100
AcDbLine
 10
733.1833055084
 20
353.5379323117
 30
0.0
 11
732.4094171693
 21
354.0062863553
 31
0.0
  0
LINE
  5
346
330
1F
100
AcDbEntity
  8
0
  6
CONTINUOUS
 62
     7
100
AcDbLine
 10
735.1618383094
 20
352.3731840734
 30
0.0
 11
735.9306103191
 21
351.907865502
 31
0.0
  0
LINE
  5
347
330
1F
100
AcDbEntity
  8
0
  6
CONTINUOUS
 62
     7
100
AcDbLine
 10
734.3361733024
 20
352.8465188497
 30
0.0
 11
735.9306103191
 21
351.907865502
 31
0.0
  0
LINE
  5
348
330
1F
100
AcDbEntity
  8
0
  6
CONTINUOUS
 62
     7
100
AcDbLine
 10
738.8441460327
 20
357.5173028632
 30
0.0
 11
738.795375355
 21
357.5477047218
 31
0.0
  0
ARC
  5
349
330
1F
100
AcDbEntity
  8
0
  6
CONTINUOUS
 62
     7
100
AcDbCircle
 10
830.267740962
 20
302.0984089828
 30
0.0
 40
2.124260698113884
100
AcDbArc
 50
24.5204635445
 51
52.1659255847
  0
LWPOLYLINE
  5
34A
330
1F
100
AcDbEntity
  8
0
  6
CONTINUOUS
 62
     7
100
AcDbPolyline
 90
        8
 70
   128
 43
0.0
 10
721.0389450266
 20
353.8143965152
 10
720.7511213468
 20
354.2066817086
 10
720.4390005744
 20
354.8772472645
 10
720.2532987575
 20
355.6580372215
 10
720.1997230226
 20
356.5266110387
 10
720.2801118224
 20
357.4578435981
 10
720.4923503548
 20
358.4246553692
 10
720.7972905669
 20
359.3171839175
  0
ARC
  5
34B
330
1F
100
AcDbEntity
  8
0
  6
CONTINUOUS
 62
     7
100
AcDbCircle
 10
722.7803649331
 20
359.708432347
 30
0.0
 40
6.31447443817585
100
AcDbArc
 50
153.3272649588
 51
175.0074990507
  0
ARC
  5
34C
330
1F
100
AcDbEntity
  8
0
  6
CONTINUOUS
 62
     7
100
AcDbCircle
 10
722.8178368559
 20
356.5510531487
 30
0.0
 40
13.77307589613639
100
AcDbArc
 50
173.5428990838
 51
187.5687580606
  0
ARC
  5
34D
330
1F
100
AcDbEntity
  8
0
  6
CONTINUOUS
 62
     7
100
AcDbCircle
 10
652.1110374874
 20
423.4151883632
 30
0.0
 40
86.70342524166007
100
AcDbArc
 50
311.1214092231
 51
322.5417494532
  0
ARC
  5
34E
330
1F
100
AcDbEntity
  8
0
  6
CONTINUOUS
 62
     7
100
AcDbCircle
 10
712.0470824978
 20
323.9608023282
 30
0.0
 40
30.91079463282946
100
AcDbArc
 50
81.8788104062
 51
95.3504042445
  0
LINE
  5
34F
330
1F
100
AcDbEntity
  8
0
  6
CONTINUOUS
 62
     7
100
AcDbLine
 10
721.5194271949
 20
376.1499048163
 30
0.0
 11
719.3035421429
 21
377.2713272592
 31
0.0
  0
LINE
  5
350
330
1F
100
AcDbEntity
  8
0
  6
CONTINUOUS
 62
     7
100
AcDbLine
 10
709.1321327276
 20
358.0999631379
 30
0.0
 11
704.6891072493
 21
360.799563245
 31
0.0
  0
ARC
  5
351
330
1F
100
AcDbEntity
  8
0
  6
CONTINUOUS
 62
     7
100
AcDbCircle
 10
647.1805293698
 20
426.5427177006
 30
0.0
 40
87.34643030769584
100
AcDbArc
 50
311.177689791
 51
325.6607636174
  0
SPLINE
  5
352
330
1F
100
AcDbEntity
  8
0
  6
CONTINUOUS
 62
     7
100
AcDbSpline
210
0.0
220
0.0
230
1.0
 70
     8
 71
     3
 72
    12
 73
     8
 74
     0
 42
0.00000001
 43
0.00000001
 40
0.0
 40
0.0
 40
0.0
 40
0.0
 40
0.1340749318315673
 40
0.2785035597410303
 40
0.4462582574945477
 40
0.7588414725605009
 40
1.0
 40
1.0
 40
1.0
 40
1.0
 10
704.6891072492853
 20
360.7995632449824
 30
0.0
 10
704.6615151886531
 20
360.8195623522139
 30
0.0
 10
704.6042064751132
 20
360.8611005005484
 30
0.0
 10
704.575329851922
 20
360.9365534333239
 30
0.0
 10
704.5895853167995
 20
361.0371817504721
 30
0.0
 10
704.6621111341267
 20
361.1459219168527
 30
0.0
 10
704.750436424675
 20
361.2197496426564
 30
0.0
 10
704.7888925465421
 20
361.2518936413124
 30
0.0
  0
SPLINE
  5
353
330
1F
100
AcDbEntity
  8
0
  6
CONTINUOUS
 62
     7
100
AcDbSpline
210
0.0
220
0.0
230
1.0
 70
     8
 71
     3
 72
    12
 73
     8
 74
     0
 42
0.00000001
 43
0.00000001
 40
0.0
 40
0.0
 40
0.0
 40
0.0
 40
0.1159359647257892
 40
0.2408263822512315
 40
0.3858845210211355
 40
0.6561792847514739
 40
1.0
 40
1.0
 40
1.0
 40
1.0
 10
719.3035421428618
 20
377.2713272591558
 30
0.0
 10
719.2704999181981
 20
377.2848642382551
 30
0.0
 10
719.2018702644357
 20
377.312980934332
 30
0.0
 10
719.0857939010791
 20
377.2893745474356
 30
0.0
 10
718.9367049845873
 20
377.2059466834686
 30
0.0
 10
718.7505347079391
 20
377.0243986216591
 30
0.0
 10
718.6226152802923
 20
376.8452725089015
 30
0.0
 10
718.5510124025603
 20
376.745006697943
 30
0.0
  0
SPLINE
  5
354
330
1F
100
AcDbEntity
  8
0
  6
CONTINUOUS
 62
     7
100
AcDbSpline
210
0.0
220
0.0
230
1.0
 70
     8
 71
     3
 72
     9
 73
     5
 74
     0
 42
0.00000001
 43
0.00000001
 40
0.0
 40
0.0
 40
0.0
 40
0.0
 40
0.5511376715928811
 40
1.0
 40
1.0
 40
1.0
 40
1.0
 10
731.622294763687
 20
356.675228201462
 30
0.0
 10
731.6865601885415
 20
356.5540929752119
 30
0.0
 10
731.8031050206872
 20
356.3344152147023
 30
0.0
 10
731.7859226259146
 20
356.0167815597746
 30
0.0
 10
731.7782126849154
 20
355.8742556330176
 30
0.0
  0
SPLINE
  5
355
330
1F
100
AcDbEntity
  8
0
  6
CONTINUOUS
 62
     7
100
AcDbSpline
210
0.0
220
0.0
230
1.0
 70
     8
 71
     3
 72
    12
 73
     8
 74
     0
 42
0.00000001
 43
0.00000001
 40
0.0
 40
0.0
 40
0.0
 40
0.0
 40
0.0598047275190797
 40
0.3335616275607639
 40
0.6113321260282848
 40
0.890465883945724
 40
1.0
 40
1.0
 40
1.0
 40
1.0
 10
730.5994879607665
 20
353.9146380420308
 30
0.0
 10
730.5659340053456
 20
353.887518430486
 30
0.0
 10
730.3787604971747
 20
353.7362375227841
 30
0.0
 10
730.0094339372312
 20
353.6213873773793
 30
0.0
 10
729.5561326547019
 20
353.6124621311685
 30
0.0
 10
729.2559196576616
 20
353.7714700358005
 30
0.0
 10
729.1292028667187
 20
353.9265304047185
 30
0.0
 10
729.0934794481916
 20
353.9702443152004
 30
0.0
  0
ARC
  5
356
330
1F
100
AcDbEntity
  8
0
  6
CONTINUOUS
 62
     7
100
AcDbCircle
 10
731.4473219187
 20
354.8123117939
 30
0.0
 40
2.499930401911509
100
AcDbArc
 50
116.7682662173
 51
199.6842453315
  0
LINE
  5
357
330
1F
100
AcDbEntity
  8
0
  6
CONTINUOUS
 62
     7
100
AcDbLine
 10
730.4203883656
 20
356.8609762287
 30
0.0
 11
730.3213833524
 21
357.044331617
 31
0.0
  0
LWPOLYLINE
  5
358
330
1F
100
AcDbEntity
  8
0
  6
CONTINUOUS
 62
     7
100
AcDbPolyline
 90
       17
 70
   128
 43
0.0
 10
730.4203883656
 20
356.8609762287
 10
729.9938089692
 20
356.5577694288
 10
729.6154533943
 20
356.127540648
 10
729.3251473338
 20
355.6154852429
 10
729.1534273456
 20
355.0754704458
 10
729.1182852633
 20
354.564286614
 10
729.2232802388
 20
354.1355989864
 10
729.4572138156
 20
353.8342701991
 10
729.7953873976
 20
353.6916638233
 10
730.2022724005
 20
353.7224462148
 10
730.635281236
 20
353.9231495178
 10
731.049220675
 20
354.2726378871
 10
731.4009676918
 20
354.7343731574
 10
731.6538961239
 20
355.2602120629
 10
731.7816321071
 20
355.7953782579
 10
731.7707711892
 20
356.2840706775
 10
731.6222947637
 20
356.6752282015
  0
SPLINE
  5
359
330
1F
100
AcDbEntity
  8
0
  6
CONTINUOUS
 62
     7
100
AcDbSpline
210
0.0
220
0.0
230
1.0
 70
     8
 71
     3
 72
    18
 73
    14
 74
     0
 42
0.00000001
 43
0.00000001
 40
0.0
 40
0.0
 40
0.0
 40
0.0
 40
0.0072357540965282
 40
0.1143047630373076
 40
0.2189887032544698
 40
0.3255882178981745
 40
0.4320047978564868
 40
0.5368029525740373
 40
0.643912768676118
 40
0.7490496986546588
 40
0.8550426341114559
 40
0.9619162422188057
 40
1.0
 40
1.0
 40
1.0
 40
1.0
 10
729.0934794481916
 20
353.9702443152004
 30
0.0
 10
729.0882175988321
 20
353.9779839676499
 30
0.0
 10
729.0050791514952
 20
354.1002722818153
 30
0.0
 10
728.8892309843717
 20
354.3861363771309
 30
0.0
 10
728.8525842984634
 20
354.8912546196786
 30
0.0
 10
728.9459646448797
 20
355.4458467176208
 30
0.0
 10
729.1618092064002
 20
356.0000656610376
 30
0.0
 10
729.4796251975343
 20
356.5051184486259
 30
0.0
 10
729.8639230919047
 20
356.9152453956781
 30
0.0
 10
730.2863863841463
 20
357.1980262294292
 30
0.0
 10
730.69578740474
 20
357.3175096075994
 30
0.0
 10
731.0003239927922
 20
357.3112624499609
 30
0.0
 10
731.1258118235849
 20
357.2144226288164
 30
0.0
 10
731.1587697724236
 20
357.188988753271
 30
0.0
  0
SPLINE
  5
35A
330
1F
100
AcDbEntity
  8
0
  6
CONTINUOUS
 62
     7
100
AcDbSpline
210
0.0
220
0.0
230
1.0
 70
     8
 71
     3
 72
    19
 73
    15
 74
     0
 42
0.00000001
 43
0.00000001
 40
0.0
 40
0.0
 40
0.0
 40
0.0
 40
0.016705660995313
 40
0.1125842969392248
 40
0.209470787819691
 40
0.3042274132946926
 40
0.4010208829265262
 40
0.4971064717938729
 40
0.5923045232427715
 40
0.6893477122511428
 40
0.7843257024564974
 40
0.8806860143414402
 40
0.9773022064768341
 40
1.0
 40
1.0
 40
1.0
 40
1.0
 10
728.981960429931
 20
353.9520706826602
 30
0.0
 10
728.9606536651648
 20
353.9600296644927
 30
0.0
 10
728.8170272973431
 20
354.0136802146683
 30
0.0
 10
728.6363137848077
 20
354.2621601411705
 30
0.0
 10
728.4775517522866
 20
354.6769571269117
 30
0.0
 10
728.45896388959
 20
355.1939260922518
 30
0.0
 10
728.5673023224234
 20
355.7499242075373
 30
0.0
 10
728.7972917851384
 20
356.3007399872247
 30
0.0
 10
729.125160049089
 20
356.7963301670412
 30
0.0
 10
729.5155447141955
 20
357.1917570223144
 30
0.0
 10
729.9400368906165
 20
357.4567860685334
 30
0.0
 10
730.3442366596312
 20
357.5544906554935
 30
0.0
 10
730.6307375896511
 20
357.5380062833546
 30
0.0
 10
730.7408617470568
 20
357.4444716773074
 30
0.0
 10
730.7618055077761
 20
357.4266829699594
 30
0.0
  0
SPLINE
  5
35B
330
1F
100
AcDbEntity
  8
0
  6
CONTINUOUS
 62
     7
100
AcDbSpline
210
0.0
220
0.0
230
1.0
 70
     8
 71
     3
 72
    11
 73
     7
 74
     0
 42
0.00000001
 43
0.00000001
 40
0.0
 40
0.0
 40
0.0
 40
0.0
 40
0.1407788157753604
 40
0.4721099188674869
 40
0.7948376858912543
 40
1.0
 40
1.0
 40
1.0
 40
1.0
 10
731.622294763687
 20
356.675228201462
 30
0.0
 10
731.585654813945
 20
356.717245110731
 30
0.0
 10
731.4627384833058
 20
356.8581995702353
 30
0.0
 10
731.1751295821773
 20
356.9820303577365
 30
0.0
 10
730.799755706135
 20
356.9579936513413
 30
0.0
 10
730.558300550235
 20
356.844457735279
 30
0.0
 10
730.4644303869918
 20
356.800318545395
 30
0.0
  0
SPLINE
  5
35C
330
1F
100
AcDbEntity
  8
0
  6
CONTINUOUS
 62
     7
100
AcDbSpline
210
0.0
220
0.0
230
1.0
 70
     8
 71
     3
 72
    12
 73
     8
 74
     0
 42
0.00000001
 43
0.00000001
 40
0.0
 40
0.0
 40
0.0
 40
0.0
 40
0.2474867532302318
 40
0.4984329881690103
 40
0.743763922984699
 40
0.9939439802942507
 40
1.0
 40
1.0
 40
1.0
 40
1.0
 10
730.2993080045215
 20
357.1057045599583
 30
0.0
 10
730.4377402483386
 20
357.1649067196227
 30
0.0
 10
730.7164126862621
 20
357.2840842299275
 30
0.0
 10
731.0940657699562
 20
357.2611893591322
 30
0.0
 10
731.3841211673938
 20
357.075006283517
 30
0.0
 10
731.5454012794863
 20
356.8821023943988
 30
0.0
 10
731.5691262930087
 20
356.734043865499
 30
0.0
 10
731.5696869314033
 20
356.7305451405833
 30
0.0
  0
SPLINE
  5
35D
330
1F
100
AcDbEntity
  8
0
  6
CONTINUOUS
 62
     7
100
AcDbSpline
210
0.0
220
0.0
230
1.0
 70
     8
 71
     3
 72
    19
 73
    15
 74
     0
 42
0.00000001
 43
0.00000001
 40
0.0
 40
0.0
 40
0.0
 40
0.0
 40
0.0048917625771558
 40
0.0950379302898691
 40
0.186630942605622
 40
0.2761835231273952
 40
0.3673749026750611
 40
0.4584097349187254
 40
0.5480600209480203
 40
0.6396879420928556
 40
0.7296280885151495
 40
0.820300511008928
 40
0.9117263112849663
 40
1.0
 40
1.0
 40
1.0
 40
1.0
 10
729.0444428429847
 20
353.9057211011142
 30
0.0
 10
729.0377300088871
 20
353.9079592492826
 30
0.0
 10
728.9072869246098
 20
353.9514507084648
 30
0.0
 10
728.7311399567751
 20
354.1808186868294
 30
0.0
 10
728.5555083127832
 20
354.5788907563351
 30
0.0
 10
728.5208209162739
 20
355.0880996800007
 30
0.0
 10
728.6135196111245
 20
355.6414250745328
 30
0.0
 10
728.8294327055369
 20
356.1958145057851
 30
0.0
 10
729.1470863054502
 20
356.7004941655794
 30
0.0
 10
729.5315617849337
 20
357.1108774315145
 30
0.0
 10
729.9532030324971
 20
357.3919763208498
 30
0.0
 10
730.3656913095818
 20
357.5169920969469
 30
0.0
 10
730.7378733381985
 20
357.4879265681517
 30
0.0
 10
730.9145642574684
 20
357.3380506369605
 30
0.0
 10
731.001311845534
 20
357.2644680465612
 30
0.0
  0
LINE
  5
35E
330
1F
100
AcDbEntity
  8
0
  6
CONTINUOUS
 62
     7
100
AcDbLine
 10
728.8321797042
 20
354.0738269563
 30
0.0
 11
728.6502997932
 21
354.1479791196
 31
0.0
  0
LINE
  5
35F
330
1F
100
AcDbEntity
  8
0
  6
CONTINUOUS
 62
     7
100
AcDbLine
 10
730.3087867055
 20
357.1001416798
 30
0.0
 11
730.2993080045
 21
357.10570456
 31
0.0
  0
LINE
  5
360
330
1F
100
AcDbEntity
  8
0
  6
CONTINUOUS
 62
     7
100
AcDbLine
 10
730.3213833524
 20
357.044331617
 30
0.0
 11
730.3087867055
 21
357.1001416798
 31
0.0
  0
LINE
  5
361
330
1F
100
AcDbEntity
  8
0
  6
CONTINUOUS
 62
     7
100
AcDbLine
 10
730.464500923
 20
356.8120562926
 30
0.0
 11
730.4203883656
 21
356.8609762287
 31
0.0
  0
LINE
  5
362
330
1F
100
AcDbEntity
  8
0
  6
CONTINUOUS
 62
     7
100
AcDbLine
 10
730.3087867055
 20
357.1001416798
 30
0.0
 11
730.464500923
 21
356.8120562926
 31
0.0
  0
LINE
  5
363
330
1F
100
AcDbEntity
  8
0
  6
CONTINUOUS
 62
     7
100
AcDbLine
 10
709.1647587601
 20
354.736920256
 30
0.0
 11
704.7265052242
 21
357.9115206901
 31
0.0
  0
ARC
  5
364
330
1F
100
AcDbEntity
  8
0
  6
CONTINUOUS
 62
     7
100
AcDbCircle
 10
717.975949043
 20
359.5273544194
 30
0.0
 40
13.34760952927142
100
AcDbArc
 50
174.530629852
 51
186.9531615613
  0
SPLINE
  5
365
330
1F
100
AcDbEntity
  8
0
  6
CONTINUOUS
 62
     7
100
AcDbSpline
210
0.0
220
0.0
230
1.0
 70
     8
 71
     3
 72
    10
 73
     6
 74
     0
 42
0.00000001
 43
0.00000001
 40
0.0
 40
0.0
 40
0.0
 40
0.0
 40
0.4640213743550074
 40
0.9638781114949504
 40
1.0
 40
1.0
 40
1.0
 40
1.0
 10
704.7265052242408
 20
357.9115206901263
 30
0.0
 10
704.6996127956241
 20
357.9326214221476
 30
0.0
 10
704.6437569488264
 20
357.9764478564165
 30
0.0
 10
704.6175628074476
 20
358.0361137820324
 30
0.0
 10
704.6203399433231
 20
358.0689126636887
 30
0.0
 10
704.6205270966612
 20
358.0711230057343
 30
0.0
  0
LINE
  5
366
330
1F
100
AcDbEntity
  8
0
  6
CONTINUOUS
 62
     7
100
AcDbLine
 10
721.5866683634
 20
376.7798351151
 30
0.0
 11
721.4898751011
 21
376.82670067
 31
0.0
  0
ARC
  5
367
330
1F
100
AcDbEntity
  8
0
  6
CONTINUOUS
 62
     7
100
AcDbCircle
 10
719.1572994189
 20
370.9545489564
 30
0.0
 40
6.31847094324042
100
AcDbArc
 50
68.335700759
 51
88.6737552103
  0
ARC
  5
368
330
1F
100
AcDbEntity
  8
0
  6
CONTINUOUS
 62
     7
100
AcDbCircle
 10
736.8850614329
 20
371.0566408887
 30
0.0
 40
126.1034370681102
100
AcDbArc
 50
317.1493991336
 51
328.475470636
  0
SPLINE
  5
369
330
1F
100
AcDbEntity
  8
0
  6
CONTINUOUS
 62
     7
100
AcDbSpline
210
0.0
220
0.0
230
1.0
 70
     8
 71
     3
 72
    16
 73
    12
 74
     0
 42
0.00000001
 43
0.00000001
 40
0.0
 40
0.0
 40
0.0
 40
0.0
 40
0.302976960848926
 40
0.5491714537761925
 40
0.7391474127459376
 40
0.8741768018378827
 40
0.9175534853705066
 40
0.9515150470435368
 40
0.9697411688997792
 40
0.9854330212251347
 40
1.0
 40
1.0
 40
1.0
 40
1.0
 10
842.7456218835066
 20
295.008033814085
 30
0.0
 10
843.0341504504476
 20
296.0029373161411
 30
0.0
 10
843.5576784799916
 20
297.8081653930004
 30
0.0
 10
844.1792349285585
 20
300.2859749491473
 30
0.0
 10
844.5708574428646
 20
302.24014030722
 30
0.0
 10
844.7304802370946
 20
303.541465534904
 30
0.0
 10
844.7163828628254
 20
304.3074470983206
 30
0.0
 10
844.6656779862205
 20
304.6540660990577
 30
0.0
 10
844.5846299000871
 20
304.8858411055227
 30
0.0
 10
844.4954215685207
 20
305.0359384435515
 30
0.0
 10
844.4159523060772
 20
305.0938661251594
 30
0.0
 10
844.3776986676306
 20
305.1217504230644
 30
0.0
  0
SPLINE
  5
36A
330
1F
100
AcDbEntity
  8
0
  6
CONTINUOUS
 62
     7
100
AcDbSpline
210
0.0
220
0.0
230
1.0
 70
     8
 71
     3
 72
    13
 73
     9
 74
     0
 42
0.00000001
 43
0.00000001
 40
0.0
 40
0.0
 40
0.0
 40
0.0
 40
0.1809303568147906
 40
0.3628085348689383
 40
0.5522044063840279
 40
0.746561654853605
 40
0.939075962544836
 40
1.0
 40
1.0
 40
1.0
 40
1.0
 10
837.625181843673
 20
288.2436172838957
 30
0.0
 10
837.7139442488
 20
288.7776247449639
 30
0.0
 10
837.8920767606762
 20
289.8492956879112
 30
0.0
 10
838.6245916740642
 20
291.5557563171021
 30
0.0
 10
839.6761799226192
 20
293.1018352334783
 30
0.0
 10
840.992720239672
 20
294.3025051108896
 30
0.0
 10
842.0648190794691
 20
294.8582628237884
 30
0.0
 10
842.6137675213844
 20
294.9790269441473
 30
0.0
 10
842.7456218835066
 20
295.008033814085
 30
0.0
  0
SPLINE
  5
36B
330
1F
100
AcDbEntity
  8
0
  6
CONTINUOUS
 62
     7
100
AcDbSpline
210
0.0
220
0.0
230
1.0
 70
     8
 71
     3
 72
    16
 73
    12
 74
     0
 42
0.00000001
 43
0.00000001
 40
0.0
 40
0.0
 40
0.0
 40
0.0
 40
0.0145669438064025
 40
0.0302588812273281
 40
0.0484851458632459
 40
0.0824466213191098
 40
0.1258230894060526
 40
0.2608523547453704
 40
0.4508285678664316
 40
0.6970228747959991
 40
1.0
 40
1.0
 40
1.0
 40
1.0
 10
829.3352148159144
 20
285.295076188349
 30
0.0
 10
829.3785188312413
 20
285.2734029987701
 30
0.0
 10
829.4684797599991
 20
285.2283785305091
 30
0.0
 10
829.6459885563561
 20
285.1931552665478
 30
0.0
 10
829.8930534042188
 20
285.1783321568483
 30
0.0
 10
830.2288968105976
 20
285.2053632040794
 30
0.0
 10
830.9241429122898
 20
285.3333804579673
 30
0.0
 10
832.017028789621
 20
285.6787060049743
 30
0.0
 10
833.5838785434161
 20
286.3024460585688
 30
0.0
 10
835.5077286720015
 20
287.178955825344
 30
0.0
 10
836.8733750758371
 20
287.8656067093518
 30
0.0
 10
837.625181843673
 20
288.2436172838957
 30
0.0
  0
LINE
  5
36C
330
1F
100
AcDbEntity
  8
0
  6
CONTINUOUS
 62
     7
100
AcDbLine
 10
823.2082418058
 20
288.8805244107
 30
0.0
 11
829.3352148159
 21
285.2950761883
 31
0.0
  0
ARC
  5
36D
330
1F
100
AcDbEntity
  8
0
  6
CONTINUOUS
 62
     7
100
AcDbCircle
 10
733.3037403537
 20
373.0995515216
 30
0.0
 40
123.1895446408848
100
AcDbArc
 50
316.8701550186
 51
328.5707551411
  0
LINE
  5
36E
330
1F
100
AcDbEntity
  8
0
  6
CONTINUOUS
 62
     7
100
AcDbLine
 10
838.4195005057
 20
308.862950767
 30
0.0
 11
844.3776986676
 21
305.1217504231
 31
0.0
  0
ARC
  5
36F
330
1F
100
AcDbEntity
  8
0
  6
CONTINUOUS
 62
     7
100
AcDbCircle
 10
843.5422127211
 20
283.3994687264
 30
0.0
 40
14.3329033042274
100
AcDbArc
 50
172.4000427128
 51
184.2349205485
  0
ARC
  5
370
330
1F
100
AcDbEntity
  8
0
  6
CONTINUOUS
 62
     7
100
AcDbCircle
 10
842.5586927541
 20
287.5585709567
 30
0.0
 40
4.980845146533301
100
AcDbArc
 50
172.094700437
 51
183.7313043671
  0
SPLINE
  5
371
330
1F
100
AcDbEntity
  8
0
  6
CONTINUOUS
 62
     7
100
AcDbSpline
210
0.0
220
0.0
230
1.0
 70
     8
 71
     3
 72
    16
 73
    12
 74
     0
 42
0.00000001
 43
0.00000001
 40
0.0
 40
0.0
 40
0.0
 40
0.0
 40
0.0145669500079173
 40
0.0302588783214653
 40
0.0484850567430865
 40
0.0824465104363304
 40
0.1258231246808163
 40
0.2608524352771651
 40
0.4508285183106707
 40
0.6970228734231835
 40
1.0
 40
1.0
 40
1.0
 40
1.0
 10
829.2484431894345
 20
282.3410407868853
 30
0.0
 10
829.2916646778964
 20
282.3203683363127
 30
0.0
 10
829.3814543424149
 20
282.2774227444846
 30
0.0
 10
829.5590199002658
 20
282.2594880657421
 30
0.0
 10
829.8064271828248
 20
282.2771356680519
 30
0.0
 10
830.1431108761661
 20
282.3599017632511
 30
0.0
 10
830.8407526277065
 20
282.6210813611729
 30
0.0
 10
831.938863706245
 20
283.211345729048
 30
0.0
 10
833.5150782996955
 20
284.2185097832187
 30
0.0
 10
835.4528172788742
 20
285.5941471011012
 30
0.0
 10
836.8299167661177
 20
286.6518566762563
 30
0.0
 10
837.5884059474254
 20
287.2344298869448
 30
0.0
  0
LINE
  5
372
330
1F
100
AcDbEntity
  8
0
  6
CONTINUOUS
 62
     7
100
AcDbLine
 10
823.1260511361
 20
285.4570523987
 30
0.0
 11
829.2484431894
 21
282.3410407869
 31
0.0
  0
ARC
  5
373
330
1F
100
AcDbEntity
  8
0
  6
CONTINUOUS
 62
     7
100
AcDbCircle
 10
837.6250005794
 20
286.8216844394
 30
0.0
 40
14.56302700555778
100
AcDbArc
 50
171.8726123
 51
185.3768034877
  0
SPLINE
  5
374
330
1F
100
AcDbEntity
  8
0
  6
CONTINUOUS
 62
     7
100
AcDbSpline
210
0.0
220
0.0
230
1.0
 70
     8
 71
     3
 72
    13
 73
     9
 74
     0
 42
0.00000001
 43
0.00000001
 40
0.0
 40
0.0
 40
0.0
 40
0.0
 40
0.1809306322061149
 40
0.3628087581653234
 40
0.5522045113428153
 40
0.7465615793123949
 40
0.9390761378494066
 40
1.0
 40
1.0
 40
1.0
 40
1.0
 10
842.4330236570084
 20
287.3114948118011
 30
0.0
 10
842.0201750598912
 20
286.9428722126169
 30
0.0
 10
841.1917224947798
 20
286.2031668097535
 30
0.0
 10
839.9022548058659
 20
285.624770490617
 30
0.0
 10
838.7806124142751
 20
285.4884751252455
 30
0.0
 10
837.9718856690354
 20
285.8706275865883
 30
0.0
 10
837.6441431524089
 20
286.5657597716288
 30
0.0
 10
837.5992152045781
 20
287.1047530000449
 30
0.0
 10
837.5884059474254
 20
287.2344298869448
 30
0.0
  0
SPLINE
  5
375
330
1F
100
AcDbEntity
  8
0
  6
CONTINUOUS
 62
     7
100
AcDbSpline
210
0.0
220
0.0
230
1.0
 70
     8
 71
     3
 72
    15
 73
    11
 74
     0
 42
0.00000001
 43
0.00000001
 40
0.0
 40
0.0
 40
0.0
 40
0.0
 40
0.0039253548757473
 40
0.0226465361097114
 40
0.0575302274091516
 40
0.1020847197922619
 40
0.2407805799296985
 40
0.4359155184276877
 40
0.688795336672736
 40
1.0
 40
1.0
 40
1.0
 40
1.0
 10
843.620421904488
 20
282.6011079304479
 30
0.0
 10
843.628018615358
 20
282.5990747724153
 30
0.0
 10
843.6718502642622
 20
282.5873438179831
 30
0.0
 10
843.7381332471637
 20
282.6079714753297
 30
0.0
 10
843.8100554916895
 20
282.6770353440934
 30
0.0
 10
843.8627748794909
 20
282.9217060462255
 30
0.0
 10
843.7849134730081
 20
283.4717749053015
 30
0.0
 10
843.5181937670761
 20
284.424344953674
 30
0.0
 10
843.0602015312073
 20
285.7342624549347
 30
0.0
 10
842.6564037182435
 20
286.7497366966754
 30
0.0
 10
842.4330236570084
 20
287.3114948118011
 30
0.0
  0
ARC
  5
376
330
1F
100
AcDbEntity
  8
0
  6
CONTINUOUS
 62
     7
100
AcDbCircle
 10
845.3713298477
 20
299.7764089166
 30
0.0
 40
5.436908932756509
100
AcDbArc
 50
78.0394194675
 51
100.5303673339
  0
SPLINE
  5
377
330
1F
100
AcDbEntity
  8
0
  6
CONTINUOUS
 62
     7
100
AcDbSpline
210
0.0
220
0.0
230
1.0
 70
     8
 71
     3
 72
    16
 73
    12
 74
     0
 42
0.00000001
 43
0.00000001
 40
0.0
 40
0.0
 40
0.0
 40
0.0
 40
0.0145669347884073
 40
0.0302588955631969
 40
0.048485036582131
 40
0.082446685957086
 40
0.1258231733296026
 40
0.2608524656533681
 40
0.4508285161854471
 40
0.6970229185946012
 40
1.0
 40
1.0
 40
1.0
 40
1.0
 10
846.498067659778
 20
305.0952847983694
 30
0.0
 10
846.5355169578377
 20
305.0675044482314
 30
0.0
 10
846.6133159191786
 20
305.0097922213431
 30
0.0
 10
846.6899600497686
 20
304.8603478123136
 30
0.0
 10
846.7476131668517
 20
304.6296240455214
 30
0.0
 10
846.7583561803016
 20
304.2846023040248
 30
0.0
 10
846.6772110240469
 20
303.5220692852503
 30
0.0
 10
846.3426601150182
 20
302.2261740488729
 30
0.0
 10
845.6771058123571
 20
300.2788485491667
 30
0.0
 10
844.6983142757177
 20
297.8072499815832
 30
0.0
 10
843.9086525814008
 20
296.0047513994455
 30
0.0
 10
843.4731635112191
 20
295.0106947835704
 30
0.0
  0
ARC
  5
378
330
1F
100
AcDbEntity
  8
0
  6
CONTINUOUS
 62
     7
100
AcDbCircle
 10
843.116172591
 20
293.1556583839
 30
0.0
 40
1.889074525064272
100
AcDbArc
 50
79.106933011
 51
101.3121815393
  0
LWPOLYLINE
  5
379
330
1F
100
AcDbEntity
  8
0
  6
CONTINUOUS
 62
     7
100
AcDbPolyline
 90
        7
 70
   128
 43
0.0
 10
840.6717948682
 20
286.4366666591
 10
840.0116856376
 20
286.0567265346
 10
839.381834307
 20
285.8426139506
 10
838.8063831134
 20
285.8029127758
 10
838.3075226469
 20
285.939601372
 10
837.9046292575
 20
286.2479096209
 10
837.7506016333
 20
286.4529834373
  0
LWPOLYLINE
  5
37A
330
1F
100
AcDbEntity
  8
0
  6
CONTINUOUS
 62
     7
100
AcDbPolyline
 90
       14
 70
   128
 43
0.0
 10
842.8529415508
 20
294.9963589821
 10
843.3462522404
 20
294.8513545597
 10
843.7437980333
 20
294.5353075664
 10
844.0287116267
 20
294.0610050597
 10
844.1903981355
 20
293.4470030306
 10
844.2229919725
 20
292.7170529578
 10
844.1255310893
 20
291.8991914799
 10
843.9019485444
 20
291.0246346858
 10
843.5608951877
 20
290.1266442512
 10
843.1153969084
 20
289.2392693426
 10
842.5823680225
 20
288.3961373683
 10
841.9819910663
 20
287.6292125299
 10
841.3369867528
 20
286.9676342634
 10
840.6717948682
 20
286.4366666591
  0
SPLINE
  5
37B
330
1F
100
AcDbEntity
  8
0
  6
CONTINUOUS
 62
     7
100
AcDbSpline
210
0.0
220
0.0
230
1.0
 70
     8
 71
     3
 72
    13
 73
     9
 74
     0
 42
0.00000001
 43
0.00000001
 40
0.0
 40
0.0
 40
0.0
 40
0.0
 40
0.1809305070673523
 40
0.3628088478913875
 40
0.5522046052777844
 40
0.7465615410356743
 40
0.9390757273565017
 40
1.0
 40
1.0
 40
1.0
 40
1.0
 10
843.4731635112191
 20
295.0106947835704
 30
0.0
 10
843.715024033612
 20
294.8936999097722
 30
0.0
 10
844.1991717011083
 20
294.6595037925306
 30
0.0
 10
844.5116377684965
 20
293.6754436926453
 30
0.0
 10
844.5259179633932
 20
292.2985861431627
 30
0.0
 10
844.2054811271865
 20
290.605484067245
 30
0.0
 10
843.6887150990669
 20
289.2205798610592
 30
0.0
 10
843.2926159976613
 20
288.4972680100206
 30
0.0
 10
843.1973887025259
 20
288.3233745806506
 30
0.0
  0
ARC
  5
37C
330
1F
100
AcDbEntity
  8
0
  6
CONTINUOUS
 62
     7
100
AcDbCircle
 10
834.7687412889
 20
293.8956632486
 30
0.0
 40
10.10408324501647
100
AcDbArc
 50
319.3350561311
 51
326.5307895782
  0
SPLINE
  5
37D
330
1F
100
AcDbEntity
  8
0
  6
CONTINUOUS
 62
     7
100
AcDbSpline
210
0.0
220
0.0
230
1.0
 70
     8
 71
     3
 72
    13
 73
     9
 74
     0
 42
0.00000001
 43
0.00000001
 40
0.0
 40
0.0
 40
0.0
 40
0.0
 40
0.0080634227864522
 40
0.0549562441132681
 40
0.2009318683751532
 40
0.4063088975766387
 40
0.6724613680970026
 40
1.0
 40
1.0
 40
1.0
 40
1.0
 10
845.9198279792106
 20
285.5011603479413
 30
0.0
 10
845.922751249184
 20
285.502162723625
 30
0.0
 10
845.9426794565165
 20
285.5089960132734
 30
0.0
 10
845.8810514563603
 20
285.6230655212689
 30
0.0
 10
845.6424454519992
 20
285.9214754112605
 30
0.0
 10
845.0825185716485
 20
286.5031465540221
 30
0.0
 10
844.2569061861377
 20
287.3176923265977
 30
0.0
 10
843.5747935940979
 20
287.965146039907
 30
0.0
 10
843.1973887025259
 20
288.3233745806506
 30
0.0
  0
LINE
  5
37E
330
1F
100
AcDbEntity
  8
0
  6
CONTINUOUS
 62
     7
100
AcDbLine
 10
840.8920974913
 20
308.8177472429
 30
0.0
 11
846.4980676598
 21
305.0952847984
 31
0.0
  0
ARC
  5
37F
330
1F
100
AcDbEntity
  8
0
  6
CONTINUOUS
 62
     7
100
AcDbCircle
 10
839.5551092611
 20
303.3327000709
 30
0.0
 40
5.645642568162985
100
AcDbArc
 50
76.3012042901
 51
101.6040890683
  0
LWPOLYLINE
  5
380
330
1F
100
AcDbEntity
  8
0
  6
CONTINUOUS
 62
     7
100
AcDbPolyline
 90
       18
 70
   128
 43
0.0
 10
826.5349002301
 20
292.8761396198
 10
826.212353108
 20
293.1410821443
 10
825.9113632368
 20
293.6147865582
 10
825.7341745871
 20
294.2302805832
 10
825.6879515075
 20
294.9640809488
 10
825.7747715435
 20
295.7879658392
 10
825.9914991181
 20
296.6700749989
 10
826.3298705423
 20
297.576140966
 10
826.7768078427
 20
298.4708894753
 10
827.3149277713
 20
299.3194482338
 10
827.9232441556
 20
300.0887684484
 10
828.5780201201
 20
300.748948815
 10
829.2537369541
 20
301.2744668853
 10
829.9241279593
 20
301.6451424063
 10
830.5632355654
 20
301.8469501791
 10
831.1464369362
 20
301.8724933938
 10
831.6513990815
 20
301.7212496139
 10
831.7103720063
 20
301.6887880054
  0
LWPOLYLINE
  5
381
330
1F
100
AcDbEntity
  8
0
  6
CONTINUOUS
 62
     7
100
AcDbPolyline
 90
       30
 70
   128
 43
0.0
 10
727.6006179114
 20
352.4842826385
 10
728.0720350172
 20
352.2455982761
 10
728.6206903223
 20
352.1717945679
 10
729.2208485058
 20
352.2659334733
 10
729.8445002559
 20
352.5232928464
 10
730.4626612188
 20
352.9316277598
 10
731.0466944136
 20
353.4718009781
 10
731.5696008692
 20
354.1186718854
 10
732.0072239472
 20
354.8422457467
 10
732.3393258176
 20
355.6090524936
 10
732.5504925421
 20
356.3836163933
 10
732.6308331489
 20
357.1300725073
 10
732.5764458219
 20
357.8137548221
 10
732.3896261917
 20
358.4027888366
 10
732.0788053007
 20
358.8695610881
 10
731.6582115834
 20
359.1920205073
 10
731.1472616741
 20
359.3547508706
 10
730.5696992435
 20
359.3497575983
 10
729.9525122215
 20
359.176905389
 10
729.3246747928
 20
358.8439993639
 10
728.7157719431
 20
358.36647208
 10
728.1545732735
 20
357.766684307
 10
727.6676328564
 20
357.0728750317
 10
727.2779902643
 20
356.3178011669
 10
727.0040394157
 20
355.5371595423
 10
726.8586401645
 20
354.7678270245
 10
726.8485048045
 20
354.046082638
 10
726.9739022388
 20
353.4058447239
 10
727.2286821756
 20
352.877054915
 10
727.6006179114
 20
352.4842826385
  0
LWPOLYLINE
  5
382
330
1F
100
AcDbEntity
  8
0
  6
CONTINUOUS
 62
     7
100
AcDbPolyline
 90
       13
 70
   128
 43
0.0
 10
728.8557284783
 20
354.0241159476
 10
728.6712538475
 20
354.1264813549
 10
728.4301842088
 20
354.4168375726
 10
728.3055297021
 20
354.8276936333
 10
728.3085623315
 20
355.3225815901
 10
728.439146238
 20
355.8574233368
 10
728.6857055154
 20
356.3844822373
 10
729.0262404083
 20
356.8566768948
 10
729.4303165179
 20
357.2318521859
 10
729.86182947
 20
357.4765968149
 10
730.2822825711
 20
357.5692332182
 10
730.6542622084
 20
357.5017257072
 10
730.9365276243
 20
357.2902111168
  0
LINE
  5
383
330
1F
100
AcDbEntity
  8
0
  6
CONTINUOUS
 62
     7
100
AcDbLine
 10
725.5008870914
 20
353.7292270717
 30
0.0
 11
725.6370554712
 21
353.6382937048
 31
0.0
  0
LWPOLYLINE
  5
384
330
1F
100
AcDbEntity
  8
0
  6
CONTINUOUS
 62
     7
100
AcDbPolyline
 90
       16
 70
   128
 43
0.0
 10
729.6150594988
 20
360.387461708
 10
729.5507120131
 20
360.4229967661
 10
729.0391621717
 20
360.5863543569
 10
728.4612193434
 20
360.5822822703
 10
727.8438898499
 20
360.4106033217
 10
727.2161548153
 20
360.0790684668
 10
726.6075943349
 20
359.6030462152
 10
726.04696154
 20
359.0048263906
 10
725.5607833083
 20
358.312573556
 10
725.172062709
 20
357.5589704104
 10
724.899149696
 20
356.7796435109
 10
724.7548549431
 20
356.0114069731
 10
724.7458387424
 20
355.2904877512
 10
724.872317686
 20
354.6507653924
 10
725.1280912996
 20
354.1221578644
 10
725.5008870914
 20
353.7292270717
  0
LINE
  5
385
330
1F
100
AcDbEntity
  8
0
  6
CONTINUOUS
 62
     7
100
AcDbLine
 10
826.926926502
 20
307.8335358681
 30
0.0
 11
825.2265444747
 21
305.6533292384
 31
0.0
  0
LINE
  5
386
330
1F
100
AcDbEntity
  8
0
  6
CONTINUOUS
 62
     7
100
AcDbLine
 10
826.926926502
 20
307.8335358681
 30
0.0
 11
839.2611815036
 21
315.6954122471
 31
0.0
  0
LINE
  5
387
330
1F
100
AcDbEntity
  8
0
  6
CONTINUOUS
 62
     7
100
AcDbLine
 10
840.8125147842
 20
315.604447818
 30
0.0
 11
839.2611815036
 21
315.6954122471
 31
0.0
  0
LINE
  5
388
330
1F
100
AcDbEntity
  8
0
  6
CONTINUOUS
 62
     7
100
AcDbLine
 10
843.0214160152
 20
312.0143085159
 30
0.0
 11
840.8125147842
 21
315.604447818
 31
0.0
  0
LINE
  5
389
330
1F
100
AcDbEntity
  8
0
  6
CONTINUOUS
 62
     7
100
AcDbLine
 10
843.4206699728
 20
309.978494562
 30
0.0
 11
843.0214160152
 21
312.0143085159
 31
0.0
  0
LINE
  5
38A
330
1F
100
AcDbEntity
  8
0
  6
CONTINUOUS
 62
     7
100
AcDbLine
 10
841.6073119408
 20
277.1230704332
 30
0.0
 11
841.9340040076
 21
283.0422580537
 31
0.0
  0
LINE
  5
38B
330
1F
100
AcDbEntity
  8
0
  6
CONTINUOUS
 62
     7
100
AcDbLine
 10
843.2694786867
 20
307.2391271882
 30
0.0
 11
843.4206699728
 21
309.978494562
 31
0.0
  0
LINE
  5
38C
330
1F
100
AcDbEntity
  8
0
  6
CONTINUOUS
 62
     7
100
AcDbLine
 10
820.5455226135
 20
262.8655570015
 30
0.0
 11
821.7999659853
 21
296.0185757578
 31
0.0
  0
LINE
  5
38D
330
1F
100
AcDbEntity
  8
0
  6
CONTINUOUS
 62
     7
100
AcDbLine
 10
822.443609437
 20
298.7743966135
 30
0.0
 11
821.7999659853
 21
296.0185757578
 31
0.0
  0
LINE
  5
38E
330
1F
100
AcDbEntity
  8
0
  6
CONTINUOUS
 62
     7
100
AcDbLine
 10
825.2265444747
 20
305.6533292384
 30
0.0
 11
822.443609437
 21
298.7743966135
 31
0.0
  0
LINE
  5
38F
330
1F
100
AcDbEntity
  8
0
  6
CONTINUOUS
 62
     7
100
AcDbLine
 10
832.6127195112
 20
301.1624773103
 30
0.0
 11
832.9625015249
 21
301.6283497213
 31
0.0
  0
LWPOLYLINE
  5
390
330
1F
100
AcDbEntity
  8
0
  6
CONTINUOUS
 62
     7
100
AcDbPolyline
 90
       11
 70
   128
 43
0.0
 10
832.9625015249
 20
301.6283497213
 10
833.3507609541
 20
302.2241613843
 10
833.6334841097
 20
302.8663862078
 10
833.7831127225
 20
303.4925387071
 10
833.7849416587
 20
304.0415959709
 10
833.6385817616
 20
304.4598908427
 10
833.3580762077
 20
304.7063080729
 10
832.9706349717
 20
304.7563915047
 10
832.5140655405
 20
304.6048568669
 10
832.0331180904
 20
304.2662600021
 10
831.5750826457
 20
303.773670983
  0
LWPOLYLINE
  5
391
330
1F
100
AcDbEntity
  8
0
  6
CONTINUOUS
 62
     7
100
AcDbPolyline
 90
        3
 70
   128
 43
0.0
 10
831.5750826457
 20
303.773670983
 10
830.6016704488
 20
302.4376773719
 10
830.1330155133
 20
301.7278571332
  0
LINE
  5
392
330
1F
100
AcDbEntity
  8
0
  6
CONTINUOUS
 62
     7
100
AcDbLine
 10
826.5364946325
 20
292.8751917135
 30
0.0
 11
826.483237222
 21
292.5567527554
 31
0.0
  0
LINE
  5
393
330
1F
100
AcDbEntity
  8
0
  6
CONTINUOUS
 62
     7
100
AcDbLine
 10
825.2265444747
 20
305.6533292384
 30
0.0
 11
824.0189081425
 21
306.3575084702
 31
0.0
  0
LINE
  5
394
330
1F
100
AcDbEntity
  8
0
  6
CONTINUOUS
 62
     7
100
AcDbLine
 10
821.2411523741
 20
299.4846441609
 30
0.0
 11
822.443609437
 21
298.7743966135
 31
0.0
  0
LINE
  5
395
330
1F
100
AcDbEntity
  8
0
  6
CONTINUOUS
 62
     7
100
AcDbLine
 10
824.0189081425
 20
306.3575084702
 30
0.0
 11
821.2411523741
 21
299.4846441609
 31
0.0
  0
LINE
  5
396
330
1F
100
AcDbEntity
  8
0
  6
CONTINUOUS
 62
     7
100
AcDbLine
 10
825.7182899221
 20
308.5349038676
 30
0.0
 11
826.926926502
 21
307.8335358681
 31
0.0
  0
LINE
  5
397
330
1F
100
AcDbEntity
  8
0
  6
CONTINUOUS
 62
     7
100
AcDbLine
 10
824.0189081425
 20
306.3575084702
 30
0.0
 11
825.7182899221
 21
308.5349038676
 31
0.0
  0
LINE
  5
398
330
1F
100
AcDbEntity
  8
0
  6
CONTINUOUS
 62
     7
100
AcDbLine
 10
839.2611815036
 20
315.6954122471
 30
0.0
 11
838.0539868099
 21
316.3800618244
 31
0.0
  0
LINE
  5
399
330
1F
100
AcDbEntity
  8
0
  6
CONTINUOUS
 62
     7
100
AcDbLine
 10
825.7182899221
 20
308.5349038676
 30
0.0
 11
838.0539868099
 21
316.3800618244
 31
0.0
  0
LINE
  5
39A
330
1F
100
AcDbEntity
  8
0
  6
CONTINUOUS
 62
     7
100
AcDbLine
 10
821.7999659853
 20
296.0185757578
 30
0.0
 11
820.5999489692
 21
296.7307295832
 31
0.0
  0
LINE
  5
39B
330
1F
100
AcDbEntity
  8
0
  6
CONTINUOUS
 62
     7
100
AcDbLine
 10
820.5999489692
 20
296.7307295832
 30
0.0
 11
821.2411523741
 21
299.4846441609
 31
0.0
  0
LINE
  5
39C
330
1F
100
AcDbEntity
  8
0
  6
CONTINUOUS
 62
     7
100
AcDbLine
 10
819.3798865447
 20
263.5924938277
 30
0.0
 11
820.5999489692
 21
296.7307295832
 31
0.0
  0
ARC
  5
39D
330
1F
100
AcDbEntity
  8
0
  6
CONTINUOUS
 62
     7
100
AcDbCircle
 10
829.0185130988
 20
304.6208760094
 30
0.0
 40
3.579411032097111
100
AcDbArc
 50
320.1214191214
 51
0.2060352361
  0
LINE
  5
39E
330
1F
100
AcDbEntity
  8
0
  6
CONTINUOUS
 62
     7
100
AcDbLine
 10
831.7653706425
 20
302.3258908305
 30
0.0
 11
831.3941549306
 21
301.8307257602
 31
0.0
  0
LINE
  5
39F
330
1F
100
AcDbEntity
  8
0
  6
CONTINUOUS
 62
     7
100
AcDbLine
 10
839.6066963003
 20
316.2874848216
 30
0.0
 11
840.8125147842
 21
315.604447818
 31
0.0
  0
LINE
  5
3A0
330
1F
100
AcDbEntity
  8
0
  6
CONTINUOUS
 62
     7
100
AcDbLine
 10
838.0539868099
 20
316.3800618244
 30
0.0
 11
839.6066963003
 21
316.2874848216
 31
0.0
  0
LWPOLYLINE
  5
3A1
330
1F
100
AcDbEntity
  8
0
  6
CONTINUOUS
 62
     7
100
AcDbPolyline
 90
       13
 70
   128
 43
0.0
 10
811.3934075068
 20
259.1971989941
 10
812.5369919455
 20
258.5540782085
 10
813.6684591895
 20
258.0770176181
 10
814.7687337427
 20
257.774639651
 10
815.8191087059
 20
257.6527328464
 10
816.8015512588
 20
257.7141152697
 10
817.6990475694
 20
257.9585166228
 10
818.4958611886
 20
258.3825590016
 10
819.1778580771
 20
258.9797401695
 10
819.7327819059
 20
259.7404923713
 10
820.1504877807
 20
260.652311574
 10
820.4231651314
 20
261.6999319452
 10
820.5455226135
 20
262.8655570015
  0
ARC
  5
3A2
330
1F
100
AcDbEntity
  8
0
  6
CONTINUOUS
 62
     7
100
AcDbCircle
 10
836.1098579539
 20
276.9984452383
 30
0.0
 40
5.498866408396184
100
AcDbArc
 50
307.3078793574
 51
1.2986511379
  0
LWPOLYLINE
  5
3A3
330
1F
100
AcDbEntity
  8
0
  6
CONTINUOUS
 62
     7
100
AcDbPolyline
 90
       12
 70
   128
 43
0.0
 10
811.4292922058
 20
260.3894275969
 10
812.514822695
 20
259.7871016066
 10
813.5856328827
 20
259.3579795375
 10
814.6201762343
 20
259.1112752867
 10
815.5974780418
 20
259.0526388587
 10
816.4975247683
 20
259.1840104357
 10
817.3017260825
 20
259.5034923821
 10
817.9932718352
 20
260.0053511218
 10
818.5575418272
 20
260.6800517356
 10
818.9824271179
 20
261.5144065186
 10
819.2586211299
 20
262.4918025004
 10
819.3798865447
 20
263.5924938277
  0
LINE
  5
3A4
330
1F
100
AcDbEntity
  8
0
  6
CONTINUOUS
 62
     7
100
AcDbLine
 10
725.4838557316
 20
314.6181612732
 30
0.0
 11
811.4292922058
 21
260.3894275969
 31
0.0
  0
LINE
  5
3A5
330
1F
100
AcDbEntity
  8
0
  6
CONTINUOUS
 62
     7
100
AcDbLine
 10
725.5318532449
 20
313.4666602122
 30
0.0
 11
811.3934075068
 21
259.1971989941
 31
0.0
  0
LINE
  5
3A6
330
1F
100
AcDbEntity
  8
0
  6
CONTINUOUS
 62
     7
100
AcDbLine
 10
746.4337391134
 20
326.6466029578
 30
0.0
 11
820.0563287992
 21
281.9654123191
 31
0.0
  0
LWPOLYLINE
  5
3A7
330
1F
100
AcDbEntity
  8
0
  6
CONTINUOUS
 62
     7
100
AcDbPolyline
 90
       17
 70
   128
 43
0.0
 10
799.8453910605
 20
273.5113567143
 10
799.5881554168
 20
273.7497119696
 10
799.4912390282
 20
274.030661609
 10
799.5692138537
 20
274.3113810718
 10
799.810017526
 20
274.5491856768
 10
800.1769111613
 20
274.70798888
 10
800.6141087286
 20
274.7637362106
 10
801.0552399081
 20
274.7079884513
 10
801.433330783
 20
274.5491854624
 10
801.6909076455
 20
274.3113808572
 10
801.7886781832
 20
274.0306618238
 10
801.7115791519
 20
273.7497117547
 10
801.4711508257
 20
273.5113564992
 10
801.103920816
 20
273.3519987777
 10
800.6658635961
 20
273.2960242803
 10
800.2238621244
 20
273.3519992081
 10
799.8453910605
 20
273.5113567143
  0
LWPOLYLINE
  5
3A8
330
1F
100
AcDbEntity
  8
0
  6
CONTINUOUS
 62
     7
100
AcDbPolyline
 90
       17
 70
   128
 43
0.0
 10
792.194967651
 20
291.5072867079
 10
791.9470161298
 20
291.733368084
 10
791.855660823
 20
291.9998537052
 10
791.9346318752
 20
292.2661278806
 10
792.1717284899
 20
292.4916989849
 10
792.5307798585
 20
292.6423360742
 10
792.9571930884
 20
292.6952165264
 10
793.3862276527
 20
292.6423360742
 10
793.7527452693
 20
292.4916987814
 10
794.0010243024
 20
292.2661280842
 10
794.0931948194
 20
291.9998539089
 10
794.0150501248
 20
291.7333678802
 10
793.7783050178
 20
291.5072865039
 10
793.4189274469
 20
291.3561387348
 10
792.9916983403
 20
291.3030472457
 10
792.5618380836
 20
291.356139143
 10
792.194967651
 20
291.5072867079
  0
LWPOLYLINE
  5
3A9
330
1F
100
AcDbEntity
  8
0
  6
CONTINUOUS
 62
     7
100
AcDbPolyline
 90
       17
 70
   128
 43
0.0
 10
744.1177166041
 20
308.3797880871
 10
743.8917664664
 20
308.5946560081
 10
743.8212994018
 20
308.8479273616
 10
743.916865486
 20
309.1010047325
 10
744.1637563231
 20
309.3153983085
 10
744.5243131776
 20
309.4585746364
 10
744.9437260811
 20
309.5088349066
 10
745.3583077855
 20
309.4585742498
 10
745.70511403
 20
309.3153981151
 10
745.9314070717
 20
309.101004539
 10
746.0026658029
 20
308.8479275552
 10
745.9078676083
 20
308.5946558144
 10
745.6612798556
 20
308.3797878932
 10
745.3003744819
 20
308.2361399296
 10
744.8801748684
 20
308.1856821937
 10
744.4648203167
 20
308.2361403176
 10
744.1177166041
 20
308.3797880871
  0
LWPOLYLINE
  5
3AA
330
1F
100
AcDbEntity
  8
0
  6
CONTINUOUS
 62
     7
100
AcDbPolyline
 90
       17
 70
   128
 43
0.0
 10
771.528240314
 20
304.1889192439
 10
771.2917938844
 20
304.4065453605
 10
771.2102053358
 20
304.6630681881
 10
771.295722554
 20
304.9193917058
 10
771.5351580057
 20
305.1365355032
 10
771.8919884391
 20
305.2815469974
 10
772.3119621885
 20
305.3324523728
 10
772.7313120319
 20
305.2815466059
 10
773.0863666911
 20
305.1365353073
 10
773.3231435337
 20
304.9193915098
 10
773.4055230885
 20
304.6630683842
 10
773.3207937921
 20
304.4065455568
 10
773.0816828463
 20
304.1889190475
 10
772.7245220046
 20
304.0434260178
 10
772.3037578877
 20
303.9923205496
 10
771.8836194827
 20
304.0434260178
 10
771.528240314
 20
304.1889192439
  0
ARC
  5
3AB
330
1F
100
AcDbEntity
  8
0
  6
CONTINUOUS
 62
     7
100
AcDbCircle
 10
800.593005624
 20
271.9106604501
 30
0.0
 40
1.6729692593153
100
AcDbArc
 50
65.418244795
 51
112.1078707911
  0
ARC
  5
3AC
330
1F
100
AcDbEntity
  8
0
  6
CONTINUOUS
 62
     7
100
AcDbCircle
 10
792.9428575673
 20
289.8418792458
 30
0.0
 40
1.686052570009665
100
AcDbArc
 50
68.8774012041
 51
109.662042756
  0
LINE
  5
3AD
330
1F
100
AcDbEntity
  8
0
  6
CONTINUOUS
 62
     7
100
AcDbLine
 10
717.2052688914
 20
358.0906236104
 30
0.0
 11
717.6503217742
 21
360.6719710417
 31
0.0
  0
LINE
  5
3AE
330
1F
100
AcDbEntity
  8
0
  6
CONTINUOUS
 62
     7
100
AcDbLine
 10
719.9996269687
 20
367.0117100322
 30
0.0
 11
717.6503217742
 21
360.6719710417
 31
0.0
  0
LINE
  5
3AF
330
1F
100
AcDbEntity
  8
0
  6
CONTINUOUS
 62
     7
100
AcDbLine
 10
719.9996269687
 20
367.0117100322
 30
0.0
 11
720.6244759961
 21
367.7658594127
 31
0.0
  0
LINE
  5
3B0
330
1F
100
AcDbEntity
  8
0
  6
CONTINUOUS
 62
     7
100
AcDbLine
 10
739.7648791953
 20
338.1974743841
 30
0.0
 11
739.3280374093
 21
353.0514830947
 31
0.0
  0
LINE
  5
3B1
330
1F
100
AcDbEntity
  8
0
  6
CONTINUOUS
 62
     7
100
AcDbLine
 10
718.6889957042
 20
326.3873219631
 30
0.0
 11
717.2052688914
 21
358.0906236104
 31
0.0
  0
LINE
  5
3B2
330
1F
100
AcDbEntity
  8
0
  6
CONTINUOUS
 62
     7
100
AcDbLine
 10
717.6503217742
 20
360.6719710417
 30
0.0
 11
716.6613796681
 21
361.2561030886
 31
0.0
  0
LINE
  5
3B3
330
1F
100
AcDbEntity
  8
0
  6
CONTINUOUS
 62
     7
100
AcDbLine
 10
719.0067635899
 20
367.5906540013
 30
0.0
 11
719.9996269687
 21
367.0117100322
 31
0.0
  0
LINE
  5
3B4
330
1F
100
AcDbEntity
  8
0
  6
CONTINUOUS
 62
     7
100
AcDbLine
 10
719.0067635899
 20
367.5906540013
 30
0.0
 11
716.6613796681
 21
361.2561030886
 31
0.0
  0
LINE
  5
3B5
330
1F
100
AcDbEntity
  8
0
  6
CONTINUOUS
 62
     7
100
AcDbLine
 10
720.8008493538
 20
369.418164082
 30
0.0
 11
720.6124406546
 21
369.5274970565
 31
0.0
  0
LINE
  5
3B6
330
1F
100
AcDbEntity
  8
0
  6
CONTINUOUS
 62
     7
100
AcDbLine
 10
720.6124406546
 20
369.5274970565
 30
0.0
 11
719.0067635899
 21
367.5906540013
 31
0.0
  0
LINE
  5
3B7
330
1F
100
AcDbEntity
  8
0
  6
CONTINUOUS
 62
     7
100
AcDbLine
 10
720.6124406546
 20
369.5274970565
 30
0.0
 11
720.8243570253
 21
369.6383899672
 31
0.0
  0
LINE
  5
3B8
330
1F
100
AcDbEntity
  8
0
  6
CONTINUOUS
 62
     7
100
AcDbLine
 10
716.2180654101
 20
358.6764825825
 30
0.0
 11
717.2052688914
 21
358.0906236104
 31
0.0
  0
LINE
  5
3B9
330
1F
100
AcDbEntity
  8
0
  6
CONTINUOUS
 62
     7
100
AcDbLine
 10
716.6613796681
 20
361.2561030886
 30
0.0
 11
716.2180654101
 21
358.6764825825
 31
0.0
  0
LINE
  5
3BA
330
1F
100
AcDbEntity
  8
0
  6
CONTINUOUS
 62
     7
100
AcDbLine
 10
717.7251381793
 20
326.9884216963
 30
0.0
 11
716.2180654101
 21
358.6764825825
 31
0.0
  0
ARC
  5
3BB
330
1F
100
AcDbEntity
  8
0
  6
CONTINUOUS
 62
     7
100
AcDbCircle
 10
772.3156065752
 20
302.4785357545
 30
0.0
 40
1.696236089102035
100
AcDbArc
 50
72.1949761495
 51
108.6301041874
  0
ARC
  5
3BC
330
1F
100
AcDbEntity
  8
0
  6
CONTINUOUS
 62
     7
100
AcDbCircle
 10
744.9709233882
 20
306.649919011
 30
0.0
 40
1.704467622762861
100
AcDbArc
 50
74.2800441376
 51
108.6684180899
  0
ARC
  5
3BD
330
1F
100
AcDbEntity
  8
0
  6
CONTINUOUS
 62
     7
100
AcDbCircle
 10
734.6820159064
 20
327.7747361595
 30
0.0
 40
16.05308734603433
100
AcDbArc
 50
184.9580665242
 51
235.0414364336
  0
ARC
  5
3BE
330
1F
100
AcDbEntity
  8
0
  6
CONTINUOUS
 62
     7
100
AcDbCircle
 10
736.187772485
 20
328.6332597994
 30
0.0
 40
18.53575889710659
100
AcDbArc
 50
185.0910463415
 51
234.9084606437
  0
ARC
  5
3BF
330
1F
100
AcDbEntity
  8
0
  6
CONTINUOUS
 62
     7
100
AcDbCircle
 10
754.913095297
 20
339.242691588
 30
0.0
 40
15.18423294305453
100
AcDbArc
 50
183.9471160469
 51
236.0525951946
  0
LINE
  5
3C0
330
1F
100
AcDbEntity
  8
0
  6
CONTINUOUS
 62
     8
100
AcDbLine
 10
820.5382617701
 20
308.3095891972
 30
0.0
 11
838.6883200795
 21
319.7986742382
 31
0.0
  0
LINE
  5
3C1
330
1F
100
AcDbEntity
  8
0
  6
CONTINUOUS
 62
     8
100
AcDbLine
 10
811.7244627631
 20
384.4667156208
 30
0.0
 11
830.8770878997
 21
395.0899989343
 31
0.0
  0
LINE
  5
3C2
330
1F
100
AcDbEntity
  8
0
  6
CONTINUOUS
 62
     8
100
AcDbLine
 10
811.7244627631
 20
384.4667156208
 30
0.0
 11
810.4881146639
 21
384.8543837763
 31
0.0
  0
LINE
  5
3C3
330
1F
100
AcDbEntity
  8
0
  6
CONTINUOUS
 62
     8
100
AcDbLine
 10
819.3466321714
 20
308.7742186891
 30
0.0
 11
820.5382617701
 21
308.3095891972
 31
0.0
  0
LINE
  5
3C4
330
1F
100
AcDbEntity
  8
0
  6
CONTINUOUS
 62
     8
100
AcDbLine
 10
802.5503270561
 20
398.5176901224
 30
0.0
 11
821.8455221376
 21
408.869177574
 31
0.0
  0
LINE
  5
3C5
330
1F
100
AcDbEntity
  8
0
  6
CONTINUOUS
 62
     8
100
AcDbLine
 10
802.5209951473
 20
397.0584815876
 30
0.0
 11
802.5503270561
 21
398.5176901224
 31
0.0
  0
LINE
  5
3C6
330
1F
100
AcDbEntity
  8
0
  6
CONTINUOUS
 62
     8
100
AcDbLine
 10
734.9477724843
 20
433.0644510407
 30
0.0
 11
754.2475882987
 21
442.1982791236
 31
0.0
  0
LINE
  5
3C7
330
1F
100
AcDbEntity
  8
0
  6
CONTINUOUS
 62
     8
100
AcDbLine
 10
734.9912608959
 20
431.6581291419
 30
0.0
 11
734.9477724843
 21
433.0644510407
 31
0.0
  0
LINE
  5
3C8
330
1F
100
AcDbEntity
  8
0
  6
CONTINUOUS
 62
     8
100
AcDbLine
 10
820.5583669032
 20
307.8368524725
 30
0.0
 11
819.3568789555
 21
308.538022729
 31
0.0
  0
LINE
  5
3C9
330
1F
100
AcDbEntity
  8
0
  6
CONTINUOUS
 62
     8
100
AcDbLine
 10
820.5583669032
 20
307.8368524725
 30
0.0
 11
838.7020208306
 21
319.3303977667
 31
0.0
  0
LINE
  5
3CA
330
1F
100
AcDbEntity
  8
0
  6
CONTINUOUS
 62
     8
100
AcDbLine
 10
727.0993640211
 20
428.4236326071
 30
0.0
 11
728.1602679177
 21
427.6368658508
 31
0.0
  0
LINE
  5
3CB
330
1F
100
AcDbEntity
  8
0
  6
CONTINUOUS
 62
     8
100
AcDbLine
 10
728.1602679177
 20
427.6368658508
 30
0.0
 11
735.7760059133
 21
431.2560603391
 31
0.0
  0
LINE
  5
3CC
330
1F
100
AcDbEntity
  8
0
  6
CONTINUOUS
 62
     8
100
AcDbLine
 10
721.4984153453
 20
365.8568815958
 30
0.0
 11
720.5049836344
 21
366.6464351345
 31
0.0
  0
LINE
  5
3CD
330
1F
100
AcDbEntity
  8
0
  6
CONTINUOUS
 62
     8
100
AcDbLine
 10
721.4984153453
 20
365.8568815958
 30
0.0
 11
739.6569171115
 21
375.4252006281
 31
0.0
  0
LINE
  5
3CE
330
1F
100
AcDbEntity
  8
0
  6
CONTINUOUS
 62
     8
100
AcDbLine
 10
720.4935771244
 20
366.2331555325
 30
0.0
 11
721.4925208549
 21
365.6501870282
 31
0.0
  0
LINE
  5
3CF
330
1F
100
AcDbEntity
  8
0
  6
CONTINUOUS
 62
     8
100
AcDbLine
 10
721.4925208549
 20
365.6501870282
 30
0.0
 11
739.6478223019
 21
375.2200803746
 31
0.0
  0
ARC
  5
3D0
330
1F
100
AcDbEntity
  8
0
  6
CONTINUOUS
 62
     8
100
AcDbCircle
 10
735.297124284
 20
354.8962916712
 30
0.0
 40
0.6431445835738773
100
AcDbArc
 50
241.237039924
 51
278.7308103149
  0
LWPOLYLINE
  5
3D1
330
1F
100
AcDbEntity
  8
0
  6
CONTINUOUS
 62
     8
100
AcDbPolyline
 90
       10
 70
   128
 43
0.0
 10
734.9876514271
 20
354.3324995941
 10
735.1886748769
 20
355.0320365268
 10
735.5092671215
 20
355.719246645
 10
735.9306702159
 20
356.3538441557
 10
736.4281666638
 20
356.8986430984
 10
736.9725665478
 20
357.3218077036
 10
737.5319703836
 20
357.5987182245
 10
738.0736809654
 20
357.7134242109
 10
738.5661462604
 20
357.6595352225
 10
738.7785910479
 20
357.5733411448
  0
LWPOLYLINE
  5
3D2
330
1F
100
AcDbEntity
  8
0
  6
CONTINUOUS
 62
     8
100
AcDbPolyline
 90
       14
 70
   128
 43
0.0
 10
739.5024516542
 20
355.7466026911
 10
739.5186874191
 20
356.0596860103
 10
739.422939642
 20
356.4836147957
 10
739.2417783373
 20
356.8420074557
 10
738.9838748128
 20
357.1098830033
 10
738.6673827921
 20
357.2733809345
 10
737.9536318186
 20
357.296613518
 10
737.1660348543
 20
356.9544968337
 10
736.7521114792
 20
356.6352733095
 10
736.3581402084
 20
356.227700778
 10
736.0099787215
 20
355.7549948999
 10
735.7278177186
 20
355.2484597469
 10
735.3947487134
 20
354.2605995868
 10
735.3947487134
 20
354.2605995868
  0
LINE
  5
3D3
330
1F
100
AcDbEntity
  8
0
  6
CONTINUOUS
 62
     8
100
AcDbLine
 10
734.5240254536
 20
354.6046030873
 30
0.0
 11
734.9876514271
 21
354.3324995941
 31
0.0
  0
SPLINE
  5
3D4
330
1F
100
AcDbEntity
  8
0
  6
CONTINUOUS
 62
     8
100
AcDbSpline
210
0.0
220
0.0
230
1.0
 70
     8
 71
     3
 72
    19
 73
    15
 74
     0
 42
0.00000001
 43
0.00000001
 40
0.0
 40
0.0
 40
0.0
 40
0.0
 40
0.0111238198079628
 40
0.0835275898000151
 40
0.1574675276100851
 40
0.2314079021583814
 40
0.3038116757946845
 40
0.4383117231659722
 40
0.5728118025113614
 40
0.6452155474942419
 40
0.7191558035142523
 40
0.7930958601509829
 40
0.8654998396609843
 40
1.0
 40
1.0
 40
1.0
 40
1.0
 10
739.3116300380269
 20
355.8578515202499
 30
0.0
 10
739.3131795655745
 20
355.8810124597757
 30
0.0
 10
739.3248163341927
 20
356.0549483763456
 30
0.0
 10
739.2312082319083
 20
356.3180189319523
 30
0.0
 10
739.0792838936052
 20
356.6474292857002
 30
0.0
 10
738.8433045385993
 20
356.8873644133167
 30
0.0
 10
738.4730047244142
 20
357.0798445497421
 30
0.0
 10
737.9141904007871
 20
357.0986039341273
 30
0.0
 10
737.2979454252601
 20
356.8299637340607
 30
0.0
 10
736.8126609720488
 20
356.4552654760485
 30
0.0
 10
736.4567968419701
 20
356.0875301136424
 30
0.0
 10
736.1442984503545
 20
355.6613278680073
 30
0.0
 10
735.8059680856627
 20
355.065775824097
 30
0.0
 10
735.6782320743984
 20
354.6038783090281
 30
0.0
 10
735.595220741656
 20
354.3037066664601
 30
0.0
  0
SPLINE
  5
3D5
330
1F
100
AcDbEntity
  8
0
  6
CONTINUOUS
 62
     8
100
AcDbSpline
210
0.0
220
0.0
230
1.0
 70
     8
 71
     3
 72
    14
 73
    10
 74
     0
 42
0.00000001
 43
0.00000001
 40
0.0
 40
0.0
 40
0.0
 40
0.0
 40
0.2144182059203854
 40
0.3298435382337946
 40
0.447718570559053
 40
0.5655928549139462
 40
0.6810181930369819
 40
0.8954370796764951
 40
1.0
 40
1.0
 40
1.0
 40
1.0
 10
735.595220741656
 20
354.3037066664601
 30
0.0
 10
735.561549145201
 20
354.0142425831551
 30
0.0
 10
735.5097743360017
 20
353.5691508957684
 30
0.0
 10
735.6319024197605
 20
353.0735603660727
 30
0.0
 10
735.7957398471492
 20
352.7512005256358
 30
0.0
 10
736.0306641904552
 20
352.5101912378435
 30
0.0
 10
736.4035188111335
 20
352.3275584981922
 30
0.0
 10
736.84790127976
 20
352.2790959468478
 30
0.0
 10
737.2025099465109
 20
352.4566123010813
 30
0.0
 10
737.3187006008119
 20
352.5147770987342
 30
0.0
  0
SPLINE
  5
3D6
330
1F
100
AcDbEntity
  8
0
  6
CONTINUOUS
 62
     8
100
AcDbSpline
210
0.0
220
0.0
230
1.0
 70
     8
 71
     3
 72
    14
 73
    10
 74
     0
 42
0.00000001
 43
0.00000001
 40
0.0
 40
0.0
 40
0.0
 40
0.0
 40
0.2013246092755188
 40
0.3097005638007269
 40
0.4203768230783015
 40
0.5310531616084974
 40
0.6394295932409519
 40
0.8407535941696539
 40
1.0
 40
1.0
 40
1.0
 40
1.0
 10
735.3947487133674
 20
354.2605995868159
 30
0.0
 10
735.3574512361979
 20
353.9396429579642
 30
0.0
 10
735.3001040354654
 20
353.4461520942908
 30
0.0
 10
735.4356389106719
 20
352.8968209691968
 30
0.0
 10
735.6173513655039
 20
352.5393453022083
 30
0.0
 10
735.8779718749046
 20
352.2729667751125
 30
0.0
 10
736.290957133234
 20
352.0674480137982
 30
0.0
 10
736.8600999588891
 20
352.0267039960208
 30
0.0
 10
737.3345353813364
 20
352.2735373404553
 30
0.0
 10
737.5439394442208
 20
352.3824834746063
 30
0.0
  0
LWPOLYLINE
  5
3D7
330
1F
100
AcDbEntity
  8
0
  6
CONTINUOUS
 62
     8
100
AcDbPolyline
 90
        9
 70
   128
 43
0.0
 10
735.6840484371
 20
354.3759297476
 10
735.68345905
 20
354.3639234071
 10
735.6796924847
 20
354.3525449375
 10
735.6728029416
 20
354.3419076856
 10
735.6628585897
 20
354.3321387122
 10
735.649970459
 20
354.3233427126
 10
735.6342796957
 20
354.3156184286
 10
735.6159652182
 20
354.3090485858
 10
735.5952207417
 20
354.3037066665
  0
ARC
  5
3D8
330
1F
100
AcDbEntity
  8
0
  6
CONTINUOUS
 62
     8
100
AcDbCircle
 10
736.9036363234
 20
353.6740812875
 30
0.0
 40
2.025959720520978
100
AcDbArc
 50
161.0349813048
 51
231.218487366
  0
LINE
  5
3D9
330
1F
100
AcDbEntity
  8
0
  6
CONTINUOUS
 62
     8
100
AcDbLine
 10
820.5455226135
 20
262.8655570015
 30
0.0
 11
841.6073119408
 21
277.1230704332
 31
0.0
  0
LINE
  5
3DA
330
1F
100
AcDbEntity
  8
0
  6
CONTINUOUS
 62
     8
100
AcDbLine
 10
819.3798865447
 20
263.5924938277
 30
0.0
 11
820.5455226135
 21
262.8655570015
 31
0.0
  0
LINE
  5
3DB
330
1F
100
AcDbEntity
  8
0
  6
CONTINUOUS
 62
     8
100
AcDbLine
 10
831.7653706425
 20
302.3258908305
 30
0.0
 11
832.9625015249
 21
301.6283497213
 31
0.0
  0
LINE
  5
3DC
330
1F
100
AcDbEntity
  8
0
  6
CONTINUOUS
 62
     8
100
AcDbLine
 10
811.3934075068
 20
259.1971989941
 30
0.0
 11
811.4292922058
 21
260.3894275969
 31
0.0
  0
LINE
  5
3DD
330
1F
100
AcDbEntity
  8
0
  6
CONTINUOUS
 62
     8
100
AcDbLine
 10
811.4292922058
 20
260.3894275969
 30
0.0
 11
819.4610894329
 21
265.7980152446
 31
0.0
  0
LINE
  5
3DE
330
1F
100
AcDbEntity
  8
0
  6
CONTINUOUS
 62
     8
100
AcDbLine
 10
725.5318532449
 20
313.4666602122
 30
0.0
 11
725.4838557316
 21
314.6181612732
 31
0.0
  0
LINE
  5
3DF
330
1F
100
AcDbEntity
  8
0
  6
CONTINUOUS
 62
     8
100
AcDbLine
 10
725.4838557316
 20
314.6181612732
 30
0.0
 11
746.4337391134
 21
326.6466029578
 31
0.0
  0
LINE
  5
3E0
330
1F
100
AcDbEntity
  8
0
  6
CONTINUOUS
 62
     8
100
AcDbLine
 10
718.6889957042
 20
326.3873219631
 30
0.0
 11
739.7648791953
 21
338.1974743841
 31
0.0
  0
LINE
  5
3E1
330
1F
100
AcDbEntity
  8
0
  6
CONTINUOUS
 62
     8
100
AcDbLine
 10
718.6889957042
 20
326.3873219631
 30
0.0
 11
717.7251381793
 21
326.9884216963
 31
0.0
  0
ENDSEC
  0
SECTION
  2
OBJECTS
  0
DICTIONARY
  5
C
330
0
100
AcDbDictionary
  3
ACAD_GROUP
350
D
  3
ACAD_MLINESTYLE
350
17
  0
DICTIONARY
  5
D
102
{ACAD_REACTORS
330
C
102
}
330
C
100
AcDbDictionary
  0
DICTIONARY
  5
17
102
{ACAD_REACTORS
330
C
102
}
330
C
100
AcDbDictionary
  3
STANDARD
350
18
  0
MLINESTYLE
  5
18
102
{ACAD_REACTORS
330
17
102
}
330
17
100
AcDbMlineStyle
  2
Standard
 70
     0
  3

 62
   256
 51
90.0
 52
90.0
 71
     2
 49
0.5
 62
   256
  6
BYLAYER
 49
-0.5
 62
   256
  6
BYLAYER
  0
ENDSEC
  0
EOF
